  0
SECTION
  2
HEADER
  9
$ACADVER
  1
AC1018
  9
$ACADMAINTVER
 70
    76
  9
$DWGCODEPAGE
  3
ANSI_1252
  9
$INSBASE
 10
0.0
 20
0.0
 30
0.0
  9
$EXTMIN
 10
26.87378084155944
 20
0.4608169436232857
 30
-0.0000000000000053
  9
$EXTMAX
 10
375.1403821110032
 20
261.5234386193606
 30
0.0000000000000099
  9
$LIMMIN
 10
-100.0
 20
-100.0
  9
$LIMMAX
 10
500.0
 20
500.0
  9
$ORTHOMODE
 70
     0
  9
$REGENMODE
 70
     1
  9
$FILLMODE
 70
     1
  9
$QTEXTMODE
 70
     0
  9
$MIRRTEXT
 70
     0
  9
$LTSCALE
 40
10.0
  9
$ATTMODE
 70
     1
  9
$TEXTSIZE
 40
3.0
  9
$TRACEWID
 40
0.05
  9
$TEXTSTYLE
  7
STANDARD
  9
$CLAYER
  8
NORMAL
  9
$CELTYPE
  6
BYBLOCK
  9
$CECOLOR
 62
   256
  9
$CELTSCALE
 40
1.0
  9
$DISPSILH
 70
     0
  9
$DIMSCALE
 40
0.0
  9
$DIMASZ
 40
3.0
  9
$DIMEXO
 40
0.0
  9
$DIMDLI
 40
7.5
  9
$DIMRND
 40
0.0
  9
$DIMDLE
 40
0.0
  9
$DIMEXE
 40
1.0
  9
$DIMTP
 40
0.0
  9
$DIMTM
 40
0.0
  9
$DIMTXT
 40
2.399999999999999
  9
$DIMCEN
 40
3.0
  9
$DIMTSZ
 40
0.0
  9
$DIMTOL
 70
     0
  9
$DIMLIM
 70
     0
  9
$DIMTIH
 70
     0
  9
$DIMTOH
 70
     0
  9
$DIMSE1
 70
     0
  9
$DIMSE2
 70
     0
  9
$DIMTAD
 70
     1
  9
$DIMZIN
 70
     8
  9
$DIMBLK
  1

  9
$DIMASO
 70
     0
  9
$DIMSHO
 70
     0
  9
$DIMPOST
  1

  9
$DIMAPOST
  1

  9
$DIMALT
 70
     0
  9
$DIMALTD
 70
     2
  9
$DIMALTF
 40
25.4
  9
$DIMLFAC
 40
1.0
  9
$DIMTOFL
 70
     0
  9
$DIMTVP
 40
0.0
  9
$DIMTIX
 70
     0
  9
$DIMSOXD
 70
     0
  9
$DIMSAH
 70
     0
  9
$DIMBLK1
  1

  9
$DIMBLK2
  1

  9
$DIMSTYLE
  2
STANDARD
  9
$DIMCLRD
 70
     0
  9
$DIMCLRE
 70
     0
  9
$DIMCLRT
 70
     0
  9
$DIMTFAC
 40
1.0
  9
$DIMGAP
 40
1.0
  9
$DIMJUST
 70
     0
  9
$DIMSD1
 70
     0
  9
$DIMSD2
 70
     0
  9
$DIMTOLJ
 70
     1
  9
$DIMTZIN
 70
     8
  9
$DIMALTZ
 70
     0
  9
$DIMALTTZ
 70
     0
  9
$DIMUPT
 70
     0
  9
$DIMDEC
 70
     2
  9
$DIMTDEC
 70
     2
  9
$DIMALTU
 70
     2
  9
$DIMALTTD
 70
     2
  9
$DIMTXSTY
  7
STANDARD
  9
$DIMAUNIT
 70
     0
  9
$DIMADEC
 70
     0
  9
$DIMALTRND
 40
0.0
  9
$DIMAZIN
 70
     0
  9
$DIMDSEP
 70
    44
  9
$DIMATFIT
 70
     0
  9
$DIMFRAC
 70
     0
  9
$DIMLDRBLK
  1

  9
$DIMLUNIT
 70
     2
  9
$DIMLWD
 70
    -2
  9
$DIMLWE
 70
    -2
  9
$DIMTMOVE
 70
     0
  9
$LUNITS
 70
     2
  9
$LUPREC
 70
     2
  9
$SKETCHINC
 40
0.1
  9
$FILLETRAD
 40
15.0
  9
$AUNITS
 70
     0
  9
$AUPREC
 70
     0
  9
$MENU
  1
C:\ACADWIN\SUPPORT\ACAD
  9
$ELEVATION
 40
0.0
  9
$PELEVATION
 40
0.0
  9
$THICKNESS
 40
0.0
  9
$LIMCHECK
 70
     1
  9
$CHAMFERA
 40
0.0
  9
$CHAMFERB
 40
0.0
  9
$CHAMFERC
 40
0.0
  9
$CHAMFERD
 40
0.0
  9
$SKPOLY
 70
     0
  9
$TDCREATE
 40
2453613.211452905
  9
$TDUCREATE
 40
2453613.461452905
  9
$TDUPDATE
 40
2455251.613860671
  9
$TDUUPDATE
 40
2455251.863860671
  9
$TDINDWG
 40
0.0249270486
  9
$TDUSRTIMER
 40
0.0249270486
  9
$USRTIMER
 70
     1
  9
$ANGBASE
 50
0.0
  9
$ANGDIR
 70
     0
  9
$PDMODE
 70
     0
  9
$PDSIZE
 40
0.0
  9
$PLINEWID
 40
0.5
  9
$SPLFRAME
 70
     0
  9
$SPLINETYPE
 70
     6
  9
$SPLINESEGS
 70
     8
  9
$HANDSEED
  5
E32
  9
$SURFTAB1
 70
     6
  9
$SURFTAB2
 70
     6
  9
$SURFTYPE
 70
     6
  9
$SURFU
 70
     6
  9
$SURFV
 70
     6
  9
$UCSBASE
  2

  9
$UCSNAME
  2

  9
$UCSORG
 10
0.0
 20
0.0
 30
0.0
  9
$UCSXDIR
 10
1.0
 20
0.0
 30
0.0
  9
$UCSYDIR
 10
0.0
 20
1.0
 30
0.0
  9
$UCSORTHOREF
  2

  9
$UCSORTHOVIEW
 70
     0
  9
$UCSORGTOP
 10
0.0
 20
0.0
 30
0.0
  9
$UCSORGBOTTOM
 10
0.0
 20
0.0
 30
0.0
  9
$UCSORGLEFT
 10
0.0
 20
0.0
 30
0.0
  9
$UCSORGRIGHT
 10
0.0
 20
0.0
 30
0.0
  9
$UCSORGFRONT
 10
0.0
 20
0.0
 30
0.0
  9
$UCSORGBACK
 10
0.0
 20
0.0
 30
0.0
  9
$PUCSBASE
  2

  9
$PUCSNAME
  2

  9
$PUCSORG
 10
0.0
 20
0.0
 30
0.0
  9
$PUCSXDIR
 10
1.0
 20
0.0
 30
0.0
  9
$PUCSYDIR
 10
0.0
 20
1.0
 30
0.0
  9
$PUCSORTHOREF
  2

  9
$PUCSORTHOVIEW
 70
     0
  9
$PUCSORGTOP
 10
0.0
 20
0.0
 30
0.0
  9
$PUCSORGBOTTOM
 10
0.0
 20
0.0
 30
0.0
  9
$PUCSORGLEFT
 10
0.0
 20
0.0
 30
0.0
  9
$PUCSORGRIGHT
 10
0.0
 20
0.0
 30
0.0
  9
$PUCSORGFRONT
 10
0.0
 20
0.0
 30
0.0
  9
$PUCSORGBACK
 10
0.0
 20
0.0
 30
0.0
  9
$USERI1
 70
     0
  9
$USERI2
 70
     0
  9
$USERI3
 70
     0
  9
$USERI4
 70
     0
  9
$USERI5
 70
     0
  9
$USERR1
 40
0.0
  9
$USERR2
 40
0.0
  9
$USERR3
 40
0.0
  9
$USERR4
 40
0.0
  9
$USERR5
 40
0.0
  9
$WORLDVIEW
 70
     1
  9
$SHADEDGE
 70
     3
  9
$SHADEDIF
 70
    70
  9
$TILEMODE
 70
     1
  9
$MAXACTVP
 70
    16
  9
$PINSBASE
 10
0.0
 20
0.0
 30
0.0
  9
$PLIMCHECK
 70
     0
  9
$PEXTMIN
 10
1.000000000000000E+20
 20
1.000000000000000E+20
 30
1.000000000000000E+20
  9
$PEXTMAX
 10
-1.000000000000000E+20
 20
-1.000000000000000E+20
 30
-1.000000000000000E+20
  9
$PLIMMIN
 10
0.0
 20
0.0
  9
$PLIMMAX
 10
12.0
 20
9.0
  9
$UNITMODE
 70
     0
  9
$VISRETAIN
 70
     0
  9
$PLINEGEN
 70
     0
  9
$PSLTSCALE
 70
     0
  9
$TREEDEPTH
 70
  3020
  9
$CMLSTYLE
  2
STANDARD
  9
$CMLJUST
 70
     0
  9
$CMLSCALE
 40
1.0
  9
$PROXYGRAPHICS
 70
     1
  9
$MEASUREMENT
 70
     1
  9
$CELWEIGHT
370
    -1
  9
$ENDCAPS
280
     0
  9
$JOINSTYLE
280
     0
  9
$LWDISPLAY
290
     0
  9
$INSUNITS
 70
     0
  9
$HYPERLINKBASE
  1

  9
$STYLESHEET
  1
monochrome.ctb
  9
$XEDIT
290
     1
  9
$CEPSNTYPE
380
     0
  9
$PSTYLEMODE
290
     1
  9
$FINGERPRINTGUID
  2
{5CFF9579-32CE-11D4-BBB0-0060087DD5EC}
  9
$VERSIONGUID
  2
{9D1E7D67-D30B-489D-9721-D769EFF58CEA}
  9
$EXTNAMES
290
     1
  9
$PSVPSCALE
 40
0.0
  9
$OLESTARTUP
290
     0
  9
$SORTENTS
280
   127
  9
$INDEXCTL
280
     0
  9
$HIDETEXT
280
     0
  9
$XCLIPFRAME
290
     0
  9
$HALOGAP
280
     0
  9
$OBSCOLOR
 70
   257
  9
$OBSLTYPE
280
     0
  9
$INTERSECTIONDISPLAY
280
     0
  9
$INTERSECTIONCOLOR
 70
   257
  9
$DIMASSOC
280
     0
  9
$PROJECTNAME
  1

  0
ENDSEC
  0
SECTION
  2
CLASSES
  0
CLASS
  1
DICTIONARYVAR
  2
AcDbDictionaryVar
  3
ObjectDBX Classes
 90
        0
 91
        3
280
     0
281
     0
  0
CLASS
  1
ACDBDICTIONARYWDFLT
  2
AcDbDictionaryWithDefault
  3
ObjectDBX Classes
 90
        0
 91
        1
280
     0
281
     0
  0
CLASS
  1
TABLESTYLE
  2
AcDbTableStyle
  3
ObjectDBX Classes
 90
     2047
 91
        1
280
     0
281
     0
  0
ENDSEC
  0
SECTION
  2
TABLES
  0
TABLE
  2
VPORT
  5
8
330
0
100
AcDbSymbolTable
 70
     4
  0
VPORT
  5
E31
330
8
100
AcDbSymbolTableRecord
100
AcDbViewportTableRecord
  2
*Active
 70
     0
 10
0.0
 20
0.0
 11
1.0
 21
1.0
 12
201.0070814762814
 22
130.992127781492
 13
0.0
 23
0.0
 14
10.0
 24
10.0
 15
10.0
 25
10.0
 16
0.0
 26
0.0
 36
1.0
 17
0.0
 27
0.0
 37
0.0
 40
263.5728391918502
 41
1.730337078651685
 42
50.0
 43
0.0
 44
0.0
 50
0.0
 51
0.0
 71
     0
 72
   100
 73
     1
 74
     0
 75
     0
 76
     0
 77
     0
 78
     0
281
     0
 65
     1
110
0.0
120
0.0
130
0.0
111
1.0
121
0.0
131
0.0
112
0.0
122
1.0
132
0.0
 79
     0
146
0.0
  0
ENDTAB
  0
TABLE
  2
LTYPE
  5
5
330
0
100
AcDbSymbolTable
 70
     8
  0
LTYPE
  5
11
330
5
100
AcDbSymbolTableRecord
100
AcDbLinetypeTableRecord
  2
BYBLOCK
 70
     0
  3

 72
    65
 73
     0
 40
0.0
  0
LTYPE
  5
12
330
5
100
AcDbSymbolTableRecord
100
AcDbLinetypeTableRecord
  2
BYLAYER
 70
     0
  3

 72
    65
 73
     0
 40
0.0
  0
LTYPE
  5
13
330
5
100
AcDbSymbolTableRecord
100
AcDbLinetypeTableRecord
  2
CONTINUOUS
 70
     0
  3
Solid line
 72
    65
 73
     0
 40
0.0
  0
LTYPE
  5
3EA
330
5
100
AcDbSymbolTableRecord
100
AcDbLinetypeTableRecord
  2
DOT2
 70
     0
  3
Dot (.5x) .....................................
 72
    65
 73
     2
 40
0.125
 49
0.0
 74
     0
 49
-0.125
 74
     0
  0
LTYPE
  5
3EC
330
5
100
AcDbSymbolTableRecord
100
AcDbLinetypeTableRecord
  2
DASHDOT
 70
     0
  3
Dash dot __ . __ . __ . __ . __ . __ . __ . __
 72
    65
 73
     4
 40
1.0
 49
0.5
 74
     0
 49
-0.25
 74
     0
 49
0.0
 74
     0
 49
-0.25
 74
     0
  0
LTYPE
  5
3ED
330
5
100
AcDbSymbolTableRecord
100
AcDbLinetypeTableRecord
  2
HIDDEN
 70
     0
  3
Hidden __ __ __ __ __ __ __ __ __ __ __ __ __ _
 72
    65
 73
     2
 40
0.375
 49
0.25
 74
     0
 49
-0.125
 74
     0
  0
LTYPE
  5
D5F
330
5
100
AcDbSymbolTableRecord
100
AcDbLinetypeTableRecord
  2
HIDDEN2
 70
     0
  3
_ _ _ _ _ _ _ _ _ _ _ _ _ _ _ _ _ _ _ _ _ _ _ _
 72
    65
 73
     2
 40
0.1875
 49
0.125
 74
     0
 49
-0.0625
 74
     0
  0
LTYPE
  5
D60
330
5
100
AcDbSymbolTableRecord
100
AcDbLinetypeTableRecord
  2
DASHDOT2
 70
     0
  3
_._._._._._._._._._._._._._._._._._._._._._._._
 72
    65
 73
     4
 40
0.5
 49
0.25
 74
     0
 49
-0.125
 74
     0
 49
0.0
 74
     0
 49
-0.125
 74
     0
  0
LTYPE
  5
D61
330
5
100
AcDbSymbolTableRecord
100
AcDbLinetypeTableRecord
  2
CENTER2
 70
     0
  3
___ _ ___ _ ___ _ ___ _ ___ _ ___ _ ___ _ ___ _
 72
    65
 73
     4
 40
1.125
 49
0.75
 74
     0
 49
-0.125
 74
     0
 49
0.125
 74
     0
 49
-0.125
 74
     0
  0
LTYPE
  5
D62
330
5
100
AcDbSymbolTableRecord
100
AcDbLinetypeTableRecord
  2
CENTER
 70
     0
  3
____ _ ____ _ ____ _ ____ _ ____ _ ____ _ ____
 72
    65
 73
     4
 40
2.0
 49
1.25
 74
     0
 49
-0.25
 74
     0
 49
0.25
 74
     0
 49
-0.25
 74
     0
  0
ENDTAB
  0
TABLE
  2
LAYER
  5
2
330
0
100
AcDbSymbolTable
 70
     7
  0
LAYER
  5
E
330
2
100
AcDbSymbolTableRecord
100
AcDbLayerTableRecord
  2
0
 70
     0
 62
     2
  6
CONTINUOUS
370
    -3
390
893
  0
LAYER
  5
29
330
2
100
AcDbSymbolTableRecord
100
AcDbLayerTableRecord
  2
NORMAL
 70
     0
 62
     2
  6
CONTINUOUS
370
    -3
390
893
  0
LAYER
  5
D63
330
2
100
AcDbSymbolTableRecord
100
AcDbLayerTableRecord
  2
HIDDEN
 70
     0
 62
     2
  6
HIDDEN2
370
    -3
390
893
  0
LAYER
  5
D64
330
2
100
AcDbSymbolTableRecord
100
AcDbLayerTableRecord
  2
CENTER
 70
     0
 62
     2
  6
DASHDOT2
370
    -3
390
893
  0
LAYER
  5
D65
330
2
100
AcDbSymbolTableRecord
100
AcDbLayerTableRecord
  2
COSMETIC_SKETCHES
 70
     0
 62
     7
  6
CONTINUOUS
370
    -3
390
893
  0
LAYER
  5
D66
330
2
100
AcDbSymbolTableRecord
100
AcDbLayerTableRecord
  2
CURVES
 70
     0
 62
     7
  6
CONTINUOUS
370
    -3
390
893
  0
LAYER
  5
D67
330
2
100
AcDbSymbolTableRecord
100
AcDbLayerTableRecord
  2
Defpoints
 70
     0
 62
     7
  6
CONTINUOUS
290
     0
370
    -3
390
893
  0
ENDTAB
  0
TABLE
  2
STYLE
  5
3
330
0
100
AcDbSymbolTable
 70
     7
  0
STYLE
  5
F
330
3
100
AcDbSymbolTableRecord
100
AcDbTextStyleTableRecord
  2
STANDARD
 70
     0
 40
0.0
 41
1.0
 50
0.0
 71
     0
 42
3.0
  3
simplex
  4

  0
STYLE
  5
1E
330
3
100
AcDbSymbolTableRecord
100
AcDbTextStyleTableRecord
  2
ROMAND
 70
     0
 40
0.0
 41
1.0
 50
0.0
 71
     0
 42
3.0
  3
romand.shx
  4

  0
STYLE
  5
A8C
330
3
100
AcDbSymbolTableRecord
100
AcDbTextStyleTableRecord
  2
Arial
 70
     0
 40
0.0
 41
1.0
 50
0.0
 71
     0
 42
3.0
  3

  4

1001
ACAD
1000
Arial
1071
       34
  0
STYLE
  5
D68
330
3
100
AcDbSymbolTableRecord
100
AcDbTextStyleTableRecord
  2
TEXTSTYLE_1
 70
     0
 40
0.0
 41
1.0
 50
0.0
 71
     0
 42
0.2
  3
trium.ttf
  4

  0
STYLE
  5
D69
330
3
100
AcDbSymbolTableRecord
100
AcDbTextStyleTableRecord
  2
TEXTSTYLE_2
 70
     0
 40
0.0
 41
1.0
 50
0.0
 71
     0
 42
0.2
  3
triumb.ttf
  4

  0
ENDTAB
  0
TABLE
  2
VIEW
  5
6
330
0
100
AcDbSymbolTable
 70
     0
  0
ENDTAB
  0
TABLE
  2
UCS
  5
7
330
0
100
AcDbSymbolTable
 70
     0
  0
ENDTAB
  0
TABLE
  2
APPID
  5
9
330
0
100
AcDbSymbolTable
 70
     5
  0
APPID
  5
10
330
9
100
AcDbSymbolTableRecord
100
AcDbRegAppTableRecord
  2
ACAD
 70
     0
  0
APPID
  5
2E6
330
9
100
AcDbSymbolTableRecord
100
AcDbRegAppTableRecord
  2
CONTENTTABDATA
 70
     0
  0
APPID
  5
2E7
330
9
100
AcDbSymbolTableRecord
100
AcDbRegAppTableRecord
  2
CONTENTCURRENTTAB
 70
     0
  0
APPID
  5
337
330
9
100
AcDbSymbolTableRecord
100
AcDbRegAppTableRecord
  2
CONTENTBLOCKDESCRIPTION
 70
     0
  0
APPID
  5
E27
330
9
100
AcDbSymbolTableRecord
100
AcDbRegAppTableRecord
  2
ACAD_PSEXT
 70
     0
  0
ENDTAB
  0
TABLE
  2
DIMSTYLE
  5
A
330
0
100
AcDbSymbolTable
 70
     3
100
AcDbDimStyleTable
 71
     1
340
298
  0
DIMSTYLE
105
298
330
A
100
AcDbSymbolTableRecord
100
AcDbDimStyleTableRecord
  2
STANDARD
 70
     0
340
F
  0
ENDTAB
  0
TABLE
  2
BLOCK_RECORD
  5
1
330
0
100
AcDbSymbolTable
 70
    12
  0
BLOCK_RECORD
  5
17
330
1
100
AcDbSymbolTableRecord
100
AcDbBlockTableRecord
  2
*MODEL_SPACE
340
896
  0
BLOCK_RECORD
  5
14
330
1
100
AcDbSymbolTableRecord
100
AcDbBlockTableRecord
  2
*PAPER_SPACE
340
897
  0
BLOCK_RECORD
  5
1C
330
1
100
AcDbSymbolTableRecord
100
AcDbBlockTableRecord
  2
TOLERANS
340
0
310
2800000020000000200000000100080000000000000400000000000000000000000000000000000000000000000080000080000000808000800000008000800080800000C0C0C000C0DCC000F0CAA6000020400000206000002080000020A0000020C0000020E00000400000004020000040400000406000004080000040A0
310
000040C0000040E00000600000006020000060400000606000006080000060A0000060C0000060E00000800000008020000080400000806000008080000080A0000080C0000080E00000A0000000A0200000A0400000A0600000A0800000A0A00000A0C00000A0E00000C0000000C0200000C0400000C0600000C0800000C0
310
A00000C0C00000C0E00000E0000000E0200000E0400000E0600000E0800000E0A00000E0C00000E0E00040000000400020004000400040006000400080004000A0004000C0004000E00040200000402020004020400040206000402080004020A0004020C0004020E000404000004040200040404000404060004040800040
310
40A0004040C0004040E00040600000406020004060400040606000406080004060A0004060C0004060E00040800000408020004080400040806000408080004080A0004080C0004080E00040A0000040A0200040A0400040A0600040A0800040A0A00040A0C00040A0E00040C0000040C0200040C0400040C0600040C08000
310
40C0A00040C0C00040C0E00040E0000040E0200040E0400040E0600040E0800040E0A00040E0C00040E0E00080000000800020008000400080006000800080008000A0008000C0008000E00080200000802020008020400080206000802080008020A0008020C0008020E00080400000804020008040400080406000804080
310
008040A0008040C0008040E00080600000806020008060400080606000806080008060A0008060C0008060E00080800000808020008080400080806000808080008080A0008080C0008080E00080A0000080A0200080A0400080A0600080A0800080A0A00080A0C00080A0E00080C0000080C0200080C0400080C0600080C0
310
800080C0A00080C0C00080C0E00080E0000080E0200080E0400080E0600080E0800080E0A00080E0C00080E0E000C0000000C0002000C0004000C0006000C0008000C000A000C000C000C000E000C0200000C0202000C0204000C0206000C0208000C020A000C020C000C020E000C0400000C0402000C0404000C0406000C0
310
408000C040A000C040C000C040E000C0600000C0602000C0604000C0606000C0608000C060A000C060C000C060E000C0800000C0802000C0804000C0806000C0808000C080A000C080C000C080E000C0A00000C0A02000C0A04000C0A06000C0A08000C0A0A000C0A0C000C0A0E000C0C00000C0C02000C0C04000C0C06000
310
C0C08000C0C0A000F0FBFF00A4A0A000808080000000FF0000FF000000FFFF00FF000000FF00FF00FFFF0000FFFFFF0000000000000000000000000000000000000000000000000000000000000000000000000000000000000000000000000000000000000000000000000000000000000000000000000000000000000000
310
00000000000000000000000000000000000000000000000000000000000000000000000000000000000000000000000000000000000000000000000000000000000000000000000000000000000000000000000000000000000000000000000000000000000000000000000000000000000000000000000000000000000000
310
00000000000000000000000000000000000000000000FBFBFBFBFBFBFB00FBFBFBFB00FBFBFBFBFBFBFB00FBFBFB0000000000000000FBFBFBFBFBFBFB00FBFBFBFB00FBFB00FBFBFBFBFBFBFBFB0000000000000000000000FBFB00FB00FBFBFBFB00FBFBFBFBFBFBFB0000000000000000000000FBFB00FBFBFBFBFBFBFB
310
FBFBFB00FBFBFBFBFBFBFBFBFBFBFBFB000000000000FBFB00FBFBFBFBFBFBFBFBFBFB00FBFBFBFBFBFBFBFBFBFBFBFB000000000000FBFB000000000000FB0000000000FB00FB00000000FB00000000000000000000000000000000000000000000000000000000000000FB0000000000000000000000000000000000FBFB
310
000000000000000000000000FBFB000000000000000000000000FBFBFBFB00FB00000000000000000000FBFBFB00FB0000000000000000FBFBFB0000000000FB0000000000000000FBFB0000FB0000FB00000000000000FB00000000000000FB000000FBFB000000FB0000FBFB0000FB0000000000FBFBFBFBFBFBFBFBFBFB
310
FBFBFB00FBFB00FBFBFBFBFBFBFBFBFBFBFBFBFB00000000FB00000000000000FB000000FB00000000FB0000FBFBFB00FB00000000000000FBFB000000000000FB000000FBFB000000FB0000FBFB0000FB000000000000000000FBFBFBFB0000FB0000000000000000FBFBFB00FB00FB0000000000000000000000000000FB
310
FBFB0000000000000000000000FBFBFB000000000000000000000000000000000000000000000000000000000000FB00000000000000000000000000000000000000000000000000000000000000FB000000000000000000000000000000000000000000000000000000000000000000000000000000000000000000000000
310
00000000000000000000000000000000000000000000000000000000000000000000000000000000000000000000000000000000000000000000000000000000000000000000000000000000000000000000000000000000000000000000000000000000000000000000000000000000000000000000000000000000000000
310
0000000000000000000000000000000000000000000000000000000000000000000000000000000000000000000000000000000000000000
1001
ACAD
1000
DesignCenter Data
1002
{
1070
     1
1070
     4
1002
}
  0
BLOCK_RECORD
  5
646
330
1
100
AcDbSymbolTableRecord
100
AcDbBlockTableRecord
  2
A3-RITRAM
340
0
310
2800000020000000200000000100080000000000000400000000000000000000000000000000000000000000000080000080000000808000800000008000800080800000C0C0C000C0DCC000F0CAA6000020400000206000002080000020A0000020C0000020E00000400000004020000040400000406000004080000040A0
310
000040C0000040E00000600000006020000060400000606000006080000060A0000060C0000060E00000800000008020000080400000806000008080000080A0000080C0000080E00000A0000000A0200000A0400000A0600000A0800000A0A00000A0C00000A0E00000C0000000C0200000C0400000C0600000C0800000C0
310
A00000C0C00000C0E00000E0000000E0200000E0400000E0600000E0800000E0A00000E0C00000E0E00040000000400020004000400040006000400080004000A0004000C0004000E00040200000402020004020400040206000402080004020A0004020C0004020E000404000004040200040404000404060004040800040
310
40A0004040C0004040E00040600000406020004060400040606000406080004060A0004060C0004060E00040800000408020004080400040806000408080004080A0004080C0004080E00040A0000040A0200040A0400040A0600040A0800040A0A00040A0C00040A0E00040C0000040C0200040C0400040C0600040C08000
310
40C0A00040C0C00040C0E00040E0000040E0200040E0400040E0600040E0800040E0A00040E0C00040E0E00080000000800020008000400080006000800080008000A0008000C0008000E00080200000802020008020400080206000802080008020A0008020C0008020E00080400000804020008040400080406000804080
310
008040A0008040C0008040E00080600000806020008060400080606000806080008060A0008060C0008060E00080800000808020008080400080806000808080008080A0008080C0008080E00080A0000080A0200080A0400080A0600080A0800080A0A00080A0C00080A0E00080C0000080C0200080C0400080C0600080C0
310
800080C0A00080C0C00080C0E00080E0000080E0200080E0400080E0600080E0800080E0A00080E0C00080E0E000C0000000C0002000C0004000C0006000C0008000C000A000C000C000C000E000C0200000C0202000C0204000C0206000C0208000C020A000C020C000C020E000C0400000C0402000C0404000C0406000C0
310
408000C040A000C040C000C040E000C0600000C0602000C0604000C0606000C0608000C060A000C060C000C060E000C0800000C0802000C0804000C0806000C0808000C080A000C080C000C080E000C0A00000C0A02000C0A04000C0A06000C0A08000C0A0A000C0A0C000C0A0E000C0C00000C0C02000C0C04000C0C06000
310
C0C08000C0C0A000F0FBFF00A4A0A000808080000000FF0000FF000000FFFF00FF000000FF00FF00FFFF0000FFFFFF0000000000000000000000000000000000000000000000000000000000000000000000000000000000000000000000000000000000000000000000000000000000000000000000000000000000000000
310
00000000000000000000000000000000000000000000000000000000000000000000000000000000000000000000000000000000000000000000000000000000000000000000000000000000000000000000FBFBFBFBFBFBFBFBFBFBFBFBFBFBFBFBFBFBFBFBFBFBFBFBFBFBFBFBFBFB0000FB000000000000000000000000
310
00000000FBFBFBFBFBFBFBFBFBFBFBFBFB0000FB00000000000000000000000000000000FBFBFBFBFBFBFBFBFBFBFBFBFB0000FB00000000000000000000000000000000000000000000000000000000FB0000FB00000000000000000000000000000000000000000000000000000000FB0000FB0000000000000000000000
310
0000000000000000000000000000000000FB0000FB00000000000000000000000000000000000000000000000000000000FB0000FB00000000000000000000000000000000000000000000000000000000FB0000FB00000000000000000000000000000000000000000000000000000000FB0000FB00000000000000000000
310
000000000000000000000000000000000000FB0000FB00000000000000000000000000000000000000000000000000000000FB0000FB00000000000000000000000000000000000000000000000000000000FB0000FB00000000000000000000000000000000000000000000000000000000FB0000FB000000000000000000
310
00000000000000000000000000000000000000FB0000FB00000000000000000000000000000000000000000000000000000000FB0000FB00000000000000000000000000000000000000000000000000000000FB0000FB00000000000000000000000000000000000000000000000000000000FB0000FB0000000000000000
310
0000000000000000000000000000000000000000FB0000FB00000000000000000000000000000000000000000000000000000000FB0000FB00000000000000000000000000000000000000000000000000000000FB0000FB00000000000000000000000000000000000000000000000000000000FB0000FBFBFBFBFBFBFBFB
310
FBFBFBFBFBFBFBFBFBFBFBFBFBFBFBFBFBFBFBFBFBFB000000000000000000000000000000000000000000000000000000000000000000000000000000000000000000000000000000000000000000000000000000000000000000000000000000000000000000000000000000000000000000000000000000000000000000
310
0000000000000000000000000000000000000000000000000000000000000000000000000000000000000000000000000000000000000000
1001
ACAD
1000
DesignCenter Data
1002
{
1070
     1
1070
     4
1002
}
  0
BLOCK_RECORD
  5
84B
330
1
100
AcDbSymbolTableRecord
100
AcDbBlockTableRecord
  2
SKALLINJAL_11_A3
340
0
  0
BLOCK_RECORD
  5
A13
330
1
100
AcDbSymbolTableRecord
100
AcDbBlockTableRecord
  2
Logo_beijer_ny_A3
340
0
1001
ACAD
1000
DesignCenter Data
1002
{
1070
     1
1070
     4
1002
}
  0
BLOCK_RECORD
  5
C15
330
1
100
AcDbSymbolTableRecord
100
AcDbBlockTableRecord
  2
RAM_A3
340
0
  0
BLOCK_RECORD
  5
CA7
330
1
100
AcDbSymbolTableRecord
100
AcDbBlockTableRecord
  2
ACAD0407
340
0
  0
BLOCK_RECORD
  5
D3F
330
1
100
AcDbSymbolTableRecord
100
AcDbBlockTableRecord
  2
AVALON_LOGO_TEXT_BL1
340
0
  0
BLOCK_RECORD
  5
D45
330
1
100
AcDbSymbolTableRecord
100
AcDbBlockTableRecord
  2
*D7
340
0
  0
BLOCK_RECORD
  5
D52
330
1
100
AcDbSymbolTableRecord
100
AcDbBlockTableRecord
  2
A$C57922F0C
340
0
  0
BLOCK_RECORD
  5
D6A
330
1
100
AcDbSymbolTableRecord
100
AcDbBlockTableRecord
  2
5162S1_insert
340
0
  0
ENDTAB
  0
ENDSEC
  0
SECTION
  2
BLOCKS
  0
BLOCK
  5
2C
330
17
100
AcDbEntity
  8
0
100
AcDbBlockBegin
  2
*MODEL_SPACE
 70
     0
 10
0.0
 20
0.0
 30
0.0
  3
*MODEL_SPACE
  1

  0
ENDBLK
  5
2D
330
17
100
AcDbEntity
  8
0
100
AcDbBlockEnd
  0
BLOCK
  5
2A
330
14
100
AcDbEntity
 67
     1
  8
0
100
AcDbBlockBegin
  2
*PAPER_SPACE
 70
     0
 10
0.0
 20
0.0
 30
0.0
  3
*PAPER_SPACE
  1

  0
ENDBLK
  5
2B
330
14
100
AcDbEntity
 67
     1
  8
0
100
AcDbBlockEnd
  0
BLOCK
  5
30
330
1C
100
AcDbEntity
  8
0
100
AcDbBlockBegin
  2
TOLERANS
 70
     0
 10
0.0
 20
0.0
 30
0.0
  3
TOLERANS
  1

  0
TEXT
  5
A7A
330
1C
100
AcDbEntity
  8
0
100
AcDbText
 10
190.8690476190476
 20
5.333333333333333
 30
0.0
 40
2.0
  1
enligt ISO 2768-m
 72
     4
 11
205.25
 21
6.0
 31
0.0
100
AcDbText
  0
LINE
  5
A7B
330
1C
100
AcDbEntity
  8
0
100
AcDbLine
 10
187.75
 20
19.0
 30
0.0
 11
202.75
 21
19.0
 31
0.0
  0
LINE
  5
A7C
330
1C
100
AcDbEntity
  8
0
100
AcDbLine
 10
190.25
 20
21.5
 30
0.0
 11
200.25
 21
24.0
 31
0.0
  0
LINE
  5
A7D
330
1C
100
AcDbEntity
  8
0
100
AcDbLine
 10
200.25
 20
14.0
 30
0.0
 11
190.25
 21
16.5
 31
0.0
  0
TEXT
  5
A7E
330
1C
100
AcDbEntity
  8
0
100
AcDbText
 10
189.1071428571429
 20
8.833333333333332
 30
0.0
 40
2.0
  1
Ej angivna toleranser
 72
     4
 11
205.25
 21
9.5
 31
0.0
100
AcDbText
  0
LINE
  5
A7F
330
1C
100
AcDbEntity
  8
0
100
AcDbLine
 10
190.25
 20
16.5
 30
0.0
 11
190.25
 21
21.5
 31
0.0
  0
LINE
  5
A80
330
1C
100
AcDbEntity
  8
0
100
AcDbLine
 10
215.25
 20
26.5
 30
0.0
 11
215.25
 21
11.5
 31
0.0
  0
LINE
  5
A81
330
1C
100
AcDbEntity
  8
0
100
AcDbLine
 10
207.75
 20
19.0
 30
0.0
 11
222.75
 21
19.0
 31
0.0
  0
CIRCLE
  5
A82
330
1C
100
AcDbEntity
  8
0
100
AcDbCircle
 10
215.25
 20
19.0
 30
0.0
 40
5.0
  0
TEXT
  5
A83
330
1C
100
AcDbEntity
  8
0
100
AcDbText
 10
204.1666666666666
 20
17.25
 30
0.0
 40
3.5
  1
E
 72
     4
 11
205.25
 21
19.0
 31
0.0
100
AcDbText
  0
LINE
  5
A84
330
1C
100
AcDbEntity
  8
0
100
AcDbLine
 10
200.25
 20
24.0
 30
0.0
 11
200.25
 21
14.0
 31
0.0
  0
CIRCLE
  5
A85
330
1C
100
AcDbEntity
  8
0
100
AcDbCircle
 10
215.25
 20
19.0
 30
0.0
 40
2.5
  0
ENDBLK
  5
3E
330
1C
100
AcDbEntity
  8
0
100
AcDbBlockEnd
  0
BLOCK
  5
65C
330
646
100
AcDbEntity
  8
0
100
AcDbBlockBegin
  2
A3-RITRAM
 70
     0
 10
0.0
 20
0.0
 30
0.0
  3
A3-RITRAM
  1

  0
LWPOLYLINE
  5
9F9
330
646
100
AcDbEntity
  8
NORMAL
100
AcDbPolyline
 90
        5
 70
     0
 43
0.5
 10
0.0
 20
2.0
 10
395.0
 20
2.0
 10
395.0
 20
287.0
 10
0.0
 20
287.0
 10
0.0
 20
2.0
  0
TEXT
  5
9FA
330
646
100
AcDbEntity
  8
NORMAL
100
AcDbText
 10
225.25
 20
3.25
 30
0.0
 40
1.5
  1
A3
100
AcDbText
  0
LWPOLYLINE
  5
9FB
330
646
100
AcDbEntity
  8
NORMAL
100
AcDbPolyline
 90
        2
 70
     0
 43
0.5
 10
395.0
 20
27.74999999999999
 10
229.0
 20
27.74999999999999
  0
LWPOLYLINE
  5
9FC
330
646
100
AcDbEntity
  8
NORMAL
100
AcDbPolyline
 90
        3
 70
     0
 43
0.5
 10
233.0
 20
27.74999999999999
 10
229.0
 20
27.74999999999999
 10
229.0
 20
2.0
  0
LINE
  5
9FD
330
646
100
AcDbEntity
  8
NORMAL
100
AcDbLine
 10
395.0
 20
10.50000000000001
 30
0.0
 11
229.0
 21
10.50000000000001
 31
0.0
  0
TEXT
  5
9FE
330
646
100
AcDbEntity
  8
NORMAL
100
AcDbText
 10
244.25
 20
8.5
 30
0.0
 40
1.5
  1
Date
 11
244.25
 21
8.0
 31
0.0
100
AcDbText
 73
     1
  0
TEXT
  5
9FF
330
646
100
AcDbEntity
  8
NORMAL
100
AcDbText
 10
230.25
 20
8.5
 30
0.0
 40
1.5
  1
Drawn
 11
230.25
 21
8.0
 31
0.0
100
AcDbText
 73
     1
  0
TEXT
  5
A00
330
646
100
AcDbEntity
  8
NORMAL
100
AcDbText
 10
271.0
 20
8.5
 30
0.0
 40
1.5
  1
App.
 11
271.0
 21
8.0
 31
0.0
100
AcDbText
 73
     1
  0
TEXT
  5
A01
330
646
100
AcDbEntity
  8
NORMAL
100
AcDbText
 10
307.75
 20
8.5
 30
0.0
 40
1.5
  1
Revision date
 11
307.75
 21
8.0
 31
0.0
100
AcDbText
 73
     1
  0
TEXT
  5
A02
330
646
100
AcDbEntity
  8
NORMAL
100
AcDbText
 10
293.75
 20
8.5
 30
0.0
 40
1.5
  1
Revision
 11
293.75
 21
8.0
 31
0.0
100
AcDbText
 73
     1
  0
TEXT
  5
A03
330
646
100
AcDbEntity
  8
NORMAL
100
AcDbText
 10
334.25
 20
8.5
 30
0.0
 40
1.5
  1
Page
 11
334.25
 21
8.0
 31
0.0
100
AcDbText
 73
     1
  0
TEXT
  5
A04
330
646
100
AcDbEntity
  8
NORMAL
100
AcDbText
 10
359.25
 20
8.5
 30
0.0
 40
1.5
  1
Drawing No.
 11
359.25
 21
8.0
 31
0.0
100
AcDbText
 73
     1
  0
TEXT
  5
A05
330
646
100
AcDbEntity
  8
NORMAL
100
AcDbText
 10
343.75
 20
8.5
 30
0.0
 40
1.5
  1
Next page
 11
343.75
 21
8.0
 31
0.0
100
AcDbText
 73
     1
  0
LINE
  5
A06
330
646
100
AcDbEntity
  8
NORMAL
100
AcDbLine
 10
270.0
 20
27.75
 30
0.0
 11
270.0
 21
10.5
 31
0.0
  0
LINE
  5
A07
330
646
100
AcDbEntity
  8
NORMAL
100
AcDbLine
 10
242.75
 20
10.5
 30
0.0
 11
242.75
 21
2.0
 31
0.0
  0
LINE
  5
A08
330
646
100
AcDbEntity
  8
NORMAL
100
AcDbLine
 10
270.0
 20
10.5
 30
0.0
 11
270.0
 21
2.0
 31
0.0
  0
LINE
  5
A09
330
646
100
AcDbEntity
  8
NORMAL
100
AcDbLine
 10
292.5
 20
10.5
 30
0.0
 11
292.5
 21
2.0
 31
0.0
  0
LINE
  5
A0A
330
646
100
AcDbEntity
  8
NORMAL
100
AcDbLine
 10
332.25
 20
10.5
 30
0.0
 11
332.25
 21
2.0
 31
0.0
  0
LINE
  5
A0B
330
646
100
AcDbEntity
  8
NORMAL
100
AcDbLine
 10
357.75
 20
10.5
 30
0.0
 11
357.75
 21
2.0
 31
0.0
  0
ENDBLK
  5
65D
330
646
100
AcDbEntity
  8
0
100
AcDbBlockEnd
  0
BLOCK
  5
872
330
84B
100
AcDbEntity
  8
0
100
AcDbBlockBegin
  2
SKALLINJAL_11_A3
 70
     0
 10
0.0
 20
0.0
 30
0.0
  3
SKALLINJAL_11_A3
  1

  0
TEXT
  5
84C
330
84B
100
AcDbEntity
  8
NORMAL
100
AcDbText
 10
10.25
 20
13.75
 30
0.0
 40
3.0
  1
Drawn to
100
AcDbText
  0
TEXT
  5
84D
330
84B
100
AcDbEntity
  8
NORMAL
100
AcDbText
 10
10.25
 20
8.607142857142861
 30
0.0
 40
3.0
  1
scale 1:1
100
AcDbText
  0
LWPOLYLINE
  5
84E
330
84B
100
AcDbEntity
  8
NORMAL
100
AcDbPolyline
 90
        2
 70
     0
 43
0.25
 10
155.0
 20
12.5
 10
155.0
 20
15.0
  0
LWPOLYLINE
  5
84F
330
84B
100
AcDbEntity
  8
NORMAL
100
AcDbPolyline
 90
        2
 70
     0
 43
0.25
 10
145.0
 20
12.5
 10
145.0
 20
14.5
  0
LWPOLYLINE
  5
850
330
84B
100
AcDbEntity
  8
NORMAL
100
AcDbPolyline
 90
        2
 70
     0
 43
0.25
 10
135.0
 20
12.5
 10
135.0
 20
14.5
  0
LWPOLYLINE
  5
851
330
84B
100
AcDbEntity
  8
NORMAL
100
AcDbPolyline
 90
        2
 70
     0
 43
0.25
 10
125.0
 20
12.5
 10
125.0
 20
14.5
  0
LWPOLYLINE
  5
852
330
84B
100
AcDbEntity
  8
NORMAL
100
AcDbPolyline
 90
        2
 70
     0
 43
0.25
 10
115.0
 20
12.5
 10
115.0
 20
14.5
  0
LWPOLYLINE
  5
853
330
84B
100
AcDbEntity
  8
NORMAL
100
AcDbPolyline
 90
        2
 70
     0
 43
0.25
 10
95.0
 20
12.5
 10
95.0
 20
14.5
  0
LWPOLYLINE
  5
854
330
84B
100
AcDbEntity
  8
NORMAL
100
AcDbPolyline
 90
        2
 70
     0
 43
0.25
 10
105.0
 20
12.5
 10
105.0
 20
15.0
  0
LWPOLYLINE
  5
855
330
84B
100
AcDbEntity
  8
NORMAL
100
AcDbPolyline
 90
        2
 70
     0
 43
0.25
 10
75.0
 20
12.5
 10
75.0
 20
14.5
  0
LWPOLYLINE
  5
856
330
84B
100
AcDbEntity
  8
NORMAL
100
AcDbPolyline
 90
        2
 70
     0
 43
0.25
 10
85.0
 20
12.5
 10
85.0
 20
14.5
  0
LWPOLYLINE
  5
857
330
84B
100
AcDbEntity
  8
NORMAL
100
AcDbPolyline
 90
        2
 70
     0
 43
0.25
 10
55.0
 20
15.0
 10
55.0
 20
10.0
  0
LWPOLYLINE
  5
858
330
84B
100
AcDbEntity
  8
NORMAL
100
AcDbPolyline
 90
        2
 70
     0
 43
0.25
 10
65.0
 20
12.5
 10
65.0
 20
14.5
  0
TEXT
  5
859
330
84B
100
AcDbEntity
  8
NORMAL
100
AcDbText
 10
40.0
 20
11.25
 30
0.0
 40
3.0
  1
Scale
 72
     1
 11
45.49999999999999
 21
12.75
 31
0.0
100
AcDbText
 73
     2
  0
LWPOLYLINE
  5
85A
330
84B
100
AcDbEntity
  8
NORMAL
100
AcDbPolyline
 90
        3
 70
     0
 43
0.25
 10
104.4
 20
12.5
 10
105.8
 20
12.5
 10
105.8
 20
10.0
  0
LWPOLYLINE
  5
85B
330
84B
100
AcDbEntity
  8
NORMAL
100
AcDbPolyline
 90
        2
 70
     0
 43
0.25
 10
105.0
 20
12.5
 10
155.0
 20
12.5
  0
LWPOLYLINE
  5
85C
330
84B
100
AcDbEntity
  8
NORMAL
100
AcDbPolyline
 90
        2
 70
     0
 43
0.25
 10
55.0
 20
12.5
 10
105.0
 20
12.5
  0
LWPOLYLINE
  5
85D
330
84B
100
AcDbEntity
  8
NORMAL
100
AcDbPolyline
 90
        3
 70
     0
 43
0.25
 10
155.2
 20
12.5
 10
156.6
 20
12.5
 10
156.6
 20
10.0
  0
TEXT
  5
85E
330
84B
100
AcDbEntity
  8
NORMAL
100
AcDbText
 10
105.0
 20
6.799999999999999
 30
0.0
 40
2.399999999999999
  1
2
 72
     1
 11
105.8
 21
8.0
 31
0.0
100
AcDbText
 73
     2
  0
TEXT
  5
85F
330
84B
100
AcDbEntity
  8
NORMAL
100
AcDbText
 10
54.2
 20
6.799999999999999
 30
0.0
 40
2.399999999999999
  1
0
 72
     1
 11
55.0
 21
8.0
 31
0.0
100
AcDbText
 73
     2
  0
LWPOLYLINE
  5
860
330
84B
100
AcDbEntity
  8
NORMAL
100
AcDbPolyline
 90
        2
 70
     0
 43
0.25
 10
80.4
 20
12.5
 10
80.4
 20
10.5
  0
TEXT
  5
861
330
84B
100
AcDbEntity
  8
NORMAL
100
AcDbText
 10
79.76428571428572
 20
6.799999999999999
 30
0.0
 40
2.399999999999999
  1
1
 72
     1
 11
80.05
 21
8.0
 31
0.0
100
AcDbText
 73
     2
  0
LWPOLYLINE
  5
862
330
84B
100
AcDbEntity
  8
NORMAL
100
AcDbPolyline
 90
        2
 70
     0
 43
0.25
 10
131.2
 20
12.5
 10
131.2
 20
10.5
  0
TEXT
  5
863
330
84B
100
AcDbEntity
  8
NORMAL
100
AcDbText
 10
130.25
 20
6.799999999999999
 30
0.0
 40
2.399999999999999
  1
3
 72
     1
 11
131.05
 21
8.0
 31
0.0
100
AcDbText
 73
     2
  0
TEXT
  5
864
330
84B
100
AcDbEntity
  8
NORMAL
100
AcDbText
 10
160.05
 20
6.799999999999999
 30
0.0
 40
2.399999999999999
  1
inch
 72
     1
 11
163.25
 21
8.0
 31
0.0
100
AcDbText
 73
     2
  0
TEXT
  5
865
330
84B
100
AcDbEntity
  8
NORMAL
100
AcDbText
 10
155.6928571428571
 20
6.799999999999999
 30
0.0
 40
2.399999999999999
  1
4
 72
     1
 11
156.55
 21
8.0
 31
0.0
100
AcDbText
 73
     2
  0
TEXT
  5
866
330
84B
100
AcDbEntity
  8
NORMAL
100
AcDbText
 10
103.0571428571428
 20
15.8
 30
0.0
 40
2.399999999999999
  1
50
 72
     1
 11
105.0
 21
17.0
 31
0.0
100
AcDbText
 73
     2
  0
TEXT
  5
867
330
84B
100
AcDbEntity
  8
NORMAL
100
AcDbText
 10
54.2
 20
15.8
 30
0.0
 40
2.399999999999999
  1
0
 72
     1
 11
55.0
 21
17.0
 31
0.0
100
AcDbText
 73
     2
  0
TEXT
  5
868
330
84B
100
AcDbEntity
  8
NORMAL
100
AcDbText
 10
63.57142857142857
 20
15.75
 30
0.0
 40
2.0
  1
10
 72
     1
 11
65.0
 21
16.75
 31
0.0
100
AcDbText
 73
     2
  0
TEXT
  5
869
330
84B
100
AcDbEntity
  8
NORMAL
100
AcDbText
 10
73.38095238095238
 20
15.75
 30
0.0
 40
2.0
  1
20
 72
     1
 11
75.0
 21
16.75
 31
0.0
100
AcDbText
 73
     2
  0
TEXT
  5
86A
330
84B
100
AcDbEntity
  8
NORMAL
100
AcDbText
 10
93.38095238095238
 20
15.75
 30
0.0
 40
2.0
  1
40
 72
     1
 11
95.0
 21
16.75
 31
0.0
100
AcDbText
 73
     2
  0
TEXT
  5
86B
330
84B
100
AcDbEntity
  8
NORMAL
100
AcDbText
 10
83.38095238095238
 20
15.75
 30
0.0
 40
2.0
  1
30
 72
     1
 11
85.0
 21
16.75
 31
0.0
100
AcDbText
 73
     2
  0
TEXT
  5
86C
330
84B
100
AcDbEntity
  8
NORMAL
100
AcDbText
 10
152.1428571428571
 20
15.8
 30
0.0
 40
2.399999999999999
  1
100
 72
     1
 11
155.0
 21
17.0
 31
0.0
100
AcDbText
 73
     2
  0
TEXT
  5
86D
330
84B
100
AcDbEntity
  8
NORMAL
100
AcDbText
 10
113.3809523809524
 20
15.75
 30
0.0
 40
2.0
  1
60
 72
     1
 11
115.0
 21
16.75
 31
0.0
100
AcDbText
 73
     2
  0
TEXT
  5
86E
330
84B
100
AcDbEntity
  8
NORMAL
100
AcDbText
 10
123.3809523809524
 20
15.75
 30
0.0
 40
2.0
  1
70
 72
     1
 11
125.0
 21
16.75
 31
0.0
100
AcDbText
 73
     2
  0
TEXT
  5
86F
330
84B
100
AcDbEntity
  8
NORMAL
100
AcDbText
 10
133.3809523809524
 20
15.75
 30
0.0
 40
2.0
  1
80
 72
     1
 11
135.0
 21
16.75
 31
0.0
100
AcDbText
 73
     2
  0
TEXT
  5
870
330
84B
100
AcDbEntity
  8
NORMAL
100
AcDbText
 10
143.3809523809524
 20
15.75
 30
0.0
 40
2.0
  1
90
 72
     1
 11
145.0
 21
16.75
 31
0.0
100
AcDbText
 73
     2
  0
TEXT
  5
871
330
84B
100
AcDbEntity
  8
NORMAL
100
AcDbText
 10
160.0285714285714
 20
15.8
 30
0.0
 40
2.399999999999999
  1
mm
 72
     1
 11
163.0
 21
17.0
 31
0.0
100
AcDbText
 73
     2
  0
ENDBLK
  5
873
330
84B
100
AcDbEntity
  8
0
100
AcDbBlockEnd
  0
BLOCK
  5
A55
330
A13
100
AcDbEntity
  8
0
100
AcDbBlockBegin
  2
Logo_beijer_ny_A3
 70
     0
 10
0.0
 20
0.0
 30
0.0
  3
Logo_beijer_ny_A3
  1

  0
LWPOLYLINE
  5
A14
330
A13
100
AcDbEntity
  8
NORMAL
100
AcDbPolyline
 90
        5
 70
   128
 10
248.0540642296682
 20
12.84389503063478
 40
0.2410668
 41
0.5182936200000001
 42
0.2622557470497552
 10
248.7697266112161
 20
13.1467173207417
 40
0.5182936200000001
 41
0.5182936200000001
 42
0.3411546063707678
 10
248.7697266112161
 20
13.46422169567974
 40
0.5182936200000001
 41
0.3616002
 42
0.2657072613913866
 10
248.4198443956421
 20
13.72653784546902
 40
0.3616002
 41
0.3616002
 42
0.0620361190561305
 10
247.927669285037
 20
13.72653784546902
 40
0.3616002
 41
0.3616002
 42
16.1196415123131
  0
LWPOLYLINE
  5
A15
330
A13
100
AcDbEntity
  8
NORMAL
100
AcDbPolyline
 90
        2
 70
   128
 43
0.5182936200000001
 10
233.1335586408017
 20
13.91551901732629
 10
233.1335586408017
 20
11.83029119732629
  0
LWPOLYLINE
  5
A16
330
A13
100
AcDbEntity
  8
NORMAL
100
AcDbPolyline
 90
        2
 70
   128
 43
0.5182936200000001
 10
236.0685469308017
 20
13.91551901732629
 10
236.0685469308017
 20
11.83029119732629
  0
LWPOLYLINE
  5
A17
330
A13
100
AcDbEntity
  8
NORMAL
100
AcDbPolyline
 90
        2
 70
   128
 43
0.5182936200000001
 10
238.8227351208017
 20
13.91551901732629
 10
238.8227351208017
 20
11.83029119732629
  0
LWPOLYLINE
  5
A18
330
A13
100
AcDbEntity
  8
NORMAL
100
AcDbPolyline
 90
        2
 70
   128
 43
0.5182936200000001
 10
245.1808719708017
 20
13.91551901732629
 10
245.1808719708017
 20
11.83029119732629
  0
LWPOLYLINE
  5
A19
330
A13
100
AcDbEntity
  8
NORMAL
100
AcDbPolyline
 90
        8
 70
   128
 10
242.9690840808017
 20
13.54789214732628
 40
0.3616002
 41
0.3616002
 42
0.2060676929024406
 10
242.6617239108017
 20
13.7407455873263
 40
0.3616002
 41
0.3616002
 42
0.0771092075690679
 10
242.3664170808017
 20
13.7407455873263
 40
0.3616002
 41
0.5544536400000001
 42
0.3635942882004129
 10
241.7275900608017
 20
13.01151851732626
 40
0.5544536400000001
 41
0.5544536400000001
 42
0.0109739963688091
 10
241.7275900608017
 20
12.65594498732629
 40
0.5544536400000001
 41
0.3616002
 42
0.4202599797360669
 10
242.4025771008017
 20
12.02314463732629
 40
0.3616002
 41
0.3616002
 42
-0.0105826127177899
 10
242.5543833430154
 20
12.02639108622553
 40
0.3616002
 41
0.3616002
 42
0.1530749569014945
 10
242.9865420125281
 20
12.19486240138174
 40
0.3616002
 41
0.3616002
 42
18.69384229876336
  0
LWPOLYLINE
  5
A1A
330
A13
100
AcDbEntity
  8
NORMAL
100
AcDbPolyline
 90
        5
 70
   128
 10
251.5992755208017
 20
13.76485226732626
 40
0.3616002
 41
0.3616002
 10
251.6776222308017
 20
13.76485226732626
 40
0.3616002
 41
0.5544536400000001
 42
-0.3210953668463082
 10
252.2019425208017
 20
13.34298536732628
 40
0.5544536400000001
 41
0.5544536400000001
 42
-0.1166543979228078
 10
252.2019425208017
 20
12.42090485732629
 40
0.5544536400000001
 41
0.3616002
 42
-0.2968689102876843
 10
251.6776222308017
 20
12.01109129732629
 40
0.3616002
 41
0.3616002
 42
21.40308945287543
  0
LWPOLYLINE
  5
A1B
330
A13
100
AcDbEntity
  8
NORMAL
100
AcDbPolyline
 90
        2
 70
   128
 43
0.5182936200000001
 10
247.8085000908017
 20
13.91551901732629
 10
247.8085000908017
 20
11.83029119732629
  0
LWPOLYLINE
  5
A1C
330
A13
100
AcDbEntity
  8
NORMAL
100
AcDbPolyline
 90
        5
 70
   128
 10
251.6414622108017
 20
13.76485226732626
 40
0.3616002
 41
0.3616002
 10
251.5631155008017
 20
13.76485226732626
 40
0.3616002
 41
0.5544536400000001
 42
0.3210953668463082
 10
251.0387952108017
 20
13.34298536732628
 40
0.5544536400000001
 41
0.5544536400000001
 42
0.1166543979228078
 10
251.0387952108017
 20
12.42090485732629
 40
0.5544536400000001
 41
0.3616002
 42
0.2968689102876843
 10
251.5631155008017
 20
12.01109129732629
 40
0.3616002
 41
0.3616002
 42
-21.40308945287543
  0
LWPOLYLINE
  5
A1D
330
A13
100
AcDbEntity
  8
NORMAL
100
AcDbPolyline
 90
        2
 70
   128
 10
248.3588152747998
 20
12.86250248641487
 40
0.4821336
 41
0.5182936200000001
 10
248.9531683185896
 20
11.97434140317058
 40
0.5182936200000001
 41
0.5182936200000001
  0
LWPOLYLINE
  5
A1E
330
A13
100
AcDbEntity
  8
NORMAL
100
AcDbPolyline
 90
        2
 70
   128
 43
0.3616002
 10
255.6130377408017
 20
11.83029119732629
 10
255.6130377408017
 20
13.92154568732628
  0
LWPOLYLINE
  5
A1F
330
A13
100
AcDbEntity
  8
NORMAL
100
AcDbPolyline
 90
        2
 70
   128
 43
0.3616002
 10
254.3353837008017
 20
11.83029119732629
 10
254.3353837008017
 20
13.92154568732628
  0
LWPOLYLINE
  5
A20
330
A13
100
AcDbEntity
  8
NORMAL
100
AcDbPolyline
 90
        2
 70
   128
 43
0.5544536400000001
 10
254.3835970608017
 20
13.63829219732628
 10
255.5829043908017
 20
12.08943800732629
  0
LWPOLYLINE
  5
A21
330
A13
100
AcDbEntity
  8
NORMAL
100
AcDbPolyline
 90
        2
 70
   128
 43
0.5182936200000001
 10
257.8730389908017
 20
13.91551901732629
 10
257.8730389908017
 20
11.83029119732629
  0
LWPOLYLINE
  5
A22
330
A13
100
AcDbEntity
  8
NORMAL
100
AcDbPolyline
 90
        8
 70
   128
 10
261.3805609308017
 20
13.54789214732628
 40
0.3616002
 41
0.3616002
 42
0.2060676929024406
 10
261.0732007608017
 20
13.7407455873263
 40
0.3616002
 41
0.3616002
 42
0.0771092075690679
 10
260.7778939308017
 20
13.7407455873263
 40
0.3616002
 41
0.5544536400000001
 42
0.3635942882004129
 10
260.1390669108016
 20
13.01151851732626
 40
0.5544536400000001
 41
0.5544536400000001
 42
0.0109739963688091
 10
260.1390669108016
 20
12.65594498732629
 40
0.5544536400000001
 41
0.3616002
 42
0.4202599797360669
 10
260.8140539508016
 20
12.02314463732629
 40
0.3616002
 41
0.3616002
 42
-0.0105826127177899
 10
260.9658601930154
 20
12.02639108622553
 40
0.3616002
 41
0.3616002
 42
0.1530749569014945
 10
261.3980188625281
 20
12.19486240138174
 40
0.3616002
 41
0.3616002
 42
18.69384229876336
  0
LWPOLYLINE
  5
A23
330
A13
100
AcDbEntity
  8
NORMAL
100
AcDbPolyline
 90
       10
 70
   128
 10
264.0937449850328
 20
13.55541472901262
 40
0.3616002
 41
0.3616002
 42
0.1571156381666925
 10
263.7791660408117
 20
13.73837444809285
 40
0.3616002
 41
0.3616002
 42
0.1765859166580558
 10
263.3234514523033
 20
13.67672259013108
 40
0.3616002
 41
0.5182936200000001
 42
0.4559499112663765
 10
263.2001001506631
 20
13.15268210529193
 40
0.5182936200000001
 41
0.5182936200000001
 42
0.1144318555969924
 10
263.5941389734536
 20
12.81369385484692
 40
0.5182936200000001
 41
0.5182936200000001
 42
-0.1571145541218505
 10
263.9127965601395
 20
12.48145891090532
 40
0.5182936200000001
 41
0.5182936200000001
 42
-0.2580771250511793
 10
263.8922378949684
 20
12.1457021690308
 40
0.5182936200000001
 41
0.3616002
 42
-0.1810361537059312
 10
263.4879198544902
 20
12.00869805732883
 40
0.3616002
 41
0.3616002
 42
-0.0270010957928879
 10
263.1281451672574
 20
12.03952398630972
 40
0.3616002
 41
0.3616002
 42
-0.0789102023636825
 10
262.9602502825762
 20
12.0909004319992
 40
0.3616002
 41
0.3616002
 42
-0.9198689015972581
  0
LWPOLYLINE
  5
A24
330
A13
100
AcDbEntity
  8
NORMAL
100
AcDbPolyline
 90
        2
 70
   128
 43
0.2410668000000001
 10
263.5695523356777
 20
12.70364578729183
 42
-1.140570395932477
 10
263.2130415168741
 20
12.10205242773909
 42
0.0478546845855308
  0
LWPOLYLINE
  5
A25
330
A13
100
AcDbEntity
  8
NORMAL
100
AcDbPolyline
 90
        2
 70
   128
 43
0.3616002
 10
233.3927054508017
 20
12.01109129732629
 10
234.1701458808017
 20
12.01109129732629
  0
LWPOLYLINE
  5
A26
330
A13
100
AcDbEntity
  8
NORMAL
100
AcDbPolyline
 90
        2
 70
   128
 43
0.3616002
 10
239.0818819308017
 20
12.01109129732629
 10
239.8593223608017
 20
12.01109129732629
  0
LWPOLYLINE
  5
A27
330
A13
100
AcDbEntity
  8
NORMAL
100
AcDbPolyline
 90
        2
 70
   128
 43
0.3616002
 10
236.3276937408017
 20
12.01109129732629
 10
237.1051341708017
 20
12.01109129732629
  0
LWPOLYLINE
  5
A28
330
A13
100
AcDbEntity
  8
NORMAL
100
AcDbPolyline
 90
        2
 70
   128
 43
0.05424003
 10
249.3328189482055
 20
11.85701032161563
 10
248.7378105273066
 20
11.85701032161563
  0
LWPOLYLINE
  5
A29
330
A13
100
AcDbEntity
  8
NORMAL
100
AcDbPolyline
 90
        2
 70
   128
 43
0.3616002
 10
251.5390088208017
 20
12.01109129732629
 10
251.7137822508017
 20
12.01109129732629
  0
LWPOLYLINE
  5
A2A
330
A13
100
AcDbEntity
  8
NORMAL
100
AcDbPolyline
 90
        2
 70
   128
 43
0.09040005
 10
249.132360185761
 20
12.01777198563347
 10
249.238294587951
 20
11.86113794082662
  0
LWPOLYLINE
  5
A2B
330
A13
100
AcDbEntity
  8
NORMAL
100
AcDbPolyline
 90
        2
 70
   128
 43
0.2410668
 10
248.9381472682767
 20
12.04534839763697
 10
248.9381472682767
 20
11.87216847484444
  0
LWPOLYLINE
  5
A2C
330
A13
100
AcDbEntity
  8
NORMAL
100
AcDbPolyline
 90
        2
 70
   128
 43
0.1205334
 10
249.1180149643675
 20
12.09829511484045
 10
249.1180149643675
 20
11.87216847484444
  0
LWPOLYLINE
  5
A2D
330
A13
100
AcDbEntity
  8
NORMAL
100
AcDbPolyline
 90
        2
 70
   128
 43
0.0602667
 10
249.0476533837931
 20
12.23984827325832
 10
249.307768008453
 20
11.8665546233516
  0
LWPOLYLINE
  5
A2E
330
A13
100
AcDbEntity
  8
NORMAL
100
AcDbPolyline
 90
        2
 70
   128
 43
0.2410668
 10
255.4322376408017
 20
12.02917130732629
 10
255.5286643608017
 20
11.90261123732628
  0
LWPOLYLINE
  5
A2F
330
A13
100
AcDbEntity
  8
NORMAL
100
AcDbPolyline
 90
        2
 70
   128
 43
0.4821336
 10
263.8844438988452
 20
12.11668035867147
 42
0.0527019475305898
 10
263.9259769717428
 20
12.16293841811051
 42
2.067551259329746
  0
LWPOLYLINE
  5
A30
330
A13
100
AcDbEntity
  8
NORMAL
100
AcDbPolyline
 90
        2
 70
   128
 43
1.30176072
 10
249.3633809508017
 20
21.40666982732629
 10
246.8623129008017
 20
21.40666982732629
  0
LWPOLYLINE
  5
A31
330
A13
100
AcDbEntity
  8
NORMAL
100
AcDbPolyline
 90
        2
 70
   128
 43
1.39818744
 10
235.7190000708017
 20
23.19659081732628
 10
235.7190000708017
 20
24.45013817732627
  0
LWPOLYLINE
  5
A32
330
A13
100
AcDbEntity
  8
NORMAL
100
AcDbPolyline
 90
        2
 70
   128
 43
1.3861341
 10
234.5136660708017
 20
23.88965786732628
 10
235.7069467308017
 20
23.88965786732628
  0
LWPOLYLINE
  5
A33
330
A13
100
AcDbEntity
  8
NORMAL
100
AcDbPolyline
 90
        2
 70
   128
 43
1.3861341
 10
234.5136660708017
 20
20.41226927732629
 10
235.8395334708017
 20
20.41226927732629
  0
LWPOLYLINE
  5
A34
330
A13
100
AcDbEntity
  8
NORMAL
100
AcDbPolyline
 90
        2
 70
   128
 43
1.3861341
 10
234.5136660708017
 20
16.17552026732627
 10
235.7069467308017
 20
16.17552026732627
  0
LWPOLYLINE
  5
A35
330
A13
100
AcDbEntity
  8
NORMAL
100
AcDbPolyline
 90
        4
 70
   128
 10
235.7069467308017
 20
23.8956845373263
 40
1.3861341
 41
1.72362762
 42
-0.3921100092104534
 10
237.6053477808017
 20
22.19013692732628
 40
1.72362762
 41
1.72362762
 42
-0.0457751607635921
 10
237.6053477808017
 20
22.02139016732626
 40
1.72362762
 41
1.3861341
 42
-0.3880397409263962
 10
235.8395334708017
 20
20.41226927732629
 40
1.3861341
 41
1.3861341
 42
12.17936680305165
  0
LWPOLYLINE
  5
A36
330
A13
100
AcDbEntity
  8
NORMAL
100
AcDbPolyline
 90
        5
 70
   128
 10
235.8335068008017
 20
20.41226927732629
 40
1.3861341
 41
1.72362762
 42
-0.3228561763130926
 10
238.1115880608017
 20
18.76698836732628
 40
1.72362762
 41
1.72362762
 42
-0.0837873378750166
 10
238.1899347708017
 20
18.2607480873263
 40
1.72362762
 41
1.72362762
 42
-0.0370400557393555
 10
238.1417214108017
 20
17.71232111732628
 40
1.72362762
 41
1.3861341
 42
-0.3263654761369514
 10
235.7069467308017
 20
16.17552026732627
 40
1.3861341
 41
1.3861341
 42
-0.3999653590879674
  0
LWPOLYLINE
  5
A37
330
A13
100
AcDbEntity
  8
NORMAL
100
AcDbPolyline
 90
        2
 70
   128
 43
1.639254239999999
 10
233.6940389508017
 20
15.48245321732627
 10
233.6940389508017
 20
24.58272491732627
  0
LWPOLYLINE
  5
A38
330
A13
100
AcDbEntity
  8
NORMAL
100
AcDbPolyline
 90
        2
 70
   128
 43
0.3616002
 10
233.3927054508017
 20
12.8729051073263
 10
234.1701458808017
 20
12.8729051073263
  0
LWPOLYLINE
  5
A39
330
A13
100
AcDbEntity
  8
NORMAL
100
AcDbPolyline
 90
        2
 70
   128
 43
0.3616002
 10
233.3927054508017
 20
13.73471891732625
 10
234.1701458808017
 20
13.73471891732625
  0
LWPOLYLINE
  5
A3A
330
A13
100
AcDbEntity
  8
NORMAL
100
AcDbPolyline
 90
       12
 70
   128
 10
245.4520721208017
 20
19.60469549732627
 40
1.639254239999999
 41
1.39818744
 42
0.3447757671032011
 10
243.2342575608017
 20
21.5452832373263
 40
1.39818744
 41
1.39818744
 42
0.0152103135368657
 10
242.9871640908017
 20
21.55130990732627
 40
1.39818744
 41
1.39818744
 42
-0.0030164452749489
 10
242.8967640408017
 20
21.55130990732627
 40
1.39818744
 41
1.39818744
 42
0.0286428489609886
 10
242.6617239108017
 20
21.53925656732628
 40
1.39818744
 41
1.639254239999999
 42
0.3850668063011274
 10
240.7151095008017
 20
19.35157535732628
 40
1.639254239999999
 41
1.639254239999999
 42
-0.0039895075305564
 10
240.7151095008017
 20
18.6946683273263
 40
1.639254239999999
 41
1.639254239999999
 42
0.0039895075305557
 10
240.7151095008017
 20
18.19445471732626
 40
1.639254239999999
 41
1.39818744
 42
0.3647447527679122
 10
242.5652971908017
 20
16.03088018732629
 40
1.39818744
 41
1.39818744
 42
0.0430535849437195
 10
243.0293507808017
 20
15.99472016732625
 40
1.39818744
 41
1.39818744
 42
-0.0041445668839299
 10
243.4813510308017
 20
15.99472016732625
 40
1.39818744
 41
1.39818744
 42
0.1717290438359381
 10
245.2652453508017
 20
16.6094405073263
 40
1.39818744
 41
1.39818744
  0
LWPOLYLINE
  5
A3B
330
A13
100
AcDbEntity
  8
NORMAL
100
AcDbPolyline
 90
        2
 70
   128
 43
0.6026670000000001
 10
238.6118016708017
 20
18.52592156732628
 42
-0.312467127625936
 10
238.2562281408017
 20
16.85050730732629
 42
-2.317145180057478
  0
LWPOLYLINE
  5
A3C
330
A13
100
AcDbEntity
  8
NORMAL
100
AcDbPolyline
 90
        2
 70
   128
 43
0.6026670000000001
 10
238.2622548108017
 20
18.6042682773263
 42
-0.312467127625936
 10
237.9066812808017
 20
16.92885401732629
 42
-2.317145180057478
  0
LWPOLYLINE
  5
A3D
330
A13
100
AcDbEntity
  8
NORMAL
100
AcDbPolyline
 90
        2
 70
   128
 43
0.3616002
 10
239.0818819308017
 20
12.8729051073263
 10
239.8593223608017
 20
12.8729051073263
  0
LWPOLYLINE
  5
A3E
330
A13
100
AcDbEntity
  8
NORMAL
100
AcDbPolyline
 90
        2
 70
   128
 43
0.6026670000000001
 10
235.7370800808017
 20
16.86858731732629
 10
235.7370800808017
 20
15.49450655732629
  0
LWPOLYLINE
  5
A3F
330
A13
100
AcDbEntity
  8
NORMAL
100
AcDbPolyline
 90
        2
 70
   128
 43
0.3616002
 10
239.0818819308017
 20
13.73471891732625
 10
239.8593223608017
 20
13.73471891732625
  0
LWPOLYLINE
  5
A40
330
A13
100
AcDbEntity
  8
NORMAL
100
AcDbPolyline
 90
        2
 70
   128
 43
0.3616002
 10
244.3552181808017
 20
13.73471891732625
 10
246.0065257608017
 20
13.73471891732625
  0
LWPOLYLINE
  5
A41
330
A13
100
AcDbEntity
  8
NORMAL
100
AcDbPolyline
 90
        2
 70
   128
 43
1.205334
 10
241.3599631908017
 20
18.85738841732626
 10
246.1632191808017
 20
18.85738841732626
  0
LWPOLYLINE
  5
A42
330
A13
100
AcDbEntity
  8
NORMAL
100
AcDbPolyline
 90
        2
 70
   128
 43
1.639254239999999
 10
245.4374447103864
 20
19.75676173314433
 10
245.4374447103864
 20
19.68277536017598
  0
LWPOLYLINE
  5
A43
330
A13
100
AcDbEntity
  8
NORMAL
100
AcDbPolyline
 90
        2
 70
   128
 43
1.639254239999999
 10
245.4400187808017
 20
19.71317555732627
 42
-0.0379614740641753
 10
245.3496187308016
 20
18.37525481732629
 42
1.117704553307964
  0
LWPOLYLINE
  5
A44
330
A13
100
AcDbEntity
  8
NORMAL
100
AcDbPolyline
 90
        2
 70
   128
 43
1.205334
 10
256.3999130444973
 20
18.85738841732626
 10
261.2031690344974
 20
18.85738841732626
  0
LWPOLYLINE
  5
A45
330
A13
100
AcDbEntity
  8
NORMAL
100
AcDbPolyline
 90
       12
 70
   128
 10
260.4920219744973
 20
19.60469549732627
 40
1.639254239999999
 41
1.39818744
 42
0.3447757671032011
 10
258.2742074144972
 20
21.5452832373263
 40
1.39818744
 41
1.39818744
 42
0.0152103135368657
 10
258.0271139444973
 20
21.55130990732627
 40
1.39818744
 41
1.39818744
 42
-0.0030164452749489
 10
257.9367138944973
 20
21.55130990732627
 40
1.39818744
 41
1.39818744
 42
0.0286428489609886
 10
257.7016737644973
 20
21.53925656732628
 40
1.39818744
 41
1.639254239999999
 42
0.3850668063011274
 10
255.7550593544973
 20
19.35157535732628
 40
1.639254239999999
 41
1.639254239999999
 42
-0.0039895075305564
 10
255.7550593544973
 20
18.6946683273263
 40
1.639254239999999
 41
1.639254239999999
 42
0.0039895075305557
 10
255.7550593544973
 20
18.19445471732626
 40
1.639254239999999
 41
1.39818744
 42
0.3647447527679122
 10
257.6052470444973
 20
16.03088018732629
 40
1.39818744
 41
1.39818744
 42
0.0430535849437195
 10
258.0693006344973
 20
15.99472016732625
 40
1.39818744
 41
1.39818744
 42
-0.0041445668839299
 10
258.5213008844972
 20
15.99472016732625
 40
1.39818744
 41
1.39818744
 42
0.1717290438359381
 10
260.3051952044973
 20
16.6094405073263
 40
1.39818744
 41
1.39818744
  0
LWPOLYLINE
  5
A46
330
A13
100
AcDbEntity
  8
NORMAL
100
AcDbPolyline
 90
        2
 70
   128
 43
1.898401049999999
 10
252.9070629108017
 20
24.12469799732628
 10
252.9070629108017
 20
25.94475233732629
  0
CIRCLE
  5
A47
330
A13
100
AcDbEntity
  8
NORMAL
100
AcDbCircle
 10
248.3810337408017
 20
23.66667107732627
 30
0.0
 40
1.021124932611938
  0
LWPOLYLINE
  5
A48
330
A13
100
AcDbEntity
  8
NORMAL
100
AcDbPolyline
 90
        4
 70
   128
 10
253.0336229808017
 20
17.73040112732627
 40
1.639254239999999
 41
1.39818744
 42
-0.2531501389124158
 10
251.9849824008017
 20
16.32016034732629
 40
1.39818744
 41
1.39818744
 42
-0.1266841417469215
 10
250.9905818508017
 20
16.13333357732628
 40
1.39818744
 41
1.39818744
 10
250.1287680408017
 20
16.13333357732628
 40
1.39818744
 41
1.39818744
  0
LWPOLYLINE
  5
A49
330
A13
100
AcDbEntity
  8
NORMAL
100
AcDbPolyline
 90
        2
 70
   128
 43
1.37408076
 10
253.8532501008017
 20
22.75061723732632
 10
251.0086618608017
 20
22.75061723732632
  0
LWPOLYLINE
  5
A4A
330
A13
100
AcDbEntity
  8
NORMAL
100
AcDbPolyline
 90
        2
 70
   128
 43
1.39818744
 10
253.1481297108017
 20
17.85696119732628
 10
253.1481297108017
 20
17.60986772732629
  0
LWPOLYLINE
  5
A4B
330
A13
100
AcDbEntity
  8
NORMAL
100
AcDbPolyline
 90
        2
 70
   128
 43
1.639254239999999
 10
253.0336229808017
 20
17.73040112732627
 10
253.0336229808017
 20
22.06357685732628
  0
LWPOLYLINE
  5
A4C
330
A13
100
AcDbEntity
  8
NORMAL
100
AcDbPolyline
 90
        2
 70
   128
 43
1.639254239999999
 10
248.5437538308017
 20
15.48245321732627
 10
248.5437538308017
 20
20.80400282732626
  0
LWPOLYLINE
  5
A4D
330
A13
100
AcDbEntity
  8
NORMAL
100
AcDbPolyline
 90
        2
 70
   128
 43
0.3616002
 10
248.4698141426657
 20
13.74045972926042
 42
-0.5611324460976983
 10
248.4815323405278
 20
12.8882711314186
 42
-0.5202209778681963
  0
LWPOLYLINE
  5
A4E
330
A13
100
AcDbEntity
  8
NORMAL
100
AcDbPolyline
 90
        2
 70
   128
 43
0.2410668
 10
254.4197570808017
 20
13.84922564732628
 10
254.5161838008017
 20
13.72266557732628
  0
LWPOLYLINE
  5
A4F
330
A13
100
AcDbEntity
  8
NORMAL
100
AcDbPolyline
 90
        2
 70
   128
 10
263.6646688608018
 20
20.47253597732627
 40
1.0848006
 41
1.4464008
 42
-0.4447821607629658
 10
266.5454171208017
 20
21.24394973732631
 40
1.4464008
 41
1.4464008
 42
0.2958927311573283
  0
LWPOLYLINE
  5
A50
330
A13
100
AcDbEntity
  8
NORMAL
100
AcDbPolyline
 90
        2
 70
   128
 43
1.639254239999999
 10
263.1403485708017
 20
15.48245321732627
 10
263.1403485708017
 20
22.06357685732628
  0
LWPOLYLINE
  5
A51
330
A13
100
AcDbEntity
  8
NORMAL
100
AcDbPolyline
 90
        2
 70
   128
 43
0.2410668
 10
263.8236305741594
 20
13.65618808089529
 42
1.140570395932477
 10
263.5560632179418
 20
13.01010585387726
 42
-0.0478546845855308
  0
LWPOLYLINE
  5
A52
330
A13
100
AcDbEntity
  8
NORMAL
100
AcDbPolyline
 90
        2
 70
   128
 43
1.4464008
 10
263.0499485208017
 20
19.84576229732627
 10
263.5802954808017
 20
20.67744275732629
  0
LWPOLYLINE
  5
A53
330
A13
100
AcDbEntity
  8
NORMAL
100
AcDbPolyline
 90
        2
 70
   128
 43
1.639254239999999
 10
260.477394564082
 20
19.75676173314433
 10
260.477394564082
 20
19.68277536017598
  0
LWPOLYLINE
  5
A54
330
A13
100
AcDbEntity
  8
NORMAL
100
AcDbPolyline
 90
        2
 70
   128
 43
1.639254239999999
 10
260.4799686344973
 20
19.71317555732627
 42
-0.0379614740641753
 10
260.3895685844973
 20
18.37525481732629
 42
1.117704553307964
  0
ENDBLK
  5
A56
330
A13
100
AcDbEntity
  8
0
100
AcDbBlockEnd
  0
BLOCK
  5
CA5
330
C15
100
AcDbEntity
  8
0
100
AcDbBlockBegin
  2
RAM_A3
 70
     0
 10
0.0
 20
0.0
 30
0.0
  3
RAM_A3
  1

  0
LWPOLYLINE
  5
C16
330
C15
100
AcDbEntity
  8
NORMAL
100
AcDbPolyline
 90
        2
 70
     0
 43
0.24
 10
241.8075881785732
 20
18.41831661483115
 10
243.0823738056508
 20
18.41831661483115
  0
LWPOLYLINE
  5
C17
330
C15
100
AcDbEntity
  8
NORMAL
100
AcDbPolyline
 90
        2
 70
     0
 43
0.24
 10
241.8075881785732
 20
18.88831661483115
 10
243.6610165711581
 20
18.88831661483115
  0
LWPOLYLINE
  5
C18
330
C15
100
AcDbEntity
  8
NORMAL
100
AcDbPolyline
 90
        2
 70
     0
 43
0.24
 10
241.8075881785732
 20
19.35831661483115
 10
243.9007394980217
 20
19.35831661483115
  0
LWPOLYLINE
  5
C19
330
C15
100
AcDbEntity
  8
NORMAL
100
AcDbPolyline
 90
        2
 70
     0
 43
0.24
 10
241.8075881785732
 20
19.82831661483115
 10
243.9007394980217
 20
19.82831661483115
  0
LWPOLYLINE
  5
C1A
330
C15
100
AcDbEntity
  8
NORMAL
100
AcDbPolyline
 90
        2
 70
     0
 43
0.24
 10
241.8075881785732
 20
20.29831661483116
 10
243.6610165711581
 20
20.29831661483116
  0
LWPOLYLINE
  5
C1B
330
C15
100
AcDbEntity
  8
NORMAL
100
AcDbPolyline
 90
        2
 70
     0
 43
0.24
 10
241.8075881785732
 20
20.76831661483115
 10
243.0823738056508
 20
20.76831661483115
  0
LWPOLYLINE
  5
C1C
330
C15
100
AcDbEntity
  8
NORMAL
100
AcDbPolyline
 90
        2
 70
     0
 43
0.0576
 10
243.0672011430539
 20
20.8478198299097
 42
-0.7306836794234523
 10
243.0703622706301
 20
18.34171411157039
 42
6.770132328237663
  0
LWPOLYLINE
  5
C1D
330
C15
100
AcDbEntity
  8
NORMAL
100
AcDbPolyline
 90
        2
 70
     0
 43
0.0576
 10
241.7799117022674
 20
20.88842015420572
 10
241.7799117022674
 20
18.29806244604071
  0
LWPOLYLINE
  5
C1E
330
C15
100
AcDbEntity
  8
NORMAL
100
AcDbPolyline
 90
        2
 70
     0
 43
0.096
 10
243.0605747883834
 20
18.48845459508194
 10
243.3184636253397
 20
18.48845459508194
  0
LWPOLYLINE
  5
C1F
330
C15
100
AcDbEntity
  8
NORMAL
100
AcDbPolyline
 90
        2
 70
     0
 43
0.096
 10
243.0660845968107
 20
20.69805218602908
 10
243.3017739068376
 20
20.69805218602908
  0
LWPOLYLINE
  5
C20
330
C15
100
AcDbEntity
  8
NORMAL
100
AcDbPolyline
 90
        2
 70
     0
 43
2.112
 10
264.9199999999999
 20
19.08
 10
264.9199999999999
 20
19.53
  0
LWPOLYLINE
  5
C21
330
C15
100
AcDbEntity
  8
NORMAL
100
AcDbPolyline
 90
        2
 70
     0
 43
1.079999999999999
 10
264.41
 20
19.29000000000001
 42
0.4024088356767152
 10
263.39
 20
20.37000000000001
 42
5692.216443553547
  0
LINE
  5
C22
330
C15
100
AcDbEntity
  8
NORMAL
100
AcDbLine
 10
257.6
 20
18.93
 30
0.0
 11
257.96
 21
18.93
 31
0.0
  0
LWPOLYLINE
  5
C23
330
C15
100
AcDbEntity
  8
NORMAL
100
AcDbPolyline
 90
        2
 70
     0
 43
1.229999999999999
 10
256.37
 20
20.26274172337983
 10
258.41
 20
20.26274172337983
  0
LWPOLYLINE
  5
C24
330
C15
100
AcDbEntity
  8
NORMAL
100
AcDbPolyline
 90
        2
 70
     0
 43
1.5
 10
253.07
 20
20.16
 10
250.52
 20
20.16
  0
LWPOLYLINE
  5
C25
330
C15
100
AcDbEntity
  8
NORMAL
100
AcDbPolyline
 90
        2
 70
     0
 43
1.5
 10
237.8
 20
20.16
 10
235.25
 20
20.16
  0
LWPOLYLINE
  5
C26
330
C15
100
AcDbEntity
  8
NORMAL
100
AcDbPolyline
 90
        2
 70
     0
 43
1.32
 10
229.85
 20
20.22000000000001
 42
-0.1059403544254509
 10
230.69
 20
20.04000000000001
 42
0.2142857142856996
  0
LINE
  5
C27
330
C15
100
AcDbEntity
  8
NORMAL
100
AcDbLine
 10
231.95
 20
19.14000000000001
 30
0.0
 11
231.29
 21
19.14000000000001
 31
0.0
  0
LWPOLYLINE
  5
C28
330
C15
100
AcDbEntity
  8
NORMAL
100
AcDbPolyline
 90
        2
 70
     0
 43
1.32
 10
226.25
 20
20.22000000000001
 10
230.09
 20
20.22000000000001
  0
LWPOLYLINE
  5
C29
330
C15
100
AcDbEntity
  8
NORMAL
100
AcDbPolyline
 90
        4
 70
     0
 10
263.21
 20
12.78
 40
0.36
 41
0.36
 10
263.21
 20
12.9
 40
0.36
 41
0.336
 42
0.3183883666655848
 10
262.28
 20
13.52999999999999
 40
0.336
 41
0.336
 42
-0.0105357818710924
 10
262.1
 20
13.52999999999999
 40
0.336
 41
0.336
 42
1.0
  0
LWPOLYLINE
  5
C2A
330
C15
100
AcDbEntity
  8
NORMAL
100
AcDbPolyline
 90
        9
 70
     0
 43
0.336
 10
265.64
 20
12.78
 42
0.4214637552799705
 10
264.83
 20
13.55999999999999
 42
-0.0156066358353944
 10
264.56
 20
13.55999999999999
 42
0.4472530143652844
 10
263.84
 20
12.87000000000001
 42
0.3136157157652375
 10
264.32
 20
12.39000000000001
 42
-0.0127252117870812
 10
265.28
 20
12.12000000000001
 42
-0.3484135237671118
 10
265.73
 20
11.55
 42
0.0011160700383811
 10
265.73
 20
11.43
 42
-0.265911589003587
 10
265.16
 20
10.85999999999999
 42
-32.78050593550852
  0
LWPOLYLINE
  5
C2B
330
C15
100
AcDbEntity
  8
NORMAL
100
AcDbPolyline
 90
        5
 70
     0
 43
0.336
 10
265.16
 20
10.85999999999999
 42
-0.1059403544254505
 10
264.8
 20
10.8
 42
0.0229763698030065
 10
264.5900000000001
 20
10.8
 42
-0.3521603484511233
 10
263.69
 20
11.60999999999999
 10
263.69
 20
11.73
  0
LWPOLYLINE
  5
C2C
330
C15
100
AcDbEntity
  8
NORMAL
100
AcDbPolyline
 90
        2
 70
     0
 43
0.384
 10
260.45
 20
13.62000000000001
 10
260.45
 20
10.68
  0
LWPOLYLINE
  5
C2D
330
C15
100
AcDbEntity
  8
NORMAL
100
AcDbPolyline
 90
        2
 70
     0
 43
0.336
 10
259.76
 20
13.62000000000001
 10
259.76
 20
10.65
  0
LWPOLYLINE
  5
C2E
330
C15
100
AcDbEntity
  8
NORMAL
100
AcDbPolyline
 90
        2
 70
     0
 43
0.336
 10
257.81
 20
10.68
 10
257.81
 20
13.65
  0
LWPOLYLINE
  5
C2F
330
C15
100
AcDbEntity
  8
NORMAL
100
AcDbPolyline
 90
        3
 70
     0
 43
0.336
 10
257.87
 20
13.52999999999999
 10
259.64
 20
10.83
 10
259.7
 20
10.74000000000001
  0
LWPOLYLINE
  5
C30
330
C15
100
AcDbEntity
  8
NORMAL
100
AcDbPolyline
 90
        2
 70
     0
 43
2.159999999999999
 10
258.74
 20
14.43
 10
258.74
 20
16.62
  0
LWPOLYLINE
  5
C31
330
C15
100
AcDbEntity
  8
NORMAL
100
AcDbPolyline
 90
        2
 70
     0
 43
0.24
 10
258.8
 20
17.4
 42
-0.2655644370746372
 10
259.7
 20
16.59000000000001
 42
0.7229765506428709
  0
LWPOLYLINE
  5
C32
330
C15
100
AcDbEntity
  8
NORMAL
100
AcDbPolyline
 90
        2
 70
     0
 43
0.24
 10
258.68
 20
16.70999999999999
 10
259.58
 20
16.70999999999999
  0
LWPOLYLINE
  5
C33
330
C15
100
AcDbEntity
  8
NORMAL
100
AcDbPolyline
 90
        2
 70
     0
 43
0.24
 10
258.68
 20
16.95
 10
259.46
 20
16.95
  0
LWPOLYLINE
  5
C34
330
C15
100
AcDbEntity
  8
NORMAL
100
AcDbPolyline
 90
        2
 70
     0
 43
1.229999999999999
 10
258.0770656272631
 20
16.92000000000001
 10
258.0770656272631
 20
14.88
  0
LWPOLYLINE
  5
C35
330
C15
100
AcDbEntity
  8
NORMAL
100
AcDbPolyline
 90
        2
 70
     0
 43
0.24
 10
257.5821351219365
 20
14.8919341246336
 42
0.1981172372432109
 10
257.75
 20
14.52000000000001
 42
0.712484209818165
  0
LWPOLYLINE
  5
C36
330
C15
100
AcDbEntity
  8
NORMAL
100
AcDbPolyline
 90
        2
 70
     0
 43
0.24
 10
258.86
 20
17.13
 10
259.31
 20
17.13
  0
LWPOLYLINE
  5
C37
330
C15
100
AcDbEntity
  8
NORMAL
100
AcDbPolyline
 90
        2
 70
     0
 43
0.06
 10
259.79
 20
14.88
 42
0.1232247137572706
 10
259.9320108888122
 20
14.44607438308751
 42
0.5523552120989404
  0
LWPOLYLINE
  5
C38
330
C15
100
AcDbEntity
  8
NORMAL
100
AcDbPolyline
 90
        2
 70
     0
 43
0.06
 10
259.82
 20
14.45999999999999
 10
259.94
 20
14.45999999999999
  0
LWPOLYLINE
  5
C39
330
C15
100
AcDbEntity
  8
NORMAL
100
AcDbPolyline
 90
        2
 70
     0
 43
0.06
 10
259.8523690208086
 20
14.47729660837658
 10
259.7977128849974
 20
14.60374704356655
  0
LWPOLYLINE
  5
C3A
330
C15
100
AcDbEntity
  8
NORMAL
100
AcDbPolyline
 90
        2
 70
     0
 43
0.312
 10
253.73
 20
13.47
 42
-0.7873402682880196
 10
253.76
 20
12.05999999999999
 42
7.705201454470874
  0
LWPOLYLINE
  5
C3B
330
C15
100
AcDbEntity
  8
NORMAL
100
AcDbPolyline
 90
        2
 70
     0
 43
0.312
 10
252.53
 20
12.05999999999999
 10
253.91
 20
12.05999999999999
  0
LWPOLYLINE
  5
C3C
330
C15
100
AcDbEntity
  8
NORMAL
100
AcDbPolyline
 90
        3
 70
     0
 43
0.312
 10
253.76
 20
12.03
 42
-0.3204650534085252
 10
254.21
 20
11.43
 42
-0.0116263352131339
 10
254.21
 20
10.8
 42
1.023526193842166
  0
LWPOLYLINE
  5
C3D
330
C15
100
AcDbEntity
  8
NORMAL
100
AcDbPolyline
 90
        2
 70
     0
 43
0.12
 10
254.1187401117034
 20
10.76205823798855
 10
254.3292589978071
 20
10.75916745369243
  0
LWPOLYLINE
  5
C3E
330
C15
100
AcDbEntity
  8
NORMAL
100
AcDbPolyline
 90
        2
 70
     0
 43
0.072
 10
254.092136237207
 20
10.6909436680199
 10
254.3922989577638
 20
10.69036551116067
  0
LWPOLYLINE
  5
C3F
330
C15
100
AcDbEntity
  8
NORMAL
100
AcDbPolyline
 90
        2
 70
     0
 43
0.072
 10
254.3257889369193
 20
10.81178068509489
 10
254.3882504790383
 20
10.6660824444667
  0
LWPOLYLINE
  5
C40
330
C15
100
AcDbEntity
  8
NORMAL
100
AcDbPolyline
 90
        2
 70
     0
 43
0.072
 10
254.0886661763191
 20
10.81293699881335
 10
254.1262588743856
 20
10.66319166017061
  0
LWPOLYLINE
  5
C41
330
C15
100
AcDbEntity
  8
NORMAL
100
AcDbPolyline
 90
        2
 70
     0
 43
0.312
 10
252.53
 20
13.47
 10
253.76
 20
13.47
  0
LWPOLYLINE
  5
C42
330
C15
100
AcDbEntity
  8
NORMAL
100
AcDbPolyline
 90
        8
 70
     0
 43
0.336
 10
256.01
 20
13.52999999999999
 42
-0.41994185283934
 10
257.27
 20
12.20999999999999
 42
0.0165067911298894
 10
257.27
 20
11.97
 42
-0.3464467204334325
 10
256.19
 20
10.77000000000001
 42
-0.0856936402261269
 10
255.74
 20
10.77000000000001
 42
-0.3116965731275654
 10
254.75
 20
11.87999999999999
 42
-0.0620855249534173
 10
254.75
 20
12.45
 42
-0.3813961161759009
 10
256.01
 20
13.52999999999999
 42
0.0100536014067766
  0
LWPOLYLINE
  5
C43
330
C15
100
AcDbEntity
  8
NORMAL
100
AcDbPolyline
 90
        2
 70
     0
 43
1.32
 10
256.37
 20
17.58
 10
258.89
 20
17.58
  0
LWPOLYLINE
  5
C44
330
C15
100
AcDbEntity
  8
NORMAL
100
AcDbPolyline
 90
        2
 70
     0
 43
0.24
 10
257.18
 20
17.04000000000001
 42
-0.3133429216279078
 10
257.6
 20
16.47
 42
0.9726557505680247
  0
LWPOLYLINE
  5
C45
330
C15
100
AcDbEntity
  8
NORMAL
100
AcDbPolyline
 90
        4
 70
     0
 10
249.65
 20
12.78
 40
0.36
 41
0.36
 10
249.65
 20
12.9
 40
0.36
 41
0.336
 42
0.3183883666655848
 10
248.72
 20
13.52999999999999
 40
0.336
 41
0.336
 42
-0.0105357818710924
 10
248.54
 20
13.52999999999999
 40
0.336
 41
0.336
 42
1.0
  0
LWPOLYLINE
  5
C46
330
C15
100
AcDbEntity
  8
NORMAL
100
AcDbPolyline
 90
        2
 70
     0
 43
0.384
 10
250.85
 20
13.40999999999999
 10
250.85
 20
10.68
  0
LWPOLYLINE
  5
C47
330
C15
100
AcDbEntity
  8
NORMAL
100
AcDbPolyline
 90
        2
 70
     0
 43
0.312
 10
249.74
 20
13.47
 10
252.05
 20
13.47
  0
LWPOLYLINE
  5
C48
330
C15
100
AcDbEntity
  8
NORMAL
100
AcDbPolyline
 90
        2
 70
     0
 43
0.384
 10
245.24
 20
13.62000000000001
 10
245.24
 20
10.68
  0
LWPOLYLINE
  5
C49
330
C15
100
AcDbEntity
  8
NORMAL
100
AcDbPolyline
 90
        2
 70
     0
 43
0.336
 10
243.26
 20
10.85287705644303
 10
244.8381196403893
 20
10.85287705644303
  0
LWPOLYLINE
  5
C4A
330
C15
100
AcDbEntity
  8
NORMAL
100
AcDbPolyline
 90
        2
 70
     0
 43
0.336
 10
245.4329088559698
 20
10.8545373311681
 10
247.2432598758184
 20
10.8545373311681
  0
LWPOLYLINE
  5
C4B
330
C15
100
AcDbEntity
  8
NORMAL
100
AcDbPolyline
 90
        2
 70
     0
 43
0.312
 10
245.4335158266355
 20
12.22029092443202
 10
247.0551366681036
 20
12.22029092443202
  0
LWPOLYLINE
  5
C4C
330
C15
100
AcDbEntity
  8
NORMAL
100
AcDbPolyline
 90
        2
 70
     0
 43
1.2
 10
245.36
 20
16.32000000000001
 10
245.36
 20
15.27000000000001
  0
LWPOLYLINE
  5
C4D
330
C15
100
AcDbEntity
  8
NORMAL
100
AcDbPolyline
 90
        2
 70
     0
 43
0.312
 10
245.42
 20
13.47
 10
247.2423939220792
 20
13.47
  0
LWPOLYLINE
  5
C4E
330
C15
100
AcDbEntity
  8
NORMAL
100
AcDbPolyline
 90
        2
 70
     0
 43
1.2
 10
246.44
 20
16.47
 10
246.44
 20
16.23
  0
LWPOLYLINE
  5
C4F
330
C15
100
AcDbEntity
  8
NORMAL
100
AcDbPolyline
 90
        6
 70
     0
 10
248.54
 20
13.52999999999999
 40
0.336
 41
0.36
 42
0.3356933240426689
 10
247.49
 20
12.50999999999999
 40
0.36
 41
0.36
 42
0.07621899265487
 10
247.49
 20
11.75999999999999
 40
0.36
 41
0.336
 42
0.3277453217961973
 10
248.66
 20
10.77000000000001
 40
0.336
 41
0.336
 42
0.0344291182841787
 10
248.81
 20
10.77000000000001
 40
0.336
 41
0.336
 42
0.417874854523456
 10
249.68
 20
11.75999999999999
 40
0.336
 41
0.336
 42
-1.073289090998506
  0
LWPOLYLINE
  5
C50
330
C15
100
AcDbEntity
  8
NORMAL
100
AcDbPolyline
 90
        2
 70
     0
 43
0.384
 10
252.35
 20
13.62000000000001
 10
252.35
 20
10.68
  0
LWPOLYLINE
  5
C51
330
C15
100
AcDbEntity
  8
NORMAL
100
AcDbPolyline
 90
        2
 70
     0
 43
1.5
 10
253.07
 20
15.18
 10
250.52
 20
15.18
  0
LWPOLYLINE
  5
C52
330
C15
100
AcDbEntity
  8
NORMAL
100
AcDbPolyline
 90
        2
 70
     0
 43
1.368
 10
252.83
 20
17.7
 10
250.52
 20
17.7
  0
LWPOLYLINE
  5
C53
330
C15
100
AcDbEntity
  8
NORMAL
100
AcDbPolyline
 90
        2
 70
     0
 43
0.384
 10
240.59
 20
13.62000000000001
 10
240.59
 20
10.68
  0
LWPOLYLINE
  5
C54
330
C15
100
AcDbEntity
  8
NORMAL
100
AcDbPolyline
 90
        2
 70
     0
 43
0.336
 10
240.7829088559698
 20
10.8545373311681
 10
242.5932598758184
 20
10.8545373311681
  0
LWPOLYLINE
  5
C55
330
C15
100
AcDbEntity
  8
NORMAL
100
AcDbPolyline
 90
        2
 70
     0
 43
0.072
 10
238.3686661763191
 20
10.81293699881335
 10
238.4062588743856
 20
10.66319166017061
  0
LWPOLYLINE
  5
C56
330
C15
100
AcDbEntity
  8
NORMAL
100
AcDbPolyline
 90
        2
 70
     0
 43
0.072
 10
238.6057889369193
 20
10.81178068509489
 10
238.6682504790383
 20
10.6660824444667
  0
LWPOLYLINE
  5
C57
330
C15
100
AcDbEntity
  8
NORMAL
100
AcDbPolyline
 90
        2
 70
     0
 43
0.072
 10
238.372136237207
 20
10.6909436680199
 10
238.6722989577638
 20
10.69036551116067
  0
LWPOLYLINE
  5
C58
330
C15
100
AcDbEntity
  8
NORMAL
100
AcDbPolyline
 90
        2
 70
     0
 43
0.12
 10
238.3987401117034
 20
10.76205823798855
 10
238.6092589978071
 20
10.75916745369243
  0
LWPOLYLINE
  5
C59
330
C15
100
AcDbEntity
  8
NORMAL
100
AcDbPolyline
 90
        2
 70
     0
 43
0.312
 10
240.7835158266355
 20
12.22029092443202
 10
242.4051366681036
 20
12.22029092443202
  0
LWPOLYLINE
  5
C5A
330
C15
100
AcDbEntity
  8
NORMAL
100
AcDbPolyline
 90
        2
 70
     0
 43
0.312
 10
240.77
 20
13.47
 10
242.5923939220792
 20
13.47
  0
LWPOLYLINE
  5
C5B
330
C15
100
AcDbEntity
  8
NORMAL
100
AcDbPolyline
 90
        2
 70
     0
 43
0.384
 10
234.14
 20
13.62000000000001
 10
234.14
 20
10.68
  0
LWPOLYLINE
  5
C5C
330
C15
100
AcDbEntity
  8
NORMAL
100
AcDbPolyline
 90
        2
 70
     0
 43
0.384
 10
236.63
 20
13.62000000000001
 10
236.63
 20
10.68
  0
LWPOLYLINE
  5
C5D
330
C15
100
AcDbEntity
  8
NORMAL
100
AcDbPolyline
 90
        2
 70
     0
 43
0.312
 10
236.81
 20
12.05999999999999
 10
238.19
 20
12.05999999999999
  0
LWPOLYLINE
  5
C5E
330
C15
100
AcDbEntity
  8
NORMAL
100
AcDbPolyline
 90
        2
 70
     0
 43
0.312
 10
234.3335158266355
 20
12.22029092443202
 10
235.9551366681035
 20
12.22029092443202
  0
LWPOLYLINE
  5
C5F
330
C15
100
AcDbEntity
  8
NORMAL
100
AcDbPolyline
 90
        2
 70
     0
 43
0.336
 10
234.3329088559698
 20
10.8545373311681
 10
236.1432598758184
 20
10.8545373311681
  0
LWPOLYLINE
  5
C60
330
C15
100
AcDbEntity
  8
NORMAL
100
AcDbPolyline
 90
        2
 70
     0
 43
1.5
 10
237.8
 20
15.18
 10
235.25
 20
15.18
  0
LWPOLYLINE
  5
C61
330
C15
100
AcDbEntity
  8
NORMAL
100
AcDbPolyline
 90
        2
 70
     0
 43
1.368
 10
237.56
 20
17.7
 10
235.25
 20
17.7
  0
LWPOLYLINE
  5
C62
330
C15
100
AcDbEntity
  8
NORMAL
100
AcDbPolyline
 90
        2
 70
     0
 43
0.312
 10
236.81
 20
13.47
 10
238.04
 20
13.47
  0
LWPOLYLINE
  5
C63
330
C15
100
AcDbEntity
  8
NORMAL
100
AcDbPolyline
 90
        2
 70
     0
 43
0.312
 10
234.32
 20
13.47
 10
236.1423939220792
 20
13.47
  0
LWPOLYLINE
  5
C64
330
C15
100
AcDbEntity
  8
NORMAL
100
AcDbPolyline
 90
        2
 70
     0
 43
0.312
 10
238.01
 20
13.47
 42
-0.7873402682880196
 10
238.04
 20
12.05999999999999
 42
7.705201454470874
  0
LWPOLYLINE
  5
C65
330
C15
100
AcDbEntity
  8
NORMAL
100
AcDbPolyline
 90
        3
 70
     0
 43
0.312
 10
238.04
 20
12.03
 42
-0.3204650534085252
 10
238.49
 20
11.43
 42
-0.0116263352131339
 10
238.49
 20
10.8
 42
1.023526193842166
  0
LWPOLYLINE
  5
C66
330
C15
100
AcDbEntity
  8
NORMAL
100
AcDbPolyline
 90
        2
 70
     0
 43
0.384
 10
231.56
 20
13.62000000000001
 10
231.56
 20
10.68
  0
LWPOLYLINE
  5
C67
330
C15
100
AcDbEntity
  8
NORMAL
100
AcDbPolyline
 90
        2
 70
     0
 43
0.384
 10
233.42
 20
13.62000000000001
 10
233.42
 20
11.4
  0
LWPOLYLINE
  5
C68
330
C15
100
AcDbEntity
  8
NORMAL
100
AcDbPolyline
 90
        2
 70
     0
 43
0.336
 10
229.2929088559698
 20
10.8545373311681
 10
231.1032598758184
 20
10.8545373311681
  0
LWPOLYLINE
  5
C69
330
C15
100
AcDbEntity
  8
NORMAL
100
AcDbPolyline
 90
        2
 70
     0
 43
0.312
 10
229.2935158266355
 20
12.22029092443202
 10
230.9151366681036
 20
12.22029092443202
  0
LWPOLYLINE
  5
C6A
330
C15
100
AcDbEntity
  8
NORMAL
100
AcDbPolyline
 90
        4
 70
     0
 43
0.384
 10
232.07
 20
11.64000000000001
 10
232.07
 20
11.28
 10
232.07
 20
11.25
 10
232.07
 20
11.22
  0
LWPOLYLINE
  5
C6B
330
C15
100
AcDbEntity
  8
NORMAL
100
AcDbPolyline
 90
        4
 70
     0
 43
1.32
 10
229.97
 20
15.12000000000001
 42
0.066372975210778
 10
230.87
 20
15.24000000000001
 42
0.2661795390275695
 10
231.35
 20
15.72
 42
0.165240707104861
 10
231.29
 20
16.68
 42
0.0368701557935345
  0
LWPOLYLINE
  5
C6C
330
C15
100
AcDbEntity
  8
NORMAL
100
AcDbPolyline
 90
        2
 70
     0
 43
0.72
 10
231.17
 20
16.44000000000001
 10
231.17
 20
16.92000000000001
  0
LWPOLYLINE
  5
C6D
330
C15
100
AcDbEntity
  8
NORMAL
100
AcDbPolyline
 90
        2
 70
     0
 43
0.72
 10
229.97
 20
17.34000000000001
 42
-0.3866068747318503
 10
231.59
 20
16.74000000000001
 42
0.6079715910818078
  0
LWPOLYLINE
  5
C6E
330
C15
100
AcDbEntity
  8
NORMAL
100
AcDbPolyline
 90
        2
 70
     0
 43
1.32
 10
229.25
 20
17.7
 42
-0.9770145659351891
 10
229.25
 20
15.12000000000001
 42
86.01162633521322
  0
LWPOLYLINE
  5
C6F
330
C15
100
AcDbEntity
  8
NORMAL
100
AcDbPolyline
 90
        2
 70
     0
 43
0.312
 10
229.28
 20
13.47
 10
231.1023939220792
 20
13.47
  0
LINE
  5
C70
330
C15
100
AcDbEntity
  8
NORMAL
100
AcDbLine
 10
229.85
 20
16.38
 30
0.0
 11
230.51
 21
16.38
 31
0.0
  0
LWPOLYLINE
  5
C71
330
C15
100
AcDbEntity
  8
NORMAL
100
AcDbPolyline
 90
        2
 70
     0
 43
0.312
 10
227.84
 20
13.47
 42
-0.8950427931263817
 10
227.96
 20
12.27
 42
9.47397338629635
  0
LWPOLYLINE
  5
C72
330
C15
100
AcDbEntity
  8
NORMAL
100
AcDbPolyline
 90
        2
 70
     0
 43
0.384
 10
226.55
 20
13.62000000000001
 10
226.55
 20
10.68
  0
LWPOLYLINE
  5
C73
330
C15
100
AcDbEntity
  8
NORMAL
100
AcDbPolyline
 90
        2
 70
     0
 43
0.312
 10
228.02
 20
12.18
 42
-0.8802427099848586
 10
227.84
 20
10.83
 42
-64.69588694035228
  0
LWPOLYLINE
  5
C74
330
C15
100
AcDbEntity
  8
NORMAL
100
AcDbPolyline
 90
        2
 70
     0
 43
0.312
 10
226.73
 20
12.20999999999999
 10
228.05
 20
12.20999999999999
  0
LWPOLYLINE
  5
C75
330
C15
100
AcDbEntity
  8
NORMAL
100
AcDbPolyline
 90
        2
 70
     0
 43
0.312
 10
226.73
 20
10.83
 10
227.84
 20
10.83
  0
LWPOLYLINE
  5
C76
330
C15
100
AcDbEntity
  8
NORMAL
100
AcDbPolyline
 90
        2
 70
     0
 43
0.312
 10
227.81
 20
12.20999999999999
 10
228.05
 20
12.3
  0
LWPOLYLINE
  5
C77
330
C15
100
AcDbEntity
  8
NORMAL
100
AcDbPolyline
 90
        2
 70
     0
 43
1.32
 10
226.25
 20
16.38
 10
228.53
 20
16.38
  0
LWPOLYLINE
  5
C78
330
C15
100
AcDbEntity
  8
NORMAL
100
AcDbPolyline
 90
        2
 70
     0
 43
0.312
 10
226.73
 20
13.47
 10
227.84
 20
13.47
  0
LWPOLYLINE
  5
C79
330
C15
100
AcDbEntity
  8
NORMAL
100
AcDbPolyline
 90
        2
 70
     0
 43
0.384
 10
229.1
 20
13.62000000000001
 10
229.1
 20
10.68
  0
LWPOLYLINE
  5
C7A
330
C15
100
AcDbEntity
  8
NORMAL
100
AcDbPolyline
 90
        2
 70
     0
 43
1.32
 10
226.25
 20
15.12000000000001
 10
230.09
 20
15.12000000000001
  0
LWPOLYLINE
  5
C7B
330
C15
100
AcDbEntity
  8
NORMAL
100
AcDbPolyline
 90
        2
 70
     0
 43
1.32
 10
226.25
 20
17.7
 10
230.09
 20
17.7
  0
LWPOLYLINE
  5
C7C
330
C15
100
AcDbEntity
  8
NORMAL
100
AcDbPolyline
 90
        2
 70
     0
 43
0.384
 10
233.42
 20
11.43
 42
-0.8159407026494019
 10
232.07
 20
11.28
 42
0.9320540647478445
  0
LWPOLYLINE
  5
C7D
330
C15
100
AcDbEntity
  8
NORMAL
100
AcDbPolyline
 90
        2
 70
     0
 43
0.384
 10
243.08
 20
13.62000000000001
 10
243.08
 20
10.68
  0
LWPOLYLINE
  5
C7E
330
C15
100
AcDbEntity
  8
NORMAL
100
AcDbPolyline
 90
        2
 70
     0
 43
2.159999999999999
 10
242.48
 20
16.53
 10
242.48
 20
16.05
  0
LWPOLYLINE
  5
C7F
330
C15
100
AcDbEntity
  8
NORMAL
100
AcDbPolyline
 90
        3
 70
     0
 43
1.2
 10
245.36
 20
16.14000000000001
 42
-0.4142135623730951
 10
244.16
 20
14.94000000000001
 42
-0.3992751814877603
 10
242.96
 20
16.08
 42
6.701619411675857
  0
LWPOLYLINE
  5
C80
330
C15
100
AcDbEntity
  8
NORMAL
100
AcDbPolyline
 90
        5
 70
     0
 43
1.2
 10
246.44
 20
16.32000000000001
 42
-0.312376477871322
 10
245.48
 20
15.05999999999999
 42
-0.0817612608553256
 10
244.1
 20
14.85
 42
-0.1363107214521805
 10
242.45
 20
15.33
 42
-0.2518672964547279
 10
242.0
 20
16.10999999999999
 42
-1.030260875270898
  0
LWPOLYLINE
  5
C81
330
C15
100
AcDbEntity
  8
NORMAL
100
AcDbPolyline
 90
        6
 70
     0
 10
262.1
 20
13.52999999999999
 40
0.336
 41
0.36
 42
0.3356933240426689
 10
261.05
 20
12.50999999999999
 40
0.36
 41
0.36
 42
0.07621899265487
 10
261.05
 20
11.75999999999999
 40
0.36
 41
0.336
 42
0.3277453217961973
 10
262.22
 20
10.77000000000001
 40
0.336
 41
0.336
 42
0.0344291182841787
 10
262.37
 20
10.77000000000001
 40
0.336
 41
0.336
 42
0.417874854523456
 10
263.24
 20
11.75999999999999
 40
0.336
 41
0.336
 42
-1.073289090998506
  0
LWPOLYLINE
  5
C82
330
C15
100
AcDbEntity
  8
NORMAL
100
AcDbPolyline
 90
        5
 70
     0
 43
0.6000000000000001
 10
261.35
 20
16.47
 10
261.35
 20
15.9
 10
261.44
 20
15.6
 10
261.74
 20
15.24000000000001
 10
262.13
 20
14.94000000000001
  0
LWPOLYLINE
  5
C83
330
C15
100
AcDbEntity
  8
NORMAL
100
AcDbPolyline
 90
        2
 70
     0
 43
1.32
 10
230.39
 20
20.1
 42
-1.0
 10
230.39
 20
18.3
 42
-1.0
  0
LWPOLYLINE
  5
C84
330
C15
100
AcDbEntity
  8
NORMAL
100
AcDbPolyline
 90
        2
 70
     0
 43
1.32
 10
226.25
 20
18.95999999999999
 10
228.53
 20
18.95999999999999
  0
LWPOLYLINE
  5
C85
330
C15
100
AcDbEntity
  8
NORMAL
100
AcDbPolyline
 90
        2
 70
     0
 43
1.32
 10
229.37
 20
20.22000000000001
 42
-0.8339664246970876
 10
229.31
 20
17.7
 42
12.73158933350998
  0
LWPOLYLINE
  5
C86
330
C15
100
AcDbEntity
  8
NORMAL
100
AcDbPolyline
 90
        2
 70
     0
 43
2.28
 10
234.11
 20
20.91
 10
234.11
 20
14.43
  0
LWPOLYLINE
  5
C87
330
C15
100
AcDbEntity
  8
NORMAL
100
AcDbPolyline
 90
        2
 70
     0
 43
2.339999999999999
 10
239.9
 20
20.91
 10
239.9
 20
14.43
  0
LWPOLYLINE
  5
C88
330
C15
100
AcDbEntity
  8
NORMAL
100
AcDbPolyline
 90
        2
 70
     0
 43
2.28
 10
245.9
 20
20.91
 10
245.9
 20
16.32000000000001
  0
LWPOLYLINE
  5
C89
330
C15
100
AcDbEntity
  8
NORMAL
100
AcDbPolyline
 90
        4
 70
     0
 43
0.72
 10
258.32
 20
20.52000000000001
 42
-0.3313549431572696
 10
259.46
 20
19.5
 42
-0.175042867980526
 10
259.25
 20
18.15
 42
-0.2437452972774337
 10
258.83
 20
17.88
 42
20.85328427696898
  0
LWPOLYLINE
  5
C8A
330
C15
100
AcDbEntity
  8
NORMAL
100
AcDbPolyline
 90
        2
 70
     0
 43
2.28
 10
249.38
 20
20.91
 10
249.38
 20
14.43
  0
LWPOLYLINE
  5
C8B
330
C15
100
AcDbEntity
  8
NORMAL
100
AcDbPolyline
 90
        2
 70
     0
 43
1.079999999999999
 10
258.62
 20
18.09000000000001
 10
258.56
 20
20.31
  0
LWPOLYLINE
  5
C8C
330
C15
100
AcDbEntity
  8
NORMAL
100
AcDbPolyline
 90
        2
 70
     0
 43
2.28
 10
255.23
 20
20.88
 10
255.23
 20
14.43
  0
LWPOLYLINE
  5
C8D
330
C15
100
AcDbEntity
  8
NORMAL
100
AcDbPolyline
 90
        2
 70
     0
 43
0.72
 10
257.3
 20
19.98
 42
-0.6831116660214695
 10
257.15
 20
17.88
 42
8.260493103194674
  0
LWPOLYLINE
  5
C8E
330
C15
100
AcDbEntity
  8
NORMAL
100
AcDbPolyline
 90
       15
 70
     0
 43
1.079999999999999
 10
265.43
 20
19.53
 42
0.2867962264113205
 10
264.98
 20
20.25
 42
0.1155710103422213
 10
263.66
 20
20.55000000000001
 42
-0.0033222591361446
 10
262.97
 20
20.55000000000001
 42
0.1480302360018443
 10
261.65
 20
20.16
 42
0.2512163179308217
 10
261.0800000000001
 20
19.10999999999999
 42
0.002548258775483
 10
261.0800000000001
 20
18.80999999999999
 42
0.3501214284846936
 10
261.83
 20
17.88
 42
-0.0491678804517088
 10
263.66
 20
17.27999999999999
 42
-0.2883673307060621
 10
264.41
 20
16.17000000000001
 42
-0.016357559057454
 10
264.41
 20
15.99000000000001
 42
-0.270958166037584
 10
263.9
 20
15.18
 42
-0.1775007660828911
 10
262.97
 20
15.05999999999999
 42
-0.3175524173745906
 10
262.16
 20
15.95999999999999
 42
-0.0295571035885118
 10
262.13
 20
16.47
 42
-0.9996588792072319
  0
LWPOLYLINE
  5
C8F
330
C15
100
AcDbEntity
  8
NORMAL
100
AcDbPolyline
 90
        8
 70
     0
 43
0.6000000000000001
 10
262.91
 20
18.6
 42
0.0689819596996791
 10
264.53
 20
18.03
 42
-0.3802422222532699
 10
265.88
 20
16.23
 42
-0.3953517303054596
 10
264.02
 20
14.55
 42
0.0091958660017064
 10
262.88
 20
14.55
 42
-0.2078145880442241
 10
260.99
 20
15.33
 42
-0.1970363093212446
 10
260.81
 20
15.78
 42
0.004291077695355
 10
260.81
 20
16.47
 42
-1.008619140793522
  0
LWPOLYLINE
  5
C90
330
C15
100
AcDbEntity
  8
NORMAL
100
AcDbPolyline
 90
        8
 70
     0
 43
0.9599999999999999
 10
262.04
 20
20.07000000000001
 10
262.01
 20
18.72
 10
262.76
 20
18.18
 10
264.68
 20
17.37000000000001
 10
265.22
 20
16.8
 10
265.28
 20
16.23
 10
264.98
 20
15.42000000000001
 10
264.44
 20
14.94000000000001
  0
LWPOLYLINE
  5
C91
330
C15
100
AcDbEntity
  8
NORMAL
100
AcDbPolyline
 90
        2
 70
     0
 43
0.48
 10
263.39
 20
20.07000000000001
 42
0.8234620323806009
 10
262.94
 20
18.65999999999999
 42
0.2332833962064108
  0
LWPOLYLINE
  5
C92
330
C15
100
AcDbEntity
  8
NORMAL
100
AcDbPolyline
 90
        3
 70
     0
 43
0.5
 10
225.5
 20
23.24999999999999
 10
222.0
 20
23.24999999999999
 10
222.0
 20
0.0
  0
LINE
  5
C93
330
C15
100
AcDbEntity
  8
NORMAL
100
AcDbLine
 10
357.75
 20
8.5
 30
0.0
 11
357.75
 21
0.0
 31
0.0
  0
TEXT
  5
C94
330
C15
100
AcDbEntity
  8
NORMAL
100
AcDbText
 10
359.25
 20
6.5
 30
0.0
 40
1.5
  1
Drawing No.
 11
359.25
 21
6.0
 31
0.0
100
AcDbText
 73
     1
  0
TEXT
  5
C95
330
C15
100
AcDbEntity
  8
NORMAL
100
AcDbText
 10
334.25
 20
6.5
 30
0.0
 40
1.5
  1
Page
 11
334.25
 21
6.0
 31
0.0
100
AcDbText
 73
     1
  0
LINE
  5
C96
330
C15
100
AcDbEntity
  8
NORMAL
100
AcDbLine
 10
332.0
 20
8.5
 30
0.0
 11
332.0
 21
0.0
 31
0.0
  0
LINE
  5
C97
330
C15
100
AcDbEntity
  8
NORMAL
100
AcDbLine
 10
292.5
 20
8.5
 30
0.0
 11
292.5
 21
0.0
 31
0.0
  0
TEXT
  5
C98
330
C15
100
AcDbEntity
  8
NORMAL
100
AcDbText
 10
293.75
 20
6.5
 30
0.0
 40
1.5
  1
Revision
 11
293.75
 21
6.0
 31
0.0
100
AcDbText
 73
     1
  0
TEXT
  5
C99
330
C15
100
AcDbEntity
  8
NORMAL
100
AcDbText
 10
308.0
 20
6.5
 30
0.0
 40
1.5
  1
Revision date
 11
308.0
 21
6.0
 31
0.0
100
AcDbText
 73
     1
  0
TEXT
  5
C9A
330
C15
100
AcDbEntity
  8
NORMAL
100
AcDbText
 10
343.75
 20
6.5
 30
0.0
 40
1.5
  1
Next page
 11
343.75
 21
6.0
 31
0.0
100
AcDbText
 73
     1
  0
LINE
  5
C9B
330
C15
100
AcDbEntity
  8
NORMAL
100
AcDbLine
 10
270.0
 20
8.5
 30
0.0
 11
270.0
 21
0.0
 31
0.0
  0
LINE
  5
C9C
330
C15
100
AcDbEntity
  8
NORMAL
100
AcDbLine
 10
270.0
 20
23.25
 30
0.0
 11
270.0
 21
8.75
 31
0.0
  0
TEXT
  5
C9D
330
C15
100
AcDbEntity
  8
NORMAL
100
AcDbText
 10
240.75
 20
6.5
 30
0.0
 40
1.5
  1
Date
 11
240.75
 21
6.0
 31
0.0
100
AcDbText
 73
     1
  0
LINE
  5
C9E
330
C15
100
AcDbEntity
  8
NORMAL
100
AcDbLine
 10
239.5
 20
8.5
 30
0.0
 11
239.5
 21
0.0
 31
0.0
  0
TEXT
  5
C9F
330
C15
100
AcDbEntity
  8
NORMAL
100
AcDbText
 10
223.25
 20
6.5
 30
0.0
 40
1.5
  1
Drawn
 11
223.25
 21
6.0
 31
0.0
100
AcDbText
 73
     1
  0
TEXT
  5
CA0
330
C15
100
AcDbEntity
  8
NORMAL
100
AcDbText
 10
271.0
 20
6.5
 30
0.0
 40
1.5
  1
App.
 11
271.0
 21
6.0
 31
0.0
100
AcDbText
 73
     1
  0
LINE
  5
CA1
330
C15
100
AcDbEntity
  8
NORMAL
100
AcDbLine
 10
395.0
 20
8.500000000000008
 30
0.0
 11
222.0
 21
8.500000000000008
 31
0.0
  0
LWPOLYLINE
  5
CA2
330
C15
100
AcDbEntity
  8
NORMAL
100
AcDbPolyline
 90
        2
 70
     0
 43
0.5
 10
395.0
 20
23.24999999999999
 10
222.0
 20
23.24999999999999
  0
TEXT
  5
CA3
330
C15
100
AcDbEntity
  8
NORMAL
100
AcDbText
 10
217.25
 20
1.25
 30
0.0
 40
1.5
  1
A3
100
AcDbText
  0
LWPOLYLINE
  5
CA4
330
C15
100
AcDbEntity
  8
NORMAL
100
AcDbPolyline
 90
        5
 70
     0
 43
0.5
 10
0.0
 20
0.0
 10
395.0
 20
0.0
 10
395.0
 20
285.0
 10
0.0
 20
285.0
 10
0.0
 20
0.0
  0
ENDBLK
  5
CA6
330
C15
100
AcDbEntity
  8
0
100
AcDbBlockEnd
  0
BLOCK
  5
D3D
330
CA7
100
AcDbEntity
  8
0
100
AcDbBlockBegin
  2
ACAD0407
 70
     0
 10
0.0
 20
0.0
 30
0.0
  3
ACAD0407
  1

  0
TEXT
  5
CA8
330
CA7
100
AcDbEntity
  8
HIDDEN
100
AcDbText
 10
18.5
 20
97.1607142857143
 30
0.0
 40
3.0
  1
186,5
 50
90.0
 51
7.0
 72
     1
 11
17.0
 21
102.875
 31
0.0
100
AcDbText
 73
     2
  0
TEXT
  5
CA9
330
CA7
100
AcDbEntity
  8
HIDDEN
100
AcDbText
 10
18.25
 20
151.6719047619047
 30
0.0
 40
3.0
  1
16
 50
90.0
 51
7.0
 72
     1
 11
16.75
 21
153.7433333333333
 31
0.0
100
AcDbText
 73
     2
  0
LWPOLYLINE
  5
CAA
330
CA7
100
AcDbEntity
  8
NORMAL
100
AcDbPolyline
 90
        6
 70
   128
 43
0.3
 10
204.5
 20
116.25
 10
204.5
 20
155.0
 10
34.0
 20
155.0
 10
34.0
 20
41.0
 10
204.5
 20
41.0
 10
204.5
 20
116.25
  0
LINE
  5
CAB
330
CA7
100
AcDbEntity
  8
NORMAL
100
AcDbLine
 10
152.5
 20
173.0
 30
0.0
 11
203.0
 21
173.0
 31
0.0
  0
LINE
  5
CAC
330
CA7
100
AcDbEntity
  8
NORMAL
100
AcDbLine
 10
148.5
 20
157.5
 30
0.0
 11
148.5
 21
159.5
 31
0.0
  0
LINE
  5
CAD
330
CA7
100
AcDbEntity
  8
NORMAL
100
AcDbLine
 10
148.5
 20
157.5
 30
0.0
 11
148.5
 21
173.75
 31
0.0
  0
LINE
  5
CAE
330
CA7
100
AcDbEntity
  8
NORMAL
100
AcDbLine
 10
148.5
 20
157.5
 30
0.0
 11
148.5
 21
173.75
 31
0.0
  0
LINE
  5
CAF
330
CA7
100
AcDbEntity
  8
NORMAL
100
AcDbLine
 10
90.0
 20
157.5
 30
0.0
 11
90.0
 21
159.5
 31
0.0
  0
LINE
  5
CB0
330
CA7
100
AcDbEntity
  8
NORMAL
100
AcDbLine
 10
90.0
 20
157.5
 30
0.0
 11
90.0
 21
173.75
 31
0.0
  0
LINE
  5
CB1
330
CA7
100
AcDbEntity
  8
NORMAL
100
AcDbLine
 10
90.0
 20
157.5
 30
0.0
 11
90.0
 21
173.5
 31
0.0
  0
LINE
  5
CB2
330
CA7
100
AcDbEntity
  8
NORMAL
100
AcDbLine
 10
31.5
 20
157.5
 30
0.0
 11
31.5
 21
159.5
 31
0.0
  0
LINE
  5
CB3
330
CA7
100
AcDbEntity
  8
NORMAL
100
AcDbLine
 10
34.0
 20
154.0
 30
0.0
 11
34.0
 21
166.5
 31
0.0
  0
LINE
  5
CB4
330
CA7
100
AcDbEntity
  8
NORMAL
100
AcDbLine
 10
31.5
 20
157.5
 30
0.0
 11
31.5
 21
166.5
 31
0.0
  0
LINE
  5
CB5
330
CA7
100
AcDbEntity
  8
NORMAL
100
AcDbLine
 10
31.5
 20
157.5
 30
0.0
 11
31.5
 21
173.5
 31
0.0
  0
LINE
  5
CB6
330
CA7
100
AcDbEntity
  8
NORMAL
100
AcDbLine
 10
90.0
 20
157.5
 30
0.0
 11
88.0
 21
157.5
 31
0.0
  0
CIRCLE
  5
CB7
330
CA7
100
AcDbEntity
  8
NORMAL
100
AcDbCircle
 10
90.0
 20
157.5
 30
0.0
 40
1.125
  0
CIRCLE
  5
CB8
330
CA7
100
AcDbEntity
  8
NORMAL
100
AcDbCircle
 10
90.0
 20
38.5
 30
0.0
 40
1.125
  0
LINE
  5
CB9
330
CA7
100
AcDbEntity
  8
NORMAL
100
AcDbLine
 10
90.0
 20
38.5
 30
0.0
 11
88.0
 21
38.5
 31
0.0
  0
LINE
  5
CBA
330
CA7
100
AcDbEntity
  8
HIDDEN
100
AcDbLine
 10
20.0
 20
145.5
 30
0.0
 11
20.0
 21
60.25
 31
0.0
  0
LINE
  5
CBB
330
CA7
100
AcDbEntity
  8
HIDDEN
100
AcDbLine
 10
31.5
 20
60.5
 30
0.0
 11
31.5
 21
52.0
 31
0.0
  0
LINE
  5
CBC
330
CA7
100
AcDbEntity
  8
HIDDEN
100
AcDbLine
 10
31.5
 20
52.0
 30
0.0
 11
34.0
 21
52.0
 31
0.0
  0
LINE
  5
CBD
330
CA7
100
AcDbEntity
  8
NORMAL
100
AcDbLine
 10
31.5
 20
38.5
 30
0.0
 11
29.5
 21
38.5
 31
0.0
  0
CIRCLE
  5
CBE
330
CA7
100
AcDbEntity
  8
NORMAL
100
AcDbCircle
 10
31.5
 20
38.5
 30
0.0
 40
1.125
  0
LINE
  5
CBF
330
CA7
100
AcDbEntity
  8
NORMAL
100
AcDbLine
 10
31.5
 20
38.5
 30
0.0
 11
33.5
 21
38.5
 31
0.0
  0
LINE
  5
CC0
330
CA7
100
AcDbEntity
  8
NORMAL
100
AcDbLine
 10
31.5
 20
38.5
 30
0.0
 11
31.5
 21
36.5
 31
0.0
  0
LINE
  5
CC1
330
CA7
100
AcDbEntity
  8
NORMAL
100
AcDbLine
 10
31.5
 20
38.5
 30
0.0
 11
31.5
 21
40.49999999999999
 31
0.0
  0
LINE
  5
CC2
330
CA7
100
AcDbEntity
  8
HIDDEN
100
AcDbLine
 10
31.5
 20
56.25
 30
0.0
 11
19.25
 21
56.25
 31
0.0
  0
SOLID
  5
CC3
330
CA7
100
AcDbEntity
  8
HIDDEN
100
AcDbTrace
 10
19.33333333333334
 20
60.25
 30
0.0
 11
20.66666666666666
 21
60.25
 31
0.0
 12
20.0
 22
56.25
 32
0.0
 13
20.0
 23
56.25
 33
0.0
  0
LINE
  5
CC4
330
CA7
100
AcDbEntity
  8
HIDDEN
100
AcDbLine
 10
34.0
 20
60.5
 30
0.0
 11
31.5
 21
60.5
 31
0.0
  0
LINE
  5
CC5
330
CA7
100
AcDbEntity
  8
NORMAL
100
AcDbLine
 10
31.5
 20
98.0
 30
0.0
 11
29.5
 21
98.0
 31
0.0
  0
CIRCLE
  5
CC6
330
CA7
100
AcDbEntity
  8
NORMAL
100
AcDbCircle
 10
31.5
 20
98.0
 30
0.0
 40
1.125
  0
LINE
  5
CC7
330
CA7
100
AcDbEntity
  8
NORMAL
100
AcDbLine
 10
31.5
 20
98.0
 30
0.0
 11
33.5
 21
98.0
 31
0.0
  0
LINE
  5
CC8
330
CA7
100
AcDbEntity
  8
NORMAL
100
AcDbLine
 10
31.5
 20
98.0
 30
0.0
 11
31.5
 21
96.0
 31
0.0
  0
LINE
  5
CC9
330
CA7
100
AcDbEntity
  8
NORMAL
100
AcDbLine
 10
31.5
 20
98.0
 30
0.0
 11
31.5
 21
100.0
 31
0.0
  0
LINE
  5
CCA
330
CA7
100
AcDbEntity
  8
HIDDEN
100
AcDbLine
 10
31.5
 20
157.5
 30
0.0
 11
19.25
 21
157.5
 31
0.0
  0
LINE
  5
CCB
330
CA7
100
AcDbEntity
  8
HIDDEN
100
AcDbLine
 10
30.25
 20
149.5
 30
0.0
 11
19.25
 21
149.5
 31
0.0
  0
SOLID
  5
CCC
330
CA7
100
AcDbEntity
  8
HIDDEN
100
AcDbTrace
 10
19.33333333333334
 20
154.0
 30
0.0
 11
20.66666666666666
 21
154.0
 31
0.0
 12
20.0
 22
157.5
 32
0.0
 13
20.0
 23
157.5
 33
0.0
  0
SOLID
  5
CCD
330
CA7
100
AcDbEntity
  8
HIDDEN
100
AcDbTrace
 10
19.33333333333334
 20
145.5
 30
0.0
 11
20.66666666666666
 21
145.5
 31
0.0
 12
20.0
 22
149.5
 32
0.0
 13
20.0
 23
149.5
 33
0.0
  0
LINE
  5
CCE
330
CA7
100
AcDbEntity
  8
HIDDEN
100
AcDbLine
 10
21.25
 20
149.5
 30
0.0
 11
19.25
 21
149.5
 31
0.0
  0
SOLID
  5
CCF
330
CA7
100
AcDbEntity
  8
HIDDEN
100
AcDbTrace
 10
19.33333333333334
 20
153.0
 30
0.0
 11
20.66666666666666
 21
153.0
 31
0.0
 12
20.0
 22
149.5
 32
0.0
 13
20.0
 23
149.5
 33
0.0
  0
LINE
  5
CD0
330
CA7
100
AcDbEntity
  8
HIDDEN
100
AcDbLine
 10
20.0
 20
155.75
 30
0.0
 11
20.0
 21
151.5
 31
0.0
  0
CIRCLE
  5
CD1
330
CA7
100
AcDbEntity
  8
NORMAL
100
AcDbCircle
 10
31.5
 20
157.5
 30
0.0
 40
1.125
  0
LINE
  5
CD2
330
CA7
100
AcDbEntity
  8
NORMAL
100
AcDbLine
 10
31.5
 20
157.5
 30
0.0
 11
33.5
 21
157.5
 31
0.0
  0
LINE
  5
CD3
330
CA7
100
AcDbEntity
  8
NORMAL
100
AcDbLine
 10
31.5
 20
157.5
 30
0.0
 11
31.5
 21
155.5
 31
0.0
  0
LINE
  5
CD4
330
CA7
100
AcDbEntity
  8
HIDDEN
100
AcDbLine
 10
34.0
 20
153.0
 30
0.0
 11
31.5
 21
153.0
 31
0.0
  0
LINE
  5
CD5
330
CA7
100
AcDbEntity
  8
HIDDEN
100
AcDbLine
 10
31.5
 20
153.0
 30
0.0
 11
31.5
 21
146.0
 31
0.0
  0
LINE
  5
CD6
330
CA7
100
AcDbEntity
  8
HIDDEN
100
AcDbLine
 10
31.5
 20
146.0
 30
0.0
 11
34.0
 21
146.0
 31
0.0
  0
TEXT
  5
CD7
330
CA7
100
AcDbEntity
  8
NORMAL
100
AcDbText
 10
92.83333333333334
 20
26.25
 30
0.0
 40
3.5
  1
%%c4,5 -10st/pcs
 72
     4
 11
113.75
 21
27.75
 31
0.0
100
AcDbText
  0
LINE
  5
CD8
330
CA7
100
AcDbEntity
  8
NORMAL
100
AcDbLine
 10
136.25
 20
24.75
 30
0.0
 11
91.0
 21
24.75
 31
0.0
  0
TEXT
  5
CD9
330
CA7
100
AcDbEntity
  8
NORMAL
100
AcDbText
 10
97.58333333333332
 20
70.0
 30
0.0
 40
3.5
  1
341%%p2 x 228%%p2
 72
     4
 11
119.0
 21
71.75
 31
0.0
100
AcDbText
  0
TEXT
  5
CDA
330
CA7
100
AcDbEntity
  8
NORMAL
100
AcDbText
 10
102.75
 20
79.25
 30
0.0
 40
3.5
  1
HÅL / HOLE
 72
     4
 11
119.0
 21
80.75000000000001
 31
0.0
100
AcDbText
  0
LINE
  5
CDB
330
CA7
100
AcDbEntity
  8
NORMAL
100
AcDbLine
 10
90.0
 20
38.5
 30
0.0
 11
92.0
 21
38.5
 31
0.0
  0
LINE
  5
CDC
330
CA7
100
AcDbEntity
  8
NORMAL
100
AcDbLine
 10
90.0
 20
38.5
 30
0.0
 11
90.0
 21
40.49999999999999
 31
0.0
  0
LINE
  5
CDD
330
CA7
100
AcDbEntity
  8
NORMAL
100
AcDbLine
 10
90.0
 20
38.5
 30
0.0
 11
90.0
 21
36.5
 31
0.0
  0
LINE
  5
CDE
330
CA7
100
AcDbEntity
  8
NORMAL
100
AcDbLine
 10
146.5
 20
36.5
 30
0.0
 11
136.25
 21
24.75
 31
0.0
  0
LINE
  5
CDF
330
CA7
100
AcDbEntity
  8
NORMAL
100
AcDbLine
 10
148.5
 20
38.5
 30
0.0
 11
146.5
 21
38.5
 31
0.0
  0
LINE
  5
CE0
330
CA7
100
AcDbEntity
  8
NORMAL
100
AcDbLine
 10
148.5
 20
38.5
 30
0.0
 11
148.5
 21
40.49999999999999
 31
0.0
  0
LINE
  5
CE1
330
CA7
100
AcDbEntity
  8
NORMAL
100
AcDbLine
 10
148.5
 20
38.5
 30
0.0
 11
148.5
 21
36.5
 31
0.0
  0
LINE
  5
CE2
330
CA7
100
AcDbEntity
  8
NORMAL
100
AcDbLine
 10
148.5
 20
38.5
 30
0.0
 11
150.5
 21
38.5
 31
0.0
  0
CIRCLE
  5
CE3
330
CA7
100
AcDbEntity
  8
NORMAL
100
AcDbCircle
 10
148.5
 20
38.5
 30
0.0
 40
1.125
  0
TEXT
  5
CE4
330
CA7
100
AcDbEntity
  8
NORMAL
100
AcDbText
 10
98.75
 20
133.0
 30
0.0
 40
4.5
  1
HÅLTAGNING
 72
     1
 11
119.0
 21
135.25
 31
0.0
100
AcDbText
 73
     2
  0
TEXT
  5
CE5
330
CA7
100
AcDbEntity
  8
NORMAL
100
AcDbText
 10
105.1666666666666
 20
124.75
 30
0.0
 40
3.5
  1
(framifrån)
 72
     4
 11
119.0
 21
126.25
 31
0.0
100
AcDbText
  0
TEXT
  5
CE6
330
CA7
100
AcDbEntity
  8
NORMAL
100
AcDbText
 10
91.35714285714284
 20
105.75
 30
0.0
 40
4.5
  1
PANEL CUT OUT
 72
     4
 11
119.0
 21
108.0
 31
0.0
100
AcDbText
  0
TEXT
  5
CE7
330
CA7
100
AcDbEntity
  8
NORMAL
100
AcDbText
 10
103.9166666666667
 20
97.5
 30
0.0
 40
3.5
  1
(front view)
 72
     4
 11
119.0
 21
99.0
 31
0.0
100
AcDbText
  0
LINE
  5
CE8
330
CA7
100
AcDbEntity
  8
NORMAL
100
AcDbLine
 10
90.0
 20
157.5
 30
0.0
 11
92.0
 21
157.5
 31
0.0
  0
LINE
  5
CE9
330
CA7
100
AcDbEntity
  8
NORMAL
100
AcDbLine
 10
90.0
 20
157.5
 30
0.0
 11
90.0
 21
155.5
 31
0.0
  0
LINE
  5
CEA
330
CA7
100
AcDbEntity
  8
NORMAL
100
AcDbLine
 10
148.5
 20
157.5
 30
0.0
 11
146.5
 21
157.5
 31
0.0
  0
CIRCLE
  5
CEB
330
CA7
100
AcDbEntity
  8
NORMAL
100
AcDbCircle
 10
148.5
 20
157.5
 30
0.0
 40
1.125
  0
LINE
  5
CEC
330
CA7
100
AcDbEntity
  8
NORMAL
100
AcDbLine
 10
148.5
 20
157.5
 30
0.0
 11
150.5
 21
157.5
 31
0.0
  0
LINE
  5
CED
330
CA7
100
AcDbEntity
  8
NORMAL
100
AcDbLine
 10
148.5
 20
157.5
 30
0.0
 11
148.5
 21
155.5
 31
0.0
  0
SOLID
  5
CEE
330
CA7
100
AcDbEntity
  8
NORMAL
100
AcDbTrace
 10
86.0
 20
173.6666666666666
 30
0.0
 11
86.0
 21
172.3333333333333
 31
0.0
 12
90.0
 22
173.0
 32
0.0
 13
90.0
 23
173.0
 33
0.0
  0
LINE
  5
CEF
330
CA7
100
AcDbEntity
  8
NORMAL
100
AcDbLine
 10
35.5
 20
173.0
 30
0.0
 11
86.0
 21
173.0
 31
0.0
  0
SOLID
  5
CF0
330
CA7
100
AcDbEntity
  8
NORMAL
100
AcDbTrace
 10
38.0
 20
166.4166666666666
 30
0.0
 11
38.0
 21
165.0833333333333
 31
0.0
 12
34.0
 22
165.75
 32
0.0
 13
34.0
 23
165.75
 33
0.0
  0
SOLID
  5
CF1
330
CA7
100
AcDbEntity
  8
NORMAL
100
AcDbTrace
 10
27.5
 20
166.4166666666666
 30
0.0
 11
27.5
 21
165.0833333333333
 31
0.0
 12
31.5
 22
165.75
 32
0.0
 13
31.5
 23
165.75
 33
0.0
  0
LINE
  5
CF2
330
CA7
100
AcDbEntity
  8
NORMAL
100
AcDbLine
 10
27.5
 20
165.75
 30
0.0
 11
26.0
 21
165.75
 31
0.0
  0
LINE
  5
CF3
330
CA7
100
AcDbEntity
  8
NORMAL
100
AcDbLine
 10
26.0
 20
165.75
 30
0.0
 11
23.57666666666665
 21
165.75
 31
0.0
  0
TEXT
  5
CF4
330
CA7
100
AcDbEntity
  8
NORMAL
100
AcDbText
 10
23.57666666666667
 20
167.5
 30
0.0
 40
3.5
  1
5
 72
     1
 11
24.74333333333334
 21
169.25
 31
0.0
100
AcDbText
 73
     2
  0
SOLID
  5
CF5
330
CA7
100
AcDbEntity
  8
NORMAL
100
AcDbTrace
 10
35.5
 20
173.6666666666666
 30
0.0
 11
35.5
 21
172.3333333333333
 31
0.0
 12
31.5
 22
173.0
 32
0.0
 13
31.5
 23
173.0
 33
0.0
  0
LINE
  5
CF6
330
CA7
100
AcDbEntity
  8
NORMAL
100
AcDbLine
 10
38.0
 20
165.75
 30
0.0
 11
42.0
 21
165.75
 31
0.0
  0
TEXT
  5
CF7
330
CA7
100
AcDbEntity
  8
NORMAL
100
AcDbText
 10
56.91666666666666
 20
174.75
 30
0.0
 40
3.5
  1
117
 72
     1
 11
60.75
 21
176.5
 31
0.0
100
AcDbText
 73
     2
  0
LINE
  5
CF8
330
CA7
100
AcDbEntity
  8
NORMAL
100
AcDbLine
 10
94.0
 20
173.0
 30
0.0
 11
144.5
 21
173.0
 31
0.0
  0
SOLID
  5
CF9
330
CA7
100
AcDbEntity
  8
NORMAL
100
AcDbTrace
 10
94.0
 20
173.6666666666666
 30
0.0
 11
94.0
 21
172.3333333333333
 31
0.0
 12
90.0
 22
173.0
 32
0.0
 13
90.0
 23
173.0
 33
0.0
  0
TEXT
  5
CFA
330
CA7
100
AcDbEntity
  8
NORMAL
100
AcDbText
 10
115.4166666666667
 20
174.75
 30
0.0
 40
3.5
  1
117
 72
     1
 11
119.25
 21
176.5
 31
0.0
100
AcDbText
 73
     2
  0
SOLID
  5
CFB
330
CA7
100
AcDbEntity
  8
NORMAL
100
AcDbTrace
 10
152.5
 20
173.6666666666666
 30
0.0
 11
152.5
 21
172.3333333333333
 31
0.0
 12
148.5
 22
173.0
 32
0.0
 13
148.5
 23
173.0
 33
0.0
  0
SOLID
  5
CFC
330
CA7
100
AcDbEntity
  8
NORMAL
100
AcDbTrace
 10
144.5
 20
173.6666666666666
 30
0.0
 11
144.5
 21
172.3333333333333
 31
0.0
 12
148.5
 22
173.0
 32
0.0
 13
148.5
 23
173.0
 33
0.0
  0
SOLID
  5
CFD
330
CA7
100
AcDbEntity
  8
NORMAL
100
AcDbTrace
 10
215.0833333333333
 20
161.5
 30
0.0
 11
216.4166666666667
 21
161.5
 31
0.0
 12
215.75
 22
157.5
 32
0.0
 13
215.75
 23
157.5
 33
0.0
  0
LINE
  5
CFE
330
CA7
100
AcDbEntity
  8
NORMAL
100
AcDbLine
 10
207.0
 20
157.5
 30
0.0
 11
207.0
 21
159.5
 31
0.0
  0
LINE
  5
CFF
330
CA7
100
AcDbEntity
  8
NORMAL
100
AcDbLine
 10
204.5
 20
154.75
 30
0.0
 11
204.5
 21
166.25
 31
0.0
  0
LINE
  5
D00
330
CA7
100
AcDbEntity
  8
NORMAL
100
AcDbLine
 10
207.0
 20
157.5
 30
0.0
 11
207.0
 21
166.25
 31
0.0
  0
LINE
  5
D01
330
CA7
100
AcDbEntity
  8
NORMAL
100
AcDbLine
 10
207.0
 20
157.5
 30
0.0
 11
207.0
 21
173.75
 31
0.0
  0
LINE
  5
D02
330
CA7
100
AcDbEntity
  8
NORMAL
100
AcDbLine
 10
236.0
 20
157.5
 30
0.0
 11
206.75
 21
157.5
 31
0.0
  0
LINE
  5
D03
330
CA7
100
AcDbEntity
  8
NORMAL
100
AcDbLine
 10
236.0
 20
38.5
 30
0.0
 11
206.75
 21
38.5
 31
0.0
  0
TEXT
  5
D04
330
CA7
100
AcDbEntity
  8
NORMAL
100
AcDbText
 10
232.75
 20
64.5
 30
0.0
 40
3.5
  1
119
 50
90.0
 72
     1
 11
231.0
 21
68.25
 31
0.0
100
AcDbText
 73
     2
  0
LINE
  5
D05
330
CA7
100
AcDbEntity
  8
NORMAL
100
AcDbLine
 10
236.25
 20
98.0
 30
0.0
 11
209.0
 21
98.0
 31
0.0
  0
LINE
  5
D06
330
CA7
100
AcDbEntity
  8
NORMAL
100
AcDbLine
 10
236.25
 20
98.0
 30
0.0
 11
209.0
 21
98.0
 31
0.0
  0
TEXT
  5
D07
330
CA7
100
AcDbEntity
  8
NORMAL
100
AcDbText
 10
232.75
 20
124.0
 30
0.0
 40
3.5
  1
119
 50
90.0
 72
     1
 11
231.0
 21
127.75
 31
0.0
100
AcDbText
 73
     2
  0
LINE
  5
D08
330
CA7
100
AcDbEntity
  8
HIDDEN
100
AcDbLine
 10
176.0
 20
27.0
 30
0.0
 11
203.0
 21
27.0
 31
0.0
  0
LINE
  5
D09
330
CA7
100
AcDbEntity
  8
HIDDEN
100
AcDbLine
 10
172.0
 20
40.0
 30
0.0
 11
172.0
 21
26.25
 31
0.0
  0
SOLID
  5
D0A
330
CA7
100
AcDbEntity
  8
HIDDEN
100
AcDbTrace
 10
176.0
 20
27.66666666666667
 30
0.0
 11
176.0
 21
26.33333333333334
 31
0.0
 12
172.0
 22
27.0
 32
0.0
 13
172.0
 23
27.0
 33
0.0
  0
LINE
  5
D0B
330
CA7
100
AcDbEntity
  8
HIDDEN
100
AcDbLine
 10
169.75
 20
41.0
 30
0.0
 11
169.75
 21
40.0
 31
0.0
  0
LINE
  5
D0C
330
CA7
100
AcDbEntity
  8
HIDDEN
100
AcDbLine
 10
169.75
 20
40.0
 30
0.0
 11
174.25
 21
40.0
 31
0.0
  0
LINE
  5
D0D
330
CA7
100
AcDbEntity
  8
HIDDEN
100
AcDbLine
 10
174.25
 20
40.0
 30
0.0
 11
174.25
 21
41.0
 31
0.0
  0
TEXT
  5
D0E
330
CA7
100
AcDbEntity
  8
HIDDEN
100
AcDbText
 10
187.0714285714285
 20
29.0
 30
0.0
 40
3.0
  1
70
 51
7.0
 72
     1
 11
189.5
 21
30.5
 31
0.0
100
AcDbText
 73
     2
  0
LINE
  5
D0F
330
CA7
100
AcDbEntity
  8
NORMAL
100
AcDbLine
 10
217.25
 20
41.0
 30
0.0
 11
200.75
 21
41.0
 31
0.0
  0
TEXT
  5
D10
330
CA7
100
AcDbEntity
  8
NORMAL
100
AcDbText
 10
214.0
 20
46.84
 30
0.0
 40
3.5
  1
5
 50
90.0
 72
     1
 11
212.25
 21
48.00666666666666
 31
0.0
100
AcDbText
 73
     2
  0
LINE
  5
D11
330
CA7
100
AcDbEntity
  8
HIDDEN
100
AcDbLine
 10
207.0
 20
38.5
 30
0.0
 11
207.0
 21
26.25
 31
0.0
  0
SOLID
  5
D12
330
CA7
100
AcDbEntity
  8
HIDDEN
100
AcDbTrace
 10
203.0
 20
27.66666666666667
 30
0.0
 11
203.0
 21
26.33333333333334
 31
0.0
 12
207.0
 22
27.0
 32
0.0
 13
207.0
 23
27.0
 33
0.0
  0
CIRCLE
  5
D13
330
CA7
100
AcDbEntity
  8
NORMAL
100
AcDbCircle
 10
207.0
 20
38.5
 30
0.0
 40
1.125
  0
LINE
  5
D14
330
CA7
100
AcDbEntity
  8
NORMAL
100
AcDbLine
 10
207.0
 20
38.5
 30
0.0
 11
209.0
 21
38.5
 31
0.0
  0
LINE
  5
D15
330
CA7
100
AcDbEntity
  8
NORMAL
100
AcDbLine
 10
207.0
 20
38.5
 30
0.0
 11
205.0
 21
38.5
 31
0.0
  0
LINE
  5
D16
330
CA7
100
AcDbEntity
  8
NORMAL
100
AcDbLine
 10
207.0
 20
38.5
 30
0.0
 11
207.0
 21
36.5
 31
0.0
  0
LINE
  5
D17
330
CA7
100
AcDbEntity
  8
NORMAL
100
AcDbLine
 10
207.0
 20
38.5
 30
0.0
 11
207.0
 21
40.49999999999999
 31
0.0
  0
SOLID
  5
D18
330
CA7
100
AcDbEntity
  8
NORMAL
100
AcDbTrace
 10
215.0833333333333
 20
34.5
 30
0.0
 11
216.4166666666667
 21
34.5
 31
0.0
 12
215.75
 22
38.5
 32
0.0
 13
215.75
 23
38.5
 33
0.0
  0
LINE
  5
D19
330
CA7
100
AcDbEntity
  8
NORMAL
100
AcDbLine
 10
215.75
 20
34.5
 30
0.0
 11
215.75
 21
30.5
 31
0.0
  0
LINE
  5
D1A
330
CA7
100
AcDbEntity
  8
NORMAL
100
AcDbLine
 10
222.25
 20
38.5
 30
0.0
 11
215.0
 21
38.5
 31
0.0
  0
LINE
  5
D1B
330
CA7
100
AcDbEntity
  8
NORMAL
100
AcDbLine
 10
215.75
 20
45.0
 30
0.0
 11
215.75
 21
46.74999999999999
 31
0.0
  0
SOLID
  5
D1C
330
CA7
100
AcDbEntity
  8
NORMAL
100
AcDbTrace
 10
215.0833333333333
 20
45.0
 30
0.0
 11
216.4166666666667
 21
45.0
 31
0.0
 12
215.75
 22
41.0
 32
0.0
 13
215.75
 23
41.0
 33
0.0
  0
LINE
  5
D1D
330
CA7
100
AcDbEntity
  8
NORMAL
100
AcDbLine
 10
215.75
 20
46.74999999999999
 30
0.0
 11
215.75
 21
49.17333333333333
 31
0.0
  0
CIRCLE
  5
D1E
330
CA7
100
AcDbEntity
  8
NORMAL
100
AcDbCircle
 10
207.0
 20
98.0
 30
0.0
 40
1.125
  0
LINE
  5
D1F
330
CA7
100
AcDbEntity
  8
NORMAL
100
AcDbLine
 10
207.0
 20
98.0
 30
0.0
 11
209.0
 21
98.0
 31
0.0
  0
LINE
  5
D20
330
CA7
100
AcDbEntity
  8
NORMAL
100
AcDbLine
 10
207.0
 20
98.0
 30
0.0
 11
205.0
 21
98.0
 31
0.0
  0
LINE
  5
D21
330
CA7
100
AcDbEntity
  8
NORMAL
100
AcDbLine
 10
207.0
 20
98.0
 30
0.0
 11
207.0
 21
96.0
 31
0.0
  0
LINE
  5
D22
330
CA7
100
AcDbEntity
  8
NORMAL
100
AcDbLine
 10
207.0
 20
98.0
 30
0.0
 11
207.0
 21
100.0
 31
0.0
  0
LINE
  5
D23
330
CA7
100
AcDbEntity
  8
NORMAL
100
AcDbLine
 10
217.25
 20
155.0
 30
0.0
 11
203.75
 21
155.0
 31
0.0
  0
TEXT
  5
D24
330
CA7
100
AcDbEntity
  8
NORMAL
100
AcDbText
 10
214.5
 20
147.0766666666666
 30
0.0
 40
3.5
  1
5
 50
90.0
 72
     1
 11
212.75
 21
148.2433333333333
 31
0.0
100
AcDbText
 73
     2
  0
LINE
  5
D25
330
CA7
100
AcDbEntity
  8
NORMAL
100
AcDbLine
 10
207.0
 20
157.5
 30
0.0
 11
209.0
 21
157.5
 31
0.0
  0
LINE
  5
D26
330
CA7
100
AcDbEntity
  8
NORMAL
100
AcDbLine
 10
207.0
 20
157.5
 30
0.0
 11
207.0
 21
155.5
 31
0.0
  0
CIRCLE
  5
D27
330
CA7
100
AcDbEntity
  8
NORMAL
100
AcDbCircle
 10
207.0
 20
157.5
 30
0.0
 40
1.125
  0
LINE
  5
D28
330
CA7
100
AcDbEntity
  8
NORMAL
100
AcDbLine
 10
207.0
 20
157.5
 30
0.0
 11
205.0
 21
157.5
 31
0.0
  0
LINE
  5
D29
330
CA7
100
AcDbEntity
  8
NORMAL
100
AcDbLine
 10
222.25
 20
157.5
 30
0.0
 11
220.25
 21
157.5
 31
0.0
  0
LINE
  5
D2A
330
CA7
100
AcDbEntity
  8
NORMAL
100
AcDbLine
 10
222.5
 20
157.5
 30
0.0
 11
215.0
 21
157.5
 31
0.0
  0
LINE
  5
D2B
330
CA7
100
AcDbEntity
  8
NORMAL
100
AcDbLine
 10
215.75
 20
149.0
 30
0.0
 11
215.75
 21
146.5766666666666
 31
0.0
  0
LINE
  5
D2C
330
CA7
100
AcDbEntity
  8
NORMAL
100
AcDbLine
 10
215.75
 20
151.0
 30
0.0
 11
215.75
 21
149.0
 31
0.0
  0
SOLID
  5
D2D
330
CA7
100
AcDbEntity
  8
NORMAL
100
AcDbTrace
 10
215.0833333333333
 20
151.0
 30
0.0
 11
216.4166666666667
 21
151.0
 31
0.0
 12
215.75
 22
155.0
 32
0.0
 13
215.75
 23
155.0
 33
0.0
  0
LINE
  5
D2E
330
CA7
100
AcDbEntity
  8
NORMAL
100
AcDbLine
 10
234.5
 20
94.0
 30
0.0
 11
234.5
 21
42.5
 31
0.0
  0
SOLID
  5
D2F
330
CA7
100
AcDbEntity
  8
NORMAL
100
AcDbTrace
 10
233.8333333333333
 20
42.5
 30
0.0
 11
235.1666666666667
 21
42.5
 31
0.0
 12
234.5
 22
38.5
 32
0.0
 13
234.5
 23
38.5
 33
0.0
  0
LINE
  5
D30
330
CA7
100
AcDbEntity
  8
NORMAL
100
AcDbLine
 10
234.5
 20
153.5
 30
0.0
 11
234.5
 21
102.0
 31
0.0
  0
SOLID
  5
D31
330
CA7
100
AcDbEntity
  8
NORMAL
100
AcDbTrace
 10
233.8333333333333
 20
94.0
 30
0.0
 11
235.1666666666667
 21
94.0
 31
0.0
 12
234.5
 22
98.0
 32
0.0
 13
234.5
 23
98.0
 33
0.0
  0
SOLID
  5
D32
330
CA7
100
AcDbEntity
  8
NORMAL
100
AcDbTrace
 10
233.8333333333333
 20
102.0
 30
0.0
 11
235.1666666666667
 21
102.0
 31
0.0
 12
234.5
 22
98.0
 32
0.0
 13
234.5
 23
98.0
 33
0.0
  0
SOLID
  5
D33
330
CA7
100
AcDbEntity
  8
NORMAL
100
AcDbTrace
 10
233.8333333333333
 20
153.5
 30
0.0
 11
235.1666666666667
 21
153.5
 31
0.0
 12
234.5
 22
157.5
 32
0.0
 13
234.5
 23
157.5
 33
0.0
  0
TEXT
  5
D34
330
CA7
100
AcDbEntity
  8
NORMAL
100
AcDbText
 10
173.9166666666666
 20
174.75
 30
0.0
 40
3.5
  1
117
 72
     1
 11
177.75
 21
176.5
 31
0.0
100
AcDbText
 73
     2
  0
TEXT
  5
D35
330
CA7
100
AcDbEntity
  8
NORMAL
100
AcDbText
 10
212.09
 20
167.25
 30
0.0
 40
3.5
  1
5
 72
     1
 11
213.2566666666666
 21
169.0
 31
0.0
100
AcDbText
 73
     2
  0
LINE
  5
D36
330
CA7
100
AcDbEntity
  8
NORMAL
100
AcDbLine
 10
212.0
 20
165.5
 30
0.0
 11
214.4233333333334
 21
165.5
 31
0.0
  0
SOLID
  5
D37
330
CA7
100
AcDbEntity
  8
NORMAL
100
AcDbTrace
 10
203.0
 20
173.6666666666666
 30
0.0
 11
203.0
 21
172.3333333333333
 31
0.0
 12
207.0
 22
173.0
 32
0.0
 13
207.0
 23
173.0
 33
0.0
  0
SOLID
  5
D38
330
CA7
100
AcDbEntity
  8
NORMAL
100
AcDbTrace
 10
200.5
 20
166.1666666666666
 30
0.0
 11
200.5
 21
164.8333333333333
 31
0.0
 12
204.5
 22
165.5
 32
0.0
 13
204.5
 23
165.5
 33
0.0
  0
LINE
  5
D39
330
CA7
100
AcDbEntity
  8
NORMAL
100
AcDbLine
 10
200.5
 20
165.5
 30
0.0
 11
196.5
 21
165.5
 31
0.0
  0
SOLID
  5
D3A
330
CA7
100
AcDbEntity
  8
NORMAL
100
AcDbTrace
 10
211.0
 20
166.1666666666666
 30
0.0
 11
211.0
 21
164.8333333333333
 31
0.0
 12
207.0
 22
165.5
 32
0.0
 13
207.0
 23
165.5
 33
0.0
  0
LINE
  5
D3B
330
CA7
100
AcDbEntity
  8
NORMAL
100
AcDbLine
 10
211.0
 20
165.5
 30
0.0
 11
212.0
 21
165.5
 31
0.0
  0
LINE
  5
D3C
330
CA7
100
AcDbEntity
  8
NORMAL
100
AcDbLine
 10
215.75
 20
161.5
 30
0.0
 11
215.75
 21
164.5
 31
0.0
  0
ENDBLK
  5
D3E
330
CA7
100
AcDbEntity
  8
0
100
AcDbBlockEnd
  0
BLOCK
  5
D43
330
D3F
100
AcDbEntity
  8
0
 62
     2
100
AcDbBlockBegin
  2
AVALON_LOGO_TEXT_BL1
 70
     0
 10
255.0
 20
15.4375
 30
0.0
  3
AVALON_LOGO_TEXT_BL1
  1

  0
TEXT
  5
D40
330
D3F
100
AcDbEntity
  8
0
  6
Continuous
 62
    40
100
AcDbText
 10
243.8777777778
 20
12.675
 30
0.0
 40
1.649999999999999
  1
T E C H N O L O G Y
  7
TEXTSTYLE_1
100
AcDbText
  0
TEXT
  5
D41
330
D3F
100
AcDbEntity
  8
0
  6
Continuous
 62
     5
100
AcDbText
 10
238.8740740741
 20
16.0
 30
0.0
 40
7.0
  1
Avalon
  7
TEXTSTYLE_2
100
AcDbText
  0
TEXT
  5
D42
330
D3F
100
AcDbEntity
  8
0
  6
Continuous
 62
     7
100
AcDbText
 10
236.7416666667
 20
7.875
 30
0.0
 40
1.75
  1
08 - 753 14 00 ,  Solna ,  Sweden
  7
TEXTSTYLE_1
100
AcDbText
  0
ENDBLK
  5
D44
330
D3F
100
AcDbEntity
  8
0
 62
     0
100
AcDbBlockEnd
  0
BLOCK
  5
D50
330
D45
100
AcDbEntity
  8
0
100
AcDbBlockBegin
  2
*D7
 70
     1
 10
0.0
 20
0.0
 30
0.0
  3
*D7
  1

  0
LINE
  5
D46
330
D45
100
AcDbEntity
  8
0
 62
     0
370
    -2
100
AcDbLine
 10
328.3807080121
 20
264.1032080121
 30
0.0
 11
328.3807080121
 21
302.8195680616254
 31
0.0
  0
LINE
  5
D47
330
D45
100
AcDbEntity
  8
0
 62
     0
370
    -2
100
AcDbLine
 10
21.3871018347
 20
263.0840324815027
 30
0.0
 11
21.38710183470001
 21
302.8195680616254
 31
0.0
  0
LINE
  5
D48
330
D45
100
AcDbEntity
  8
0
 62
     0
370
    -2
100
AcDbLine
 10
323.3807080121
 20
295.2595680616254
 30
0.0
 11
189.8780715900666
 21
295.2595680616254
 31
0.0
  0
LINE
  5
D49
330
D45
100
AcDbEntity
  8
0
 62
     0
370
    -2
100
AcDbLine
 10
26.38710183470001
 20
295.2595680616254
 30
0.0
 11
159.8897382567333
 21
295.2595680616254
 31
0.0
  0
SOLID
  5
D4A
330
D45
100
AcDbEntity
  8
0
 62
     0
100
AcDbTrace
 10
323.3807080121
 20
296.0929013949587
 30
0.0
 11
323.3807080121
 21
294.4262347282921
 31
0.0
 12
328.3807080121
 22
295.2595680616254
 32
0.0
 13
328.3807080121
 23
295.2595680616254
 33
0.0
  0
SOLID
  5
D4B
330
D45
100
AcDbEntity
  8
0
 62
     0
100
AcDbTrace
 10
26.38710183470001
 20
296.0929013949587
 30
0.0
 11
26.38710183470001
 21
294.4262347282921
 31
0.0
 12
21.38710183470001
 22
295.2595680616254
 32
0.0
 13
21.38710183470001
 23
295.2595680616254
 33
0.0
  0
MTEXT
  5
D4C
330
D45
100
AcDbEntity
  8
0
 62
     0
100
AcDbMText
 10
174.8839049234
 20
295.2595680616254
 30
0.0
 40
3.5
 41
0.0
 71
     5
 72
     1
  1
\A1;306.9936±0.0100
 73
     1
 44
1.0
  0
POINT
  5
D4D
330
D45
100
AcDbEntity
  8
Defpoints
 62
     0
100
AcDbPoint
 10
328.3807080121
 20
261.4782080121
 30
0.0
  0
POINT
  5
D4E
330
D45
100
AcDbEntity
  8
Defpoints
 62
     0
100
AcDbPoint
 10
21.3871018347
 20
260.4590324815027
 30
0.0
  0
POINT
  5
D4F
330
D45
100
AcDbEntity
  8
Defpoints
 62
     0
100
AcDbPoint
 10
21.38710183470001
 20
295.2595680616254
 30
0.0
  0
ENDBLK
  5
D51
330
D45
100
AcDbEntity
  8
0
100
AcDbBlockEnd
  0
BLOCK
  5
D5D
330
D52
100
AcDbEntity
  8
0
100
AcDbBlockBegin
  2
A$C57922F0C
 70
     0
 10
0.0
 20
0.0
 30
0.0
  3
A$C57922F0C
  1

  0
LWPOLYLINE
  5
D53
330
D52
100
AcDbEntity
  8
0
100
AcDbPolyline
 90
        6
 70
   128
 43
0.0
 10
-292.5700451976523
 20
231.9363202347957
 10
16.42356097974772
 20
231.955495765393
 10
16.42356097974772
 20
223.062608014993
 10
51.3397511329477
 20
223.062608014993
 10
51.3397511329477
 20
30.17096293549303
 10
8.791512971544307
 20
30.17096293549303
  0
LINE
  5
D54
330
D52
100
AcDbEntity
  8
0
  6
Continuous
 62
     7
100
AcDbLine
 10
18.58485296764769
 20
19.61678775329301
 30
0.0
 11
18.58485296764769
 21
30.61678775329301
 31
0.0
  0
LINE
  5
D55
330
D52
100
AcDbEntity
  8
0
100
AcDbLine
 10
-292.5700451976523
 20
24.29724652439035
 30
0.0
 11
16.42356097974772
 21
23.27807974119301
 31
0.0
  0
LINE
  5
D56
330
D52
100
AcDbEntity
  8
0
100
AcDbLine
 10
-292.5700451976523
 20
231.9363202347957
 30
0.0
 11
-292.5700451976523
 21
24.29724652439035
 31
0.0
  0
DIMENSION
  5
D57
330
D52
100
AcDbEntity
  8
0
100
AcDbDimension
  2
*D7
 10
-291.5700451976523
 20
265.7368558149184
 30
0.0
 11
-138.0732421089523
 21
265.7368558149184
 31
0.0
 12
-312.9571470323523
 22
-29.52271224670699
 32
0.0
 71
     5
 42
306.9936061774
  3
STANDARD
100
AcDbAlignedDimension
 13
15.42356097974772
 23
231.955495765393
 33
0.0
 14
-291.5700451976523
 24
230.9363202347957
 34
0.0
100
AcDbRotatedDimension
1001
ACAD
1000
DSTYLE
1002
{
1070
    42
1040
2.625
1070
    43
1040
15.96
1070
    44
1040
7.559999999999999
1070
    73
1070
     1
1070
    74
1070
     1
1070
    77
1070
     0
1070
    78
1070
     0
1070
   141
1040
3.779999999999999
1070
   271
1070
     4
1070
   272
1070
     4
1070
   284
1070
     0
1002
}
  0
LINE
  5
D58
330
D52
100
AcDbEntity
  8
0
 62
     2
100
AcDbLine
 10
23.58485296764769
 20
233.616787753293
 30
0.0
 11
23.58485296764769
 21
257.6712902086449
 31
0.0
  0
LINE
  5
D59
330
D52
100
AcDbEntity
  8
0
 62
     2
100
AcDbLine
 10
22.58485296764769
 20
234.616787753293
 30
0.0
 11
78.47553145401889
 21
234.616787753293
 31
0.0
  0
LINE
  5
D5A
330
D52
100
AcDbEntity
  8
0
 62
     2
100
AcDbLine
 10
15.42356097974772
 20
28.27564304929301
 30
0.0
 11
15.42356097974772
 21
-10.9926034567294
 31
0.0
  0
LINE
  5
D5B
330
D52
100
AcDbEntity
  8
0
 62
     2
100
AcDbLine
 10
23.58485296764769
 20
19.61678775329301
 30
0.0
 11
23.58485296764769
 21
-16.33555589853847
 31
0.0
  0
LINE
  5
D5C
330
D52
100
AcDbEntity
  8
0
 62
     2
100
AcDbLine
 10
22.58485296764769
 20
18.61678775329301
 30
0.0
 11
88.93168562589039
 21
18.61678775329301
 31
0.0
  0
ENDBLK
  5
D5E
330
D52
100
AcDbEntity
  8
0
100
AcDbBlockEnd
  0
BLOCK
  5
D8C
330
D6A
100
AcDbEntity
  8
0
100
AcDbBlockBegin
  2
5162S1_insert
 70
     0
 10
0.0
 20
0.0
 30
0.0
  3
5162S1_insert
  1

  0
TEXT
  5
D6B
330
D6A
100
AcDbEntity
  8
NORMAL
100
AcDbText
 10
331.625
 20
12.8
 30
0.0
 40
2.399999999999999
  1
API
 11
331.625
 21
12.0
 31
0.0
100
AcDbText
 73
     1
  0
TEXT
  5
D6C
330
D6A
100
AcDbEntity
  8
NORMAL
100
AcDbText
 10
339.375
 20
12.8
 30
0.0
 40
2.399999999999999
  1
2004-06-08
 11
339.375
 21
12.0
 31
0.0
100
AcDbText
 73
     1
  0
TEXT
  5
D6D
330
D6A
100
AcDbEntity
  8
NORMAL
100
AcDbText
 10
373.875
 20
12.41666666666666
 30
0.0
 40
3.5
  1
S-05162
  7
ROMAND
 11
373.875
 21
11.25
 31
0.0
100
AcDbText
 73
     1
  0
LINE
  5
D6E
330
D6A
100
AcDbEntity
  8
NORMAL
100
AcDbLine
 10
6.875
 20
12.25
 30
0.0
 11
6.875
 21
10.5
 31
0.0
  0
LINE
  5
D6F
330
D6A
100
AcDbEntity
  8
NORMAL
100
AcDbLine
 10
6.875
 20
10.5
 30
0.0
 11
8.625
 21
10.5
 31
0.0
  0
LINE
  5
D70
330
D6A
100
AcDbEntity
  8
NORMAL
100
AcDbLine
 10
403.125
 20
281.5
 30
0.0
 11
405.125
 21
281.5
 31
0.0
  0
LINE
  5
D71
330
D6A
100
AcDbEntity
  8
NORMAL
100
AcDbLine
 10
405.125
 20
281.5
 30
0.0
 11
405.125
 21
279.5
 31
0.0
  0
LINE
  5
D72
330
D6A
100
AcDbEntity
  8
NORMAL
100
AcDbLine
 10
206.0
 20
128.5
 30
0.0
 11
206.0
 21
148.5
 31
0.0
  0
LINE
  5
D73
330
D6A
100
AcDbEntity
  8
NORMAL
100
AcDbLine
 10
196.0
 20
138.5
 30
0.0
 11
216.0
 21
138.5
 31
0.0
  0
LWPOLYLINE
  5
D74
330
D6A
100
AcDbEntity
  8
NORMAL
100
AcDbPolyline
 90
        4
 70
     1
 43
0.5
 10
74.0
 20
241.0
 10
338.5
 20
241.0
 10
338.5
 20
35.0
 10
74.0
 20
35.0
  0
LINE
  5
D75
330
D6A
100
AcDbEntity
  8
NORMAL
100
AcDbLine
 10
74.0
 20
241.0
 30
0.0
 11
74.0
 21
262.5
 31
0.0
  0
LINE
  5
D76
330
D6A
100
AcDbEntity
  8
NORMAL
100
AcDbLine
 10
338.5
 20
241.0
 30
0.0
 11
338.5
 21
262.5
 31
0.0
  0
LINE
  5
D77
330
D6A
100
AcDbEntity
  8
NORMAL
100
AcDbLine
 10
79.0
 20
260.5
 30
0.0
 11
333.5
 21
260.5
 31
0.0
  0
SOLID
  5
D78
330
D6A
100
AcDbEntity
  8
NORMAL
100
AcDbTrace
 10
79.0
 20
261.3333333333333
 30
0.0
 11
79.0
 21
259.6666666666667
 31
0.0
 12
74.0
 22
260.5
 32
0.0
 13
74.0
 23
260.5
 33
0.0
  0
SOLID
  5
D79
330
D6A
100
AcDbEntity
  8
NORMAL
100
AcDbTrace
 10
333.5
 20
261.3333333333333
 30
0.0
 11
333.5
 21
259.6666666666667
 31
0.0
 12
338.5
 22
260.5
 32
0.0
 13
338.5
 23
260.5
 33
0.0
  0
MTEXT
  5
D7A
330
D6A
100
AcDbEntity
  8
NORMAL
100
AcDbMText
 10
206.0
 20
264.8938692628506
 30
0.0
 40
3.399999999999999
 41
0.0
 71
     5
 72
     1
  1
264.5±1 (10.4±0.04)
 73
     1
 44
1.0
  0
LINE
  5
D7B
330
D6A
100
AcDbEntity
  8
NORMAL
100
AcDbLine
 10
338.5
 20
241.0
 30
0.0
 11
364.3750000000001
 21
241.0
 31
0.0
  0
LINE
  5
D7C
330
D6A
100
AcDbEntity
  8
NORMAL
100
AcDbLine
 10
338.5
 20
35.0
 30
0.0
 11
364.375
 21
35.0
 31
0.0
  0
LINE
  5
D7D
330
D6A
100
AcDbEntity
  8
NORMAL
100
AcDbLine
 10
362.3750000000001
 20
236.0
 30
0.0
 11
362.375
 21
40.0
 31
0.0
  0
SOLID
  5
D7E
330
D6A
100
AcDbEntity
  8
NORMAL
100
AcDbTrace
 10
361.5416666666667
 20
236.0
 30
0.0
 11
363.2083333333334
 21
236.0
 31
0.0
 12
362.3750000000001
 22
241.0
 32
0.0
 13
362.3750000000001
 23
241.0
 33
0.0
  0
SOLID
  5
D7F
330
D6A
100
AcDbEntity
  8
NORMAL
100
AcDbTrace
 10
361.5416666666667
 20
40.0
 30
0.0
 11
363.2083333333333
 21
40.0
 31
0.0
 12
362.375
 22
35.0
 32
0.0
 13
362.375
 23
35.0
 33
0.0
  0
MTEXT
  5
D80
330
D6A
100
AcDbEntity
  8
NORMAL
100
AcDbMText
 10
357.7749489951433
 20
138.5
 30
0.0
 40
3.399999999999999
 41
0.0
 71
     5
 72
     1
  1
206±1 (8.1±0.04)
 11
0.0000000000000001
 21
1.0
 31
0.0
 73
     1
 44
1.0
  0
TEXT
  5
D81
330
D6A
100
AcDbEntity
  8
NORMAL
100
AcDbText
 10
157.9558269749687
 20
187.1344630609874
 30
0.0
 40
4.5
  1
PANEL CUT OUT FOR BEPP104T
 72
     4
 11
212.9201126892545
 21
189.3844630609874
 31
0.0
100
AcDbText
  0
TEXT
  5
D82
330
D6A
100
AcDbEntity
  8
NORMAL
100
AcDbText
 10
200.0867793559211
 20
169.8844630609874
 30
0.0
 40
3.5
  1
SCALE 1:1
 72
     4
 11
212.9201126892545
 21
171.6344630609874
 31
0.0
100
AcDbText
  0
TEXT
  5
D83
330
D6A
100
AcDbEntity
  8
NORMAL
100
AcDbText
 10
200.0867793559211
 20
178.6344630609874
 30
0.0
 40
3.5
  1
front view
 72
     4
 11
212.9201126892545
 21
180.3844630609874
 31
0.0
100
AcDbText
  0
LINE
  5
D84
330
D6A
100
AcDbEntity
  8
NORMAL
100
AcDbLine
 10
74.0
 20
241.0
 30
0.0
 11
60.75
 21
241.0
 31
0.0
  0
LINE
  5
D85
330
D6A
100
AcDbEntity
  8
NORMAL
100
AcDbLine
 10
60.75
 20
241.0
 30
0.0
 11
60.75
 21
285.0
 31
0.0
  0
LINE
  5
D86
330
D6A
100
AcDbEntity
  8
NORMAL
100
AcDbLine
 10
52.0
 20
241.0
 30
0.0
 11
52.0
 21
253.0
 31
0.0
  0
LINE
  5
D87
330
D6A
100
AcDbEntity
  8
NORMAL
100
AcDbLine
 10
52.0
 20
253.0
 30
0.0
 11
78.0
 21
253.0
 31
0.0
  0
LINE
  5
D88
330
D6A
100
AcDbEntity
  8
NORMAL
100
AcDbLine
 10
60.75
 20
253.0
 30
0.0
 11
60.75
 21
25.0
 31
0.0
  0
LINE
  5
D89
330
D6A
100
AcDbEntity
  8
NORMAL
100
AcDbLine
 10
60.75
 20
25.0
 30
0.0
 11
362.75
 21
25.0
 31
0.0
  0
LINE
  5
D8A
330
D6A
100
AcDbEntity
  8
NORMAL
100
AcDbLine
 10
362.75
 20
25.0
 30
0.0
 11
362.75
 21
253.0
 31
0.0
  0
LINE
  5
D8B
330
D6A
100
AcDbEntity
  8
NORMAL
100
AcDbLine
 10
362.75
 20
253.0
 30
0.0
 11
60.75
 21
253.0
 31
0.0
  0
ENDBLK
  5
D8D
330
D6A
100
AcDbEntity
  8
0
100
AcDbBlockEnd
  0
ENDSEC
  0
SECTION
  2
ENTITIES
  0
LINE
  5
D92
330
17
100
AcDbEntity
  8
NORMAL
100
AcDbLine
 10
26.875
 20
2.25
 30
0.0
 11
26.875
 21
0.5
 31
0.0
  0
LINE
  5
D93
330
17
100
AcDbEntity
  8
NORMAL
100
AcDbLine
 10
26.875
 20
0.5
 30
0.0
 11
28.625
 21
0.5
 31
0.0
  0
LINE
  5
D94
330
17
100
AcDbEntity
  8
NORMAL
100
AcDbLine
 10
373.125
 20
261.5
 30
0.0
 11
375.125
 21
261.5
 31
0.0
  0
LINE
  5
D95
330
17
100
AcDbEntity
  8
NORMAL
100
AcDbLine
 10
375.125
 20
261.5
 30
0.0
 11
375.125
 21
259.5
 31
0.0
  0
LWPOLYLINE
  5
D98
330
17
100
AcDbEntity
  8
NORMAL
100
AcDbPolyline
 90
        4
 70
     1
 43
0.5
 10
64.0
 20
231.0
 10
328.5
 20
231.0
 10
328.5
 20
25.0
 10
64.0
 20
25.0
  0
TEXT
  5
DA5
330
17
100
AcDbEntity
  8
NORMAL
100
AcDbText
 10
144.4201126892544
 20
176.705891632416
 30
0.0
 40
4.5
  1
PANEL CUT OUT FOR 10.4" Touch
 72
     4
 11
202.9201126892544
 21
179.3844630609874
 31
0.0
100
AcDbText
  0
TEXT
  5
DA6
330
17
100
AcDbEntity
  8
NORMAL
100
AcDbText
 10
190.0867793559211
 20
159.8844630609874
 30
0.0
 40
3.5
  1
SCALE 1:1
 72
     4
 11
202.9201126892544
 21
161.6344630609874
 31
0.0
100
AcDbText
  0
TEXT
  5
DA7
330
17
100
AcDbEntity
  8
NORMAL
100
AcDbText
 10
189.5867793559211
 20
168.6344630609874
 30
0.0
 40
3.5
  1
Front view
 72
     4
 11
202.9201126892544
 21
170.3844630609874
 31
0.0
100
AcDbText
  0
LINE
  5
DAC
330
17
100
AcDbEntity
  8
NORMAL
100
AcDbLine
 10
50.75
 20
228.0000000000001
 30
0.0
 11
50.75
 21
30.0
 31
0.0
  0
LINE
  5
DAD
330
17
100
AcDbEntity
  8
NORMAL
100
AcDbLine
 10
65.75
 20
15.0
 30
0.0
 11
337.75
 21
15.0
 31
0.0
  0
LINE
  5
DAE
330
17
100
AcDbEntity
  8
NORMAL
100
AcDbLine
 10
352.75
 20
30.0
 30
0.0
 11
352.75
 21
228.0000000000001
 31
0.0
  0
LINE
  5
DAF
330
17
100
AcDbEntity
  8
NORMAL
100
AcDbLine
 10
337.75
 20
243.0000000000001
 30
0.0
 11
65.75
 21
243.0000000000001
 31
0.0
  0
LINE
  5
DB6
330
17
100
AcDbEntity
  8
NORMAL
100
AcDbLine
 10
289.0
 20
231.0
 30
0.0
 11
290.0000000000001
 21
231.0
 31
0.0
  0
LINE
  5
DB7
330
17
100
AcDbEntity
  8
NORMAL
100
AcDbLine
 10
289.0
 20
25.0
 30
0.0
 11
288.0
 21
25.0
 31
0.0
  0
LINE
  5
DB8
330
17
100
AcDbEntity
  8
NORMAL
100
AcDbLine
 10
289.0
 20
228.0
 30
0.0
 11
289.0
 21
28.0
 31
0.0
  0
SOLID
  5
DB9
330
17
100
AcDbEntity
  8
NORMAL
100
AcDbTrace
 10
288.5000000000001
 20
228.0
 30
0.0
 11
289.5
 21
228.0
 31
0.0
 12
289.0
 22
231.0
 32
0.0
 13
289.0
 23
231.0
 33
0.0
  0
SOLID
  5
DBA
330
17
100
AcDbEntity
  8
NORMAL
100
AcDbTrace
 10
288.5
 20
28.0
 30
0.0
 11
289.5
 21
28.0
 31
0.0
 12
289.0
 22
25.0
 32
0.0
 13
289.0
 23
25.0
 33
0.0
  0
MTEXT
  5
DBB
330
17
100
AcDbEntity
  8
NORMAL
100
AcDbMText
 10
286.1714285714286
 20
128.0
 30
0.0
 40
2.399999999999999
 41
0.0
 71
     5
 72
     1
  1
\A1;206%%p1 (8.1%%p0.04)
 11
0.0000000000000001
 21
1.0
 31
0.0
 73
     1
 44
1.0
  0
LINE
  5
DBC
330
17
100
AcDbEntity
  8
NORMAL
100
AcDbLine
 10
64.0
 20
25.0
 30
0.0
 11
64.0
 21
61.0
 31
0.0
  0
LINE
  5
DBD
330
17
100
AcDbEntity
  8
NORMAL
100
AcDbLine
 10
328.5
 20
25.0
 30
0.0
 11
328.5
 21
61.0
 31
0.0
  0
LINE
  5
DBE
330
17
100
AcDbEntity
  8
NORMAL
100
AcDbLine
 10
67.0
 20
60.0
 30
0.0
 11
325.5
 21
60.0
 31
0.0
  0
SOLID
  5
DBF
330
17
100
AcDbEntity
  8
NORMAL
100
AcDbTrace
 10
67.0
 20
60.5
 30
0.0
 11
67.0
 21
59.5
 31
0.0
 12
64.0
 22
60.0
 32
0.0
 13
64.0
 23
60.0
 33
0.0
  0
SOLID
  5
DC0
330
17
100
AcDbEntity
  8
NORMAL
100
AcDbTrace
 10
325.5
 20
60.5
 30
0.0
 11
325.5
 21
59.5
 31
0.0
 12
328.5
 22
60.0
 32
0.0
 13
328.5
 23
60.0
 33
0.0
  0
MTEXT
  5
DC1
330
17
100
AcDbEntity
  8
NORMAL
100
AcDbMText
 10
196.25
 20
62.82857142857142
 30
0.0
 40
2.399999999999999
 41
0.0
 71
     5
 72
     1
  1
\A1;264,5%%p1 (10.4%%p0.04)
 73
     1
 44
1.0
  0
LINE
  5
DC3
330
17
100
AcDbEntity
  8
NORMAL
100
AcDbLine
 10
328.5
 20
25.0
 30
0.0
 11
328.5
 21
74.0
 31
0.0
  0
LINE
  5
DC4
330
17
100
AcDbEntity
  8
NORMAL
100
AcDbLine
 10
355.75
 20
73.0
 30
0.0
 11
358.75
 21
73.0
 31
0.0
  0
LINE
  5
DC5
330
17
100
AcDbEntity
  8
NORMAL
100
AcDbLine
 10
325.5
 20
73.0
 30
0.0
 11
297.6428571428572
 21
73.0
 31
0.0
  0
SOLID
  5
DC6
330
17
100
AcDbEntity
  8
NORMAL
100
AcDbTrace
 10
355.75
 20
73.5
 30
0.0
 11
355.75
 21
72.5
 31
0.0
 12
352.75
 22
73.0
 32
0.0
 13
352.75
 23
73.0
 33
0.0
  0
SOLID
  5
DC7
330
17
100
AcDbEntity
  8
NORMAL
100
AcDbTrace
 10
325.5
 20
73.5
 30
0.0
 11
325.5
 21
72.5
 31
0.0
 12
328.5
 22
73.0
 32
0.0
 13
328.5
 23
73.0
 33
0.0
  0
MTEXT
  5
DC8
330
17
100
AcDbEntity
  8
NORMAL
100
AcDbMText
 10
310.0714285714285
 20
75.82857142857142
 30
0.0
 40
2.399999999999999
 41
0.0
 71
     5
 72
     1
  1
\A1;24,25 (0.95)
 73
     1
 44
1.0
  0
ARC
  5
DCB
330
17
100
AcDbEntity
  8
NORMAL
100
AcDbCircle
 10
65.75
 20
228.0000000000001
 30
0.0
 40
15.0
100
AcDbArc
 50
90.0
 51
180.0
  0
ARC
  5
DCC
330
17
100
AcDbEntity
  8
NORMAL
100
AcDbCircle
 10
65.75
 20
30.0
 30
0.0
 40
15.0
100
AcDbArc
 50
180.0
 51
270.0
  0
ARC
  5
DCD
330
17
100
AcDbEntity
  8
NORMAL
100
AcDbCircle
 10
337.75
 20
30.0
 30
0.0
 40
15.0
100
AcDbArc
 50
270.0
 51
0.0
  0
ARC
  5
DCE
330
17
100
AcDbEntity
  8
NORMAL
100
AcDbCircle
 10
337.75
 20
228.0000000000001
 30
0.0
 40
15.0
100
AcDbArc
 50
0.0
 51
90.0
  0
LINE
  5
DCF
330
17
100
AcDbEntity
  8
NORMAL
100
AcDbLine
 10
50.75
 20
30.0
 30
0.0
 11
50.75
 21
74.0
 31
0.0
  0
LINE
  5
DD0
330
17
100
AcDbEntity
  8
NORMAL
100
AcDbLine
 10
64.0
 20
25.0
 30
0.0
 11
64.0
 21
74.0
 31
0.0
  0
LINE
  5
DD1
330
17
100
AcDbEntity
  8
NORMAL
100
AcDbLine
 10
47.75
 20
73.0
 30
0.0
 11
44.75
 21
73.0
 31
0.0
  0
LINE
  5
DD2
330
17
100
AcDbEntity
  8
NORMAL
100
AcDbLine
 10
67.0
 20
73.0
 30
0.0
 11
94.39999999999999
 21
73.0
 31
0.0
  0
SOLID
  5
DD3
330
17
100
AcDbEntity
  8
NORMAL
100
AcDbTrace
 10
47.75
 20
73.5
 30
0.0
 11
47.75
 21
72.5
 31
0.0
 12
50.75
 22
73.0
 32
0.0
 13
50.75
 23
73.0
 33
0.0
  0
SOLID
  5
DD4
330
17
100
AcDbEntity
  8
NORMAL
100
AcDbTrace
 10
67.0
 20
73.5
 30
0.0
 11
67.0
 21
72.5
 31
0.0
 12
64.0
 22
73.0
 32
0.0
 13
64.0
 23
73.0
 33
0.0
  0
MTEXT
  5
DD5
330
17
100
AcDbEntity
  8
NORMAL
100
AcDbMText
 10
82.19999999999998
 20
75.82857142857142
 30
0.0
 40
2.399999999999999
 41
0.0
 71
     5
 72
     1
  1
\A1;13,25 (0.52)
 73
     1
 44
1.0
  0
LINE
  5
DD6
330
17
100
AcDbEntity
  8
NORMAL
100
AcDbLine
 10
337.75
 20
15.0
 30
0.0
 11
272.0
 21
15.00000000000001
 31
0.0
  0
LINE
  5
DD7
330
17
100
AcDbEntity
  8
NORMAL
100
AcDbLine
 10
328.5
 20
25.0
 30
0.0
 11
272.0
 21
25.00000000000002
 31
0.0
  0
LINE
  5
DD8
330
17
100
AcDbEntity
  8
NORMAL
100
AcDbLine
 10
273.0
 20
12.00000000000002
 30
0.0
 11
273.0
 21
9.000000000000017
 31
0.0
  0
LINE
  5
DD9
330
17
100
AcDbEntity
  8
NORMAL
100
AcDbLine
 10
273.0
 20
28.00000000000002
 30
0.0
 11
273.0
 21
49.68571428571429
 31
0.0
  0
SOLID
  5
DDA
330
17
100
AcDbEntity
  8
NORMAL
100
AcDbTrace
 10
272.5
 20
12.00000000000002
 30
0.0
 11
273.5
 21
12.00000000000002
 31
0.0
 12
273.0
 22
15.00000000000001
 32
0.0
 13
273.0
 23
15.00000000000001
 33
0.0
  0
SOLID
  5
DDB
330
17
100
AcDbEntity
  8
NORMAL
100
AcDbTrace
 10
272.5
 20
28.00000000000002
 30
0.0
 11
273.5
 21
28.00000000000002
 31
0.0
 12
273.0
 22
25.00000000000002
 32
0.0
 13
273.0
 23
25.00000000000002
 33
0.0
  0
MTEXT
  5
DDC
330
17
100
AcDbEntity
  8
NORMAL
100
AcDbMText
 10
270.1714285714286
 20
40.3428571428572
 30
0.0
 40
2.399999999999999
 41
0.0
 71
     5
 72
     1
  1
\A1;10 (0.39)
 11
0.0000000000000001
 21
1.0
 31
0.0
 73
     1
 44
1.0
  0
LINE
  5
DE4
330
17
100
AcDbEntity
  8
NORMAL
100
AcDbLine
 10
337.75
 20
243.0000000000001
 30
0.0
 11
272.0
 21
243.0000000000001
 31
0.0
  0
LINE
  5
DE5
330
17
100
AcDbEntity
  8
NORMAL
100
AcDbLine
 10
328.5
 20
231.0
 30
0.0
 11
272.0
 21
231.0
 31
0.0
  0
LINE
  5
DE6
330
17
100
AcDbEntity
  8
NORMAL
100
AcDbLine
 10
273.0
 20
246.0000000000001
 30
0.0
 11
273.0
 21
249.0000000000001
 31
0.0
  0
LINE
  5
DE7
330
17
100
AcDbEntity
  8
NORMAL
100
AcDbLine
 10
273.0
 20
228.0
 30
0.0
 11
273.0
 21
206.3142857142858
 31
0.0
  0
SOLID
  5
DE8
330
17
100
AcDbEntity
  8
NORMAL
100
AcDbTrace
 10
272.5
 20
246.0000000000001
 30
0.0
 11
273.5
 21
246.0000000000001
 31
0.0
 12
273.0
 22
243.0000000000001
 32
0.0
 13
273.0
 23
243.0000000000001
 33
0.0
  0
SOLID
  5
DE9
330
17
100
AcDbEntity
  8
NORMAL
100
AcDbTrace
 10
272.5
 20
228.0
 30
0.0
 11
273.5
 21
228.0
 31
0.0
 12
273.0
 22
231.0
 32
0.0
 13
273.0
 23
231.0
 33
0.0
  0
MTEXT
  5
DEA
330
17
100
AcDbEntity
  8
NORMAL
100
AcDbMText
 10
270.1714285714285
 20
215.6571428571429
 30
0.0
 40
2.399999999999999
 41
0.0
 71
     5
 72
     1
  1
\A1;12 (0.47)
 11
0.0000000000000001
 21
1.0
 31
0.0
 73
     1
 44
1.0
  0
LINE
  5
DF2
330
17
100
AcDbEntity
  8
NORMAL
  6
DASHDOT
100
AcDbLine
 10
201.75
 20
129.0
 30
0.0
 11
186.75
 21
129.0
 31
0.0
  0
LINE
  5
DF3
330
17
100
AcDbEntity
  8
NORMAL
  6
DASHDOT
100
AcDbLine
 10
201.75
 20
129.0
 30
0.0
 11
201.75
 21
144.0
 31
0.0
  0
LINE
  5
DF4
330
17
100
AcDbEntity
  8
NORMAL
  6
DASHDOT
100
AcDbLine
 10
201.75
 20
129.0
 30
0.0
 11
216.75
 21
129.0
 31
0.0
  0
LINE
  5
DF5
330
17
100
AcDbEntity
  8
NORMAL
  6
DASHDOT
100
AcDbLine
 10
201.75
 20
129.0
 30
0.0
 11
201.75
 21
114.0
 31
0.0
  0
LEADER
  5
DFB
330
17
100
AcDbEntity
  8
NORMAL
  6
ByBlock
100
AcDbLeader
  3
STANDARD
 73
     0
 75
     1
 40
2.399999999999999
 41
13.59999999999999
 76
     3
 10
259.0
 20
25.0
 30
0.0
 10
254.5
 20
30.75
 30
0.0
 10
251.5
 20
30.75
 30
0.0
340
DFC
213
0.0
223
1.199999999999999
233
0.0
1001
ACAD
1000
DSTYLE
1002
{
1070
    41
1040
3.0
1070
    42
1040
0.0
1070
    43
1040
7.5
1070
    44
1040
1.0
1070
    73
1070
     0
1070
    74
1070
     0
1070
    78
1070
     8
1070
   140
1040
2.399999999999999
1070
   141
1040
3.0
1070
   147
1040
1.0
1070
   271
1070
     2
1070
   272
1070
     2
1070
   278
1070
    44
1070
   284
1070
     8
1070
   289
1070
     0
1002
}
  0
MTEXT
  5
DFC
102
{ACAD_REACTORS
330
DFB
102
}
330
17
100
AcDbEntity
  8
NORMAL
  6
ByBlock
100
AcDbMText
 10
250.5
 20
29.55
 30
0.0
 40
2.399999999999999
 41
0.0
 71
     9
 72
     1
  1
Cut out
 73
     1
 44
1.0
  0
LEADER
  5
DFD
330
17
100
AcDbEntity
  8
NORMAL
  6
ByBlock
100
AcDbLeader
  3
STANDARD
 73
     0
 75
     1
 40
2.399999999999999
 41
28.68571428571428
 76
     3
 10
259.5
 20
15.0
 30
0.0
 10
255.5
 20
20.25
 30
0.0
 10
252.5
 20
20.25
 30
0.0
340
DFE
213
0.0
223
1.199999999999999
233
0.0
1001
ACAD
1000
DSTYLE
1002
{
1070
    41
1040
3.0
1070
    42
1040
0.0
1070
    43
1040
7.5
1070
    44
1040
1.0
1070
    73
1070
     0
1070
    74
1070
     0
1070
    78
1070
     8
1070
   140
1040
2.399999999999999
1070
   141
1040
3.0
1070
   147
1040
1.0
1070
   271
1070
     2
1070
   272
1070
     2
1070
   278
1070
    44
1070
   284
1070
     8
1070
   289
1070
     0
1002
}
  0
MTEXT
  5
DFE
102
{ACAD_REACTORS
330
DFD
102
}
330
17
100
AcDbEntity
  8
NORMAL
  6
ByBlock
100
AcDbMText
 10
251.5
 20
19.05
 30
0.0
 40
2.399999999999999
 41
0.0
 71
     9
 72
     1
  1
Terminal outline
 73
     1
 44
1.0
  0
LEADER
  5
E00
330
17
100
AcDbEntity
  8
NORMAL
  6
ByBlock
100
AcDbLeader
  3
STANDARD
 73
     0
 74
     0
 75
     1
 40
2.4
 41
28.22857142857142
 76
     3
 10
202.0
 20
128.75
 30
0.0
 10
205.5
 20
120.75
 30
0.0
 10
208.5
 20
120.75
 30
0.0
340
E01
213
0.0
223
-1.199999999999999
233
0.0
1001
ACAD
1000
DSTYLE
1002
{
1070
    41
1040
3.0
1070
    42
1040
0.0
1070
    43
1040
7.5
1070
    44
1040
1.0
1070
    73
1070
     0
1070
    74
1070
     0
1070
    78
1070
     8
1070
   140
1040
2.399999999999999
1070
   141
1040
3.0
1070
   147
1040
1.0
1070
   271
1070
     2
1070
   272
1070
     2
1070
   278
1070
    44
1070
   284
1070
     8
1070
   289
1070
     0
1002
}
  0
MTEXT
  5
E01
102
{ACAD_REACTORS
330
E00
102
}
330
17
100
AcDbEntity
  8
NORMAL
  6
ByBlock
100
AcDbMText
 10
209.5
 20
121.95
 30
0.0
 40
2.399999999999999
 41
0.0
 71
     1
 72
     1
  1
Terminal center
 73
     1
 44
1.0
  0
ENDSEC
  0
SECTION
  2
OBJECTS
  0
DICTIONARY
  5
C
330
0
100
AcDbDictionary
281
     1
  3
ACAD_COLOR
350
E08
  3
ACAD_GROUP
350
D
  3
ACAD_LAYOUT
350
894
  3
ACAD_MATERIAL
350
E07
  3
ACAD_MLINESTYLE
350
1A
  3
ACAD_PLOTSETTINGS
350
895
  3
ACAD_PLOTSTYLENAME
350
892
  3
ACAD_TABLESTYLE
350
E09
  3
ACDBVARIABLEDICTIONARY
350
2E
  3
CONTENTDICTIONARY
350
2E5
  0
DICTIONARY
  5
E08
102
{ACAD_REACTORS
330
C
102
}
330
C
100
AcDbDictionary
281
     1
  0
DICTIONARY
  5
D
102
{ACAD_REACTORS
330
C
102
}
330
C
100
AcDbDictionary
281
     1
  0
DICTIONARY
  5
894
102
{ACAD_REACTORS
330
C
102
}
330
C
100
AcDbDictionary
281
     1
  3
Layout1
350
897
  3
Model
350
896
  0
DICTIONARY
  5
E07
102
{ACAD_REACTORS
330
C
102
}
330
C
100
AcDbDictionary
281
     1
  0
DICTIONARY
  5
1A
102
{ACAD_REACTORS
330
C
102
}
330
C
100
AcDbDictionary
281
     1
  3
STANDARD
350
1B
  0
DICTIONARY
  5
895
102
{ACAD_REACTORS
330
C
102
}
330
C
100
AcDbDictionary
281
     1
  0
ACDBDICTIONARYWDFLT
  5
892
102
{ACAD_REACTORS
330
C
102
}
330
C
100
AcDbDictionary
281
     1
  3
Normal
350
893
100
AcDbDictionaryWithDefault
340
893
  0
DICTIONARY
  5
E09
102
{ACAD_REACTORS
330
C
102
}
330
C
100
AcDbDictionary
281
     1
  3
Standard
350
E0A
  0
DICTIONARY
  5
2E
102
{ACAD_REACTORS
330
C
102
}
330
C
100
AcDbDictionary
281
     1
  3
CTABLESTYLE
350
E0E
  3
DIMADEC
350
2F
  3
DIMASSOC
350
DCA
  0
DICTIONARY
  5
2E5
102
{ACAD_REACTORS
330
C
102
}
330
C
100
AcDbDictionary
281
     1
  0
LAYOUT
  5
897
102
{ACAD_REACTORS
330
894
102
}
330
894
100
AcDbPlotSettings
  1

  2
\\BEIJERS\LASER_12
  4

  6

 40
0.0
 41
0.0
 42
0.0
 43
0.0
 44
0.0
 45
0.0
 46
0.0
 47
0.0
 48
0.0
 49
0.0
140
0.0
141
0.0
142
1.0
143
1.0
 70
   688
 72
     0
 73
     0
 74
     5
  7
monochrome.ctb
 75
    16
147
1.0
 76
     0
 77
     2
 78
   300
148
0.0
149
0.0
100
AcDbLayout
  1
Layout1
 70
     0
 71
     1
 10
0.0
 20
0.0
 11
12.0
 21
9.0
 12
0.0
 22
0.0
 32
0.0
 14
1.000000000000000E+20
 24
1.000000000000000E+20
 34
1.000000000000000E+20
 15
-1.000000000000000E+20
 25
-1.000000000000000E+20
 35
-1.000000000000000E+20
146
0.0
 13
0.0
 23
0.0
 33
0.0
 16
1.0
 26
0.0
 36
0.0
 17
0.0
 27
1.0
 37
0.0
 76
     0
330
14
  0
LAYOUT
  5
896
102
{ACAD_REACTORS
330
894
102
}
330
894
100
AcDbPlotSettings
  1

  2
\\fdlsv03\FDLPR01-PCL
  4
Letter
  6

 40
6.297083377838134
 41
6.297093868255615
 42
6.297073364257812
 43
6.297088623046875
 44
215.8999938964844
 45
279.3999938964844
 46
1.653343036686667
 47
0.0
 48
0.0
 49
0.0
140
0.0
141
0.0
142
1.0
143
33.15509368276102
 70
 11956
 72
     0
 73
     1
 74
     1
  7
monochrome.ctb
 75
     0
147
0.0301612780699199
 76
     0
 77
     2
 78
   300
148
-682.5940333756096
149
-11.70475036803145
100
AcDbLayout
  1
Model
 70
     1
 71
     0
 10
0.0
 20
0.0
 11
12.0
 21
9.0
 12
0.0
 22
0.0
 32
0.0
 14
0.0
 24
0.0
 34
0.0
 15
0.0
 25
0.0
 35
0.0
146
0.0
 13
0.0
 23
0.0
 33
0.0
 16
1.0
 26
0.0
 36
0.0
 17
0.0
 27
1.0
 37
0.0
 76
     0
330
17
1001
ACAD_PSEXT
1000
\\fdlsv03\FDLPR01-PCL
1000
Canon iR C5870 PCL5c
1000
FDL Color - 4th floor
1000
Color Canon iR 5870u
1070
     0
  0
MLINESTYLE
  5
1B
102
{ACAD_REACTORS
330
1A
102
}
330
1A
100
AcDbMlineStyle
  2
STANDARD
 70
     0
  3

 62
   256
 51
90.0
 52
90.0
 71
     2
 49
0.5
 62
   256
  6
BYLAYER
 49
-0.5
 62
   256
  6
BYLAYER
  0
ACDBPLACEHOLDER
  5
893
102
{ACAD_REACTORS
330
892
102
}
330
892
  0
TABLESTYLE
  5
E0A
102
{ACAD_REACTORS
330
E09
102
}
330
E09
100
AcDbTableStyle
  3
Standard
 70
     0
 71
     8
 40
1.5
 41
1.5
280
     0
281
     0
  7
STANDARD
140
4.5
170
     2
 62
     0
 63
     7
283
     0
274
    -2
284
     1
 64
     0
275
    -2
285
     1
 65
     0
276
    -2
286
     1
 66
     0
277
    -2
287
     1
 67
     0
278
    -2
288
     1
 68
     0
279
    -2
289
     1
 69
     0
  7
STANDARD
140
6.0
170
     5
 62
     0
 63
     7
283
     0
274
    -2
284
     1
 64
     0
275
    -2
285
     1
 65
     0
276
    -2
286
     1
 66
     0
277
    -2
287
     1
 67
     0
278
    -2
288
     1
 68
     0
279
    -2
289
     1
 69
     0
  7
STANDARD
140
4.5
170
     5
 62
     0
 63
     7
283
     0
274
    -2
284
     1
 64
     0
275
    -2
285
     1
 65
     0
276
    -2
286
     1
 66
     0
277
    -2
287
     1
 67
     0
278
    -2
288
     1
 68
     0
279
    -2
289
     1
 69
     0
  0
DICTIONARYVAR
  5
E0E
102
{ACAD_REACTORS
330
2E
102
}
330
2E
100
DictionaryVariables
280
     0
  1
STANDARD
  0
DICTIONARYVAR
  5
2F
102
{ACAD_REACTORS
330
2E
102
}
330
2E
100
DictionaryVariables
280
     0
  1
0
  0
DICTIONARYVAR
  5
DCA
102
{ACAD_REACTORS
330
2E
102
}
330
2E
100
DictionaryVariables
280
     0
  1
0
  0
ENDSEC
  0
EOF
