  0
SECTION
  2
HEADER
  9
$ACADVER
  1
AC1018
  9
$ACADMAINTVER
 70
    76
  9
$DWGCODEPAGE
  3
ANSI_1252
  9
$INSBASE
 10
0.0
 20
0.0
 30
0.0
  9
$EXTMIN
 10
6.254974423738872
 20
2.496200604010603
 30
-0.0000000000000546
  9
$EXTMAX
 10
14.00949100871744
 20
14.28720096415747
 30
0.0000000000008928
  9
$LIMMIN
 10
0.0
 20
0.0
  9
$LIMMAX
 10
22.0
 20
17.0
  9
$ORTHOMODE
 70
     0
  9
$REGENMODE
 70
     1
  9
$FILLMODE
 70
     1
  9
$QTEXTMODE
 70
     0
  9
$MIRRTEXT
 70
     1
  9
$LTSCALE
 40
1.0
  9
$ATTMODE
 70
     1
  9
$TEXTSIZE
 40
0.2
  9
$TRACEWID
 40
0.05
  9
$TEXTSTYLE
  7
Standard
  9
$CLAYER
  8
0
  9
$CELTYPE
  6
ByLayer
  9
$CECOLOR
 62
   256
  9
$CELTSCALE
 40
1.0
  9
$DISPSILH
 70
     0
  9
$DIMSCALE
 40
1.0
  9
$DIMASZ
 40
0.13
  9
$DIMEXO
 40
0.05
  9
$DIMDLI
 40
0.38
  9
$DIMRND
 40
0.0
  9
$DIMDLE
 40
0.0
  9
$DIMEXE
 40
0.125
  9
$DIMTP
 40
0.0
  9
$DIMTM
 40
0.0
  9
$DIMTXT
 40
0.125
  9
$DIMCEN
 40
0.09
  9
$DIMTSZ
 40
0.0
  9
$DIMTOL
 70
     0
  9
$DIMLIM
 70
     0
  9
$DIMTIH
 70
     1
  9
$DIMTOH
 70
     1
  9
$DIMSE1
 70
     0
  9
$DIMSE2
 70
     0
  9
$DIMTAD
 70
     1
  9
$DIMZIN
 70
     0
  9
$DIMBLK
  1

  9
$DIMASO
 70
     1
  9
$DIMSHO
 70
     1
  9
$DIMPOST
  1

  9
$DIMAPOST
  1

  9
$DIMALT
 70
     0
  9
$DIMALTD
 70
     2
  9
$DIMALTF
 40
25.4
  9
$DIMLFAC
 40
1.0
  9
$DIMTOFL
 70
     0
  9
$DIMTVP
 40
0.0
  9
$DIMTIX
 70
     0
  9
$DIMSOXD
 70
     0
  9
$DIMSAH
 70
     0
  9
$DIMBLK1
  1

  9
$DIMBLK2
  1

  9
$DIMSTYLE
  2
Standard
  9
$DIMCLRD
 70
     0
  9
$DIMCLRE
 70
     0
  9
$DIMCLRT
 70
     0
  9
$DIMTFAC
 40
1.0
  9
$DIMGAP
 40
0.06
  9
$DIMJUST
 70
     0
  9
$DIMSD1
 70
     0
  9
$DIMSD2
 70
     0
  9
$DIMTOLJ
 70
     1
  9
$DIMTZIN
 70
     0
  9
$DIMALTZ
 70
     0
  9
$DIMALTTZ
 70
     0
  9
$DIMUPT
 70
     0
  9
$DIMDEC
 70
     2
  9
$DIMTDEC
 70
     2
  9
$DIMALTU
 70
     2
  9
$DIMALTTD
 70
     2
  9
$DIMTXSTY
  7
Standard
  9
$DIMAUNIT
 70
     0
  9
$DIMADEC
 70
     0
  9
$DIMALTRND
 40
0.0
  9
$DIMAZIN
 70
     0
  9
$DIMDSEP
 70
    46
  9
$DIMATFIT
 70
     3
  9
$DIMFRAC
 70
     0
  9
$DIMLDRBLK
  1

  9
$DIMLUNIT
 70
     2
  9
$DIMLWD
 70
    -2
  9
$DIMLWE
 70
    -2
  9
$DIMTMOVE
 70
     0
  9
$LUNITS
 70
     2
  9
$LUPREC
 70
     2
  9
$SKETCHINC
 40
0.1
  9
$FILLETRAD
 40
0.5
  9
$AUNITS
 70
     0
  9
$AUPREC
 70
     0
  9
$MENU
  1
.
  9
$ELEVATION
 40
0.0
  9
$PELEVATION
 40
0.0
  9
$THICKNESS
 40
0.0
  9
$LIMCHECK
 70
     0
  9
$CHAMFERA
 40
0.5
  9
$CHAMFERB
 40
0.5
  9
$CHAMFERC
 40
1.0
  9
$CHAMFERD
 40
0.0
  9
$SKPOLY
 70
     0
  9
$TDCREATE
 40
2455699.646554085
  9
$TDUCREATE
 40
2455699.854887419
  9
$TDUPDATE
 40
2455806.465547604
  9
$TDUUPDATE
 40
2455806.673880938
  9
$TDINDWG
 40
0.0684326968
  9
$TDUSRTIMER
 40
0.0684326968
  9
$USRTIMER
 70
     1
  9
$ANGBASE
 50
0.0
  9
$ANGDIR
 70
     0
  9
$PDMODE
 70
     0
  9
$PDSIZE
 40
-1.0
  9
$PLINEWID
 40
0.0
  9
$SPLFRAME
 70
     0
  9
$SPLINETYPE
 70
     6
  9
$SPLINESEGS
 70
     8
  9
$HANDSEED
  5
1024
  9
$SURFTAB1
 70
     6
  9
$SURFTAB2
 70
     6
  9
$SURFTYPE
 70
     6
  9
$SURFU
 70
     6
  9
$SURFV
 70
     6
  9
$UCSBASE
  2

  9
$UCSNAME
  2

  9
$UCSORG
 10
0.0
 20
0.0
 30
0.0
  9
$UCSXDIR
 10
1.0
 20
0.0
 30
0.0
  9
$UCSYDIR
 10
0.0
 20
1.0
 30
0.0
  9
$UCSORTHOREF
  2

  9
$UCSORTHOVIEW
 70
     0
  9
$UCSORGTOP
 10
0.0
 20
0.0
 30
0.0
  9
$UCSORGBOTTOM
 10
0.0
 20
0.0
 30
0.0
  9
$UCSORGLEFT
 10
0.0
 20
0.0
 30
0.0
  9
$UCSORGRIGHT
 10
0.0
 20
0.0
 30
0.0
  9
$UCSORGFRONT
 10
0.0
 20
0.0
 30
0.0
  9
$UCSORGBACK
 10
0.0
 20
0.0
 30
0.0
  9
$PUCSBASE
  2

  9
$PUCSNAME
  2

  9
$PUCSORG
 10
0.0
 20
0.0
 30
0.0
  9
$PUCSXDIR
 10
1.0
 20
0.0
 30
0.0
  9
$PUCSYDIR
 10
0.0
 20
1.0
 30
0.0
  9
$PUCSORTHOREF
  2

  9
$PUCSORTHOVIEW
 70
     0
  9
$PUCSORGTOP
 10
0.0
 20
0.0
 30
0.0
  9
$PUCSORGBOTTOM
 10
0.0
 20
0.0
 30
0.0
  9
$PUCSORGLEFT
 10
0.0
 20
0.0
 30
0.0
  9
$PUCSORGRIGHT
 10
0.0
 20
0.0
 30
0.0
  9
$PUCSORGFRONT
 10
0.0
 20
0.0
 30
0.0
  9
$PUCSORGBACK
 10
0.0
 20
0.0
 30
0.0
  9
$USERI1
 70
     0
  9
$USERI2
 70
     0
  9
$USERI3
 70
     0
  9
$USERI4
 70
     0
  9
$USERI5
 70
     0
  9
$USERR1
 40
0.0
  9
$USERR2
 40
0.0
  9
$USERR3
 40
0.0
  9
$USERR4
 40
0.0
  9
$USERR5
 40
0.0
  9
$WORLDVIEW
 70
     1
  9
$SHADEDGE
 70
     3
  9
$SHADEDIF
 70
    70
  9
$TILEMODE
 70
     1
  9
$MAXACTVP
 70
    64
  9
$PINSBASE
 10
0.0
 20
0.0
 30
0.0
  9
$PLIMCHECK
 70
     0
  9
$PEXTMIN
 10
1.000000000000000E+20
 20
1.000000000000000E+20
 30
1.000000000000000E+20
  9
$PEXTMAX
 10
-1.000000000000000E+20
 20
-1.000000000000000E+20
 30
-1.000000000000000E+20
  9
$PLIMMIN
 10
0.0
 20
0.0
  9
$PLIMMAX
 10
12.0
 20
9.0
  9
$UNITMODE
 70
     0
  9
$VISRETAIN
 70
     1
  9
$PLINEGEN
 70
     0
  9
$PSLTSCALE
 70
     1
  9
$TREEDEPTH
 70
  3020
  9
$CMLSTYLE
  2
Standard
  9
$CMLJUST
 70
     0
  9
$CMLSCALE
 40
1.0
  9
$PROXYGRAPHICS
 70
     1
  9
$MEASUREMENT
 70
     0
  9
$CELWEIGHT
370
    -1
  9
$ENDCAPS
280
     0
  9
$JOINSTYLE
280
     0
  9
$LWDISPLAY
290
     1
  9
$INSUNITS
 70
     1
  9
$HYPERLINKBASE
  1

  9
$STYLESHEET
  1
monochrome.ctb
  9
$XEDIT
290
     1
  9
$CEPSNTYPE
380
     0
  9
$PSTYLEMODE
290
     1
  9
$FINGERPRINTGUID
  2
{2A7A8FF1-3917-469D-BF50-12D1FAF16CE1}
  9
$VERSIONGUID
  2
{AF48A8A5-0BED-4218-831B-7617956E4132}
  9
$EXTNAMES
290
     1
  9
$PSVPSCALE
 40
0.0
  9
$OLESTARTUP
290
     0
  9
$SORTENTS
280
   127
  9
$INDEXCTL
280
     0
  9
$HIDETEXT
280
     0
  9
$XCLIPFRAME
290
     0
  9
$HALOGAP
280
     0
  9
$OBSCOLOR
 70
   257
  9
$OBSLTYPE
280
     0
  9
$INTERSECTIONDISPLAY
280
     0
  9
$INTERSECTIONCOLOR
 70
   257
  9
$DIMASSOC
280
     1
  9
$PROJECTNAME
  1

  0
ENDSEC
  0
SECTION
  2
CLASSES
  0
CLASS
  1
ACDBDICTIONARYWDFLT
  2
AcDbDictionaryWithDefault
  3
ObjectDBX Classes
 90
        0
 91
        1
280
     0
281
     0
  0
CLASS
  1
VISUALSTYLE
  2
AcDbVisualStyle
  3
ObjectDBX Classes
 90
     4095
 91
        0
280
     0
281
     0
  0
CLASS
  1
MATERIAL
  2
AcDbMaterial
  3
ObjectDBX Classes
 90
        0
 91
        0
280
     0
281
     0
  0
CLASS
  1
TABLESTYLE
  2
AcDbTableStyle
  3
ObjectDBX Classes
 90
     2047
 91
        1
280
     0
281
     0
  0
CLASS
  1
DICTIONARYVAR
  2
AcDbDictionaryVar
  3
ObjectDBX Classes
 90
        0
 91
        1
280
     0
281
     0
  0
CLASS
  1
SORTENTSTABLE
  2
AcDbSortentsTable
  3
ObjectDBX Classes
 90
        0
 91
        2
280
     0
281
     0
  0
CLASS
  1
IMAGE
  2
AcDbRasterImage
  3
ISM
 90
      127
 91
        2
280
     0
281
     1
  0
CLASS
  1
IMAGEDEF_REACTOR
  2
AcDbRasterImageDefReactor
  3
ISM
 90
        1
 91
        2
280
     0
281
     0
  0
CLASS
  1
IMAGEDEF
  2
AcDbRasterImageDef
  3
ISM
 90
        0
 91
        1
280
     0
281
     0
  0
CLASS
  1
RASTERVARIABLES
  2
AcDbRasterVariables
  3
ISM
 90
        0
 91
        1
280
     0
281
     0
  0
ENDSEC
  0
SECTION
  2
TABLES
  0
TABLE
  2
VPORT
  5
8
330
0
100
AcDbSymbolTable
 70
     4
  0
VPORT
  5
1023
330
8
100
AcDbSymbolTableRecord
100
AcDbViewportTableRecord
  2
*Active
 70
     0
 10
0.0
 20
0.0
 11
1.0
 21
1.0
 12
10.13223271622816
 22
8.391700784084036
 13
0.0
 23
0.0
 14
0.0312
 24
0.0312
 15
0.5
 25
0.5
 16
0.0
 26
0.0
 36
1.0
 17
0.0
 27
0.0
 37
0.0
 40
11.90716785137984
 41
1.521381578947368
 42
50.0
 43
0.0
 44
0.0
 50
0.0
 51
0.0
 71
     0
 72
  2000
 73
     1
 74
     3
 75
     1
 76
     0
 77
     0
 78
     0
281
     0
 65
     1
110
0.0
120
0.0
130
0.0
111
1.0
121
0.0
131
0.0
112
0.0
122
1.0
132
0.0
 79
     0
146
0.0
  0
ENDTAB
  0
TABLE
  2
LTYPE
  5
5
330
0
100
AcDbSymbolTable
 70
     6
  0
LTYPE
  5
14
330
5
100
AcDbSymbolTableRecord
100
AcDbLinetypeTableRecord
  2
ByBlock
 70
     0
  3

 72
    65
 73
     0
 40
0.0
  0
LTYPE
  5
15
330
5
100
AcDbSymbolTableRecord
100
AcDbLinetypeTableRecord
  2
ByLayer
 70
     0
  3

 72
    65
 73
     0
 40
0.0
  0
LTYPE
  5
16
330
5
100
AcDbSymbolTableRecord
100
AcDbLinetypeTableRecord
  2
Continuous
 70
     0
  3
Solid line
 72
    65
 73
     0
 40
0.0
  0
LTYPE
  5
3F
330
5
100
AcDbSymbolTableRecord
100
AcDbLinetypeTableRecord
  2
HIDDEN
 70
     0
  3
Hidden __ __ __ __ __ __ __ __ __ __ __ __ __ __
 72
    65
 73
     2
 40
0.075
 49
0.05
 74
     0
 49
-0.025
 74
     0
  0
LTYPE
  5
40
330
5
100
AcDbSymbolTableRecord
100
AcDbLinetypeTableRecord
  2
PHANTOM
 70
     0
  3
Phantom ______  __  __  ______  __  __  ______
 72
    65
 73
     6
 40
0.5
 49
0.25
 74
     0
 49
-0.05
 74
     0
 49
0.05
 74
     0
 49
-0.05
 74
     0
 49
0.05
 74
     0
 49
-0.05
 74
     0
  0
LTYPE
  5
41
330
5
100
AcDbSymbolTableRecord
100
AcDbLinetypeTableRecord
  2
CENTER
 70
     0
  3
Center ____ _ ____ _ ____ _ ____ _ ____ _ ____
 72
    65
 73
     4
 40
0.4
 49
0.25
 74
     0
 49
-0.05
 74
     0
 49
0.05
 74
     0
 49
-0.05
 74
     0
  0
LTYPE
  5
42
330
5
100
AcDbSymbolTableRecord
100
AcDbLinetypeTableRecord
  2
CENTERX2
 70
     0
  3
Center (2x) ________  __  ________  __  _____
 72
    65
 73
     4
 40
0.8
 49
0.5
 74
     0
 49
-0.1
 74
     0
 49
0.1
 74
     0
 49
-0.1
 74
     0
  0
LTYPE
  5
43
330
5
100
AcDbSymbolTableRecord
100
AcDbLinetypeTableRecord
  2
DOT2
 70
     0
  3
Dot (.5x) ........................................
 72
    65
 73
     2
 40
0.025
 49
0.0
 74
     0
 49
-0.025
 74
     0
  0
ENDTAB
  0
TABLE
  2
LAYER
  5
2
102
{ACAD_XDICTIONARY
360
100A
102
}
330
0
100
AcDbSymbolTable
 70
     2
  0
LAYER
  5
10
330
2
100
AcDbSymbolTableRecord
100
AcDbLayerTableRecord
  2
0
 70
     0
 62
     7
  6
Continuous
370
    -3
390
F
  0
LAYER
  5
F90
330
2
100
AcDbSymbolTableRecord
100
AcDbLayerTableRecord
  2
Defpoints
 70
     0
 62
     7
  6
Continuous
290
     0
370
    -3
390
F
  0
ENDTAB
  0
TABLE
  2
STYLE
  5
3
330
0
100
AcDbSymbolTable
 70
     4
  0
STYLE
  5
11
330
3
100
AcDbSymbolTableRecord
100
AcDbTextStyleTableRecord
  2
Standard
 70
     0
 40
0.0
 41
1.0
 50
0.0
 71
     0
 42
0.2
  3
txt
  4

  0
STYLE
  5
44
330
3
100
AcDbSymbolTableRecord
100
AcDbTextStyleTableRecord
  2
SLDTEXTSTYLE0
 70
     0
 40
0.0
 41
0.75
 50
0.0
 71
     0
 42
0.2
  3
TXT
  4

  0
STYLE
  5
4B8
330
3
100
AcDbSymbolTableRecord
100
AcDbTextStyleTableRecord
  2
SLDTEXTSTYLE1
 70
     0
 40
0.0
 41
0.605
 50
0.0
 71
     0
 42
0.2
  3
TXT
  4

  0
ENDTAB
  0
TABLE
  2
VIEW
  5
6
330
0
100
AcDbSymbolTable
 70
     0
  0
ENDTAB
  0
TABLE
  2
UCS
  5
7
330
0
100
AcDbSymbolTable
 70
     0
  0
ENDTAB
  0
TABLE
  2
APPID
  5
9
330
0
100
AcDbSymbolTable
 70
     3
  0
APPID
  5
12
330
9
100
AcDbSymbolTableRecord
100
AcDbRegAppTableRecord
  2
ACAD
 70
     0
  0
APPID
  5
749
330
9
100
AcDbSymbolTableRecord
100
AcDbRegAppTableRecord
  2
ACAD_PSEXT
 70
     0
  0
APPID
  5
F8D
330
9
100
AcDbSymbolTableRecord
100
AcDbRegAppTableRecord
  2
DCO15
 70
     0
  0
ENDTAB
  0
TABLE
  2
DIMSTYLE
  5
A
330
0
100
AcDbSymbolTable
 70
     8
100
AcDbDimStyleTable
 71
     1
340
27
  0
DIMSTYLE
105
27
102
{ACAD_REACTORS
330
FD3
102
}
330
A
100
AcDbSymbolTableRecord
100
AcDbDimStyleTableRecord
  2
Standard
 70
     0
340
11
  0
DIMSTYLE
105
420
330
A
100
AcDbSymbolTableRecord
100
AcDbDimStyleTableRecord
  2
SLDDIMSTYLE0
 70
     0
 41
0.13
 44
0.0
 45
0.000000001
 78
     4
 79
     1
140
0.125
147
0.03125
148
0.000000001
170
     1
173
     1
271
     2
272
     2
276
     2
284
    12
340
44
  0
DIMSTYLE
105
4B9
102
{ACAD_REACTORS
330
4B7
102
}
330
A
100
AcDbSymbolTableRecord
100
AcDbDimStyleTableRecord
  2
SLDDIMSTYLE1
 70
     0
 41
0.13
 44
0.0
 45
0.000000001
 78
     4
 79
     1
140
0.125
147
0.03125
148
0.000000001
170
     1
173
     1
271
     2
272
     2
276
     2
284
    12
340
4B8
  0
DIMSTYLE
105
660
102
{ACAD_REACTORS
330
65F
330
69C
330
6D5
102
}
330
A
100
AcDbSymbolTableRecord
100
AcDbDimStyleTableRecord
  2
SLDDIMSTYLE2
 70
     0
 41
0.13
 44
0.0
 45
0.000000001
 78
    12
 79
     3
140
0.125
147
0.03125
148
0.000000001
170
     1
173
     1
271
     2
272
     2
276
     2
284
    12
340
4B8
  0
DIMSTYLE
105
6AF
102
{ACAD_REACTORS
330
6AE
330
6C2
102
}
330
A
100
AcDbSymbolTableRecord
100
AcDbDimStyleTableRecord
  2
SLDDIMSTYLE3
 70
     0
 41
0.13
 44
0.0
 45
0.000000001
 78
    12
 79
     3
140
0.125
147
0.03125
148
0.000000001
170
     1
172
     1
173
     1
271
     2
272
     2
276
     2
284
    12
289
     0
340
4B8
  0
DIMSTYLE
105
702
330
A
100
AcDbSymbolTableRecord
100
AcDbDimStyleTableRecord
  2
SLDDIMSTYLE4
 70
     0
 41
0.13
 44
0.0
 45
0.000000001
140
0.0
146
0.13
147
0.0
173
     1
271
     0
272
     0
276
     2
340
11
341
703
343
703
344
703
  0
DIMSTYLE
105
728
330
A
100
AcDbSymbolTableRecord
100
AcDbDimStyleTableRecord
  2
SLDDIMSTYLE5
 70
     0
 41
0.13
 44
0.0
 45
0.000000001
140
0.0
146
0.13
147
0.0
173
     1
271
     0
272
     0
276
     2
340
11
  0
ENDTAB
  0
TABLE
  2
BLOCK_RECORD
  5
1
330
0
100
AcDbSymbolTable
 70
    17
  0
BLOCK_RECORD
  5
1F
102
{ACAD_XDICTIONARY
360
FE9
102
}
330
1
100
AcDbSymbolTableRecord
100
AcDbBlockTableRecord
  2
*Model_Space
340
22
  0
BLOCK_RECORD
  5
1B
330
1
100
AcDbSymbolTableRecord
100
AcDbBlockTableRecord
  2
*Paper_Space
340
1E
  0
BLOCK_RECORD
  5
23
330
1
100
AcDbSymbolTableRecord
100
AcDbBlockTableRecord
  2
*Paper_Space0
340
26
  0
BLOCK_RECORD
  5
4BA
330
1
100
AcDbSymbolTableRecord
100
AcDbBlockTableRecord
  2
*D1
340
0
  0
BLOCK_RECORD
  5
661
330
1
100
AcDbSymbolTableRecord
100
AcDbBlockTableRecord
  2
*D2
340
0
  0
BLOCK_RECORD
  5
69D
330
1
100
AcDbSymbolTableRecord
100
AcDbBlockTableRecord
  2
*D3
340
0
  0
BLOCK_RECORD
  5
6B0
330
1
100
AcDbSymbolTableRecord
100
AcDbBlockTableRecord
  2
*D4
340
0
  0
BLOCK_RECORD
  5
6C3
330
1
100
AcDbSymbolTableRecord
100
AcDbBlockTableRecord
  2
*D5
340
0
  0
BLOCK_RECORD
  5
6D6
330
1
100
AcDbSymbolTableRecord
100
AcDbBlockTableRecord
  2
*D6
340
0
  0
BLOCK_RECORD
  5
6E9
330
1
100
AcDbSymbolTableRecord
100
AcDbBlockTableRecord
  2
SW_CENTERMARKSYMBOL_0
340
0
102
{BLKREFS
331
6F4
102
}
  0
BLOCK_RECORD
  5
6F5
330
1
100
AcDbSymbolTableRecord
100
AcDbBlockTableRecord
  2
SW_CENTERMARKSYMBOL_1
340
0
102
{BLKREFS
331
700
102
}
  0
BLOCK_RECORD
  5
703
330
1
100
AcDbSymbolTableRecord
100
AcDbBlockTableRecord
  2
_NONE
340
0
  0
BLOCK_RECORD
  5
71C
330
1
100
AcDbSymbolTableRecord
100
AcDbBlockTableRecord
  2
SW_NOTE_0
340
0
102
{BLKREFS
331
721
102
}
  0
BLOCK_RECORD
  5
722
330
1
100
AcDbSymbolTableRecord
100
AcDbBlockTableRecord
  2
SW_NOTE_1
340
0
102
{BLKREFS
331
727
102
}
  0
BLOCK_RECORD
  5
72A
330
1
100
AcDbSymbolTableRecord
100
AcDbBlockTableRecord
  2
SW_NOTE_2
340
0
102
{BLKREFS
331
730
102
}
  0
BLOCK_RECORD
  5
732
330
1
100
AcDbSymbolTableRecord
100
AcDbBlockTableRecord
  2
SW_CENTERMARKSYMBOL_2
340
0
102
{BLKREFS
331
73D
102
}
  0
BLOCK_RECORD
  5
FD4
330
1
100
AcDbSymbolTableRecord
100
AcDbBlockTableRecord
  2
*D14
340
0
  0
ENDTAB
  0
ENDSEC
  0
SECTION
  2
BLOCKS
  0
BLOCK
  5
20
330
1F
100
AcDbEntity
  8
0
100
AcDbBlockBegin
  2
*Model_Space
 70
     0
 10
0.0
 20
0.0
 30
0.0
  3
*Model_Space
  1

  0
ENDBLK
  5
21
330
1F
100
AcDbEntity
  8
0
100
AcDbBlockEnd
  0
BLOCK
  5
1C
330
1B
100
AcDbEntity
 67
     1
  8
0
100
AcDbBlockBegin
  2
*Paper_Space
 70
     0
 10
0.0
 20
0.0
 30
0.0
  3
*Paper_Space
  1

  0
ENDBLK
  5
1D
330
1B
100
AcDbEntity
 67
     1
  8
0
100
AcDbBlockEnd
  0
BLOCK
  5
24
330
23
100
AcDbEntity
 67
     1
  8
0
100
AcDbBlockBegin
  2
*Paper_Space0
 70
     0
 10
0.0
 20
0.0
 30
0.0
  3
*Paper_Space0
  1

  0
ENDBLK
  5
25
330
23
100
AcDbEntity
 67
     1
  8
0
100
AcDbBlockEnd
  0
BLOCK
  5
4BB
330
4BA
100
AcDbEntity
  8
0
100
AcDbBlockBegin
  2
*D1
 70
     1
 10
0.0
 20
0.0
 30
0.0
  3
*D1
  1

  0
LINE
  5
F9B
330
4BA
100
AcDbEntity
  8
0
  6
Continuous
 62
     0
370
    -2
100
AcDbLine
 10
7.7693950258
 20
8.967665553899998
 30
0.0
 11
8.336820343800004
 21
8.967665553899998
 31
0.0
  0
LINE
  5
F9C
330
4BA
100
AcDbEntity
  8
0
  6
Continuous
 62
     0
370
    -2
100
AcDbLine
 10
7.7693950258
 20
2.967665553899998
 30
0.0
 11
8.336820343800003
 21
2.967665553899998
 31
0.0
  0
LINE
  5
F9D
330
4BA
100
AcDbEntity
  8
0
  6
Continuous
 62
     0
370
    -2
100
AcDbLine
 10
8.336820343800004
 20
8.837665553899997
 30
0.0
 11
8.336820343800004
 21
6.159452142699999
 31
0.0
  0
LINE
  5
F9E
330
4BA
100
AcDbEntity
  8
0
  6
Continuous
 62
     0
370
    -2
100
AcDbLine
 10
8.336820343800003
 20
3.097665553899998
 30
0.0
 11
8.336820343800004
 21
5.971952142699999
 31
0.0
  0
SOLID
  5
F9F
330
4BA
100
AcDbEntity
  8
0
  6
Continuous
 62
     0
100
AcDbTrace
 10
8.315153677133338
 20
8.837665553899997
 30
0.0
 11
8.358487010466671
 21
8.837665553899997
 31
0.0
 12
8.336820343800004
 22
8.967665553899998
 32
0.0
 13
8.336820343800004
 23
8.967665553899998
 33
0.0
  0
SOLID
  5
FA0
330
4BA
100
AcDbEntity
  8
0
  6
Continuous
 62
     0
100
AcDbTrace
 10
8.315153677133336
 20
3.097665553899998
 30
0.0
 11
8.358487010466669
 21
3.097665553899998
 31
0.0
 12
8.336820343800003
 22
2.967665553899998
 32
0.0
 13
8.336820343800003
 23
2.967665553899998
 33
0.0
  0
MTEXT
  5
FA1
330
4BA
100
AcDbEntity
  8
0
  6
Continuous
 62
     0
370
     0
100
AcDbMText
 10
8.336820343800003
 20
6.1282021427
 30
0.0
 40
0.125
 41
0.0
 71
     2
 72
     1
  1
\A1;6.00 [152.40]
  7
SLDTEXTSTYLE1
 73
     1
 44
1.0
  0
POINT
  5
FA2
330
4BA
100
AcDbEntity
  8
Defpoints
  6
Continuous
 62
     0
100
AcDbPoint
 10
7.7068950258
 20
8.967665553899998
 30
0.0
  0
POINT
  5
FA3
330
4BA
100
AcDbEntity
  8
Defpoints
  6
Continuous
 62
     0
100
AcDbPoint
 10
7.7068950258
 20
2.967665553899998
 30
0.0
  0
POINT
  5
FA4
330
4BA
100
AcDbEntity
  8
Defpoints
  6
Continuous
 62
     0
100
AcDbPoint
 10
8.336820343800003
 20
2.967665553899998
 30
0.0
  0
ENDBLK
  5
4BC
330
4BA
100
AcDbEntity
  8
0
100
AcDbBlockEnd
  0
BLOCK
  5
662
330
661
100
AcDbEntity
  8
0
100
AcDbBlockBegin
  2
*D2
 70
     1
 10
0.0
 20
0.0
 30
0.0
  3
*D2
  1

  0
SOLID
  5
664
330
661
100
AcDbEntity
  8
0
  6
Continuous
 62
     7
370
     0
100
AcDbTrace
 10
8.246869703999998
 20
10.3134404603
 30
0.0
 11
8.266869703999999
 21
10.4434404603
 31
0.0
 12
8.226869704
 22
10.4434404603
 32
0.0
 13
8.226869704
 23
10.4434404603
 33
0.0
  0
SOLID
  5
665
330
661
100
AcDbEntity
  8
0
  6
Continuous
 62
     7
370
     0
100
AcDbTrace
 10
8.246869703999998
 20
14.2834404603
 30
0.0
 11
8.226869704
 21
14.1534404603
 31
0.0
 12
8.266869703999999
 22
14.1534404603
 32
0.0
 13
8.266869703999999
 23
14.1534404603
 33
0.0
  0
LINE
  5
666
330
661
100
AcDbEntity
  8
0
  6
Continuous
 62
     7
370
     0
100
AcDbLine
 10
7.9270559211
 20
12.4420404448
 30
0.0
 11
7.9270559211
 21
12.2790266758
 31
0.0
  0
LINE
  5
667
330
661
100
AcDbEntity
  8
0
  6
Continuous
 62
     7
370
     0
100
AcDbLine
 10
7.9270559211
 20
12.2790266758
 30
0.0
 11
7.9556754298
 21
12.2790266758
 31
0.0
  0
LINE
  5
668
330
661
100
AcDbEntity
  8
0
  6
Continuous
 62
     7
370
     0
100
AcDbLine
 10
7.9270559211
 20
12.4420404448
 30
0.0
 11
7.9556754298
 21
12.4420404448
 31
0.0
  0
LINE
  5
669
330
661
100
AcDbEntity
  8
0
  6
Continuous
 62
     7
370
     0
100
AcDbLine
 10
8.566683486799997
 20
12.4420404448
 30
0.0
 11
8.566683486799997
 21
12.2790266758
 31
0.0
  0
LINE
  5
66A
330
661
100
AcDbEntity
  8
0
  6
Continuous
 62
     7
370
     0
100
AcDbLine
 10
8.566683486799997
 20
12.2790266758
 30
0.0
 11
8.5380639781
 21
12.2790266758
 31
0.0
  0
LINE
  5
66B
330
661
100
AcDbEntity
  8
0
  6
Continuous
 62
     7
370
     0
100
AcDbLine
 10
8.566683486799997
 20
12.4420404448
 30
0.0
 11
8.5380639781
 21
12.4420404448
 31
0.0
  0
LINE
  5
66C
330
661
100
AcDbEntity
  8
0
  6
Continuous
 62
     7
370
     0
100
AcDbLine
 10
7.5869474599
 20
10.3134404603
 30
0.0
 11
8.371869703999998
 21
10.3134404603
 31
0.0
  0
LINE
  5
66D
330
661
100
AcDbEntity
  8
0
  6
Continuous
 62
     7
370
     0
100
AcDbLine
 10
7.6669474599
 20
14.2834404603
 30
0.0
 11
8.371869703999998
 21
14.2834404603
 31
0.0
  0
LINE
  5
66E
330
661
100
AcDbEntity
  8
0
  6
Continuous
 62
     7
370
     0
100
AcDbLine
 10
8.246869703999998
 20
10.3134404603
 30
0.0
 11
8.246869703999998
 21
12.264643108
 31
0.0
  0
LINE
  5
66F
330
661
100
AcDbEntity
  8
0
  6
Continuous
 62
     7
370
     0
100
AcDbLine
 10
8.246869703999998
 20
14.2834404603
 30
0.0
 11
8.246869703999998
 21
12.6482049172
 31
0.0
  0
MTEXT
  5
670
330
661
100
AcDbEntity
  8
0
  6
Continuous
 62
     7
370
     0
100
AcDbMText
 10
8.079782771699999
 20
12.6175574663
 30
0.0
 40
0.125
 41
0.0
 71
     1
 72
     1
  1
3.97
  7
SLDTEXTSTYLE1
 73
     1
 44
1.0
  0
MTEXT
  5
671
330
661
100
AcDbEntity
  8
0
  6
Continuous
 62
     7
370
     0
100
AcDbMText
 10
7.9842949385
 20
12.4257765617
 30
0.0
 40
0.125
 41
0.0
 71
     1
 72
     1
  1
100.84
  7
SLDTEXTSTYLE1
 73
     1
 44
1.0
  0
ENDBLK
  5
663
330
661
100
AcDbEntity
  8
0
100
AcDbBlockEnd
  0
BLOCK
  5
69E
330
69D
100
AcDbEntity
  8
0
100
AcDbBlockBegin
  2
*D3
 70
     1
 10
0.0
 20
0.0
 30
0.0
  3
*D3
  1

  0
LINE
  5
FA6
330
69D
100
AcDbEntity
  8
0
  6
Continuous
 62
     0
370
    -2
100
AcDbLine
 10
11.9382640414
 20
8.807665553899997
 30
0.0
 11
13.5550810769
 21
8.807665553899996
 31
0.0
  0
LINE
  5
FA7
330
69D
100
AcDbEntity
  8
0
  6
Continuous
 62
     0
370
    -2
100
AcDbLine
 10
11.9382640414
 20
3.1276655539
 30
0.0
 11
13.5550810769
 21
3.127665553899999
 31
0.0
  0
LINE
  5
FA8
330
69D
100
AcDbEntity
  8
0
  6
Continuous
 62
     0
370
    -2
100
AcDbLine
 10
13.5550810769
 20
8.677665553899995
 30
0.0
 11
13.5550810769
 21
6.173804847399998
 31
0.0
  0
LINE
  5
FA9
330
69D
100
AcDbEntity
  8
0
  6
Continuous
 62
     0
370
    -2
100
AcDbLine
 10
13.5550810769
 20
3.257665553899999
 30
0.0
 11
13.5550810769
 21
5.986304847399998
 31
0.0
  0
SOLID
  5
FAA
330
69D
100
AcDbEntity
  8
0
  6
Continuous
 62
     0
100
AcDbTrace
 10
13.53341441023333
 20
8.677665553899995
 30
0.0
 11
13.57674774356667
 21
8.677665553899995
 31
0.0
 12
13.5550810769
 22
8.807665553899996
 32
0.0
 13
13.5550810769
 23
8.807665553899996
 33
0.0
  0
SOLID
  5
FAB
330
69D
100
AcDbEntity
  8
0
  6
Continuous
 62
     0
100
AcDbTrace
 10
13.53341441023333
 20
3.257665553899999
 30
0.0
 11
13.57674774356667
 21
3.257665553899999
 31
0.0
 12
13.5550810769
 22
3.127665553899999
 32
0.0
 13
13.5550810769
 23
3.127665553899999
 33
0.0
  0
MTEXT
  5
FAC
330
69D
100
AcDbEntity
  8
0
  6
Continuous
 62
     0
370
     0
100
AcDbMText
 10
13.5550810769
 20
6.1425548474
 30
0.0
 40
0.125
 41
0.0
 71
     2
 72
     1
  1
\A1;5.68 [144.27]
  7
SLDTEXTSTYLE1
 73
     1
 44
1.0
  0
POINT
  5
FAD
330
69D
100
AcDbEntity
  8
Defpoints
  6
Continuous
 62
     0
100
AcDbPoint
 10
11.8757640414
 20
8.807665553899997
 30
0.0
  0
POINT
  5
FAE
330
69D
100
AcDbEntity
  8
Defpoints
  6
Continuous
 62
     0
100
AcDbPoint
 10
11.8757640414
 20
3.1276655539
 30
0.0
  0
POINT
  5
FAF
330
69D
100
AcDbEntity
  8
Defpoints
  6
Continuous
 62
     0
100
AcDbPoint
 10
13.5550810769
 20
3.127665553899999
 30
0.0
  0
ENDBLK
  5
69F
330
69D
100
AcDbEntity
  8
0
100
AcDbBlockEnd
  0
BLOCK
  5
6B1
330
6B0
100
AcDbEntity
  8
0
100
AcDbBlockBegin
  2
*D4
 70
     1
 10
0.0
 20
0.0
 30
0.0
  3
*D4
  1

  0
LINE
  5
FB0
330
6B0
100
AcDbEntity
  8
0
  6
Continuous
 62
     0
370
    -2
100
AcDbLine
 10
11.9382640414
 20
3.1276655539
 30
0.0
 11
13.98732066023333
 21
3.127665553899999
 31
0.0
  0
LINE
  5
FB1
330
6B0
100
AcDbEntity
  8
0
  6
Continuous
 62
     0
370
    -2
100
AcDbLine
 10
12.7182640414
 20
2.967665553899998
 30
0.0
 11
13.98732066023333
 21
2.967665553899998
 31
0.0
  0
LINE
  5
FB2
330
6B0
100
AcDbEntity
  8
0
  6
Continuous
 62
     0
370
    -2
100
AcDbLine
 10
13.98732066023333
 20
3.257665553899999
 30
0.0
 11
13.98732066023333
 21
3.387665553899999
 31
0.0
  0
LINE
  5
FB3
330
6B0
100
AcDbEntity
  8
0
  6
Continuous
 62
     0
370
    -2
100
AcDbLine
 10
13.98732066023333
 20
2.837665553899998
 30
0.0
 11
13.98732066023333
 21
2.664386422199996
 31
0.0
  0
LINE
  5
FB4
330
6B0
100
AcDbEntity
  8
0
  6
Continuous
 62
     0
370
    -2
100
AcDbLine
 10
13.98732066023333
 20
2.664386422199996
 30
0.0
 11
13.85732066023333
 21
2.664386422199996
 31
0.0
  0
LINE
  5
FB5
330
6B0
100
AcDbEntity
  8
0
  6
Continuous
 62
     0
370
    -2
100
AcDbLine
 10
13.98732066023333
 20
3.127665553899999
 30
0.0
 11
13.98732066023333
 21
2.967665553899998
 31
0.0
  0
SOLID
  5
FB6
330
6B0
100
AcDbEntity
  8
0
  6
Continuous
 62
     0
100
AcDbTrace
 10
13.96565399356666
 20
3.257665553899999
 30
0.0
 11
14.0089873269
 21
3.257665553899999
 31
0.0
 12
13.98732066023333
 22
3.127665553899999
 32
0.0
 13
13.98732066023333
 23
3.127665553899999
 33
0.0
  0
SOLID
  5
FB7
330
6B0
100
AcDbEntity
  8
0
  6
Continuous
 62
     0
100
AcDbTrace
 10
13.96565399356666
 20
2.837665553899998
 30
0.0
 11
14.0089873269
 21
2.837665553899998
 31
0.0
 12
13.98732066023333
 22
2.967665553899998
 32
0.0
 13
13.98732066023333
 23
2.967665553899998
 33
0.0
  0
MTEXT
  5
FB8
330
6B0
100
AcDbEntity
  8
0
  6
Continuous
 62
     0
370
     0
100
AcDbMText
 10
13.5550810769
 20
2.726886422199998
 30
0.0
 40
0.125
 41
0.0
 71
     2
 72
     1
  1
\A1;.16 [4.06]
  7
SLDTEXTSTYLE1
 73
     1
 44
1.0
  0
POINT
  5
FB9
330
6B0
100
AcDbEntity
  8
Defpoints
  6
Continuous
 62
     0
100
AcDbPoint
 10
11.8757640414
 20
3.1276655539
 30
0.0
  0
POINT
  5
FBA
330
6B0
100
AcDbEntity
  8
Defpoints
  6
Continuous
 62
     0
100
AcDbPoint
 10
12.6557640414
 20
2.967665553899998
 30
0.0
  0
POINT
  5
FBB
330
6B0
100
AcDbEntity
  8
Defpoints
  6
Continuous
 62
     0
100
AcDbPoint
 10
13.98732066023333
 20
2.967665553899998
 30
0.0
  0
ENDBLK
  5
6B2
330
6B0
100
AcDbEntity
  8
0
100
AcDbBlockEnd
  0
BLOCK
  5
6C4
330
6C3
100
AcDbEntity
  8
0
100
AcDbBlockBegin
  2
*D5
 70
     1
 10
0.0
 20
0.0
 30
0.0
  3
*D5
  1

  0
LINE
  5
FBC
330
6C3
100
AcDbEntity
  8
0
  6
Continuous
 62
     0
370
    -2
100
AcDbLine
 10
11.9382640414
 20
8.807665553899997
 30
0.0
 11
13.12284149356667
 21
8.807665553899996
 31
0.0
  0
LINE
  5
FBD
330
6C3
100
AcDbEntity
  8
0
  6
Continuous
 62
     0
370
    -2
100
AcDbLine
 10
12.7182640414
 20
8.967665553899998
 30
0.0
 11
13.12284149356667
 21
8.967665553899998
 31
0.0
  0
LINE
  5
FBE
330
6C3
100
AcDbEntity
  8
0
  6
Continuous
 62
     0
370
    -2
100
AcDbLine
 10
13.12284149356667
 20
8.677665553899995
 30
0.0
 11
13.12284149356667
 21
8.547665553899996
 31
0.0
  0
LINE
  5
FBF
330
6C3
100
AcDbEntity
  8
0
  6
Continuous
 62
     0
370
    -2
100
AcDbLine
 10
13.12284149356667
 20
9.097665553899998
 30
0.0
 11
13.12284149356667
 21
9.345541530799996
 31
0.0
  0
LINE
  5
FC0
330
6C3
100
AcDbEntity
  8
0
  6
Continuous
 62
     0
370
    -2
100
AcDbLine
 10
13.12284149356667
 20
9.345541530799996
 30
0.0
 11
13.25284149356667
 21
9.345541530799996
 31
0.0
  0
LINE
  5
FC1
330
6C3
100
AcDbEntity
  8
0
  6
Continuous
 62
     0
370
    -2
100
AcDbLine
 10
13.12284149356667
 20
8.807665553899996
 30
0.0
 11
13.12284149356667
 21
8.967665553899998
 31
0.0
  0
SOLID
  5
FC2
330
6C3
100
AcDbEntity
  8
0
  6
Continuous
 62
     0
100
AcDbTrace
 10
13.1011748269
 20
8.677665553899995
 30
0.0
 11
13.14450816023333
 21
8.677665553899995
 31
0.0
 12
13.12284149356667
 22
8.807665553899996
 32
0.0
 13
13.12284149356667
 23
8.807665553899996
 33
0.0
  0
SOLID
  5
FC3
330
6C3
100
AcDbEntity
  8
0
  6
Continuous
 62
     0
100
AcDbTrace
 10
13.1011748269
 20
9.097665553899998
 30
0.0
 11
13.14450816023333
 21
9.097665553899998
 31
0.0
 12
13.12284149356667
 22
8.967665553899998
 32
0.0
 13
13.12284149356667
 23
8.967665553899998
 33
0.0
  0
MTEXT
  5
FC4
330
6C3
100
AcDbEntity
  8
0
  6
Continuous
 62
     0
370
     0
100
AcDbMText
 10
13.5550810769
 20
9.4080415308
 30
0.0
 40
0.125
 41
0.0
 71
     2
 72
     1
  1
\A1;.16 [4.06]
  7
SLDTEXTSTYLE1
 73
     1
 44
1.0
  0
POINT
  5
FC5
330
6C3
100
AcDbEntity
  8
Defpoints
  6
Continuous
 62
     0
100
AcDbPoint
 10
11.8757640414
 20
8.807665553899997
 30
0.0
  0
POINT
  5
FC6
330
6C3
100
AcDbEntity
  8
Defpoints
  6
Continuous
 62
     0
100
AcDbPoint
 10
12.6557640414
 20
8.967665553899998
 30
0.0
  0
POINT
  5
FC7
330
6C3
100
AcDbEntity
  8
Defpoints
  6
Continuous
 62
     0
100
AcDbPoint
 10
13.12284149356667
 20
8.967665553899998
 30
0.0
  0
ENDBLK
  5
6C5
330
6C3
100
AcDbEntity
  8
0
100
AcDbBlockEnd
  0
BLOCK
  5
6D7
330
6D6
100
AcDbEntity
  8
0
100
AcDbBlockBegin
  2
*D6
 70
     1
 10
0.0
 20
0.0
 30
0.0
  3
*D6
  1

  0
LINE
  5
FC8
330
6D6
100
AcDbEntity
  8
0
  6
Continuous
 62
     0
370
    -2
100
AcDbLine
 10
12.6557640414
 20
9.030165553899998
 30
0.0
 11
12.6557640414
 21
9.7442344241
 31
0.0
  0
LINE
  5
FC9
330
6D6
100
AcDbEntity
  8
0
  6
Continuous
 62
     0
370
    -2
100
AcDbLine
 10
11.6857640414
 20
9.060165553899997
 30
0.0
 11
11.6857640414
 21
9.7442344241
 31
0.0
  0
LINE
  5
FCA
330
6D6
100
AcDbEntity
  8
0
  6
Continuous
 62
     0
370
    -2
100
AcDbLine
 10
11.8157640414
 20
9.7442344241
 30
0.0
 11
12.5257640414
 21
9.7442344241
 31
0.0
  0
LINE
  5
FCB
330
6D6
100
AcDbEntity
  8
0
  6
Continuous
 62
     0
370
    -2
100
AcDbLine
 10
12.6557640414
 20
9.7442344241
 30
0.0
 11
13.22912854266666
 21
9.7442344241
 31
0.0
  0
SOLID
  5
FCC
330
6D6
100
AcDbEntity
  8
0
  6
Continuous
 62
     0
100
AcDbTrace
 10
11.8157640414
 20
9.765901090766666
 30
0.0
 11
11.8157640414
 21
9.722567757433333
 31
0.0
 12
11.6857640414
 22
9.7442344241
 32
0.0
 13
11.6857640414
 23
9.7442344241
 33
0.0
  0
SOLID
  5
FCD
330
6D6
100
AcDbEntity
  8
0
  6
Continuous
 62
     0
100
AcDbTrace
 10
12.5257640414
 20
9.765901090766666
 30
0.0
 11
12.5257640414
 21
9.722567757433333
 31
0.0
 12
12.6557640414
 22
9.7442344241
 32
0.0
 13
12.6557640414
 23
9.7442344241
 33
0.0
  0
MTEXT
  5
FCE
330
6D6
100
AcDbEntity
  8
0
  6
Continuous
 62
     0
370
     0
100
AcDbMText
 10
13.588086876
 20
9.8067344241
 30
0.0
 40
0.125
 41
0.0
 71
     2
 72
     1
  1
\A1;.97 [24.64]
  7
SLDTEXTSTYLE1
 73
     1
 44
1.0
  0
POINT
  5
FCF
330
6D6
100
AcDbEntity
  8
Defpoints
  6
Continuous
 62
     0
100
AcDbPoint
 10
12.6557640414
 20
8.967665553899998
 30
0.0
  0
POINT
  5
FD0
330
6D6
100
AcDbEntity
  8
Defpoints
  6
Continuous
 62
     0
100
AcDbPoint
 10
11.6857640414
 20
8.997665553899997
 30
0.0
  0
POINT
  5
FD1
330
6D6
100
AcDbEntity
  8
Defpoints
  6
Continuous
 62
     0
100
AcDbPoint
 10
11.6857640414
 20
9.7442344241
 30
0.0
  0
ENDBLK
  5
6D8
330
6D6
100
AcDbEntity
  8
0
100
AcDbBlockEnd
  0
BLOCK
  5
6EA
330
6E9
100
AcDbEntity
  8
0
100
AcDbBlockBegin
  2
SW_CENTERMARKSYMBOL_0
 70
     0
 10
0.0
 20
0.0
 30
0.0
  3
SW_CENTERMARKSYMBOL_0
  1

  0
LINE
  5
6EC
330
6E9
100
AcDbEntity
  8
0
  6
Continuous
 62
     0
370
     0
100
AcDbLine
 10
0.0
 20
0.0
 30
0.0
 11
0.0
 21
0.1
 31
0.0
  0
LINE
  5
6ED
330
6E9
100
AcDbEntity
  8
0
  6
Continuous
 62
     0
370
     0
100
AcDbLine
 10
0.0
 20
0.0
 30
0.0
 11
-0.1
 21
0.0
 31
0.0
  0
LINE
  5
6EE
330
6E9
100
AcDbEntity
  8
0
  6
Continuous
 62
     0
370
     0
100
AcDbLine
 10
0.0
 20
0.0
 30
0.0
 11
0.0
 21
-0.1
 31
0.0
  0
LINE
  5
6EF
330
6E9
100
AcDbEntity
  8
0
  6
Continuous
 62
     0
370
     0
100
AcDbLine
 10
0.0
 20
0.0
 30
0.0
 11
0.1
 21
0.0
 31
0.0
  0
LINE
  5
6F0
330
6E9
100
AcDbEntity
  8
0
  6
Continuous
 62
     0
370
     0
100
AcDbLine
 10
0.0
 20
0.1
 30
0.0
 11
0.0
 21
0.19
 31
0.0
  0
LINE
  5
6F1
330
6E9
100
AcDbEntity
  8
0
  6
Continuous
 62
     0
370
     0
100
AcDbLine
 10
-0.1
 20
0.0
 30
0.0
 11
-0.19
 21
0.0
 31
0.0
  0
LINE
  5
6F2
330
6E9
100
AcDbEntity
  8
0
  6
Continuous
 62
     0
370
     0
100
AcDbLine
 10
0.0
 20
-0.1
 30
0.0
 11
0.0
 21
-0.19
 31
0.0
  0
LINE
  5
6F3
330
6E9
100
AcDbEntity
  8
0
  6
Continuous
 62
     0
370
     0
100
AcDbLine
 10
0.1
 20
0.0
 30
0.0
 11
0.19
 21
0.0
 31
0.0
  0
ENDBLK
  5
6EB
330
6E9
100
AcDbEntity
  8
0
100
AcDbBlockEnd
  0
BLOCK
  5
6F6
330
6F5
100
AcDbEntity
  8
0
100
AcDbBlockBegin
  2
SW_CENTERMARKSYMBOL_1
 70
     0
 10
0.0
 20
0.0
 30
0.0
  3
SW_CENTERMARKSYMBOL_1
  1

  0
LINE
  5
6F8
330
6F5
100
AcDbEntity
  8
0
  6
Continuous
 62
     0
370
     0
100
AcDbLine
 10
0.0
 20
0.0
 30
0.0
 11
0.0
 21
0.1
 31
0.0
  0
LINE
  5
6F9
330
6F5
100
AcDbEntity
  8
0
  6
Continuous
 62
     0
370
     0
100
AcDbLine
 10
0.0
 20
0.0
 30
0.0
 11
-0.1
 21
0.0
 31
0.0
  0
LINE
  5
6FA
330
6F5
100
AcDbEntity
  8
0
  6
Continuous
 62
     0
370
     0
100
AcDbLine
 10
0.0
 20
0.0
 30
0.0
 11
0.0
 21
-0.1
 31
0.0
  0
LINE
  5
6FB
330
6F5
100
AcDbEntity
  8
0
  6
Continuous
 62
     0
370
     0
100
AcDbLine
 10
0.0
 20
0.0
 30
0.0
 11
0.1
 21
0.0
 31
0.0
  0
LINE
  5
6FC
330
6F5
100
AcDbEntity
  8
0
  6
Continuous
 62
     0
370
     0
100
AcDbLine
 10
0.0
 20
0.1
 30
0.0
 11
0.0
 21
0.19
 31
0.0
  0
LINE
  5
6FD
330
6F5
100
AcDbEntity
  8
0
  6
Continuous
 62
     0
370
     0
100
AcDbLine
 10
-0.1
 20
0.0
 30
0.0
 11
-0.19
 21
0.0
 31
0.0
  0
LINE
  5
6FE
330
6F5
100
AcDbEntity
  8
0
  6
Continuous
 62
     0
370
     0
100
AcDbLine
 10
0.0
 20
-0.1
 30
0.0
 11
0.0
 21
-0.19
 31
0.0
  0
LINE
  5
6FF
330
6F5
100
AcDbEntity
  8
0
  6
Continuous
 62
     0
370
     0
100
AcDbLine
 10
0.1
 20
0.0
 30
0.0
 11
0.19
 21
0.0
 31
0.0
  0
ENDBLK
  5
6F7
330
6F5
100
AcDbEntity
  8
0
100
AcDbBlockEnd
  0
BLOCK
  5
704
330
703
100
AcDbEntity
  8
0
100
AcDbBlockBegin
  2
_NONE
 70
     0
 10
0.0
 20
0.0
 30
0.0
  3
_NONE
  1

  0
ENDBLK
  5
705
330
703
100
AcDbEntity
  8
0
100
AcDbBlockEnd
  0
BLOCK
  5
71D
330
71C
100
AcDbEntity
  8
0
100
AcDbBlockBegin
  2
SW_NOTE_0
 70
     0
 10
0.0
 20
0.0
 30
0.0
  3
SW_NOTE_0
  1

  0
MTEXT
  5
71F
330
71C
100
AcDbEntity
  8
0
  6
Continuous
 62
     0
370
     0
100
AcDbMText
 10
0.375
 20
0.1611334675
 30
0.0
 40
0.125
 41
0.0
 71
     2
 72
     1
  1
DETAIL A
  7
SLDTEXTSTYLE1
 73
     1
 44
1.0
  0
MTEXT
  5
720
330
71C
100
AcDbEntity
  8
0
  6
Continuous
 62
     0
370
     0
100
AcDbMText
 10
0.3979167098
 20
-0.003236607
 30
0.0
 40
0.125
 41
0.0
 71
     2
 72
     1
  1
SCALE 2 : 1
  7
SLDTEXTSTYLE1
 73
     1
 44
1.0
  0
ENDBLK
  5
71E
330
71C
100
AcDbEntity
  8
0
100
AcDbBlockEnd
  0
BLOCK
  5
723
330
722
100
AcDbEntity
  8
0
100
AcDbBlockBegin
  2
SW_NOTE_1
 70
     0
 10
0.0
 20
0.0
 30
0.0
  3
SW_NOTE_1
  1

  0
MTEXT
  5
725
330
722
100
AcDbEntity
  8
0
  6
Continuous
 62
     0
370
     0
100
AcDbMText
 10
-2.3159189406
 20
0.0955217965
 30
0.0
 40
0.125
 41
0.0
 71
     1
 72
     1
  1
RECOMMENDED MOUNTING
  7
SLDTEXTSTYLE1
 73
     1
 44
1.0
  0
MTEXT
  5
726
330
722
100
AcDbEntity
  8
0
  6
Continuous
 62
     0
370
     0
100
AcDbMText
 10
-2.3159189406
 20
-0.0711448681
 30
0.0
 40
0.125
 41
0.0
 71
     1
 72
     1
  1
HARDWARE #8 OR M4
  7
SLDTEXTSTYLE1
 73
     1
 44
1.0
  0
ENDBLK
  5
724
330
722
100
AcDbEntity
  8
0
100
AcDbBlockEnd
  0
BLOCK
  5
72B
330
72A
100
AcDbEntity
  8
0
100
AcDbBlockBegin
  2
SW_NOTE_2
 70
     0
 10
0.0
 20
0.0
 30
0.0
  3
SW_NOTE_2
  1

  0
MTEXT
  5
72D
330
72A
100
AcDbEntity
  8
0
  6
Continuous
 62
     0
370
     0
100
AcDbMText
 10
0.0197726443
 20
0.0606383662
 30
0.0
 40
0.125
 41
0.0
 71
     1
 72
     1
  1
%%c
  7
SLDTEXTSTYLE0
 73
     1
 44
1.0
  0
MTEXT
  5
72E
330
72A
100
AcDbEntity
  8
0
  6
Continuous
 62
     0
370
     0
100
AcDbMText
 10
0.2082882649
 20
0.0606383662
 30
0.0
 40
0.125
 41
0.0
 71
     1
 72
     1
  1
0.18
  7
SLDTEXTSTYLE0
 73
     1
 44
1.0
  0
MTEXT
  5
72F
330
72A
100
AcDbEntity
  8
0
  6
Continuous
 62
     0
370
     0
100
AcDbMText
 10
0.2072726443
 20
-0.1037317084
 30
0.0
 40
0.125
 41
0.0
 71
     1
 72
     1
  1
[4.57]
  7
SLDTEXTSTYLE0
 73
     1
 44
1.0
  0
ENDBLK
  5
72C
330
72A
100
AcDbEntity
  8
0
100
AcDbBlockEnd
  0
BLOCK
  5
733
330
732
100
AcDbEntity
  8
0
100
AcDbBlockBegin
  2
SW_CENTERMARKSYMBOL_2
 70
     0
 10
0.0
 20
0.0
 30
0.0
  3
SW_CENTERMARKSYMBOL_2
  1

  0
LINE
  5
735
330
732
100
AcDbEntity
  8
0
  6
Continuous
 62
     0
370
     0
100
AcDbLine
 10
0.0
 20
0.0
 30
0.0
 11
0.0
 21
0.1999999829
 31
0.0
  0
LINE
  5
736
330
732
100
AcDbEntity
  8
0
  6
Continuous
 62
     0
370
     0
100
AcDbLine
 10
0.0
 20
0.0
 30
0.0
 11
-0.2000000104
 21
0.0
 31
0.0
  0
LINE
  5
737
330
732
100
AcDbEntity
  8
0
  6
Continuous
 62
     0
370
     0
100
AcDbLine
 10
0.0
 20
0.0
 30
0.0
 11
0.0
 21
-0.1999999829
 31
0.0
  0
LINE
  5
738
330
732
100
AcDbEntity
  8
0
  6
Continuous
 62
     0
370
     0
100
AcDbLine
 10
0.0
 20
0.0
 30
0.0
 11
0.2000000012
 21
0.0
 31
0.0
  0
LINE
  5
739
330
732
100
AcDbEntity
  8
0
  6
Continuous
 62
     0
370
     0
100
AcDbLine
 10
0.0
 20
0.1999999829
 30
0.0
 11
0.0
 21
0.3800001435
 31
0.0
  0
LINE
  5
73A
330
732
100
AcDbEntity
  8
0
  6
Continuous
 62
     0
370
     0
100
AcDbLine
 10
-0.2000000104
 20
0.0
 30
0.0
 11
-0.3799999877
 21
0.0
 31
0.0
  0
LINE
  5
73B
330
732
100
AcDbEntity
  8
0
  6
Continuous
 62
     0
370
     0
100
AcDbLine
 10
0.0
 20
-0.1999999829
 30
0.0
 11
0.0
 21
-0.3800001435
 31
0.0
  0
LINE
  5
73C
330
732
100
AcDbEntity
  8
0
  6
Continuous
 62
     0
370
     0
100
AcDbLine
 10
0.2000000012
 20
0.0
 30
0.0
 11
0.380000006
 21
0.0
 31
0.0
  0
ENDBLK
  5
734
330
732
100
AcDbEntity
  8
0
100
AcDbBlockEnd
  0
BLOCK
  5
FDE
330
FD4
100
AcDbEntity
  8
0
100
AcDbBlockBegin
  2
*D14
 70
     1
 10
0.0
 20
0.0
 30
0.0
  3
*D14
  1

  0
LINE
  5
FD5
330
FD4
100
AcDbEntity
  8
0
 62
     0
370
    -2
100
AcDbLine
 10
11.5257640127
 20
2.917665764499998
 30
0.0
 11
11.5257640127
 21
2.52185056713348
 31
0.0
  0
LINE
  5
FD6
330
FD4
100
AcDbEntity
  8
0
 62
     0
370
    -2
100
AcDbLine
 10
12.6557640372
 20
2.917665764499998
 30
0.0
 11
12.6557640372
 21
2.52185056713348
 31
0.0
  0
LINE
  5
FD7
330
FD4
100
AcDbEntity
  8
0
 62
     0
370
    -2
100
AcDbLine
 10
11.6557640127
 20
2.64685056713348
 30
0.0
 11
12.5257640372
 21
2.64685056713348
 31
0.0
  0
SOLID
  5
FD8
330
FD4
100
AcDbEntity
  8
0
 62
     0
100
AcDbTrace
 10
11.6557640127
 20
2.668517233800146
 30
0.0
 11
11.6557640127
 21
2.625183900466813
 31
0.0
 12
11.5257640127
 22
2.64685056713348
 32
0.0
 13
11.5257640127
 23
2.64685056713348
 33
0.0
  0
SOLID
  5
FD9
330
FD4
100
AcDbEntity
  8
0
 62
     0
100
AcDbTrace
 10
12.5257640372
 20
2.668517233800146
 30
0.0
 11
12.5257640372
 21
2.625183900466813
 31
0.0
 12
12.6557640372
 22
2.64685056713348
 32
0.0
 13
12.6557640372
 23
2.64685056713348
 33
0.0
  0
MTEXT
  5
FDA
330
FD4
100
AcDbEntity
  8
0
 62
     0
100
AcDbMText
 10
12.09076402495
 20
2.76935056713348
 30
0.0
 40
0.125
 41
0.0
 71
     5
 72
     1
  1
\A1;1.13
 73
     1
 44
1.0
  0
POINT
  5
FDB
330
FD4
100
AcDbEntity
  8
Defpoints
 62
     0
100
AcDbPoint
 10
11.5257640127
 20
2.967665764499998
 30
0.0
  0
POINT
  5
FDC
330
FD4
100
AcDbEntity
  8
Defpoints
 62
     0
100
AcDbPoint
 10
12.6557640372
 20
2.967665764499998
 30
0.0
  0
POINT
  5
FDD
330
FD4
100
AcDbEntity
  8
Defpoints
 62
     0
100
AcDbPoint
 10
12.6557640372
 20
2.64685056713348
 30
0.0
  0
ENDBLK
  5
FDF
330
FD4
100
AcDbEntity
  8
0
100
AcDbBlockEnd
  0
ENDSEC
  0
SECTION
  2
ENTITIES
  0
MTEXT
  5
45
330
1F
100
AcDbEntity
  8
0
  6
Continuous
 62
     7
370
     0
100
AcDbMText
 10
8.996872527499997
 20
14.2506263782
 30
0.0
 40
0.25
 41
0.0
 71
     1
 72
     1
  1
DL-DIU M.3000.0832
  7
SLDTEXTSTYLE0
 73
     1
 44
1.0
1001
ACAD
1000
ACAD_MTEXT_DEFINED_HEIGHT_BEGIN
1070
    46
1040
0.0
1000
ACAD_MTEXT_DEFINED_HEIGHT_END
  0
SPLINE
  5
5B
330
1F
100
AcDbEntity
  8
0
  6
Continuous
 62
     7
370
    15
100
AcDbSpline
210
0.0
220
0.0
230
1.0
 70
     8
 71
     3
 72
    14
 73
    10
 74
     0
 42
0.0000000001
 43
0.0000000001
 40
0.0
 40
0.0
 40
0.0
 40
0.0
 40
0.1298843861097208
 40
0.2580563793234644
 40
0.3849715011689657
 40
0.5108382440720247
 40
0.7579755164130875
 40
0.8799407516880497
 40
1.0
 40
1.0
 40
1.0
 40
1.0
 10
7.615460797276081
 20
8.887665554911038
 30
0.0
 10
7.614993538974071
 20
8.893104292834625
 30
0.0
 10
7.614065182693252
 20
8.903910064480378
 30
0.0
 10
7.60889788269198
 20
8.919501440102292
 30
0.0
 10
7.601252690818261
 20
8.933641014000626
 30
0.0
 10
7.587968313944831
 20
8.9497719483855
 30
0.0
 10
7.570518304125521
 20
8.961220273740014
 30
0.0
 10
7.551038457862384
 20
8.967010135187985
 30
0.0
 10
7.540904713119901
 20
8.967443452264213
 30
0.0
 10
7.535877743292977
 20
8.967658404576811
 30
0.0
  0
ARC
  5
3A2
330
1F
100
AcDbEntity
  8
0
  6
Continuous
 62
     7
370
    15
100
AcDbCircle
 10
7.5369474599
 20
3.047665553899998
 30
0.0
 40
0.080000000000001
100
AcDbArc
 50
270.0
 51
0.0
  0
LINE
  5
3A5
330
1F
100
AcDbEntity
  8
0
  6
Continuous
 62
     7
370
    15
100
AcDbLine
 10
6.566947397500002
 20
8.887665554899999
 30
0.0
 11
6.566947397500002
 21
3.067665462599998
 31
0.0
  0
LINE
  5
3A9
330
1F
100
AcDbEntity
  8
0
  6
Continuous
 62
     7
370
    15
100
AcDbLine
 10
6.4869473934
 20
8.887665554899998
 30
0.0
 11
6.4869473934
 21
3.047665640299998
 31
0.0
  0
LINE
  5
3AC
330
1F
100
AcDbEntity
  8
0
  6
Continuous
 62
     7
370
    15
100
AcDbLine
 10
7.536947517599999
 20
8.887665554899999
 30
0.0
 11
7.536947517599999
 21
3.067665462599998
 31
0.0
  0
LINE
  5
3AD
330
1F
100
AcDbEntity
  8
0
  6
Continuous
 62
     7
370
    15
100
AcDbLine
 10
7.536947517599998
 20
8.887665554899998
 30
0.0
 11
6.566947397500003
 21
8.887665554899998
 31
0.0
  0
LINE
  5
3AE
330
1F
100
AcDbEntity
  8
0
  6
Continuous
 62
     7
370
    15
100
AcDbLine
 10
7.536947517599998
 20
2.967665764499998
 30
0.0
 11
6.566947397500002
 21
2.967665764499998
 31
0.0
  0
LINE
  5
3B2
330
1F
100
AcDbEntity
  8
0
  6
Continuous
 62
     7
370
    15
100
AcDbLine
 10
7.6169473934
 20
3.067665462599998
 30
0.0
 11
6.4869473934
 21
3.067665462599998
 31
0.0
  0
LINE
  5
3B5
330
1F
100
AcDbEntity
  8
0
  6
Continuous
 62
     7
370
    15
100
AcDbLine
 10
7.6154566907
 20
8.887665554899998
 30
0.0
 11
7.6169473934
 21
8.887665554899998
 31
0.0
  0
LINE
  5
3B6
330
1F
100
AcDbEntity
  8
0
  6
Continuous
 62
     7
370
    15
100
AcDbLine
 10
7.6169473934
 20
8.887665554899998
 30
0.0
 11
7.6169473934
 21
3.047665640299998
 31
0.0
  0
SPLINE
  5
3B7
330
1F
100
AcDbEntity
  8
0
  6
Continuous
 62
     7
370
    15
100
AcDbSpline
210
0.0
220
0.0
230
1.0
 70
    24
 71
     3
 72
     8
 73
     4
 74
     0
 42
0.0000000001
 43
0.0000000001
 40
0.000000000000072
 40
0.000000000000072
 40
0.000000000000072
 40
0.000000000000072
 40
1.0
 40
1.0
 40
1.0
 40
1.0
 10
6.486947389176076
 20
8.887665553869432
 30
0.0
 10
6.486947389176043
 20
8.916584118175695
 30
0.0
 10
6.48694738917607
 20
8.947665553869446
 30
0.0
 10
6.486947389176028
 20
8.947665553869422
 30
0.0
  0
SPLINE
  5
3B8
330
1F
100
AcDbEntity
  8
0
  6
Continuous
 62
     7
370
    15
100
AcDbSpline
210
0.0
220
0.0
230
1.0
 70
     8
 71
     3
 72
    15
 73
    11
 74
     0
 42
0.0000000001
 43
0.0000000001
 40
0.0000000000000016
 40
0.0000000000000016
 40
0.0000000000000016
 40
0.0000000000000016
 40
0.125
 40
0.25
 40
0.375
 40
0.5
 40
0.625
 40
0.75
 40
0.875
 40
1.000000000000414
 40
1.000000000000414
 40
1.000000000000414
 40
1.000000000000414
 10
6.486947389176028
 20
8.947665553869422
 30
0.0
 10
6.486947389176023
 20
8.94897455080842
 30
0.0
 10
6.4872052446811
 20
8.951592503130322
 30
0.0
 10
6.488350713730939
 20
8.955368549329488
 30
0.0
 10
6.490210837219763
 20
8.958848558318953
 30
0.0
 10
6.492714126471818
 20
8.961898816573645
 30
0.0
 10
6.495764384726532
 20
8.964402105825694
 30
0.0
 10
6.499244393715995
 20
8.966262229314502
 30
0.0
 10
6.503020439915156
 20
8.967407698364315
 30
0.0
 10
6.505638392237053
 20
8.967665553869414
 30
0.0
 10
6.506947389176052
 20
8.967665553869421
 30
0.0
  0
SPLINE
  5
3BA
330
1F
100
AcDbEntity
  8
0
  6
Continuous
 62
     7
370
    15
100
AcDbSpline
210
0.0
220
0.0
230
1.0
 70
    24
 71
     3
 72
     8
 73
     4
 74
     0
 42
0.0000000001
 43
0.0000000001
 40
0.0000000000000733
 40
0.0000000000000733
 40
0.0000000000000733
 40
0.0000000000000733
 40
1.0
 40
1.0
 40
1.0
 40
1.0
 10
6.56694738917606
 20
2.967665553869622
 30
0.0
 10
6.538028824869782
 20
2.967665553869383
 30
0.0
 10
6.506947389176024
 20
2.967665553869588
 30
0.0
 10
6.506947389176048
 20
2.967665553869487
 30
0.0
  0
ARC
  5
3BB
330
1F
100
AcDbEntity
  8
0
  6
Continuous
 62
     7
370
    15
100
AcDbCircle
 10
6.5069473892
 20
2.987665553899998
 30
0.0
 40
0.0200000000000005
100
AcDbArc
 50
180.0
 51
270.0
  0
SPLINE
  5
3BC
330
1F
100
AcDbEntity
  8
0
  6
Continuous
 62
     7
370
    15
100
AcDbSpline
210
0.0
220
0.0
230
1.0
 70
    24
 71
     3
 72
     8
 73
     4
 74
     0
 42
0.0000000001
 43
0.0000000001
 40
0.0000000000000253
 40
0.0000000000000253
 40
0.0000000000000253
 40
0.0000000000000253
 40
1.0
 40
1.0
 40
1.0
 40
1.0
 10
6.486947389176067
 20
2.987665553869581
 30
0.0
 10
6.48694738917607
 20
2.987665553869398
 30
0.0
 10
6.486947389176058
 20
3.018724362603346
 30
0.0
 10
6.486947389176081
 20
3.047665553869137
 30
0.0
  0
ARC
  5
3FF
330
1F
100
AcDbEntity
  8
0
  6
Continuous
 62
     7
370
    15
100
AcDbCircle
 10
7.5369474599
 20
8.887665553899998
 30
0.0
 40
0.0800000000000013
100
AcDbArc
 50
360.0
 51
34.7157342236
  0
DIMENSION
  5
4B7
330
1F
100
AcDbEntity
  8
0
  6
Continuous
 62
     7
370
     0
100
AcDbDimension
  2
*D1
 10
8.336820343800003
 20
2.967665553899998
 30
0.0
 11
8.336820343800003
 21
6.0657021427
 31
0.0
 70
   160
 71
     2
 42
6.0
  3
SLDDIMSTYLE1
100
AcDbAlignedDimension
 13
7.7068950258
 23
8.967665553899998
 33
0.0
 14
7.7068950258
 24
2.967665553899998
 34
0.0
 50
90.0
100
AcDbRotatedDimension
  0
MTEXT
  5
4CB
330
1F
100
AcDbEntity
  8
0
  6
Continuous
 62
     7
370
     0
100
AcDbMText
 10
6.2559193275
 20
2.6215315316
 30
0.0
 40
0.125
 41
0.0
 71
     1
 72
     1
  1
FRONT VIEW
  7
SLDTEXTSTYLE1
 73
     1
 44
1.0
  0
MTEXT
  5
4CC
330
1F
100
AcDbEntity
  8
0
  6
Continuous
 62
     7
370
     0
100
AcDbMText
 10
6.3240400561
 20
9.865035676399999
 30
0.0
 40
0.125
 41
0.0
 71
     1
 72
     1
  1
TOP VIEW
  7
SLDTEXTSTYLE1
 73
     1
 44
1.0
  0
MTEXT
  5
4CD
330
1F
100
AcDbEntity
  8
0
  6
Continuous
 62
     7
370
     0
100
AcDbMText
 10
9.917812063799999
 20
2.718952635699999
 30
0.0
 40
0.1458333333
 41
0.0
 71
     2
 72
     1
  1
DIMENSIONS IN INCHES [MM]
  7
SLDTEXTSTYLE1
 73
     1
 44
1.0
  0
SPLINE
  5
4D5
330
1F
100
AcDbEntity
  8
0
  6
Continuous
 62
     7
370
    15
100
AcDbSpline
210
0.0
220
0.0
230
1.0
 70
     8
 71
     3
 72
     9
 73
     5
 74
     0
 42
0.0000000001
 43
0.0000000001
 40
0.0
 40
0.0
 40
0.0
 40
0.0
 40
0.5020313316165148
 40
1.0
 40
1.0
 40
1.0
 40
1.0
 10
6.868234515964513
 20
13.33123340257072
 30
0.0
 10
6.867871452710637
 20
13.32688461568475
 30
0.0
 10
6.867148264273962
 20
13.31822223425137
 30
0.0
 10
6.866987433377026
 20
13.30945480811331
 30
0.0
 10
6.866907344629442
 20
13.30508890459419
 30
0.0
  0
LINE
  5
539
330
1F
100
AcDbEntity
  8
0
  6
Continuous
 62
     7
370
    15
100
AcDbLine
 10
6.9434474671
 20
10.1914404537
 30
0.0
 11
6.9434474671
 21
10.3134404569
 31
0.0
  0
LINE
  5
53A
330
1F
100
AcDbEntity
  8
0
  6
Continuous
 62
     7
370
    15
100
AcDbLine
 10
7.013866380299998
 20
10.1914404537
 30
0.0
 11
6.9434474671
 21
10.1914404537
 31
0.0
  0
LINE
  5
53B
330
1F
100
AcDbEntity
  8
0
  6
Continuous
 62
     7
370
    15
100
AcDbLine
 10
7.013866380299998
 20
10.1914404537
 30
0.0
 11
7.204866340499999
 21
10.1914404537
 31
0.0
  0
LINE
  5
53C
330
1F
100
AcDbEntity
  8
0
  6
Continuous
 62
     7
370
    15
100
AcDbLine
 10
7.254447461099998
 20
10.3134404569
 30
0.0
 11
7.254447461099998
 21
10.1914404537
 31
0.0
  0
LINE
  5
53D
330
1F
100
AcDbEntity
  8
0
  6
Continuous
 62
     7
370
    15
100
AcDbLine
 10
7.254447461099998
 20
10.1914404537
 30
0.0
 11
7.204866340499999
 21
10.1914404537
 31
0.0
  0
LINE
  5
53E
330
1F
100
AcDbEntity
  8
0
  6
Continuous
 62
     7
370
    15
100
AcDbLine
 10
6.9294474888
 20
10.1914404537
 30
0.0
 11
6.9294474888
 21
10.3134404569
 31
0.0
  0
LINE
  5
53F
330
1F
100
AcDbEntity
  8
0
  6
Continuous
 62
     7
370
    15
100
AcDbLine
 10
6.9444474289
 20
10.1914404537
 30
0.0
 11
6.9294474888
 21
10.1914404537
 31
0.0
  0
LINE
  5
540
330
1F
100
AcDbEntity
  8
0
  6
Continuous
 62
     7
370
    15
100
AcDbLine
 10
7.2864474114
 20
10.3134404569
 30
0.0
 11
7.2864474114
 21
10.1914404537
 31
0.0
  0
LINE
  5
541
330
1F
100
AcDbEntity
  8
0
  6
Continuous
 62
     7
370
    15
100
AcDbLine
 10
7.2864474114
 20
10.1914404537
 30
0.0
 11
7.254447461099998
 21
10.1914404537
 31
0.0
  0
LINE
  5
5AF
330
1F
100
AcDbEntity
  8
0
  6
Continuous
 62
     7
370
    15
100
AcDbLine
 10
6.4869473976
 20
10.60162396901511
 30
0.0
 11
6.4869473976
 21
14.28662398791511
 31
0.0
  0
LINE
  5
5B1
330
1F
100
AcDbEntity
  8
0
  6
Continuous
 62
     7
370
    15
100
AcDbLine
 10
6.5969474732
 20
14.0584405751
 30
0.0
 11
6.5969474732
 21
14.2834404826
 31
0.0
  0
LINE
  5
5B2
330
1F
100
AcDbEntity
  8
0
  6
Continuous
 62
     7
370
    15
100
AcDbLine
 10
6.5969474732
 20
14.0584405751
 30
0.0
 11
6.486947397600001
 21
14.0584405751
 31
0.0
  0
LINE
  5
5B9
330
1F
100
AcDbEntity
  8
0
  6
Continuous
 62
     7
370
    15
100
AcDbLine
 10
6.776947450499999
 20
14.2834404826
 30
0.0
 11
6.8269474462
 21
14.2834404826
 31
0.0
  0
LINE
  5
5BB
330
1F
100
AcDbEntity
  8
0
  6
Continuous
 62
     7
370
    15
100
AcDbLine
 10
6.776947450499999
 20
14.0584405751
 30
0.0
 11
6.776947450499999
 21
14.2834404826
 31
0.0
  0
LINE
  5
5BC
330
1F
100
AcDbEntity
  8
0
  6
Continuous
 62
     7
370
    15
100
AcDbLine
 10
6.8269474462
 20
14.0584405751
 30
0.0
 11
6.776947450499999
 21
14.0584405751
 31
0.0
  0
LINE
  5
5BD
330
1F
100
AcDbEntity
  8
0
  6
Continuous
 62
     7
370
    15
100
AcDbLine
 10
6.8269474462
 20
14.2834404826
 30
0.0
 11
6.8469474885
 21
14.2834404826
 31
0.0
  0
LINE
  5
5BE
330
1F
100
AcDbEntity
  8
0
  6
Continuous
 62
     7
370
    15
100
AcDbLine
 10
6.8469474885
 20
14.0584405751
 30
0.0
 11
6.8269474462
 21
14.0584405751
 31
0.0
  0
LINE
  5
5BF
330
1F
100
AcDbEntity
  8
0
  6
Continuous
 62
     7
370
    15
100
AcDbLine
 10
6.4869473976
 20
14.2834404826
 30
0.0
 11
6.776947450499999
 21
14.2834404826
 31
0.0
  0
LINE
  5
5C0
330
1F
100
AcDbEntity
  8
0
  6
Continuous
 62
     7
370
    15
100
AcDbLine
 10
6.5969474732
 20
14.0584405751
 30
0.0
 11
6.776947450499999
 21
14.0584405751
 31
0.0
  0
LINE
  5
5C1
330
1F
100
AcDbEntity
  8
0
  6
Continuous
 62
     7
370
    15
100
AcDbLine
 10
6.8669474575
 20
13.3312334026
 30
0.0
 11
6.866876105
 21
13.306295664
 31
0.0
  0
ARC
  5
5C5
330
1F
100
AcDbEntity
  8
0
  6
Continuous
 62
     7
370
    15
100
AcDbCircle
 10
6.566947393400002
 20
10.39662396561511
 30
0.0
 40
0.0800000000000018
100
AcDbArc
 50
180.0
 51
270.0
  0
ARC
  5
5C8
330
1F
100
AcDbEntity
  8
0
  6
Continuous
 62
     7
370
    15
100
AcDbCircle
 10
7.5369474599
 20
10.3934404603
 30
0.0
 40
0.0800000000000018
100
AcDbArc
 50
270.0
 51
0.0000000001
  0
LINE
  5
5C9
330
1F
100
AcDbEntity
  8
0
  6
Continuous
 62
     7
370
    15
100
AcDbLine
 10
7.536947517599998
 20
10.393440461
 30
0.0
 11
7.536947517599998
 21
10.3134404569
 31
0.0
  0
LINE
  5
5CA
330
1F
100
AcDbEntity
  8
0
  6
Continuous
 62
     7
370
    15
100
AcDbLine
 10
7.6169473934
 20
10.393440461
 30
0.0
 11
7.536947517599998
 21
10.393440461
 31
0.0
  0
SPLINE
  5
5CB
330
1F
100
AcDbEntity
  8
0
  6
Continuous
 62
     7
370
    15
100
AcDbSpline
210
0.0
220
0.0
230
1.0
 70
     8
 71
     3
 72
     9
 73
     5
 74
     0
 42
0.0000000001
 43
0.0000000001
 40
0.0
 40
0.0
 40
0.0
 40
0.0
 40
0.4999976587289366
 40
1.0
 40
1.0
 40
1.0
 40
1.0
 10
6.656947489272361
 20
12.00146943381904
 30
0.0
 10
6.656947620487806
 20
12.0037887100219
 30
0.0
 10
6.656947882919919
 20
12.00842728414792
 30
0.0
 10
6.656947600936442
 20
12.0130134106343
 30
0.0
 10
6.656947459944044
 20
12.01530648461486
 30
0.0
  0
LINE
  5
5CE
330
1F
100
AcDbEntity
  8
0
  6
Continuous
 62
     7
370
    15
100
AcDbLine
 10
6.8697263921
 20
13.3312334026
 30
0.0
 11
6.8669474575
 21
13.3312334026
 31
0.0
  0
SPLINE
  5
5D0
330
1F
100
AcDbEntity
  8
0
  6
Continuous
 62
     7
370
    15
100
AcDbSpline
210
0.0
220
0.0
230
1.0
 70
     8
 71
     3
 72
     9
 73
     5
 74
     0
 42
0.0000000001
 43
0.0000000001
 40
0.0
 40
0.0
 40
0.0
 40
0.0
 40
0.5000015831890467
 40
1.0
 40
1.0
 40
1.0
 40
1.0
 10
6.716947459865806
 20
12.0153064559811
 30
0.0
 10
6.716947457895287
 20
12.01301338416278
 30
0.0
 10
6.716947453954258
 20
12.00842725504756
 30
0.0
 10
6.716947448954272
 20
12.00378868839554
 30
0.0
 10
6.716947446454288
 20
12.00146941241325
 30
0.0
  0
SPLINE
  5
5D1
330
1F
100
AcDbEntity
  8
0
  6
Continuous
 62
     7
370
    15
100
AcDbSpline
210
0.0
220
0.0
230
1.0
 70
    24
 71
     3
 72
     8
 73
     4
 74
     0
 42
0.0000000001
 43
0.0000000001
 40
0.000000000000072
 40
0.000000000000072
 40
0.000000000000072
 40
0.000000000000072
 40
1.0
 40
1.0
 40
1.0
 40
1.0
 10
6.486947393376077
 20
10.39662396562469
 30
0.0
 10
6.486947393376043
 20
10.39779993128971
 30
0.0
 10
6.486947393376071
 20
10.42768150103063
 30
0.0
 10
6.486947393376029
 20
10.45662396562473
 30
0.0
  0
LINE
  5
5DB
330
1F
100
AcDbEntity
  8
0
  6
Continuous
 62
     7
370
    15
100
AcDbLine
 10
6.7169474703
 20
12.0014694708
 30
0.0
 11
6.6569474901
 21
12.0014694708
 31
0.0
  0
LINE
  5
5DD
330
1F
100
AcDbEntity
  8
0
  6
Continuous
 62
     7
370
    15
100
AcDbLine
 10
7.536947517599998
 20
14.0584405751
 30
0.0
 11
6.94694748
 21
14.0584405751
 31
0.0
  0
LINE
  5
5DE
330
1F
100
AcDbEntity
  8
0
  6
Continuous
 62
     7
370
    15
100
AcDbLine
 10
7.536947517599998
 20
10.393440461
 30
0.0
 11
7.536947517599998
 21
14.0584405751
 31
0.0
  0
LINE
  5
5E0
330
1F
100
AcDbEntity
  8
0
  6
Continuous
 62
     7
370
    15
100
AcDbLine
 10
7.4200724011
 20
13.0646903484
 30
0.0
 11
7.0338224964
 21
13.0646903484
 31
0.0
  0
ARC
  5
5E1
330
1F
100
AcDbEntity
  8
0
  6
Continuous
 62
     7
370
    15
100
AcDbCircle
 10
7.4200724599
 20
13.1115654603
 30
0.0
 40
0.046875
100
AcDbArc
 50
270.0000000003
 51
89.99999999969999
  0
LINE
  5
5E2
330
1F
100
AcDbEntity
  8
0
  6
Continuous
 62
     7
370
    15
100
AcDbLine
 10
7.0338224964
 20
13.1584403587
 30
0.0
 11
7.4200724011
 21
13.1584403587
 31
0.0
  0
ARC
  5
5E3
330
1F
100
AcDbEntity
  8
0
  6
Continuous
 62
     7
370
    15
100
AcDbCircle
 10
7.033822459899998
 20
13.1115654603
 30
0.0
 40
0.046875
100
AcDbArc
 50
90.0000000003
 51
270.0
  0
LINE
  5
5E4
330
1F
100
AcDbEntity
  8
0
  6
Continuous
 62
     7
370
    15
100
AcDbLine
 10
7.4200724011
 20
13.252190369
 30
0.0
 11
7.0338224964
 21
13.252190369
 31
0.0
  0
ARC
  5
5E5
330
1F
100
AcDbEntity
  8
0
  6
Continuous
 62
     7
370
    15
100
AcDbCircle
 10
7.4200724599
 20
13.2990654603
 30
0.0
 40
0.046875
100
AcDbArc
 50
270.0000000003
 51
89.99999999969999
  0
LINE
  5
5E6
330
1F
100
AcDbEntity
  8
0
  6
Continuous
 62
     7
370
    15
100
AcDbLine
 10
7.0338224964
 20
13.3459403793
 30
0.0
 11
7.4200724011
 21
13.3459403793
 31
0.0
  0
ARC
  5
5E7
330
1F
100
AcDbEntity
  8
0
  6
Continuous
 62
     7
370
    15
100
AcDbCircle
 10
7.033822459899998
 20
13.2990654603
 30
0.0
 40
0.046875
100
AcDbArc
 50
90.0000000003
 51
270.0
  0
LINE
  5
5E8
330
1F
100
AcDbEntity
  8
0
  6
Continuous
 62
     7
370
    15
100
AcDbLine
 10
7.4200724011
 20
13.4396903897
 30
0.0
 11
7.0338224964
 21
13.4396903897
 31
0.0
  0
ARC
  5
5E9
330
1F
100
AcDbEntity
  8
0
  6
Continuous
 62
     7
370
    15
100
AcDbCircle
 10
7.4200724599
 20
13.4865654603
 30
0.0
 40
0.046875
100
AcDbArc
 50
270.0000000003
 51
89.99999999969999
  0
LINE
  5
5EA
330
1F
100
AcDbEntity
  8
0
  6
Continuous
 62
     7
370
    15
100
AcDbLine
 10
7.0338224964
 20
13.5334404
 30
0.0
 11
7.4200724011
 21
13.5334404
 31
0.0
  0
ARC
  5
5EB
330
1F
100
AcDbEntity
  8
0
  6
Continuous
 62
     7
370
    15
100
AcDbCircle
 10
7.033822459899998
 20
13.4865654603
 30
0.0
 40
0.046875
100
AcDbArc
 50
90.0000000003
 51
270.0
  0
LINE
  5
5EC
330
1F
100
AcDbEntity
  8
0
  6
Continuous
 62
     7
370
    15
100
AcDbLine
 10
7.4200724011
 20
13.6271904103
 30
0.0
 11
7.0338224964
 21
13.6271904103
 31
0.0
  0
ARC
  5
5ED
330
1F
100
AcDbEntity
  8
0
  6
Continuous
 62
     7
370
    15
100
AcDbCircle
 10
7.4200724599
 20
13.6740654603
 30
0.0
 40
0.046875
100
AcDbArc
 50
270.0000000003
 51
89.99999999969999
  0
LINE
  5
5EE
330
1F
100
AcDbEntity
  8
0
  6
Continuous
 62
     7
370
    15
100
AcDbLine
 10
7.0338224964
 20
13.7209404206
 30
0.0
 11
7.4200724011
 21
13.7209404206
 31
0.0
  0
ARC
  5
5EF
330
1F
100
AcDbEntity
  8
0
  6
Continuous
 62
     7
370
    15
100
AcDbCircle
 10
7.033822459899998
 20
13.6740654603
 30
0.0
 40
0.046875
100
AcDbArc
 50
90.0000000003
 51
270.0
  0
LINE
  5
60C
330
1F
100
AcDbEntity
  8
0
  6
Continuous
 62
     7
370
    15
100
AcDbLine
 10
7.4200724011
 20
13.814690431
 30
0.0
 11
7.0338224964
 21
13.814690431
 31
0.0
  0
ARC
  5
60D
330
1F
100
AcDbEntity
  8
0
  6
Continuous
 62
     7
370
    15
100
AcDbCircle
 10
7.4200724599
 20
13.8615654603
 30
0.0
 40
0.0468750000000018
100
AcDbArc
 50
270.0000000003
 51
89.99999999969999
  0
LINE
  5
60E
330
1F
100
AcDbEntity
  8
0
  6
Continuous
 62
     7
370
    15
100
AcDbLine
 10
7.0338224964
 20
13.9084404413
 30
0.0
 11
7.4200724011
 21
13.9084404413
 31
0.0
  0
ARC
  5
60F
330
1F
100
AcDbEntity
  8
0
  6
Continuous
 62
     7
370
    15
100
AcDbCircle
 10
7.033822459899998
 20
13.8615654603
 30
0.0
 40
0.0468750000000018
100
AcDbArc
 50
90.0000000003
 51
270.0
  0
LINE
  5
619
330
1F
100
AcDbEntity
  8
0
  6
Continuous
 62
     7
370
    15
100
AcDbLine
 10
6.7169474703
 20
12.0153064309
 30
0.0
 11
6.6569474901
 21
12.0153064309
 31
0.0
  0
LINE
  5
61A
330
1F
100
AcDbEntity
  8
0
  6
Continuous
 62
     7
370
    15
100
AcDbLine
 10
6.506947466299998
 20
14.0584405751
 30
0.0
 11
6.506947466299998
 21
13.3312334026
 31
0.0
  0
LINE
  5
61B
330
1F
100
AcDbEntity
  8
0
  6
Continuous
 62
     7
370
    15
100
AcDbLine
 10
6.4869473976
 20
10.60162396901511
 30
0.0
 11
6.4869473976
 21
10.45662396491511
 31
0.0
  0
LINE
  5
61C
330
1F
100
AcDbEntity
  8
0
  6
Continuous
 62
     7
370
    15
100
AcDbLine
 10
6.8669474575
 20
13.3312334026
 30
0.0
 11
6.8669474575
 21
14.0584405751
 31
0.0
  0
LINE
  5
61D
330
1F
100
AcDbEntity
  8
0
  6
Continuous
 62
     7
370
    15
100
AcDbLine
 10
7.6169473934
 20
14.0584405751
 30
0.0
 11
7.6169473934
 21
10.393440461
 31
0.0
  0
LINE
  5
639
330
1F
100
AcDbEntity
  8
0
  6
Continuous
 62
     7
370
    15
100
AcDbLine
 10
7.536947517599998
 20
14.2834404826
 30
0.0
 11
6.8469474885
 21
14.2834404826
 31
0.0
  0
LINE
  5
63B
330
1F
100
AcDbEntity
  8
0
  6
Continuous
 62
     7
370
    15
100
AcDbLine
 10
6.8469474885
 20
14.0584405751
 30
0.0
 11
7.536947517599998
 21
14.0584405751
 31
0.0
  0
LINE
  5
63D
330
1F
100
AcDbEntity
  8
0
  6
Continuous
 62
     7
370
    15
100
AcDbLine
 10
7.6169473934
 20
14.2834404826
 30
0.0
 11
7.6169473934
 21
14.0584405751
 31
0.0
  0
LINE
  5
63E
330
1F
100
AcDbEntity
  8
0
  6
Continuous
 62
     7
370
    15
100
AcDbLine
 10
7.6169473934
 20
14.2834404826
 30
0.0
 11
7.536947517599998
 21
14.2834404826
 31
0.0
  0
LINE
  5
651
330
1F
100
AcDbEntity
  8
0
  6
Continuous
 62
     8
370
    15
100
AcDbLine
 10
7.013866380299998
 20
10.3134404569
 30
0.0
 11
7.013866380299998
 21
10.1914404537
 31
0.0
  0
LINE
  5
652
330
1F
100
AcDbEntity
  8
0
  6
Continuous
 62
     8
370
    15
100
AcDbLine
 10
7.204866340499999
 20
10.1914404537
 30
0.0
 11
7.204866340499999
 21
10.3134404569
 31
0.0
  0
SPLINE
  5
65C
330
1F
100
AcDbEntity
  8
0
  6
Continuous
 62
     8
370
    15
100
AcDbSpline
210
0.0
220
0.0
230
1.0
 70
     8
 71
     3
 72
    43
 73
    39
 74
     0
 42
0.0000000001
 43
0.0000000001
 40
0.0
 40
0.0
 40
0.0
 40
0.0
 40
0.0311450405238494
 40
0.0724481534756336
 40
0.1049747590530228
 40
0.1472509855753933
 40
0.1886087687693858
 40
0.2267491189817037
 40
0.2684138361856517
 40
0.3139137724907333
 40
0.3566064442195842
 40
0.4030284882166358
 40
0.4480655657201476
 40
0.4904974785161635
 40
0.5292364117789542
 40
0.5660942077580553
 40
0.6010716654725621
 40
0.6378560625644021
 40
0.6760496840655611
 40
0.711834552123846
 40
0.7452131020216414
 40
0.7745146319594755
 40
0.8018969129333223
 40
0.8273637626295926
 40
0.8509197962356591
 40
0.8725707196602371
 40
0.8907169036644328
 40
0.9073720796898292
 40
0.9225456316768433
 40
0.9362502727045452
 40
0.9481796115926886
 40
0.9587839810358859
 40
0.9680942012007815
 40
0.9767207144175875
 40
0.9840222457447016
 40
0.9928008562488299
 40
0.9965127476892487
 40
1.0
 40
1.0
 40
1.0
 40
1.0
 10
6.866876104990326
 20
13.30629566398693
 30
0.0
 10
6.866850528780231
 20
13.29262241631541
 30
0.0
 10
6.866791034582657
 20
13.26081633967672
 30
0.0
 10
6.866387060897562
 20
13.21473197411045
 30
0.0
 10
6.865765748234754
 20
13.16376343030571
 30
0.0
 10
6.86491103132232
 20
13.112773670941
 30
0.0
 10
6.863752552972965
 20
13.05932490603751
 30
0.0
 10
6.862342112449246
 20
13.00615083888968
 30
0.0
 10
6.860608927071647
 20
12.95116668558532
 30
0.0
 10
6.858491034955117
 20
12.89419590029324
 30
0.0
 10
6.855942949897118
 20
12.83515223065558
 30
0.0
 10
6.853028727251158
 20
12.77632863746949
 30
0.0
 10
6.849711520807285
 20
12.71764099447427
 30
0.0
 10
6.846188894134277
 20
12.66234478397572
 30
0.0
 10
6.842520812421749
 20
12.61065720565242
 30
0.0
 10
6.838731351740503
 20
12.56226036088665
 30
0.0
 10
6.834648865679129
 20
12.51474847443647
 30
0.0
 10
6.830113828742057
 20
12.46668819094876
 30
0.0
 10
6.82507108444226
 20
12.41832161795347
 30
0.0
 10
6.819664561654041
 20
12.37149900391518
 30
0.0
 10
6.814189777913679
 20
12.32861691138385
 30
0.0
 10
6.808676656089266
 20
12.28946166017363
 30
0.0
 10
6.803157890132775
 20
12.25381799574928
 30
0.0
 10
6.79751938488281
 20
12.22074891077843
 30
0.0
 10
6.791778240121316
 20
12.19025405884516
 30
0.0
 10
6.786095458259286
 20
12.16302343557912
 30
0.0
 10
6.780501676370841
 20
12.13887501916698
 30
0.0
 10
6.775038233210662
 20
12.11762125689552
 30
0.0
 10
6.769517030735036
 20
12.09840291324764
 30
0.0
 10
6.763992685734888
 20
12.08135318738461
 30
0.0
 10
6.758479458674973
 20
12.06642094894618
 30
0.0
 10
6.752997683407228
 20
12.05354824090148
 30
0.0
 10
6.747380775208932
 20
12.04233341477547
 30
0.0
 10
6.741600964390402
 20
12.03284742293723
 30
0.0
 10
6.734922953354624
 20
12.0242720452935
 30
0.0
 10
6.728209515756542
 20
12.01850176032441
 30
0.0
 10
6.721657645564332
 20
12.01569784428023
 30
0.0
 10
6.718484524472997
 20
12.01543415941396
 30
0.0
 10
6.716947470312041
 20
12.01530643093805
 30
0.0
  0
SPLINE
  5
65D
330
1F
100
AcDbEntity
  8
0
  6
Continuous
 62
     8
370
    15
100
AcDbSpline
210
0.0
220
0.0
230
1.0
 70
     8
 71
     3
 72
    34
 73
    30
 74
     0
 42
0.0000000001
 43
0.0000000001
 40
0.0
 40
0.0
 40
0.0
 40
0.0
 40
0.0038546188402837
 40
0.0079926825188798
 40
0.0117501741552336
 40
0.0159829765991094
 40
0.023276851843599
 40
0.0319065556552768
 40
0.0719221667993824
 40
0.1131980745325631
 40
0.1524290047944367
 40
0.1753433464788187
 40
0.2000292712225357
 40
0.2264908086086256
 40
0.2547311136330567
 40
0.3021329331166203
 40
0.3542588396852051
 40
0.4057267310454388
 40
0.4557513188328347
 40
0.5094596975221093
 40
0.5781969137865737
 40
0.6509114234564211
 40
0.7209663872653949
 40
0.7918913015431272
 40
0.8357949795476592
 40
0.8835911379085429
 40
0.9203231608560583
 40
0.9643106955326883
 40
1.0
 40
1.0
 40
1.0
 40
1.0
 10
6.656947490103599
 20
12.01530643093805
 30
0.0
 10
6.65524786004559
 20
12.01546041880577
 30
0.0
 10
6.65172361964308
 20
12.01577971785696
 30
0.0
 10
6.64697370868349
 20
12.01803666198524
 30
0.0
 10
6.642634625813838
 20
12.02114392456394
 30
0.0
 10
6.637779766231787
 20
12.02581800139899
 30
0.0
 10
6.632302602245087
 20
12.03281323773034
 30
0.0
 10
6.619554782510303
 20
12.0538646402082
 30
0.0
 10
6.605905099712432
 20
12.09127037974882
 30
0.0
 10
6.592166478328285
 20
12.14231528070143
 30
0.0
 10
6.5827300307949
 20
12.18676537659924
 30
0.0
 10
6.575759166350302
 20
12.22424199280868
 30
0.0
 10
6.570341179567737
 20
12.25630506074217
 30
0.0
 10
6.565034154895761
 20
12.2907527886247
 30
0.0
 10
6.55879359890237
 20
12.3351433813528
 30
0.0
 10
6.551847550380367
 20
12.39080724667759
 30
0.0
 10
6.544704730313123
 20
12.4567134698045
 30
0.0
 10
6.538368890216702
 20
12.52385769255844
 30
0.0
 10
6.532752847308205
 20
12.59176223349764
 30
0.0
 10
6.527292876253582
 20
12.66728286546569
 30
0.0
 10
6.522044056000724
 20
12.75280109825874
 30
0.0
 10
6.517380111672355
 20
12.84553921627689
 30
0.0
 10
6.513613528802593
 20
12.93927857471491
 30
0.0
 10
6.511100795252697
 20
13.02040630460007
 30
0.0
 10
6.509397186362707
 20
13.09177971174703
 30
0.0
 10
6.50835770307962
 20
13.14815323297884
 30
0.0
 10
6.507609384832334
 20
13.20456752998665
 30
0.0
 10
6.507126972820955
 20
13.2556700253601
 30
0.0
 10
6.507056657886032
 20
13.29064886312407
 30
0.0
 10
6.507025162019127
 20
13.30631678374296
 30
0.0
  0
DIMENSION
  5
65F
330
1F
100
AcDbEntity
  8
0
  6
Continuous
 62
     7
370
     0
100
AcDbDimension
  2
*D2
 10
8.246869703999998
 20
14.2834404603
 30
0.0
 11
8.246869703999998
 21
12.4564240126
 31
0.0
 70
   160
 71
     2
 42
-1.0
  3
SLDDIMSTYLE2
100
AcDbAlignedDimension
 13
7.5369474599
 23
10.3134404603
 33
0.0
 14
7.6169474599
 24
14.2834404603
 34
0.0
 50
90.0
100
AcDbRotatedDimension
  0
LINE
  5
672
330
1F
100
AcDbEntity
  8
0
  6
Continuous
 62
     7
370
    15
100
AcDbLine
 10
11.5957640507
 20
8.967665554499998
 30
0.0
 11
11.545764055
 21
8.967665554499998
 31
0.0
  0
LINE
  5
673
330
1F
100
AcDbEntity
  8
0
  6
Continuous
 62
     7
370
    15
100
AcDbLine
 10
11.5957640507
 20
8.807665555299998
 30
0.0
 11
11.5957640507
 21
8.967665554499998
 31
0.0
  0
ARC
  5
674
330
1F
100
AcDbEntity
  8
0
  6
Continuous
 62
     7
370
    15
100
AcDbCircle
 10
11.6857640414
 20
8.807665553899997
 30
0.0
 40
0.0899999999999999
100
AcDbArc
 50
180.0
 51
359.9999999998999
  0
LINE
  5
675
330
1F
100
AcDbEntity
  8
0
  6
Continuous
 62
     7
370
    15
100
AcDbLine
 10
11.775764028
 20
8.967665554499998
 30
0.0
 11
11.775764028
 21
8.807665555299998
 31
0.0
  0
LINE
  5
676
330
1F
100
AcDbEntity
  8
0
  6
Continuous
 62
     7
370
    15
100
AcDbLine
 10
12.6557640372
 20
8.967665554499998
 30
0.0
 11
11.775764028
 21
8.967665554499998
 31
0.0
  0
LINE
  5
677
330
1F
100
AcDbEntity
  8
0
  6
Continuous
 62
     7
370
    15
100
AcDbLine
 10
12.6557640372
 20
2.967665764499998
 30
0.0
 11
12.6557640372
 21
8.967665554499998
 31
0.0
  0
LINE
  5
678
330
1F
100
AcDbEntity
  8
0
  6
Continuous
 62
     7
370
    15
100
AcDbLine
 10
11.775764028
 20
2.967665764499998
 30
0.0
 11
12.6557640372
 21
2.967665764499998
 31
0.0
  0
LINE
  5
679
330
1F
100
AcDbEntity
  8
0
  6
Continuous
 62
     7
370
    15
100
AcDbLine
 10
11.775764028
 20
3.127665516199998
 30
0.0
 11
11.775764028
 21
2.967665764499998
 31
0.0
  0
ARC
  5
67A
330
1F
100
AcDbEntity
  8
0
  6
Continuous
 62
     7
370
    15
100
AcDbCircle
 10
11.6857640414
 20
3.1276655539
 30
0.0
 40
0.0899999999999999
100
AcDbArc
 50
0.0000000001
 51
179.9999999999
  0
LINE
  5
67B
330
1F
100
AcDbEntity
  8
0
  6
Continuous
 62
     7
370
    15
100
AcDbLine
 10
11.5957640507
 20
2.967665764499998
 30
0.0
 11
11.5957640507
 21
3.127665516199998
 31
0.0
  0
LINE
  5
67C
330
1F
100
AcDbEntity
  8
0
  6
Continuous
 62
     7
370
    15
100
AcDbLine
 10
11.5957640507
 20
2.967665764499998
 30
0.0
 11
11.545764055
 21
2.967665764499998
 31
0.0
  0
ARC
  5
67D
330
1F
100
AcDbEntity
  8
0
  6
Continuous
 62
     7
370
    15
100
AcDbCircle
 10
11.5457640414
 20
2.987665553899998
 30
0.0
 40
0.02
100
AcDbArc
 50
180.0000000003
 51
270.0
  0
LINE
  5
67E
330
1F
100
AcDbEntity
  8
0
  6
Continuous
 62
     7
370
    15
100
AcDbLine
 10
11.5257640127
 20
8.947665557999998
 30
0.0
 11
11.5257640127
 21
2.9876655868
 31
0.0
  0
ARC
  5
67F
330
1F
100
AcDbEntity
  8
0
  6
Continuous
 62
     7
370
    15
100
AcDbCircle
 10
11.5457640414
 20
8.9476655539
 30
0.0
 40
0.0199999999999996
100
AcDbArc
 50
90.0
 51
180.0000000002
  0
LINE
  5
680
330
1F
100
AcDbEntity
  8
0
  6
Continuous
 62
     7
370
    15
100
AcDbLine
 10
11.7157640111
 20
2.9688713506
 30
0.0
 11
11.6557640309
 21
2.9688713506
 31
0.0
  0
LINE
  5
681
330
1F
100
AcDbEntity
  8
0
  6
Continuous
 62
     7
370
    15
100
AcDbLine
 10
11.6557640309
 20
8.966459821799999
 30
0.0
 11
11.7157640111
 21
8.966459821799999
 31
0.0
  0
SPLINE
  5
682
330
1F
100
AcDbEntity
  8
0
  6
Continuous
 62
     7
370
    15
100
AcDbSpline
210
0.0
220
0.0
230
1.0
 70
     8
 71
     3
 72
     9
 73
     5
 74
     0
 42
0.0000000001
 43
0.0000000001
 40
0.0
 40
0.0
 40
0.0
 40
0.0
 40
0.4999976587285709
 40
1.0
 40
1.0
 40
1.0
 40
1.0
 10
11.65576407075907
 20
2.967665346696972
 30
0.0
 10
11.65576420197451
 20
2.967715829198795
 30
0.0
 10
11.65576446440661
 20
2.967816794675218
 30
0.0
 10
11.65576418242315
 20
2.968519651958096
 30
0.0
 10
11.65576404143075
 20
2.968871082245115
 30
0.0
  0
SPLINE
  5
683
330
1F
100
AcDbEntity
  8
0
  6
Continuous
 62
     7
370
    15
100
AcDbSpline
210
0.0
220
0.0
230
1.0
 70
    24
 71
     3
 72
    13
 73
     9
 74
     0
 42
0.0000000001
 43
0.0000000001
 40
0.0
 40
0.0
 40
0.0
 40
0.0
 40
0.2257929787238112
 40
0.4822206678903063
 40
0.6298013488618418
 40
0.7927900233723594
 40
0.9725975071310351
 40
1.0
 40
1.0
 40
1.0
 40
1.0
 10
11.65576410425928
 20
2.967665764503788
 30
0.0
 10
11.65019324585201
 20
2.967665764503788
 30
0.0
 10
11.63829569670298
 20
2.967665764503788
 30
0.0
 10
11.62513007285425
 20
2.96766576450379
 30
0.0
 10
11.61493096302791
 20
2.967665764503788
 30
0.0
 10
11.60704463500477
 20
2.967665764503785
 30
0.0
 10
11.60150847209995
 20
2.967665764503795
 30
0.0
 10
11.5987847518295
 20
2.967665764503788
 30
0.0
 10
11.59842455331733
 20
2.967665764503788
 30
0.0
  0
SPLINE
  5
684
330
1F
100
AcDbEntity
  8
0
  6
Continuous
 62
     7
370
    15
100
AcDbSpline
210
0.0
220
0.0
230
1.0
 70
    24
 71
     3
 72
     9
 73
     5
 74
     0
 42
0.0000000001
 43
0.0000000001
 40
0.0
 40
0.0
 40
0.0
 40
0.0
 40
0.3720107442318579
 40
1.0
 40
1.0
 40
1.0
 40
1.0
 10
11.54310347905777
 20
2.967665764503788
 30
0.0
 10
11.54106059890269
 20
2.967665764503788
 30
0.0
 10
11.53556914418868
 20
2.967665764503788
 30
0.0
 10
11.53118056758487
 20
2.967665764503788
 30
0.0
 10
11.52842458862956
 20
2.967665764503788
 30
0.0
  0
SPLINE
  5
685
330
1F
100
AcDbEntity
  8
0
  6
Continuous
 62
     7
370
    15
100
AcDbSpline
210
0.0
220
0.0
230
1.0
 70
     8
 71
     3
 72
     9
 73
     5
 74
     0
 42
0.0000000001
 43
0.0000000001
 40
0.0
 40
0.0
 40
0.0
 40
0.0
 40
0.4999976587289366
 40
1.0
 40
1.0
 40
1.0
 40
1.0
 10
11.71576401196647
 20
8.967665761041908
 30
0.0
 10
11.71576388075103
 20
8.96761527854008
 30
0.0
 10
11.71576361831891
 20
8.967514313063649
 30
0.0
 10
11.71576390030239
 20
8.96681145578076
 30
0.0
 10
11.71576404129479
 20
8.966460025493738
 30
0.0
  0
SPLINE
  5
686
330
1F
100
AcDbEntity
  8
0
  6
Continuous
 62
     7
370
    15
100
AcDbSpline
210
0.0
220
0.0
230
1.0
 70
    24
 71
     3
 72
    13
 73
     9
 74
     0
 42
0.0000000001
 43
0.0000000001
 40
0.0
 40
0.0
 40
0.0
 40
0.0
 40
0.2257922105693189
 40
0.482220132687858
 40
0.6298013122629646
 40
0.7927898067656624
 40
0.9725977494434427
 40
1.0
 40
1.0
 40
1.0
 40
1.0
 10
11.71576401113524
 20
8.967665554494216
 30
0.0
 10
11.72133484549222
 20
8.967665554494216
 30
0.0
 10
11.73323237054868
 20
8.967665554494216
 30
0.0
 10
11.74639795886038
 20
8.967665554494216
 30
0.0
 10
11.75659712364244
 20
8.967665554494216
 30
0.0
 10
11.7644833761419
 20
8.967665554494216
 30
0.0
 10
11.77001965422368
 20
8.967665554494216
 30
0.0
 10
11.77274330321977
 20
8.967665554494216
 30
0.0
 10
11.7731034887447
 20
8.967665554494216
 30
0.0
  0
SPLINE
  5
687
330
1F
100
AcDbEntity
  8
0
  6
Continuous
 62
     7
370
    15
100
AcDbSpline
210
0.0
220
0.0
230
1.0
 70
     8
 71
     3
 72
     9
 73
     5
 74
     0
 42
0.0000000001
 43
0.0000000001
 40
0.0
 40
0.0
 40
0.0
 40
0.0
 40
0.5000015831890467
 40
1.0
 40
1.0
 40
1.0
 40
1.0
 10
11.65576404137302
 20
8.966459862350443
 30
0.0
 10
11.65576404334355
 20
8.966811264755945
 30
0.0
 10
11.65576404728458
 20
8.967514067341614
 30
0.0
 10
11.65576405228456
 20
8.967615115673886
 30
0.0
 10
11.65576405478454
 20
8.967665639680047
 30
0.0
  0
SPLINE
  5
688
330
1F
100
AcDbEntity
  8
0
  6
Continuous
 62
     7
370
    15
100
AcDbSpline
210
0.0
220
0.0
230
1.0
 70
    24
 71
     3
 72
     9
 73
     5
 74
     0
 42
0.0000000001
 43
0.0000000001
 40
0.0
 40
0.0
 40
0.0
 40
0.0
 40
0.5146361432764475
 40
1.0
 40
1.0
 40
1.0
 40
1.0
 10
11.52842458862956
 20
8.967665554494216
 30
0.0
 10
11.53075255565884
 20
8.967665554494216
 30
0.0
 10
11.53527607593562
 20
8.967665554494216
 30
0.0
 10
11.54054576328308
 20
8.967665554494216
 30
0.0
 10
11.54310347905777
 20
8.967665554494216
 30
0.0
  0
SPLINE
  5
689
330
1F
100
AcDbEntity
  8
0
  6
Continuous
 62
     7
370
    15
100
AcDbSpline
210
0.0
220
0.0
230
1.0
 70
    24
 71
     3
 72
    12
 73
     8
 74
     0
 42
0.0000000001
 43
0.0000000001
 40
0.0
 40
0.0
 40
0.0
 40
0.0
 40
0.1490288196670973
 40
0.4176457247784945
 40
0.7084202093033727
 40
0.8544594706410745
 40
1.0
 40
1.0
 40
1.0
 40
1.0
 10
11.59842455331733
 20
8.967665554494216
 30
0.0
 10
11.60041729791982
 20
8.967665554494216
 30
0.0
 10
11.60600186381561
 20
8.967665554494216
 30
0.0
 10
11.61764785360156
 20
8.967665554494216
 30
0.0
 10
11.63144256004671
 20
8.967665554494216
 30
0.0
 10
11.64493065607725
 20
8.967665554494216
 30
0.0
 10
11.65215702608623
 20
8.967665554494216
 30
0.0
 10
11.65576403092679
 20
8.967665554494216
 30
0.0
  0
SPLINE
  5
68A
330
1F
100
AcDbEntity
  8
0
  6
Continuous
 62
     7
370
    15
100
AcDbSpline
210
0.0
220
0.0
230
1.0
 70
     8
 71
     3
 72
     9
 73
     5
 74
     0
 42
0.0000000001
 43
0.0000000001
 40
0.0
 40
0.0
 40
0.0
 40
0.0
 40
0.5000015831892028
 40
1.0
 40
1.0
 40
1.0
 40
1.0
 10
11.71576404135251
 20
2.968871245388352
 30
0.0
 10
11.71576403938199
 20
2.968519842982841
 30
0.0
 10
11.71576403544096
 20
2.967817040397156
 30
0.0
 10
11.71576403044098
 20
2.967715992064866
 30
0.0
 10
11.71576402794099
 20
2.967665468058701
 30
0.0
  0
SPLINE
  5
68B
330
1F
100
AcDbEntity
  8
0
  6
Continuous
 62
     7
370
    15
100
AcDbSpline
210
0.0
220
0.0
230
1.0
 70
    24
 71
     3
 72
    12
 73
     8
 74
     0
 42
0.0000000001
 43
0.0000000001
 40
0.0
 40
0.0
 40
0.0
 40
0.0
 40
0.1490285167923552
 40
0.4176450452795004
 40
0.7084202652744339
 40
0.8544594985787375
 40
1.0
 40
1.0
 40
1.0
 40
1.0
 10
11.7731034887447
 20
2.967665764503788
 30
0.0
 10
11.77111075666479
 20
2.967665764503788
 30
0.0
 10
11.76552622359918
 20
2.967665764503788
 30
0.0
 10
11.75388025586161
 20
2.96766576450379
 30
0.0
 10
11.74008549462886
 20
2.967665764503788
 30
0.0
 10
11.72659738699161
 20
2.967665764503788
 30
0.0
 10
11.71937101631101
 20
2.96766576450379
 30
0.0
 10
11.71576401113524
 20
2.967665764503788
 30
0.0
  0
LINE
  5
68C
330
1F
100
AcDbEntity
  8
0
  6
Continuous
 62
     7
370
    15
100
AcDbLine
 10
11.7157640111
 20
2.967665764499998
 30
0.0
 11
11.6557640309
 21
2.967665764499998
 31
0.0
  0
LINE
  5
68D
330
1F
100
AcDbEntity
  8
0
  6
Continuous
 62
     7
370
    15
100
AcDbLine
 10
11.6557640309
 20
8.967665554499998
 30
0.0
 11
11.7157640111
 21
8.967665554499998
 31
0.0
  0
LINE
  5
692
330
1F
100
AcDbEntity
  8
0
  6
Continuous
 62
     7
370
    15
100
AcDbLine
 10
11.5257640127
 20
8.967665554499998
 30
0.0
 11
11.5257640127
 21
2.967665764499998
 31
0.0
  0
SPLINE
  5
694
330
1F
100
AcDbEntity
  8
0
  6
Continuous
 62
     8
370
    15
100
AcDbSpline
210
0.0
220
0.0
230
1.0
 70
     8
 71
     3
 72
    18
 73
    14
 74
     0
 42
0.0000000001
 43
0.0000000001
 40
0.0
 40
0.0
 40
0.0
 40
0.0
 40
0.0665590317770532
 40
0.2194611590446586
 40
0.3575609981990097
 40
0.4777711507675518
 40
0.5846302903776372
 40
0.6784480959029626
 40
0.765376582148181
 40
0.8389530791945418
 40
0.919854406363418
 40
0.9598236974724674
 40
1.0
 40
1.0
 40
1.0
 40
1.0
 10
11.77576402800992
 20
2.975465994394868
 30
0.0
 10
11.77504901980979
 20
2.975297898728761
 30
0.0
 10
11.7726914655585
 20
2.97474364683042
 30
0.0
 10
11.76831608832638
 20
2.973846753499287
 30
0.0
 10
11.76281313525791
 20
2.972825466882761
 30
0.0
 10
11.75729516389908
 20
2.971932130683138
 30
0.0
 10
11.75181463463737
 20
2.971160064476606
 30
0.0
 10
11.74619672322182
 20
2.970489495337925
 30
0.0
 10
11.74041940991253
 20
2.969921488095018
 30
0.0
 10
11.73393614041859
 20
2.969423850526926
 30
0.0
 10
11.72747901443402
 20
2.969083202852535
 30
0.0
 10
11.72102604662552
 20
2.968905957288228
 30
0.0
 10
11.71752104070764
 20
2.968882905993964
 30
0.0
 10
11.71576401113524
 20
2.968871350576756
 30
0.0
  0
LINE
  5
695
330
1F
100
AcDbEntity
  8
0
  6
Continuous
 62
     8
370
    15
100
AcDbLine
 10
11.7157640111
 20
3.212518242599998
 30
0.0
 11
11.7157640111
 21
2.9688713506
 31
0.0
  0
LINE
  5
696
330
1F
100
AcDbEntity
  8
0
  6
Continuous
 62
     8
370
    15
100
AcDbLine
 10
11.6557640309
 20
2.9688713506
 30
0.0
 11
11.6557640309
 21
3.212518242599998
 31
0.0
  0
SPLINE
  5
697
330
1F
100
AcDbEntity
  8
0
  6
Continuous
 62
     8
370
    15
100
AcDbSpline
210
0.0
220
0.0
230
1.0
 70
     8
 71
     3
 72
    15
 73
    11
 74
     0
 42
0.0000000001
 43
0.0000000001
 40
0.0
 40
0.0
 40
0.0
 40
0.0
 40
0.0384657941676531
 40
0.079743364549993
 40
0.1172318434593997
 40
0.1594633952705325
 40
0.2322353094732773
 40
0.318334947731307
 40
0.7175756827929185
 40
1.0
 40
1.0
 40
1.0
 40
1.0
 10
11.65576403092679
 20
2.968871350576756
 30
0.0
 10
11.65406408574621
 20
2.968880888338338
 30
0.0
 10
11.65053993263345
 20
2.968900661053686
 30
0.0
 10
11.64578992624921
 20
2.969034354970301
 30
0.0
 10
11.64145120845787
 20
2.969220852982689
 30
0.0
 10
11.63659647452378
 20
2.969500104097392
 30
0.0
 10
11.63111773489376
 20
2.969918432032126
 30
0.0
 10
11.61838741197687
 20
2.971181932846088
 30
0.0
 10
11.60641701516731
 20
2.97309267132706
 30
0.0
 10
11.59888477407242
 20
2.974830059933271
 30
0.0
 10
11.59576405071835
 20
2.975549886759068
 30
0.0
  0
LINE
  5
698
330
1F
100
AcDbEntity
  8
0
  6
Continuous
 62
     8
370
    15
100
AcDbLine
 10
11.7157640111
 20
8.966459821799999
 30
0.0
 11
11.7157640111
 21
8.722812737199999
 31
0.0
  0
SPLINE
  5
699
330
1F
100
AcDbEntity
  8
0
  6
Continuous
 62
     8
370
    15
100
AcDbSpline
210
0.0
220
0.0
230
1.0
 70
     8
 71
     3
 72
    15
 73
    11
 74
     0
 42
0.0000000001
 43
0.0000000001
 40
0.0
 40
0.0
 40
0.0
 40
0.0
 40
0.0384579790503047
 40
0.0797439201133039
 40
0.1172328497896695
 40
0.1594640104972937
 40
0.2322358494185901
 40
0.3183354048224699
 40
0.717575796370991
 40
1.0
 40
1.0
 40
1.0
 40
1.0
 10
11.71576401113524
 20
8.966459821756275
 30
0.0
 10
11.71746364194858
 20
8.966450307365873
 30
0.0
 10
11.7209878839173
 20
8.966430578955616
 30
0.0
 10
11.72573778285639
 20
8.9662967524969
 30
0.0
 10
11.73007690973532
 20
8.966110147066876
 30
0.0
 10
11.7349315429173
 20
8.965830661672306
 30
0.0
 10
11.74041031129369
 20
8.965412402022652
 30
0.0
 10
11.75314071739088
 20
8.964150069399281
 30
0.0
 10
11.7651110544799
 20
8.962238615828022
 30
0.0
 10
11.77264330140339
 20
8.960501081360114
 30
0.0
 10
11.77576402800992
 20
8.959781193908355
 30
0.0
  0
LINE
  5
69A
330
1F
100
AcDbEntity
  8
0
  6
Continuous
 62
     8
370
    15
100
AcDbLine
 10
11.6557640309
 20
8.722812737199999
 30
0.0
 11
11.6557640309
 21
8.966459821799999
 31
0.0
  0
SPLINE
  5
69B
330
1F
100
AcDbEntity
  8
0
  6
Continuous
 62
     8
370
    15
100
AcDbSpline
210
0.0
220
0.0
230
1.0
 70
     8
 71
     3
 72
    18
 73
    14
 74
     0
 42
0.0000000001
 43
0.0000000001
 40
0.0
 40
0.0
 40
0.0
 40
0.0
 40
0.066561953988407
 40
0.2194701772367124
 40
0.3575757646163271
 40
0.4777911245712028
 40
0.5846543884672003
 40
0.6784761399386492
 40
0.7654079809432304
 40
0.8389876004796633
 40
0.9274521693508123
 40
0.9648579610554032
 40
1.0
 40
1.0
 40
1.0
 40
1.0
 10
11.59576405071835
 20
8.959864847941977
 30
0.0
 10
11.59647905832263
 20
8.960033121005244
 30
0.0
 10
11.59883660398099
 20
8.960587956264827
 30
0.0
 10
11.60321199676927
 20
8.961483842456916
 30
0.0
 10
11.6087149503425
 20
8.962505401910537
 30
0.0
 10
11.61423290080939
 20
8.963399563880857
 30
0.0
 10
11.61971362839092
 20
8.96417067309809
 30
0.0
 10
11.62533077029281
 20
8.964841994091907
 30
0.0
 10
11.63111052736683
 20
8.965409248125267
 30
0.0
 10
11.63778855085125
 20
8.965923620339447
 30
0.0
 10
11.64450198515224
 20
8.966267990747828
 30
0.0
 10
11.65105385572328
 20
8.966434873285747
 30
0.0
 10
11.65422697678176
 20
8.966451680413678
 30
0.0
 10
11.65576403092679
 20
8.966459821756275
 30
0.0
  0
DIMENSION
  5
69C
330
1F
100
AcDbEntity
  8
0
  6
Continuous
 62
     7
370
     0
100
AcDbDimension
  2
*D3
 10
13.5550810769
 20
3.127665553899999
 30
0.0
 11
13.5550810769
 21
6.0800548474
 31
0.0
 70
   160
 71
     2
 42
5.679999999999997
  3
SLDDIMSTYLE2
100
AcDbAlignedDimension
 13
11.8757640414
 23
8.807665553899997
 33
0.0
 14
11.8757640414
 24
3.1276655539
 34
0.0
 50
90.0
100
AcDbRotatedDimension
  0
DIMENSION
  5
6AE
330
1F
100
AcDbEntity
  8
0
  6
Continuous
 62
     7
370
     0
100
AcDbDimension
  2
*D4
 10
13.98732066023333
 20
2.967665553899998
 30
0.0
 11
13.5550810769
 21
2.664386422199998
 31
0.0
 70
   160
 71
     2
 42
0.1600000000000015
  3
SLDDIMSTYLE3
100
AcDbAlignedDimension
 13
11.8757640414
 23
3.1276655539
 33
0.0
 14
12.6557640414
 24
2.967665553899998
 34
0.0
 50
90.0
100
AcDbRotatedDimension
  0
DIMENSION
  5
6C2
330
1F
100
AcDbEntity
  8
0
  6
Continuous
 62
     7
370
     0
100
AcDbDimension
  2
*D5
 10
13.12284149356667
 20
8.967665553899998
 30
0.0
 11
13.5550810769
 21
9.3455415308
 31
0.0
 70
   160
 71
     2
 42
0.1600000000000019
  3
SLDDIMSTYLE3
100
AcDbAlignedDimension
 13
11.8757640414
 23
8.807665553899997
 33
0.0
 14
12.6557640414
 24
8.967665553899998
 34
0.0
 50
90.0
100
AcDbRotatedDimension
  0
DIMENSION
  5
6D5
330
1F
100
AcDbEntity
  8
0
  6
Continuous
 62
     7
370
     0
100
AcDbDimension
  2
*D6
 10
11.6857640414
 20
9.7442344241
 30
0.0
 11
13.588086876
 21
9.7442344241
 31
0.0
 70
   160
 71
     2
 42
0.9699999999999988
  3
SLDDIMSTYLE2
100
AcDbAlignedDimension
 13
12.6557640414
 23
8.967665553899998
 33
0.0
 14
11.6857640414
 24
8.997665553899997
 34
0.0
100
AcDbRotatedDimension
  0
INSERT
  5
6F4
330
1F
100
AcDbEntity
  8
0
  6
Continuous
 62
     7
370
     0
100
AcDbBlockReference
  2
SW_CENTERMARKSYMBOL_0
 10
11.6857640414
 20
8.807665553899997
 30
0.0
  0
INSERT
  5
700
330
1F
100
AcDbEntity
  8
0
  6
Continuous
 62
     7
370
     0
100
AcDbBlockReference
  2
SW_CENTERMARKSYMBOL_1
 10
11.6857640414
 20
3.1276655539
 30
0.0
  0
CIRCLE
  5
701
330
1F
100
AcDbEntity
  8
0
  6
Continuous
 62
     7
370
     0
100
AcDbCircle
 10
11.6857640414
 20
8.807665553899997
 30
0.0
 40
0.4855539921648975
  0
LEADER
  5
706
330
1F
100
AcDbEntity
  8
0
  6
Continuous
 62
     7
370
     0
100
AcDbLeader
  3
SLDDIMSTYLE4
 71
     0
 76
     2
 10
10.9254986491
 20
10.6547568927
 30
0.0
 10
11.5009521483
 20
9.256672506499999
 30
0.0
  0
CIRCLE
  5
707
330
1F
100
AcDbEntity
  8
0
  6
Continuous
 62
     7
370
     0
100
AcDbCircle
 10
10.5558748773
 20
11.5527708453
 30
0.0
 40
0.9711079835131631
  0
LINE
  5
708
330
1F
100
AcDbEntity
  8
0
  6
Continuous
 62
     7
370
    15
100
AcDbLine
 10
10.37587487839999
 20
11.872770872
 30
0.0
 11
10.2758749053
 21
11.872770872
 31
0.0
  0
LINE
  5
709
330
1F
100
AcDbEntity
  8
0
  6
Continuous
 62
     7
370
    15
100
AcDbLine
 10
10.37587487839999
 20
11.552770782
 30
0.0
 11
10.37587487839999
 21
11.872770872
 31
0.0
  0
ARC
  5
70A
330
1F
100
AcDbEntity
  8
0
  6
Continuous
 62
     7
370
    15
100
AcDbCircle
 10
10.5558748557
 20
11.5527705987
 30
0.0
 40
0.1799999772916624
100
AcDbArc
 50
179.9999416439
 51
0.0000583561
  0
LINE
  5
70B
330
1F
100
AcDbEntity
  8
0
  6
Continuous
 62
     7
370
    15
100
AcDbLine
 10
10.735874833
 20
11.872770872
 30
0.0
 11
10.735874833
 21
11.552770782
 31
0.0
  0
LINE
  5
70C
330
1F
100
AcDbEntity
  8
0
  6
Continuous
 62
     7
370
    15
100
AcDbLine
 10
11.4727449356
 20
11.872770872
 30
0.0
 11
10.735874833
 21
11.872770872
 31
0.0
  0
LINE
  5
70D
330
1F
100
AcDbEntity
  8
0
  6
Continuous
 62
     7
370
    15
100
AcDbLine
 10
10.23587482069999
 20
11.8327706408
 30
0.0
 11
10.23587482069999
 21
10.6359008671
 31
0.0
  0
ARC
  5
70E
330
1F
100
AcDbEntity
  8
0
  6
Continuous
 62
     7
370
    15
100
AcDbCircle
 10
10.2758746246
 20
11.8327710681
 30
0.0
 40
0.0399998039395795
100
AcDbArc
 50
89.99959800370001
 51
180.0006120776
  0
LINE
  5
70F
330
1F
100
AcDbEntity
  8
0
  6
Continuous
 62
     7
370
    15
100
AcDbLine
 10
10.4958748388
 20
11.8703591132
 30
0.0
 11
10.6158748027
 21
11.8703591132
 31
0.0
  0
LINE
  5
710
330
1F
100
AcDbEntity
  8
0
  6
Continuous
 62
     7
370
    15
100
AcDbLine
 10
10.6158748027
 20
11.872770872
 30
0.0
 11
10.6158748027
 21
11.8703591132
 31
0.0
  0
LINE
  5
711
330
1F
100
AcDbEntity
  8
0
  6
Continuous
 62
     7
370
    15
100
AcDbLine
 10
10.6158748027
 20
11.872770872
 30
0.0
 11
10.7305537545
 21
11.872770872
 31
0.0
  0
LINE
  5
712
330
1F
100
AcDbEntity
  8
0
  6
Continuous
 62
     7
370
    15
100
AcDbLine
 10
10.4958748388
 20
11.8703591132
 30
0.0
 11
10.4958748388
 21
11.872770872
 31
0.0
  0
LINE
  5
713
330
1F
100
AcDbEntity
  8
0
  6
Continuous
 62
     7
370
    15
100
AcDbLine
 10
10.2411959726
 20
11.872770872
 30
0.0
 11
10.2705537534
 21
11.872770872
 31
0.0
  0
LINE
  5
714
330
1F
100
AcDbEntity
  8
0
  6
Continuous
 62
     7
370
    15
100
AcDbLine
 10
10.3811958836
 20
11.872770872
 30
0.0
 11
10.4958748388
 21
11.872770872
 31
0.0
  0
LINE
  5
715
330
1F
100
AcDbEntity
  8
0
  6
Continuous
 62
     7
370
    15
100
AcDbLine
 10
10.4958748388
 20
11.872770872
 30
0.0
 11
10.6158748027
 21
11.872770872
 31
0.0
  0
LINE
  5
716
330
1F
100
AcDbEntity
  8
0
  6
Continuous
 62
     7
370
    15
100
AcDbLine
 10
10.23587482069999
 20
11.872770872
 30
0.0
 11
10.23587482069999
 21
10.6359008671
 31
0.0
  0
LINE
  5
718
330
1F
100
AcDbEntity
  8
0
  6
Continuous
 62
     8
370
    15
100
AcDbLine
 10
10.6158748027
 20
11.8703591132
 30
0.0
 11
10.6158748027
 21
11.3830653292
 31
0.0
  0
SPLINE
  5
719
330
1F
100
AcDbEntity
  8
0
  6
Continuous
 62
     8
370
    15
100
AcDbSpline
210
0.0
220
0.0
230
1.0
 70
     8
 71
     3
 72
    15
 73
    11
 74
     0
 42
0.0000000001
 43
0.0000000001
 40
0.0
 40
0.0
 40
0.0
 40
0.0
 40
0.0831542727914618
 40
0.1657627731931871
 40
0.2326831009983521
 40
0.2997673545998113
 40
0.3994041938079873
 40
0.4988461716590197
 40
0.8326449318082936
 40
1.0
 40
1.0
 40
1.0
 40
1.0
 10
10.61587480266914
 20
11.87035911323613
 30
0.0
 10
10.61922875822594
 20
11.87034142874831
 30
0.0
 10
10.62591465608299
 20
11.87030617584253
 30
0.0
 10
10.63529692218523
 20
11.87005194567968
 30
0.0
 10
10.64402622381026
 20
11.86968385927253
 30
0.0
 10
10.65343489847919
 20
11.86914959985419
 30
0.0
 10
10.66414224431252
 20
11.86835477489832
 30
0.0
 10
10.68553139530553
 20
11.86626519949442
 30
0.0
 10
10.70958070103313
 20
11.86299736053609
 30
0.0
 10
10.72929233831567
 20
11.85850291413811
 30
0.0
 10
10.73587483298105
 20
11.8570020408715
 30
0.0
  0
LINE
  5
71A
330
1F
100
AcDbEntity
  8
0
  6
Continuous
 62
     8
370
    15
100
AcDbLine
 10
10.4958748388
 20
11.3830653292
 30
0.0
 11
10.4958748388
 21
11.8703591132
 31
0.0
  0
SPLINE
  5
71B
330
1F
100
AcDbEntity
  8
0
  6
Continuous
 62
     8
370
    15
100
AcDbSpline
210
0.0
220
0.0
230
1.0
 70
     8
 71
     3
 72
    18
 73
    14
 74
     0
 42
0.0000000001
 43
0.0000000001
 40
0.0
 40
0.0
 40
0.0
 40
0.0
 40
0.0369151897434759
 40
0.130551023781728
 40
0.2246265108675796
 40
0.3163562486075756
 40
0.4084266350267409
 40
0.5007365532248127
 40
0.6001570443670376
 40
0.6998088345819405
 40
0.8494308725168624
 40
0.9246223228118459
 40
1.0
 40
1.0
 40
1.0
 40
1.0
 10
10.37587487839791
 20
11.85716923894002
 30
0.0
 10
10.37732405187774
 20
11.85750982954046
 30
0.0
 10
10.38244907176103
 20
11.85871433239923
 30
0.0
 10
10.39132865635266
 20
11.86051314558459
 30
0.0
 10
10.40240984352321
 20
11.86256171736462
 30
0.0
 10
10.41347469182867
 20
11.86433821279223
 30
0.0
 10
10.42450299156166
 20
11.86587601185195
 30
0.0
 10
10.4358693318102
 20
11.86721767816575
 30
0.0
 10
10.44756613554762
 20
11.86834548341751
 30
0.0
 10
10.46158896271613
 20
11.86939802563011
 30
0.0
 10
10.47466104136128
 20
11.87001594894905
 30
0.0
 10
10.48676335277489
 20
11.87031232891087
 30
0.0
 10
10.4928351735519
 20
11.87034350560772
 30
0.0
 10
10.4958748388148
 20
11.87035911323613
 30
0.0
  0
INSERT
  5
721
330
1F
100
AcDbEntity
  8
0
  6
Continuous
 62
     7
370
     0
100
AcDbBlockReference
  2
SW_NOTE_0
 10
9.841612090599998
 20
10.2745879976
 30
0.0
  0
INSERT
  5
727
330
1F
100
AcDbEntity
  8
0
  6
Continuous
 62
     7
370
     0
100
AcDbBlockReference
  2
SW_NOTE_1
 10
14.3052591133
 20
11.2253595918
 30
0.0
  0
INSERT
  5
730
102
{ACAD_REACTORS
330
731
102
}
330
1F
100
AcDbEntity
  8
0
  6
Continuous
 62
     7
370
     0
100
AcDbBlockReference
  2
SW_NOTE_2
 10
11.46203591819999
 20
10.5931610778
 30
0.0
  0
LEADER
  5
731
330
1F
100
AcDbEntity
  8
0
  6
Continuous
 62
     7
370
     0
100
AcDbLeader
  3
SLDDIMSTYLE5
 73
     2
 76
     3
 10
10.65672131
 20
11.4036735339
 30
0.0
 10
11.2120359182
 20
10.5931610778
 30
0.0
 10
11.46203591819999
 20
10.5931610778
 30
0.0
340
730
  0
INSERT
  5
73D
330
1F
100
AcDbEntity
  8
0
  6
Continuous
 62
     7
370
     0
100
AcDbBlockReference
  2
SW_CENTERMARKSYMBOL_2
 10
10.5558748649
 20
11.552770782
 30
0.0
  0
ARC
  5
B57
330
1F
100
AcDbEntity
  8
0
  6
Continuous
 62
     7
370
    15
100
AcDbCircle
 10
7.042060469133559
 20
5.919561376838575
 30
0.0
 40
0.0600000000000005
100
AcDbArc
 50
80.00000000000595
 51
180.0
  0
LINE
  5
B58
330
1F
100
AcDbEntity
  8
0
  6
Continuous
 62
     7
370
    15
100
AcDbLine
 10
7.052479325201656
 20
5.978649827172777
 30
0.0
 11
7.243479358752969
 21
5.944971406228771
 31
0.0
  0
LINE
  5
B59
330
1F
100
AcDbEntity
  8
0
  6
Continuous
 62
     7
370
    15
100
AcDbLine
 10
7.29306040598848
 20
5.885882912157428
 30
0.0
 11
7.29306040598848
 21
5.43023979578559
 31
0.0
  0
ARC
  5
B5A
330
1F
100
AcDbEntity
  8
0
  6
Continuous
 62
     7
370
    15
100
AcDbCircle
 10
7.233060469133559
 20
5.430239830153876
 30
0.0
 40
0.0600000000000005
100
AcDbArc
 50
279.9999999999958
 51
0.0
  0
LINE
  5
B5B
330
1F
100
AcDbEntity
  8
0
  6
Continuous
 62
     7
370
    15
100
AcDbLine
 10
7.243479358752969
 20
5.371151338380495
 30
0.0
 11
7.052479325201656
 21
5.33747288077024
 31
0.0
  0
ARC
  5
B5C
330
1F
100
AcDbEntity
  8
0
  6
Continuous
 62
     7
370
    15
100
AcDbCircle
 10
7.042060469133559
 20
5.396561376838575
 30
0.0
 40
0.0600000000000005
100
AcDbArc
 50
180.0
 51
279.9999999999942
  0
LINE
  5
B5D
330
1F
100
AcDbEntity
  8
0
  6
Continuous
 62
     7
370
    15
100
AcDbLine
 10
6.982060485352769
 20
5.396561411507827
 30
0.0
 11
6.982060485352769
 21
5.91956136976768
 31
0.0
  0
ARC
  5
B5E
330
1F
100
AcDbEntity
  8
0
  6
Continuous
 62
     7
370
    15
100
AcDbCircle
 10
7.059560469133558
 20
5.828061376838575
 30
0.0
 40
0.0225
100
AcDbArc
 50
90.0
 51
270.0000000000008
  0
ARC
  5
B5F
330
1F
100
AcDbEntity
  8
0
  6
Continuous
 62
     7
370
    15
100
AcDbCircle
 10
7.059560469133558
 20
5.828061376838575
 30
0.0
 40
0.0225
100
AcDbArc
 50
270.0000000000008
 51
90.0
  0
ARC
  5
B60
330
1F
100
AcDbEntity
  8
0
  6
Continuous
 62
     7
370
    15
100
AcDbCircle
 10
7.059560469133558
 20
5.738061376838575
 30
0.0
 40
0.0225
100
AcDbArc
 50
90.0
 51
270.0000000000008
  0
ARC
  5
B61
330
1F
100
AcDbEntity
  8
0
  6
Continuous
 62
     7
370
    15
100
AcDbCircle
 10
7.059560469133558
 20
5.738061376838575
 30
0.0
 40
0.0225
100
AcDbArc
 50
270.0000000000008
 51
90.0
  0
ARC
  5
B62
330
1F
100
AcDbEntity
  8
0
  6
Continuous
 62
     7
370
    15
100
AcDbCircle
 10
7.059560469133558
 20
5.648061376838575
 30
0.0
 40
0.0225
100
AcDbArc
 50
90.0
 51
270.0000000000008
  0
ARC
  5
B63
330
1F
100
AcDbEntity
  8
0
  6
Continuous
 62
     7
370
    15
100
AcDbCircle
 10
7.059560469133558
 20
5.648061376838575
 30
0.0
 40
0.0225
100
AcDbArc
 50
270.0000000000008
 51
90.0
  0
ARC
  5
B64
330
1F
100
AcDbEntity
  8
0
  6
Continuous
 62
     7
370
    15
100
AcDbCircle
 10
7.059560469133558
 20
5.558061376838575
 30
0.0
 40
0.0225
100
AcDbArc
 50
90.0
 51
270.0000000000008
  0
ARC
  5
B65
330
1F
100
AcDbEntity
  8
0
  6
Continuous
 62
     7
370
    15
100
AcDbCircle
 10
7.059560469133558
 20
5.558061376838575
 30
0.0
 40
0.0225
100
AcDbArc
 50
270.0000000000008
 51
90.0
  0
ARC
  5
B66
330
1F
100
AcDbEntity
  8
0
  6
Continuous
 62
     7
370
    15
100
AcDbCircle
 10
7.137560469133559
 20
5.693061376838575
 30
0.0
 40
0.0225000000000009
100
AcDbArc
 50
270.0000000000008
 51
90.0
  0
ARC
  5
B67
330
1F
100
AcDbEntity
  8
0
  6
Continuous
 62
     7
370
    15
100
AcDbCircle
 10
7.137560469133559
 20
5.603061376838575
 30
0.0
 40
0.0225
100
AcDbArc
 50
90.0
 51
270.0000000000008
  0
ARC
  5
B68
330
1F
100
AcDbEntity
  8
0
  6
Continuous
 62
     7
370
    15
100
AcDbCircle
 10
7.137560469133559
 20
5.513061376838575
 30
0.0
 40
0.0225000000000009
100
AcDbArc
 50
90.0
 51
270.0000000000008
  0
ARC
  5
B69
330
1F
100
AcDbEntity
  8
0
  6
Continuous
 62
     7
370
    15
100
AcDbCircle
 10
7.137560469133559
 20
5.513061376838575
 30
0.0
 40
0.0225000000000009
100
AcDbArc
 50
270.0000000000008
 51
90.0
  0
ARC
  5
B6A
330
1F
100
AcDbEntity
  8
0
  6
Continuous
 62
     7
370
    15
100
AcDbCircle
 10
7.215560469133559
 20
5.834061376838575
 30
0.0
 40
0.0225
100
AcDbArc
 50
90.0
 51
270.0000000000008
  0
ARC
  5
B6B
330
1F
100
AcDbEntity
  8
0
  6
Continuous
 62
     7
370
    15
100
AcDbCircle
 10
7.215560469133559
 20
5.834061376838575
 30
0.0
 40
0.0225
100
AcDbArc
 50
270.0000000000008
 51
90.0
  0
ARC
  5
B6C
330
1F
100
AcDbEntity
  8
0
  6
Continuous
 62
     7
370
    15
100
AcDbCircle
 10
7.215560469133559
 20
5.744061376838575
 30
0.0
 40
0.0225
100
AcDbArc
 50
90.0
 51
270.0000000000008
  0
ARC
  5
B6D
330
1F
100
AcDbEntity
  8
0
  6
Continuous
 62
     7
370
    15
100
AcDbCircle
 10
7.215560469133559
 20
5.744061376838575
 30
0.0
 40
0.0225
100
AcDbArc
 50
270.0000000000008
 51
90.0
  0
ARC
  5
B6E
330
1F
100
AcDbEntity
  8
0
  6
Continuous
 62
     7
370
    15
100
AcDbCircle
 10
7.215560469133559
 20
5.654061376838575
 30
0.0
 40
0.0225
100
AcDbArc
 50
90.0
 51
270.0000000000008
  0
ARC
  5
B6F
330
1F
100
AcDbEntity
  8
0
  6
Continuous
 62
     7
370
    15
100
AcDbCircle
 10
7.215560469133559
 20
5.654061376838575
 30
0.0
 40
0.0225
100
AcDbArc
 50
270.0000000000008
 51
90.0
  0
ARC
  5
B70
330
1F
100
AcDbEntity
  8
0
  6
Continuous
 62
     7
370
    15
100
AcDbCircle
 10
7.215560469133559
 20
5.564061376838576
 30
0.0
 40
0.0225
100
AcDbArc
 50
90.0
 51
270.0000000000008
  0
ARC
  5
B71
330
1F
100
AcDbEntity
  8
0
  6
Continuous
 62
     7
370
    15
100
AcDbCircle
 10
7.215560469133559
 20
5.564061376838576
 30
0.0
 40
0.0225
100
AcDbArc
 50
270.0000000000008
 51
90.0
  0
ARC
  5
B72
330
1F
100
AcDbEntity
  8
0
  6
Continuous
 62
     7
370
    15
100
AcDbCircle
 10
7.215560469133559
 20
5.474061376838575
 30
0.0
 40
0.0225
100
AcDbArc
 50
90.0
 51
270.0000000000008
  0
ARC
  5
B73
330
1F
100
AcDbEntity
  8
0
  6
Continuous
 62
     7
370
    15
100
AcDbCircle
 10
7.215560469133559
 20
5.474061376838575
 30
0.0
 40
0.0225
100
AcDbArc
 50
270.0000000000008
 51
90.0
  0
ARC
  5
B74
330
1F
100
AcDbEntity
  8
0
  6
Continuous
 62
     7
370
    15
100
AcDbCircle
 10
7.137560469133559
 20
5.603061376838575
 30
0.0
 40
0.0225
100
AcDbArc
 50
270.0000000000008
 51
90.0
  0
ARC
  5
B75
330
1F
100
AcDbEntity
  8
0
  6
Continuous
 62
     7
370
    15
100
AcDbCircle
 10
7.059560469133558
 20
5.468061376838575
 30
0.0
 40
0.0225
100
AcDbArc
 50
270.0000000000008
 51
90.0
  0
ARC
  5
B76
330
1F
100
AcDbEntity
  8
0
  6
Continuous
 62
     7
370
    15
100
AcDbCircle
 10
7.233060469133559
 20
5.885882923523254
 30
0.0
 40
0.0600000000000005
100
AcDbArc
 50
0.0
 51
80.0000000000073
  0
ARC
  5
B77
330
1F
100
AcDbEntity
  8
0
  6
Continuous
 62
     7
370
    15
100
AcDbCircle
 10
7.137560469133559
 20
5.783061376838575
 30
0.0
 40
0.0225
100
AcDbArc
 50
90.0
 51
270.0000000000008
  0
ARC
  5
B78
330
1F
100
AcDbEntity
  8
0
  6
Continuous
 62
     7
370
    15
100
AcDbCircle
 10
7.137560469133559
 20
5.873061376838575
 30
0.0
 40
0.0225000000000009
100
AcDbArc
 50
90.0
 51
270.0000000000008
  0
ARC
  5
B79
330
1F
100
AcDbEntity
  8
0
  6
Continuous
 62
     7
370
    15
100
AcDbCircle
 10
7.137560469133559
 20
5.873061376838575
 30
0.0
 40
0.0225000000000009
100
AcDbArc
 50
270.0000000000008
 51
90.0
  0
ARC
  5
B7A
330
1F
100
AcDbEntity
  8
0
  6
Continuous
 62
     7
370
    15
100
AcDbCircle
 10
7.137560469133559
 20
5.693061376838575
 30
0.0
 40
0.0225000000000009
100
AcDbArc
 50
90.0
 51
270.0000000000008
  0
ARC
  5
B7B
330
1F
100
AcDbEntity
  8
0
  6
Continuous
 62
     7
370
    15
100
AcDbCircle
 10
7.137560469133559
 20
5.783061376838575
 30
0.0
 40
0.0225
100
AcDbArc
 50
270.0000000000008
 51
90.0
  0
ARC
  5
B7C
330
1F
100
AcDbEntity
  8
0
  6
Continuous
 62
     7
370
    15
100
AcDbCircle
 10
7.059560469133558
 20
5.468061376838575
 30
0.0
 40
0.0225
100
AcDbArc
 50
90.0
 51
270.0000000000008
  0
LINE
  5
B7D
330
1F
100
AcDbEntity
  8
0
  6
Continuous
 62
     7
370
    15
100
AcDbLine
 10
6.89156049748302
 20
6.26906137731377
 30
0.0
 11
7.383560467190718
 21
6.26906137731377
 31
0.0
  0
LINE
  5
B7E
330
1F
100
AcDbEntity
  8
0
  6
Continuous
 62
     7
370
    15
100
AcDbLine
 10
7.383560467190718
 20
5.047061348962373
 30
0.0
 11
6.89156049748302
 21
5.047061348962373
 31
0.0
  0
ARC
  5
B7F
330
1F
100
AcDbEntity
  8
0
  6
Continuous
 62
     7
370
    15
100
AcDbCircle
 10
7.137560469133559
 20
5.166061376838576
 30
0.0
 40
0.0445000000000002
100
AcDbArc
 50
270.0000000000008
 51
90.0
  0
LINE
  5
B80
330
1F
100
AcDbEntity
  8
0
  6
Continuous
 62
     7
370
    15
100
AcDbLine
 10
6.89156049748302
 20
5.047061348962373
 30
0.0
 11
6.89156049748302
 21
6.26906137731377
 31
0.0
  0
ARC
  5
B81
330
1F
100
AcDbEntity
  8
0
  6
Continuous
 62
     7
370
    15
100
AcDbCircle
 10
7.137560469133559
 20
5.166061376838576
 30
0.0
 40
0.0445000000000002
100
AcDbArc
 50
90.0
 51
270.0000000000008
  0
ARC
  5
B82
330
1F
100
AcDbEntity
  8
0
  6
Continuous
 62
     7
370
    15
100
AcDbCircle
 10
7.137560469133559
 20
6.150061376838575
 30
0.0
 40
0.0445000000000011
100
AcDbArc
 50
270.0000000000008
 51
90.0
  0
ARC
  5
B83
330
1F
100
AcDbEntity
  8
0
  6
Continuous
 62
     7
370
    15
100
AcDbCircle
 10
7.137560469133559
 20
6.150061376838575
 30
0.0
 40
0.0445000000000011
100
AcDbArc
 50
90.0
 51
270.0000000000008
  0
LINE
  5
B84
330
1F
100
AcDbEntity
  8
0
  6
Continuous
 62
     7
370
    15
100
AcDbLine
 10
7.383560467190718
 20
6.26906137731377
 30
0.0
 11
7.383560467190718
 21
5.047061348962373
 31
0.0
  0
LINE
  5
B85
330
1F
100
AcDbEntity
  8
0
  6
Continuous
 62
     7
370
    15
100
AcDbLine
 10
7.228810458856862
 20
5.110491421166707
 30
0.0
 11
7.140060477437557
 21
5.059251519761086
 31
0.0
  0
LINE
  5
B86
330
1F
100
AcDbEntity
  8
0
  6
Continuous
 62
     7
370
    15
100
AcDbLine
 10
7.137560462984602
 20
5.063581656405646
 30
0.0
 11
7.226310481070153
 21
5.114821557811264
 31
0.0
  0
LINE
  5
B87
330
1F
100
AcDbEntity
  8
0
  6
Continuous
 62
     7
370
    15
100
AcDbLine
 10
7.048810463232173
 20
5.114821557811264
 30
0.0
 11
7.137560462984602
 21
5.063581656405646
 31
0.0
  0
LINE
  5
B88
330
1F
100
AcDbEntity
  8
0
  6
Continuous
 62
     7
370
    15
100
AcDbLine
 10
7.135060466864771
 20
5.059251519761086
 30
0.0
 11
7.046310467112339
 21
5.110491421166707
 31
0.0
  0
ARC
  5
B89
330
1F
100
AcDbEntity
  8
0
  6
Continuous
 62
     7
370
    15
100
AcDbCircle
 10
7.137827141362192
 20
5.06422180732143
 30
0.0
 40
0.0053091375136495
100
AcDbArc
 50
240.9617739972471
 51
294.0380771663754
  0
LWPOLYLINE
  5
B8A
330
1F
100
AcDbEntity
  8
0
  6
Continuous
 62
     7
370
    15
100
AcDbPolyline
 90
        3
 70
   128
 43
0.0
 10
7.135249958009085
 20
5.059579755969273
 10
7.135108499643224
 20
5.059334825465398
 10
7.135060466864771
 20
5.059251519761086
  0
LINE
  5
B8B
330
1F
100
AcDbEntity
  8
0
  6
Continuous
 62
     7
370
    15
100
AcDbLine
 10
7.140060477437557
 20
5.059251519761086
 30
0.0
 11
7.140016532945206
 21
5.059327638881751
 31
0.0
  0
LWPOLYLINE
  5
B8C
330
1F
100
AcDbEntity
  8
0
  6
Continuous
 62
     7
370
    15
100
AcDbPolyline
 90
        8
 70
   128
 43
0.0
 10
7.137560462984602
 20
5.063581656405646
 10
7.137072746952072
 20
5.062736866164736
 10
7.136603767369765
 20
5.061924635547691
 10
7.136171545696159
 20
5.061176057528662
 10
7.135792710072503
 20
5.060519878442232
 10
7.135481798664175
 20
5.059981324663652
 10
7.135250764666433
 20
5.059581222618998
 10
7.135249958009085
 20
5.059579755969273
  0
LWPOLYLINE
  5
B8D
330
1F
100
AcDbEntity
  8
0
  6
Continuous
 62
     7
370
    15
100
AcDbPolyline
 90
        9
 70
   128
 43
0.0
 10
7.140016532945206
 20
5.059327638881751
 10
7.14001242632598
 20
5.059334825465398
 10
7.139870161302771
 20
5.059581222618998
 10
7.139639145638148
 20
5.059981324663652
 10
7.139328234229825
 20
5.060519878442232
 10
7.138949398606166
 20
5.061176057528662
 10
7.138517176932562
 20
5.061924635547691
 10
7.138048197350252
 20
5.062736866164736
 10
7.137560462984602
 20
5.063581656405646
  0
ARC
  5
B8E
330
1F
100
AcDbEntity
  8
0
  6
Continuous
 62
     7
370
    15
100
AcDbCircle
 10
7.137827300512206
 20
5.267899607380751
 30
0.0
 40
0.005310401267373
100
AcDbArc
 50
65.97118378994847
 51
119.0326202183267
  0
ARC
  5
B8F
330
1F
100
AcDbEntity
  8
0
  6
Continuous
 62
     7
370
    15
100
AcDbCircle
 10
7.225888906750266
 20
5.216749776963445
 30
0.0
 40
0.0053097614173399
100
AcDbArc
 50
5.967477315295871
 51
59.0354307203665
  0
ARC
  5
B90
330
1F
100
AcDbEntity
  8
0
  6
Continuous
 62
     7
370
    15
100
AcDbCircle
 10
7.049231992121492
 20
5.115372990059179
 30
0.0
 40
0.0053097339733028
100
AcDbArc
 50
185.967456777386
 51
239.0358247334495
  0
ARC
  5
B91
330
1F
100
AcDbEntity
  8
0
  6
Continuous
 62
     7
370
    15
100
AcDbCircle
 10
7.225622139115009
 20
5.114910905203763
 30
0.0
 40
0.0053097736860707
100
AcDbArc
 50
305.9676471995453
 51
359.0358402417161
  0
ARC
  5
B92
330
1F
100
AcDbEntity
  8
0
  6
Continuous
 62
     7
370
    15
100
AcDbCircle
 10
7.049498603838143
 20
5.217211982937224
 30
0.0
 40
0.0053095612431499
100
AcDbArc
 50
125.9666262250423
 51
179.0370576172864
  0
ARC
  5
B93
330
1F
100
AcDbEntity
  8
0
  6
Continuous
 62
     7
370
    15
100
AcDbCircle
 10
7.227499285721536
 20
5.114900141881007
 30
0.0
 40
0.003671462922804
100
AcDbArc
 50
319.6047273124798
 51
358.7643889131462
  0
LINE
  5
B94
330
1F
100
AcDbEntity
  8
0
  6
Continuous
 62
     7
370
    15
100
AcDbLine
 10
7.228713109981443
 20
5.221224795298653
 30
0.0
 11
7.228620821047575
 21
5.22130282106396
 31
0.0
  0
ARC
  5
B95
330
1F
100
AcDbEntity
  8
0
  6
Continuous
 62
     7
370
    15
100
AcDbCircle
 10
7.048283634038496
 20
5.113752240419212
 30
0.0
 40
0.0036708302991322
100
AcDbArc
 50
199.6005010883909
 51
238.7667805584643
  0
LINE
  5
B96
330
1F
100
AcDbEntity
  8
0
  6
Continuous
 62
     7
370
    15
100
AcDbLine
 10
7.140016551278326
 20
5.272795132887044
 30
0.0
 11
7.140060477437557
 21
5.272871105342741
 31
0.0
  0
LWPOLYLINE
  5
B97
330
1F
100
AcDbEntity
  8
0
  6
Continuous
 62
     7
370
    15
100
AcDbPolyline
 90
        4
 70
   128
 43
0.0
 10
7.135060466864771
 20
5.272871105342741
 10
7.135108499643224
 20
5.272787946303398
 10
7.135250764666433
 20
5.272541549149799
 10
7.135250251339031
 20
5.272542429139634
  0
LINE
  5
B98
330
1F
100
AcDbEntity
  8
0
  6
Continuous
 62
     7
370
    15
100
AcDbLine
 10
7.231222620991362
 20
5.217301213957531
 30
0.0
 11
7.231310473309815
 21
5.217301213957531
 31
0.0
  0
LWPOLYLINE
  5
B99
330
1F
100
AcDbEntity
  8
0
  6
Continuous
 62
     7
370
    15
100
AcDbPolyline
 90
        4
 70
   128
 43
0.0
 10
7.228810458856862
 20
5.22163135060209
 10
7.228762426078407
 20
5.221548191562751
 10
7.228620161055199
 20
5.221301794409153
 10
7.228620674382601
 20
5.221302674398986
  0
LINE
  5
B9A
330
1F
100
AcDbEntity
  8
0
  6
Continuous
 62
     7
370
    15
100
AcDbLine
 10
7.043898304977845
 20
5.114821557811264
 30
0.0
 11
7.043810470992509
 21
5.114821557811264
 31
0.0
  0
LWPOLYLINE
  5
B9B
330
1F
100
AcDbEntity
  8
0
  6
Continuous
 62
     7
370
    15
100
AcDbPolyline
 90
        4
 70
   128
 43
0.0
 10
7.046310467112339
 20
5.110491421166707
 10
7.046358499890795
 20
5.110574580206044
 10
7.046500764914005
 20
5.110820977359646
 10
7.046500251586603
 20
5.110820097369809
  0
LINE
  5
B9C
330
1F
100
AcDbEntity
  8
0
  6
Continuous
 62
     7
370
    15
100
AcDbLine
 10
7.137560462984602
 20
5.116561444378614
 30
0.0
 11
7.137560462984602
 21
5.121561399952033
 31
0.0
  0
ARC
  5
B9D
330
1F
100
AcDbEntity
  8
0
  6
Continuous
 62
     7
370
    15
100
AcDbCircle
 10
7.137560469133559
 20
5.166061376838576
 30
0.0
 40
0.04949999999962
100
AcDbArc
 50
90.00000000001232
 51
270.000000000012
  0
LINE
  5
B9E
330
1F
100
AcDbEntity
  8
0
  6
Continuous
 62
     7
370
    15
100
AcDbLine
 10
7.137560462984602
 20
5.210561371816764
 30
0.0
 11
7.137560462984602
 21
5.215561327390183
 31
0.0
  0
ARC
  5
B9F
330
1F
100
AcDbEntity
  8
0
  6
Continuous
 62
     7
370
    15
100
AcDbCircle
 10
7.137560469133559
 20
5.166061376838576
 30
0.0
 40
0.044500000000383
100
AcDbArc
 50
90.00000000001255
 51
270.0000000000236
  0
ARC
  5
BA0
330
1F
100
AcDbEntity
  8
0
  6
Continuous
 62
     7
370
    15
100
AcDbCircle
 10
7.137560469133559
 20
5.166061376838576
 30
0.0
 40
0.04949999999962
100
AcDbArc
 50
270.000000000012
 51
90.00000000001232
  0
ARC
  5
BA1
330
1F
100
AcDbEntity
  8
0
  6
Continuous
 62
     7
370
    15
100
AcDbCircle
 10
7.137560469133559
 20
5.166061376838576
 30
0.0
 40
0.044500000000383
100
AcDbArc
 50
270.0000000000008
 51
90.00000000001255
  0
LINE
  5
BA2
330
1F
100
AcDbEntity
  8
0
  6
Continuous
 62
     7
370
    15
100
AcDbLine
 10
7.228766532697637
 20
5.110567540287371
 30
0.0
 11
7.228810458856862
 21
5.110491421166707
 31
0.0
  0
LINE
  5
BA3
330
1F
100
AcDbEntity
  8
0
  6
Continuous
 62
     7
370
    15
100
AcDbLine
 10
7.231310473309815
 20
5.114821557811264
 30
0.0
 11
7.230929877706488
 21
5.114821557811264
 31
0.0
  0
LINE
  5
BA4
330
1F
100
AcDbEntity
  8
0
  6
Continuous
 62
     7
370
    15
100
AcDbLine
 10
7.048810463232173
 20
5.217301213957531
 30
0.0
 11
7.048810463232173
 21
5.114821557811264
 31
0.0
  0
LINE
  5
BA5
330
1F
100
AcDbEntity
  8
0
  6
Continuous
 62
     7
370
    15
100
AcDbLine
 10
7.137560462984602
 20
5.268541115363152
 30
0.0
 11
7.048810463232173
 21
5.217301213957531
 31
0.0
  0
LINE
  5
BA6
330
1F
100
AcDbEntity
  8
0
  6
Continuous
 62
     7
370
    15
100
AcDbLine
 10
7.226310481070153
 20
5.217301213957531
 30
0.0
 11
7.137560462984602
 21
5.268541115363152
 31
0.0
  0
LINE
  5
BA7
330
1F
100
AcDbEntity
  8
0
  6
Continuous
 62
     7
370
    15
100
AcDbLine
 10
7.226310481070153
 20
5.114821557811264
 30
0.0
 11
7.226310481070153
 21
5.217301213957531
 31
0.0
  0
LINE
  5
BA8
330
1F
100
AcDbEntity
  8
0
  6
Continuous
 62
     7
370
    15
100
AcDbLine
 10
7.046354393271568
 20
5.221555231481424
 30
0.0
 11
7.046310467112339
 21
5.22163135060209
 31
0.0
  0
LINE
  5
BA9
330
1F
100
AcDbEntity
  8
0
  6
Continuous
 62
     7
370
    15
100
AcDbLine
 10
7.043810470992509
 20
5.217301213957531
 30
0.0
 11
7.044191075762396
 21
5.217301213957531
 31
0.0
  0
LINE
  5
BAA
330
1F
100
AcDbEntity
  8
0
  6
Continuous
 62
     7
370
    15
100
AcDbLine
 10
7.046310467112339
 20
5.22163135060209
 30
0.0
 11
7.135060466864771
 21
5.272871105342741
 31
0.0
  0
LINE
  5
BAB
330
1F
100
AcDbEntity
  8
0
  6
Continuous
 62
     7
370
    15
100
AcDbLine
 10
7.231310473309815
 20
5.217301213957531
 30
0.0
 11
7.231310473309815
 21
5.114821557811264
 31
0.0
  0
LINE
  5
BAC
330
1F
100
AcDbEntity
  8
0
  6
Continuous
 62
     7
370
    15
100
AcDbLine
 10
7.043810470992509
 20
5.114821557811264
 30
0.0
 11
7.043810470992509
 21
5.217301213957531
 31
0.0
  0
LINE
  5
BAD
330
1F
100
AcDbEntity
  8
0
  6
Continuous
 62
     7
370
    15
100
AcDbLine
 10
7.140060477437557
 20
5.272871105342741
 30
0.0
 11
7.228810458856862
 21
5.22163135060209
 31
0.0
  0
LWPOLYLINE
  5
BAE
330
1F
100
AcDbEntity
  8
0
  6
Continuous
 62
     7
370
    15
100
AcDbPolyline
 90
        9
 70
   128
 43
0.0
 10
7.137560462984602
 20
5.268541115363152
 10
7.138048197350252
 20
5.26938575893909
 10
7.138517176932562
 20
5.270198136221106
 10
7.138949398606166
 20
5.270946714240134
 10
7.139328234229825
 20
5.271602893326566
 10
7.139639145638148
 20
5.272141447105146
 10
7.139870161302771
 20
5.272541549149799
 10
7.14001242632598
 20
5.272787946303398
 10
7.140016551278326
 20
5.272795132887044
  0
LWPOLYLINE
  5
BAF
330
1F
100
AcDbEntity
  8
0
  6
Continuous
 62
     7
370
    15
100
AcDbPolyline
 90
        7
 70
   128
 43
0.0
 10
7.135250251339031
 20
5.272542429139634
 10
7.135481798664175
 20
5.272141447105146
 10
7.135792710072503
 20
5.271602893326566
 10
7.136171545696159
 20
5.270946714240134
 10
7.136603767369765
 20
5.270198136221106
 10
7.137072746952072
 20
5.26938575893909
 10
7.137560462984602
 20
5.268541115363152
  0
LINE
  5
BB0
330
1F
100
AcDbEntity
  8
0
  6
Continuous
 62
     7
370
    15
100
AcDbLine
 10
7.226310481070153
 20
5.217301213957531
 30
0.0
 11
7.231222620991362
 21
5.217301213957531
 31
0.0
  0
LWPOLYLINE
  5
BB1
330
1F
100
AcDbEntity
  8
0
  6
Continuous
 62
     7
370
    15
100
AcDbPolyline
 90
        7
 70
   128
 43
0.0
 10
7.228620674382601
 20
5.221302674398986
 10
7.228389127057456
 20
5.220901545699526
 10
7.228078233982254
 20
5.220363138585919
 10
7.227699398358596
 20
5.219706959499488
 10
7.227267176684992
 20
5.218958234815487
 10
7.226798178769561
 20
5.218146004198445
 10
7.226310481070153
 20
5.217301213957531
  0
LINE
  5
BB2
330
1F
100
AcDbEntity
  8
0
  6
Continuous
 62
     7
370
    15
100
AcDbLine
 10
7.048810463232173
 20
5.114821557811264
 30
0.0
 11
7.043898304977845
 21
5.114821557811264
 31
0.0
  0
LWPOLYLINE
  5
BB3
330
1F
100
AcDbEntity
  8
0
  6
Continuous
 62
     7
370
    15
100
AcDbPolyline
 90
        7
 70
   128
 43
0.0
 10
7.046500251586603
 20
5.110820097369809
 10
7.046731798911746
 20
5.111221226069271
 10
7.04704271032007
 20
5.111759633182879
 10
7.04742154594373
 20
5.112415812269309
 10
7.047853767617334
 20
5.113164536953311
 10
7.048322747199642
 20
5.113976767570355
 10
7.048810463232173
 20
5.114821557811264
  0
LWPOLYLINE
  5
BB4
330
1F
100
AcDbEntity
  8
0
  6
Continuous
 62
     7
370
    15
100
AcDbPolyline
 90
        9
 70
   128
 43
0.0
 10
7.226310481070153
 20
5.114821557811264
 10
7.226798178769561
 20
5.113976767570355
 10
7.227267176684992
 20
5.113164536953311
 10
7.227699398358596
 20
5.112415812269309
 10
7.228078233982254
 20
5.111759633182879
 10
7.228389127057456
 20
5.111221226069271
 10
7.228620161055199
 20
5.110820977359646
 10
7.228762426078407
 20
5.110574580206044
 10
7.228766532697637
 20
5.110567540287371
  0
LINE
  5
BB5
330
1F
100
AcDbEntity
  8
0
  6
Continuous
 62
     7
370
    15
100
AcDbLine
 10
7.230930904361295
 20
5.114821557811264
 30
0.0
 11
7.226310481070153
 21
5.114821557811264
 31
0.0
  0
LWPOLYLINE
  5
BB6
330
1F
100
AcDbEntity
  8
0
  6
Continuous
 62
     7
370
    15
100
AcDbPolyline
 90
        9
 70
   128
 43
0.0
 10
7.048810463232173
 20
5.217301213957531
 10
7.048322747199642
 20
5.218146004198445
 10
7.047853767617334
 20
5.218958234815487
 10
7.04742154594373
 20
5.219706959499488
 10
7.04704271032007
 20
5.220363138585919
 10
7.046731798911746
 20
5.220901545699526
 10
7.046500764914005
 20
5.221301794409153
 10
7.046358499890795
 20
5.221548191562751
 10
7.046354393271568
 20
5.221555231481424
  0
LINE
  5
BB7
330
1F
100
AcDbEntity
  8
0
  6
Continuous
 62
     7
370
    15
100
AcDbLine
 10
7.044190049107591
 20
5.217301213957531
 30
0.0
 11
7.048810463232173
 21
5.217301213957531
 31
0.0
  0
ARC
  5
BB8
330
1F
100
AcDbEntity
  8
0
  6
Continuous
 62
     7
370
    15
100
AcDbCircle
 10
7.137560469133559
 20
5.166061376838576
 30
0.0
 40
0.0445000000000002
100
AcDbArc
 50
270.0000000000122
 51
90.00000000001255
  0
ARC
  5
BB9
330
1F
100
AcDbEntity
  8
0
  6
Continuous
 62
     7
370
    15
100
AcDbCircle
 10
7.137560469133559
 20
5.166061376838576
 30
0.0
 40
0.0445000000000002
100
AcDbArc
 50
90.00000000001255
 51
270.0000000000122
  0
ARC
  5
BBA
330
1F
100
AcDbEntity
  8
0
  6
Continuous
 62
     7
370
    15
100
AcDbCircle
 10
7.137560469133559
 20
6.150061376838575
 30
0.0
 40
0.0445000000000002
100
AcDbArc
 50
90.00000000001255
 51
270.0000000000122
  0
ARC
  5
BBB
330
1F
100
AcDbEntity
  8
0
  6
Continuous
 62
     7
370
    15
100
AcDbCircle
 10
7.137560469133559
 20
6.150061376838575
 30
0.0
 40
0.0445000000000002
100
AcDbArc
 50
270.0000000000122
 51
90.00000000001255
  0
LINE
  5
BBC
330
1F
100
AcDbEntity
  8
0
  6
Continuous
 62
     7
370
    15
100
AcDbLine
 10
7.043810470992509
 20
6.098821557811266
 30
0.0
 11
7.043810470992509
 21
6.201301213957531
 31
0.0
  0
LINE
  5
BBD
330
1F
100
AcDbEntity
  8
0
  6
Continuous
 62
     7
370
    15
100
AcDbLine
 10
7.231310473309815
 20
6.201301213957531
 30
0.0
 11
7.231310473309815
 21
6.098821557811266
 31
0.0
  0
LINE
  5
BBE
330
1F
100
AcDbEntity
  8
0
  6
Continuous
 62
     7
370
    15
100
AcDbLine
 10
7.226310481070153
 20
6.098821557811266
 30
0.0
 11
7.226310481070153
 21
6.201301213957531
 31
0.0
  0
LINE
  5
BBF
330
1F
100
AcDbEntity
  8
0
  6
Continuous
 62
     7
370
    15
100
AcDbLine
 10
7.048810463232173
 20
6.201301213957531
 30
0.0
 11
7.048810463232173
 21
6.098821557811266
 31
0.0
  0
ARC
  5
BC0
330
1F
100
AcDbEntity
  8
0
  6
Continuous
 62
     7
370
    15
100
AcDbCircle
 10
7.137560469133559
 20
6.150061376838575
 30
0.0
 40
0.044500000000383
100
AcDbArc
 50
270.0000000000008
 51
90.00000000001255
  0
ARC
  5
BC1
330
1F
100
AcDbEntity
  8
0
  6
Continuous
 62
     7
370
    15
100
AcDbCircle
 10
7.137560469133559
 20
6.150061376838575
 30
0.0
 40
0.04949999999962
100
AcDbArc
 50
270.000000000012
 51
90.00000000001232
  0
ARC
  5
BC2
330
1F
100
AcDbEntity
  8
0
  6
Continuous
 62
     7
370
    15
100
AcDbCircle
 10
7.137560469133559
 20
6.150061376838575
 30
0.0
 40
0.044500000000383
100
AcDbArc
 50
90.00000000001255
 51
270.0000000000236
  0
ARC
  5
BC3
330
1F
100
AcDbEntity
  8
0
  6
Continuous
 62
     7
370
    15
100
AcDbCircle
 10
7.137560469133559
 20
6.150061376838575
 30
0.0
 40
0.04949999999962
100
AcDbArc
 50
90.00000000001232
 51
270.000000000012
  0
ARC
  5
BC4
330
1F
100
AcDbEntity
  8
0
  6
Continuous
 62
     7
370
    15
100
AcDbCircle
 10
7.137560469133559
 20
6.150061376838575
 30
0.0
 40
0.0445000000000002
100
AcDbArc
 50
90.0
 51
270.0000000000008
  0
ARC
  5
BC5
330
1F
100
AcDbEntity
  8
0
  6
Continuous
 62
     7
370
    15
100
AcDbCircle
 10
7.137560469133559
 20
6.150061376838575
 30
0.0
 40
0.0445000000000002
100
AcDbArc
 50
270.0000000000008
 51
90.0
  0
LINE
  5
BC6
330
1F
100
AcDbEntity
  8
0
  6
Continuous
 62
     7
370
    15
100
AcDbLine
 10
7.135060466864771
 20
6.043251519761088
 30
0.0
 11
7.046310467112339
 21
6.094491421166706
 31
0.0
  0
LINE
  5
BC7
330
1F
100
AcDbEntity
  8
0
  6
Continuous
 62
     7
370
    15
100
AcDbLine
 10
7.048810463232173
 20
6.098821557811266
 30
0.0
 11
7.137560462984602
 21
6.047581656405648
 31
0.0
  0
LWPOLYLINE
  5
BC8
330
1F
100
AcDbEntity
  8
0
  6
Continuous
 62
     7
370
    15
100
AcDbPolyline
 90
        7
 70
   128
 43
0.0
 10
7.046500251586603
 20
6.094820097369809
 10
7.046731798911746
 20
6.095221226069273
 10
7.04704271032007
 20
6.09575963318288
 10
7.04742154594373
 20
6.096415812269308
 10
7.047853767617334
 20
6.097164536953311
 10
7.048322747199642
 20
6.097976767570354
 10
7.048810463232173
 20
6.098821557811266
  0
LINE
  5
BC9
330
1F
100
AcDbEntity
  8
0
  6
Continuous
 62
     7
370
    15
100
AcDbLine
 10
7.048810463232173
 20
6.098821557811266
 30
0.0
 11
7.043898304977845
 21
6.098821557811266
 31
0.0
  0
LWPOLYLINE
  5
BCA
330
1F
100
AcDbEntity
  8
0
  6
Continuous
 62
     7
370
    15
100
AcDbPolyline
 90
        4
 70
   128
 43
0.0
 10
7.046310467112339
 20
6.094491421166706
 10
7.046358499890795
 20
6.094574580206046
 10
7.046500764914005
 20
6.094820977359646
 10
7.046500251586603
 20
6.094820097369809
  0
LINE
  5
BCB
330
1F
100
AcDbEntity
  8
0
  6
Continuous
 62
     7
370
    15
100
AcDbLine
 10
7.043898304977845
 20
6.098821557811266
 30
0.0
 11
7.043810470992509
 21
6.098821557811266
 31
0.0
  0
ARC
  5
BCC
330
1F
100
AcDbEntity
  8
0
  6
Continuous
 62
     7
370
    15
100
AcDbCircle
 10
7.048283634038496
 20
6.097752240419211
 30
0.0
 40
0.0036708302991322
100
AcDbArc
 50
199.6005010883909
 51
238.7667805584643
  0
ARC
  5
BCD
330
1F
100
AcDbEntity
  8
0
  6
Continuous
 62
     7
370
    15
100
AcDbCircle
 10
7.049231992121492
 20
6.09937299005918
 30
0.0
 40
0.0053097339733028
100
AcDbArc
 50
185.967456777386
 51
239.0358247334495
  0
LINE
  5
BCE
330
1F
100
AcDbEntity
  8
0
  6
Continuous
 62
     7
370
    15
100
AcDbLine
 10
7.230930904361295
 20
6.098821557811266
 30
0.0
 11
7.226310481070153
 21
6.098821557811266
 31
0.0
  0
LWPOLYLINE
  5
BCF
330
1F
100
AcDbEntity
  8
0
  6
Continuous
 62
     7
370
    15
100
AcDbPolyline
 90
        9
 70
   128
 43
0.0
 10
7.226310481070153
 20
6.098821557811266
 10
7.226798178769561
 20
6.097976767570354
 10
7.227267176684992
 20
6.097164536953311
 10
7.227699398358596
 20
6.096415812269308
 10
7.228078233982254
 20
6.09575963318288
 10
7.228389127057456
 20
6.095221226069273
 10
7.228620161055199
 20
6.094820977359646
 10
7.228762426078407
 20
6.094574580206046
 10
7.228766532697637
 20
6.094567540287371
  0
LINE
  5
BD0
330
1F
100
AcDbEntity
  8
0
  6
Continuous
 62
     7
370
    15
100
AcDbLine
 10
7.231310473309815
 20
6.098821557811266
 30
0.0
 11
7.230929877706488
 21
6.098821557811266
 31
0.0
  0
LINE
  5
BD1
330
1F
100
AcDbEntity
  8
0
  6
Continuous
 62
     7
370
    15
100
AcDbLine
 10
7.228766532697637
 20
6.094567540287371
 30
0.0
 11
7.228810458856862
 21
6.094491421166706
 31
0.0
  0
LINE
  5
BD2
330
1F
100
AcDbEntity
  8
0
  6
Continuous
 62
     7
370
    15
100
AcDbLine
 10
7.137560462984602
 20
6.100561444378612
 30
0.0
 11
7.137560462984602
 21
6.105561399952032
 31
0.0
  0
ARC
  5
BD3
330
1F
100
AcDbEntity
  8
0
  6
Continuous
 62
     7
370
    15
100
AcDbCircle
 10
7.227499285721536
 20
6.098900141881007
 30
0.0
 40
0.003671462922804
100
AcDbArc
 50
319.6047273124798
 51
358.7643889131462
  0
ARC
  5
BD4
330
1F
100
AcDbEntity
  8
0
  6
Continuous
 62
     7
370
    15
100
AcDbCircle
 10
7.225622139115009
 20
6.098910905203767
 30
0.0
 40
0.0053097736860707
100
AcDbArc
 50
305.9676471995453
 51
359.0358402417161
  0
LWPOLYLINE
  5
BD5
330
1F
100
AcDbEntity
  8
0
  6
Continuous
 62
     7
370
    15
100
AcDbPolyline
 90
        9
 70
   128
 43
0.0
 10
7.140016532945206
 20
6.043327638881752
 10
7.14001242632598
 20
6.043334825465399
 10
7.139870161302771
 20
6.043581222618999
 10
7.139639145638148
 20
6.043981324663651
 10
7.139328234229825
 20
6.044519878442232
 10
7.138949398606166
 20
6.045176057528664
 10
7.138517176932562
 20
6.045924635547692
 10
7.138048197350252
 20
6.046736866164735
 10
7.137560462984602
 20
6.047581656405648
  0
LWPOLYLINE
  5
BD6
330
1F
100
AcDbEntity
  8
0
  6
Continuous
 62
     7
370
    15
100
AcDbPolyline
 90
        8
 70
   128
 43
0.0
 10
7.137560462984602
 20
6.047581656405648
 10
7.137072746952072
 20
6.046736866164735
 10
7.136603767369765
 20
6.045924635547692
 10
7.136171545696159
 20
6.045176057528664
 10
7.135792710072503
 20
6.044519878442232
 10
7.135481798664175
 20
6.043981324663651
 10
7.135250764666433
 20
6.043581222618999
 10
7.135249958009085
 20
6.043579755969274
  0
LINE
  5
BD7
330
1F
100
AcDbEntity
  8
0
  6
Continuous
 62
     7
370
    15
100
AcDbLine
 10
7.140060477437557
 20
6.043251519761088
 30
0.0
 11
7.140016532945206
 21
6.043327638881752
 31
0.0
  0
LWPOLYLINE
  5
BD8
330
1F
100
AcDbEntity
  8
0
  6
Continuous
 62
     7
370
    15
100
AcDbPolyline
 90
        3
 70
   128
 43
0.0
 10
7.135249958009085
 20
6.043579755969274
 10
7.135108499643224
 20
6.043334825465399
 10
7.135060466864771
 20
6.043251519761088
  0
ARC
  5
BD9
330
1F
100
AcDbEntity
  8
0
  6
Continuous
 62
     7
370
    15
100
AcDbCircle
 10
7.137827141362192
 20
6.048221807321432
 30
0.0
 40
0.0053091375136495
100
AcDbArc
 50
240.9617739972471
 51
294.0380771663754
  0
LINE
  5
BDA
330
1F
100
AcDbEntity
  8
0
  6
Continuous
 62
     7
370
    15
100
AcDbLine
 10
7.137560462984602
 20
6.047581656405648
 30
0.0
 11
7.226310481070153
 21
6.098821557811266
 31
0.0
  0
LINE
  5
BDB
330
1F
100
AcDbEntity
  8
0
  6
Continuous
 62
     7
370
    15
100
AcDbLine
 10
7.228810458856862
 20
6.094491421166706
 30
0.0
 11
7.140060477437557
 21
6.043251519761088
 31
0.0
  0
LINE
  5
BDC
330
1F
100
AcDbEntity
  8
0
  6
Continuous
 62
     7
370
    15
100
AcDbLine
 10
7.046310467112339
 20
6.205631350602092
 30
0.0
 11
7.135060466864771
 21
6.256871105342737
 31
0.0
  0
LINE
  5
BDD
330
1F
100
AcDbEntity
  8
0
  6
Continuous
 62
     7
370
    15
100
AcDbLine
 10
7.137560462984602
 20
6.252541115363153
 30
0.0
 11
7.048810463232173
 21
6.201301213957531
 31
0.0
  0
LINE
  5
BDE
330
1F
100
AcDbEntity
  8
0
  6
Continuous
 62
     7
370
    15
100
AcDbLine
 10
7.044190049107591
 20
6.201301213957531
 30
0.0
 11
7.048810463232173
 21
6.201301213957531
 31
0.0
  0
LWPOLYLINE
  5
BDF
330
1F
100
AcDbEntity
  8
0
  6
Continuous
 62
     7
370
    15
100
AcDbPolyline
 90
        9
 70
   128
 43
0.0
 10
7.048810463232173
 20
6.201301213957531
 10
7.048322747199642
 20
6.202146004198445
 10
7.047853767617334
 20
6.202958234815486
 10
7.04742154594373
 20
6.203706959499488
 10
7.04704271032007
 20
6.204363138585917
 10
7.046731798911746
 20
6.204901545699526
 10
7.046500764914005
 20
6.205301794409152
 10
7.046358499890795
 20
6.205548191562751
 10
7.046354393271568
 20
6.205555231481423
  0
LINE
  5
BE0
330
1F
100
AcDbEntity
  8
0
  6
Continuous
 62
     7
370
    15
100
AcDbLine
 10
7.043810470992509
 20
6.201301213957531
 30
0.0
 11
7.044191075762396
 21
6.201301213957531
 31
0.0
  0
LINE
  5
BE1
330
1F
100
AcDbEntity
  8
0
  6
Continuous
 62
     7
370
    15
100
AcDbLine
 10
7.046354393271568
 20
6.205555231481423
 30
0.0
 11
7.046310467112339
 21
6.205631350602092
 31
0.0
  0
ARC
  5
BE2
330
1F
100
AcDbEntity
  8
0
  6
Continuous
 62
     7
370
    15
100
AcDbCircle
 10
7.049498603838143
 20
6.201211982937224
 30
0.0
 40
0.0053095612431499
100
AcDbArc
 50
125.9666262250423
 51
179.0370576172864
  0
LWPOLYLINE
  5
BE3
330
1F
100
AcDbEntity
  8
0
  6
Continuous
 62
     7
370
    15
100
AcDbPolyline
 90
        7
 70
   128
 43
0.0
 10
7.228620674382601
 20
6.205302674398986
 10
7.228389127057456
 20
6.204901545699526
 10
7.228078233982254
 20
6.204363138585917
 10
7.227699398358596
 20
6.203706959499488
 10
7.227267176684992
 20
6.202958234815486
 10
7.226798178769561
 20
6.202146004198445
 10
7.226310481070153
 20
6.201301213957531
  0
LINE
  5
BE4
330
1F
100
AcDbEntity
  8
0
  6
Continuous
 62
     7
370
    15
100
AcDbLine
 10
7.226310481070153
 20
6.201301213957531
 30
0.0
 11
7.231222620991362
 21
6.201301213957531
 31
0.0
  0
LWPOLYLINE
  5
BE5
330
1F
100
AcDbEntity
  8
0
  6
Continuous
 62
     7
370
    15
100
AcDbPolyline
 90
        7
 70
   128
 43
0.0
 10
7.135250251339031
 20
6.256542429139634
 10
7.135481798664175
 20
6.256141447105147
 10
7.135792710072503
 20
6.255602893326567
 10
7.136171545696159
 20
6.254946714240137
 10
7.136603767369765
 20
6.254198136221106
 10
7.137072746952072
 20
6.253385758939093
 10
7.137560462984602
 20
6.252541115363153
  0
LWPOLYLINE
  5
BE6
330
1F
100
AcDbEntity
  8
0
  6
Continuous
 62
     7
370
    15
100
AcDbPolyline
 90
        9
 70
   128
 43
0.0
 10
7.137560462984602
 20
6.252541115363153
 10
7.138048197350252
 20
6.253385758939093
 10
7.138517176932562
 20
6.254198136221106
 10
7.138949398606166
 20
6.254946714240137
 10
7.139328234229825
 20
6.255602893326567
 10
7.139639145638148
 20
6.256141447105147
 10
7.139870161302771
 20
6.256541549149799
 10
7.14001242632598
 20
6.256787946303401
 10
7.140016551278326
 20
6.256795132887044
  0
LINE
  5
BE7
330
1F
100
AcDbEntity
  8
0
  6
Continuous
 62
     7
370
    15
100
AcDbLine
 10
7.140060477437557
 20
6.256871105342737
 30
0.0
 11
7.228810458856862
 21
6.205631350602092
 31
0.0
  0
LINE
  5
BE8
330
1F
100
AcDbEntity
  8
0
  6
Continuous
 62
     7
370
    15
100
AcDbLine
 10
7.226310481070153
 20
6.201301213957531
 30
0.0
 11
7.137560462984602
 21
6.252541115363153
 31
0.0
  0
LINE
  5
BE9
330
1F
100
AcDbEntity
  8
0
  6
Continuous
 62
     7
370
    15
100
AcDbLine
 10
7.137560462984602
 20
6.194561371816764
 30
0.0
 11
7.137560462984602
 21
6.199561327390183
 31
0.0
  0
LWPOLYLINE
  5
BEA
330
1F
100
AcDbEntity
  8
0
  6
Continuous
 62
     7
370
    15
100
AcDbPolyline
 90
        4
 70
   128
 43
0.0
 10
7.228810458856862
 20
6.205631350602092
 10
7.228762426078407
 20
6.205548191562751
 10
7.228620161055199
 20
6.205301794409152
 10
7.228620674382601
 20
6.205302674398986
  0
LINE
  5
BEB
330
1F
100
AcDbEntity
  8
0
  6
Continuous
 62
     7
370
    15
100
AcDbLine
 10
7.231222620991362
 20
6.201301213957531
 30
0.0
 11
7.231310473309815
 21
6.201301213957531
 31
0.0
  0
LWPOLYLINE
  5
BEC
330
1F
100
AcDbEntity
  8
0
  6
Continuous
 62
     7
370
    15
100
AcDbPolyline
 90
        4
 70
   128
 43
0.0
 10
7.135060466864771
 20
6.256871105342737
 10
7.135108499643224
 20
6.256787946303401
 10
7.135250764666433
 20
6.256541549149799
 10
7.135250251339031
 20
6.256542429139634
  0
LINE
  5
BED
330
1F
100
AcDbEntity
  8
0
  6
Continuous
 62
     7
370
    15
100
AcDbLine
 10
7.140016551278326
 20
6.256795132887044
 30
0.0
 11
7.140060477437557
 21
6.256871105342737
 31
0.0
  0
LINE
  5
BEE
330
1F
100
AcDbEntity
  8
0
  6
Continuous
 62
     7
370
    15
100
AcDbLine
 10
7.228713109981443
 20
6.205224795298653
 30
0.0
 11
7.228620821047575
 21
6.205302821063958
 31
0.0
  0
ARC
  5
BEF
330
1F
100
AcDbEntity
  8
0
  6
Continuous
 62
     7
370
    15
100
AcDbCircle
 10
7.225888906750266
 20
6.200749776963446
 30
0.0
 40
0.0053097614173399
100
AcDbArc
 50
5.967477315295871
 51
59.0354307203665
  0
ARC
  5
BF0
330
1F
100
AcDbEntity
  8
0
  6
Continuous
 62
     7
370
    15
100
AcDbCircle
 10
7.137827300512206
 20
6.251899607380752
 30
0.0
 40
0.005310401267373
100
AcDbArc
 50
65.97118378994847
 51
119.0326202183267
  0
LINE
  5
BF1
330
1F
100
AcDbEntity
  8
0
  6
Continuous
 62
     7
370
    15
100
AcDbLine
 10
7.324505376066837
 20
6.350037025285576
 30
0.0
 11
7.383560467190718
 21
6.350037025285576
 31
0.0
  0
LINE
  5
BF2
330
1F
100
AcDbEntity
  8
0
  6
Continuous
 62
     7
370
    15
100
AcDbLine
 10
6.871749433008793
 20
6.350037025285576
 30
0.0
 11
6.911119518202209
 21
6.350037025285576
 31
0.0
  0
LINE
  5
BF3
330
1F
100
AcDbEntity
  8
0
  6
Continuous
 62
     7
370
    15
100
AcDbLine
 10
7.10796994416929
 20
6.350037025285576
 30
0.0
 11
7.167025035293172
 21
6.350037025285576
 31
0.0
  0
LINE
  5
BF4
330
1F
100
AcDbEntity
  8
0
  6
Continuous
 62
     7
370
    15
100
AcDbLine
 10
7.233954202121726
 20
6.461454591513677
 30
0.0
 11
7.115843946541477
 21
6.461454591513677
 31
0.0
  0
LINE
  5
BF5
330
1F
100
AcDbEntity
  8
0
  6
Continuous
 62
     7
370
    15
100
AcDbLine
 10
7.324505376066837
 20
6.330352239352571
 30
0.0
 11
7.324505376066837
 21
6.350037025285576
 31
0.0
  0
LINE
  5
BF6
330
1F
100
AcDbEntity
  8
0
  6
Continuous
 62
     7
370
    15
100
AcDbLine
 10
7.167025035293172
 20
6.330352239352571
 30
0.0
 11
7.324505376066837
 21
6.330352239352571
 31
0.0
  0
LINE
  5
BF7
330
1F
100
AcDbEntity
  8
0
  6
Continuous
 62
     7
370
    15
100
AcDbLine
 10
6.911119518202209
 20
6.330352239352571
 30
0.0
 11
7.10796994416929
 21
6.330352239352571
 31
0.0
  0
LINE
  5
BF8
330
1F
100
AcDbEntity
  8
0
  6
Continuous
 62
     7
370
    15
100
AcDbLine
 10
7.273324213982657
 20
6.422084432987777
 30
0.0
 11
7.233954202121726
 21
6.422084432987777
 31
0.0
  0
LINE
  5
BF9
330
1F
100
AcDbEntity
  8
0
  6
Continuous
 62
     7
370
    15
100
AcDbLine
 10
7.10796994416929
 20
6.983895462898815
 30
0.0
 11
7.10796994416929
 21
6.964210383635865
 31
0.0
  0
LINE
  5
BFA
330
1F
100
AcDbEntity
  8
0
  6
Continuous
 62
     7
370
    15
100
AcDbLine
 10
7.005607693333413
 20
6.422084432987777
 30
0.0
 11
7.005607693333413
 21
6.892163269263612
 31
0.0
  0
LINE
  5
BFB
330
1F
100
AcDbEntity
  8
0
  6
Continuous
 62
     7
370
    15
100
AcDbLine
 10
7.383560467190718
 20
6.500824456709636
 30
0.0
 11
7.273324213982657
 21
6.500824456709636
 31
0.0
  0
LINE
  5
BFC
330
1F
100
AcDbEntity
  8
0
  6
Continuous
 62
     7
370
    15
100
AcDbLine
 10
7.115843946541477
 20
6.892163269263612
 30
0.0
 11
7.115843946541477
 21
6.852793110737708
 31
0.0
  0
LINE
  5
BFD
330
1F
100
AcDbEntity
  8
0
  6
Continuous
 62
     7
370
    15
100
AcDbLine
 10
7.233954202121726
 20
6.852793110737708
 30
0.0
 11
7.233954202121726
 21
6.892163269263612
 31
0.0
  0
LINE
  5
BFE
330
1F
100
AcDbEntity
  8
0
  6
Continuous
 62
     7
370
    15
100
AcDbLine
 10
6.871749433008793
 20
6.350037025285576
 30
0.0
 11
6.871749433008793
 21
6.964210383635865
 31
0.0
  0
LINE
  5
BFF
330
1F
100
AcDbEntity
  8
0
  6
Continuous
 62
     7
370
    15
100
AcDbLine
 10
7.005607693333413
 20
6.892163269263612
 30
0.0
 11
7.115843946541477
 21
6.892163269263612
 31
0.0
  0
LINE
  5
C00
330
1F
100
AcDbEntity
  8
0
  6
Continuous
 62
     7
370
    15
100
AcDbLine
 10
7.167025035293172
 20
6.964210383635865
 30
0.0
 11
7.167025035293172
 21
6.983895462898815
 31
0.0
  0
LINE
  5
C01
330
1F
100
AcDbEntity
  8
0
  6
Continuous
 62
     7
370
    15
100
AcDbLine
 10
7.273324213982657
 20
6.892163269263612
 30
0.0
 11
7.273324213982657
 21
6.813422952211808
 31
0.0
  0
LINE
  5
C02
330
1F
100
AcDbEntity
  8
0
  6
Continuous
 62
     7
370
    15
100
AcDbLine
 10
7.115843946541477
 20
6.852793110737708
 30
0.0
 11
7.233954202121726
 21
6.852793110737708
 31
0.0
  0
LINE
  5
C03
330
1F
100
AcDbEntity
  8
0
  6
Continuous
 62
     7
370
    15
100
AcDbLine
 10
7.115843946541477
 20
6.422084432987777
 30
0.0
 11
7.005607693333413
 21
6.422084432987777
 31
0.0
  0
LINE
  5
C04
330
1F
100
AcDbEntity
  8
0
  6
Continuous
 62
     7
370
    15
100
AcDbLine
 10
7.273324213982657
 20
6.500824456709636
 30
0.0
 11
7.273324213982657
 21
6.422084432987777
 31
0.0
  0
LINE
  5
C05
330
1F
100
AcDbEntity
  8
0
  6
Continuous
 62
     7
370
    15
100
AcDbLine
 10
7.10796994416929
 20
6.330352239352571
 30
0.0
 11
7.10796994416929
 21
6.350037025285576
 31
0.0
  0
LINE
  5
C06
330
1F
100
AcDbEntity
  8
0
  6
Continuous
 62
     7
370
    15
100
AcDbLine
 10
7.167025035293172
 20
6.350037025285576
 30
0.0
 11
7.167025035293172
 21
6.330352239352571
 31
0.0
  0
LINE
  5
C07
330
1F
100
AcDbEntity
  8
0
  6
Continuous
 62
     7
370
    15
100
AcDbLine
 10
7.233954202121726
 20
6.422084432987777
 30
0.0
 11
7.233954202121726
 21
6.461454591513677
 31
0.0
  0
LINE
  5
C08
330
1F
100
AcDbEntity
  8
0
  6
Continuous
 62
     7
370
    15
100
AcDbLine
 10
7.115843946541477
 20
6.461454591513677
 30
0.0
 11
7.115843946541477
 21
6.422084432987777
 31
0.0
  0
LINE
  5
C09
330
1F
100
AcDbEntity
  8
0
  6
Continuous
 62
     7
370
    15
100
AcDbLine
 10
6.911119518202209
 20
6.350037025285576
 30
0.0
 11
6.911119518202209
 21
6.330352239352571
 31
0.0
  0
LINE
  5
C0A
330
1F
100
AcDbEntity
  8
0
  6
Continuous
 62
     7
370
    15
100
AcDbLine
 10
7.273324213982657
 20
6.813422952211808
 30
0.0
 11
7.383560467190718
 21
6.813422952211808
 31
0.0
  0
LINE
  5
C0B
330
1F
100
AcDbEntity
  8
0
  6
Continuous
 62
     7
370
    15
100
AcDbLine
 10
6.911119518202209
 20
6.964210383635865
 30
0.0
 11
6.871749433008793
 21
6.964210383635865
 31
0.0
  0
LINE
  5
C0C
330
1F
100
AcDbEntity
  8
0
  6
Continuous
 62
     7
370
    15
100
AcDbLine
 10
7.383560467190718
 20
6.964210383635865
 30
0.0
 11
7.324505376066837
 21
6.964210383635865
 31
0.0
  0
LINE
  5
C0D
330
1F
100
AcDbEntity
  8
0
  6
Continuous
 62
     7
370
    15
100
AcDbLine
 10
7.167025035293172
 20
6.964210383635865
 30
0.0
 11
7.10796994416929
 21
6.964210383635865
 31
0.0
  0
LINE
  5
C0E
330
1F
100
AcDbEntity
  8
0
  6
Continuous
 62
     7
370
    15
100
AcDbLine
 10
7.324505376066837
 20
6.983895462898815
 30
0.0
 11
7.324505376066837
 21
6.964210383635865
 31
0.0
  0
LINE
  5
C0F
330
1F
100
AcDbEntity
  8
0
  6
Continuous
 62
     7
370
    15
100
AcDbLine
 10
6.911119518202209
 20
6.964210383635865
 30
0.0
 11
6.911119518202209
 21
6.983895462898815
 31
0.0
  0
LINE
  5
C10
330
1F
100
AcDbEntity
  8
0
  6
Continuous
 62
     7
370
    15
100
AcDbLine
 10
7.10796994416929
 20
6.983895462898815
 30
0.0
 11
6.911119518202209
 21
6.983895462898815
 31
0.0
  0
LINE
  5
C11
330
1F
100
AcDbEntity
  8
0
  6
Continuous
 62
     7
370
    15
100
AcDbLine
 10
7.324505376066837
 20
6.983895462898815
 30
0.0
 11
7.167025035293172
 21
6.983895462898815
 31
0.0
  0
LINE
  5
C12
330
1F
100
AcDbEntity
  8
0
  6
Continuous
 62
     7
370
    15
100
AcDbLine
 10
7.383560467190718
 20
6.813422952211808
 30
0.0
 11
7.383560467190718
 21
6.964210383635865
 31
0.0
  0
LINE
  5
C13
330
1F
100
AcDbEntity
  8
0
  6
Continuous
 62
     7
370
    15
100
AcDbLine
 10
7.383560467190718
 20
6.350037025285576
 30
0.0
 11
7.383560467190718
 21
6.500824456709636
 31
0.0
  0
LINE
  5
C14
330
1F
100
AcDbEntity
  8
0
  6
Continuous
 62
     7
370
    15
100
AcDbLine
 10
7.233954202121726
 20
6.892163269263612
 30
0.0
 11
7.273324213982657
 21
6.892163269263612
 31
0.0
  0
LINE
  5
C15
330
1F
100
AcDbEntity
  8
0
  6
Continuous
 62
     7
370
    15
100
AcDbLine
 10
7.349728671351845
 20
6.330352239352571
 30
0.0
 11
7.349728671351845
 21
6.350037025285576
 31
0.0
  0
LINE
  5
C16
330
1F
100
AcDbEntity
  8
0
  6
Continuous
 62
     7
370
    15
100
AcDbLine
 10
7.349728671351845
 20
6.330352239352571
 30
0.0
 11
7.324505376066837
 21
6.330352239352571
 31
0.0
  0
LINE
  5
C17
330
1F
100
AcDbEntity
  8
0
  6
Continuous
 62
     7
370
    15
100
AcDbLine
 10
7.349728671351845
 20
6.964210383635865
 30
0.0
 11
7.349728671351845
 21
6.983895462898815
 31
0.0
  0
LINE
  5
C18
330
1F
100
AcDbEntity
  8
0
  6
Continuous
 62
     7
370
    15
100
AcDbLine
 10
7.324505376066837
 20
6.983895462898815
 30
0.0
 11
7.349728671351845
 21
6.983895462898815
 31
0.0
  0
LINE
  5
C19
330
1F
100
AcDbEntity
  8
0
  6
Continuous
 62
     7
370
    15
100
AcDbLine
 10
7.10796994416929
 20
6.983895462898815
 30
0.0
 11
7.167025035293172
 21
6.983895462898815
 31
0.0
  0
LINE
  5
C1A
330
1F
100
AcDbEntity
  8
0
  6
Continuous
 62
     7
370
    15
100
AcDbLine
 10
7.167025035293172
 20
6.330352239352571
 30
0.0
 11
7.10796994416929
 21
6.330352239352571
 31
0.0
  0
LINE
  5
C1B
330
1F
100
AcDbEntity
  8
0
  6
Continuous
 62
     7
370
    15
100
AcDbLine
 10
6.908742078999923
 20
6.964210383635865
 30
0.0
 11
6.908742078999923
 21
6.983895462898815
 31
0.0
  0
LINE
  5
C1C
330
1F
100
AcDbEntity
  8
0
  6
Continuous
 62
     7
370
    15
100
AcDbLine
 10
6.908742078999923
 20
6.983895462898815
 30
0.0
 11
6.911119518202209
 21
6.983895462898815
 31
0.0
  0
LINE
  5
C1D
330
1F
100
AcDbEntity
  8
0
  6
Continuous
 62
     7
370
    15
100
AcDbLine
 10
6.908742078999923
 20
6.330352239352571
 30
0.0
 11
6.908742078999923
 21
6.350037025285576
 31
0.0
  0
LINE
  5
C1E
330
1F
100
AcDbEntity
  8
0
  6
Continuous
 62
     7
370
    15
100
AcDbLine
 10
6.911119518202209
 20
6.330352239352571
 30
0.0
 11
6.908742078999923
 21
6.330352239352571
 31
0.0
  0
SPLINE
  5
C1F
330
1F
100
AcDbEntity
  8
0
  6
Continuous
 62
     7
370
    15
100
AcDbSpline
210
0.0
220
0.0
230
1.0
 70
    24
 71
     3
 72
     8
 73
     4
 74
     0
 42
0.0000000001
 43
0.0000000001
 40
0.0
 40
0.0
 40
0.0
 40
0.0
 40
0.9999999999999998
 40
0.9999999999999998
 40
0.9999999999999998
 40
0.9999999999999998
 10
7.349728675785121
 20
6.965124582464401
 30
0.0
 10
7.360755093593636
 20
6.965317049303177
 30
0.0
 10
7.371781511402152
 20
6.965509516141948
 30
0.0
 10
7.382807929210666
 20
6.965701982980721
 30
0.0
  0
LINE
  5
C20
330
1F
100
AcDbEntity
  8
0
  6
Continuous
 62
     7
370
    15
100
AcDbLine
 10
7.323549563082277
 20
7.285081918889344
 30
0.0
 11
7.382604654206156
 21
7.285081918889344
 31
0.0
  0
LINE
  5
C21
330
1F
100
AcDbEntity
  8
0
  6
Continuous
 62
     7
370
    15
100
AcDbLine
 10
6.870793620024232
 20
7.285081918889344
 30
0.0
 11
6.910163705217648
 21
7.285081918889344
 31
0.0
  0
LINE
  5
C22
330
1F
100
AcDbEntity
  8
0
  6
Continuous
 62
     7
370
    15
100
AcDbLine
 10
7.107014131184731
 20
7.285081918889344
 30
0.0
 11
7.166069222308611
 21
7.285081918889344
 31
0.0
  0
LINE
  5
C23
330
1F
100
AcDbEntity
  8
0
  6
Continuous
 62
     7
370
    15
100
AcDbLine
 10
7.232998389137165
 20
7.396499485117446
 30
0.0
 11
7.114888133556915
 21
7.396499485117446
 31
0.0
  0
LINE
  5
C24
330
1F
100
AcDbEntity
  8
0
  6
Continuous
 62
     7
370
    15
100
AcDbLine
 10
7.323549563082277
 20
7.265397132956339
 30
0.0
 11
7.323549563082277
 21
7.285081918889344
 31
0.0
  0
LINE
  5
C25
330
1F
100
AcDbEntity
  8
0
  6
Continuous
 62
     7
370
    15
100
AcDbLine
 10
7.166069222308611
 20
7.265397132956339
 30
0.0
 11
7.323549563082277
 21
7.265397132956339
 31
0.0
  0
LINE
  5
C26
330
1F
100
AcDbEntity
  8
0
  6
Continuous
 62
     7
370
    15
100
AcDbLine
 10
6.910163705217648
 20
7.265397132956339
 30
0.0
 11
7.107014131184731
 21
7.265397132956339
 31
0.0
  0
LINE
  5
C27
330
1F
100
AcDbEntity
  8
0
  6
Continuous
 62
     7
370
    15
100
AcDbLine
 10
7.272368400998096
 20
7.357129326591544
 30
0.0
 11
7.232998389137165
 21
7.357129326591544
 31
0.0
  0
LINE
  5
C28
330
1F
100
AcDbEntity
  8
0
  6
Continuous
 62
     7
370
    15
100
AcDbLine
 10
7.107014131184731
 20
7.918940356502582
 30
0.0
 11
7.107014131184731
 21
7.899255277239632
 31
0.0
  0
LINE
  5
C29
330
1F
100
AcDbEntity
  8
0
  6
Continuous
 62
     7
370
    15
100
AcDbLine
 10
7.004651880348852
 20
7.357129326591544
 30
0.0
 11
7.004651880348852
 21
7.827208162867378
 31
0.0
  0
LINE
  5
C2A
330
1F
100
AcDbEntity
  8
0
  6
Continuous
 62
     7
370
    15
100
AcDbLine
 10
7.382604654206156
 20
7.435869350313403
 30
0.0
 11
7.272368400998096
 21
7.435869350313403
 31
0.0
  0
LINE
  5
C2B
330
1F
100
AcDbEntity
  8
0
  6
Continuous
 62
     7
370
    15
100
AcDbLine
 10
7.114888133556915
 20
7.827208162867378
 30
0.0
 11
7.114888133556915
 21
7.787838004341477
 31
0.0
  0
LINE
  5
C2C
330
1F
100
AcDbEntity
  8
0
  6
Continuous
 62
     7
370
    15
100
AcDbLine
 10
7.232998389137165
 20
7.787838004341477
 30
0.0
 11
7.232998389137165
 21
7.827208162867378
 31
0.0
  0
LINE
  5
C2D
330
1F
100
AcDbEntity
  8
0
  6
Continuous
 62
     7
370
    15
100
AcDbLine
 10
6.870793620024232
 20
7.285081918889344
 30
0.0
 11
6.870793620024232
 21
7.899255277239632
 31
0.0
  0
LINE
  5
C2E
330
1F
100
AcDbEntity
  8
0
  6
Continuous
 62
     7
370
    15
100
AcDbLine
 10
7.004651880348852
 20
7.827208162867378
 30
0.0
 11
7.114888133556915
 21
7.827208162867378
 31
0.0
  0
LINE
  5
C2F
330
1F
100
AcDbEntity
  8
0
  6
Continuous
 62
     7
370
    15
100
AcDbLine
 10
7.166069222308611
 20
7.899255277239632
 30
0.0
 11
7.166069222308611
 21
7.918940356502582
 31
0.0
  0
LINE
  5
C30
330
1F
100
AcDbEntity
  8
0
  6
Continuous
 62
     7
370
    15
100
AcDbLine
 10
7.272368400998096
 20
7.827208162867378
 30
0.0
 11
7.272368400998096
 21
7.748467845815574
 31
0.0
  0
LINE
  5
C31
330
1F
100
AcDbEntity
  8
0
  6
Continuous
 62
     7
370
    15
100
AcDbLine
 10
7.114888133556915
 20
7.787838004341477
 30
0.0
 11
7.232998389137165
 21
7.787838004341477
 31
0.0
  0
LINE
  5
C32
330
1F
100
AcDbEntity
  8
0
  6
Continuous
 62
     7
370
    15
100
AcDbLine
 10
7.114888133556915
 20
7.357129326591544
 30
0.0
 11
7.004651880348852
 21
7.357129326591544
 31
0.0
  0
LINE
  5
C33
330
1F
100
AcDbEntity
  8
0
  6
Continuous
 62
     7
370
    15
100
AcDbLine
 10
7.272368400998096
 20
7.435869350313403
 30
0.0
 11
7.272368400998096
 21
7.357129326591544
 31
0.0
  0
LINE
  5
C34
330
1F
100
AcDbEntity
  8
0
  6
Continuous
 62
     7
370
    15
100
AcDbLine
 10
7.107014131184731
 20
7.265397132956339
 30
0.0
 11
7.107014131184731
 21
7.285081918889344
 31
0.0
  0
LINE
  5
C35
330
1F
100
AcDbEntity
  8
0
  6
Continuous
 62
     7
370
    15
100
AcDbLine
 10
7.166069222308611
 20
7.285081918889344
 30
0.0
 11
7.166069222308611
 21
7.265397132956339
 31
0.0
  0
LINE
  5
C36
330
1F
100
AcDbEntity
  8
0
  6
Continuous
 62
     7
370
    15
100
AcDbLine
 10
7.232998389137165
 20
7.357129326591544
 30
0.0
 11
7.232998389137165
 21
7.396499485117446
 31
0.0
  0
LINE
  5
C37
330
1F
100
AcDbEntity
  8
0
  6
Continuous
 62
     7
370
    15
100
AcDbLine
 10
7.114888133556915
 20
7.396499485117446
 30
0.0
 11
7.114888133556915
 21
7.357129326591544
 31
0.0
  0
LINE
  5
C38
330
1F
100
AcDbEntity
  8
0
  6
Continuous
 62
     7
370
    15
100
AcDbLine
 10
6.910163705217648
 20
7.285081918889344
 30
0.0
 11
6.910163705217648
 21
7.265397132956339
 31
0.0
  0
LINE
  5
C39
330
1F
100
AcDbEntity
  8
0
  6
Continuous
 62
     7
370
    15
100
AcDbLine
 10
7.272368400998096
 20
7.748467845815574
 30
0.0
 11
7.382604654206156
 21
7.748467845815574
 31
0.0
  0
LINE
  5
C3A
330
1F
100
AcDbEntity
  8
0
  6
Continuous
 62
     7
370
    15
100
AcDbLine
 10
6.910163705217648
 20
7.899255277239632
 30
0.0
 11
6.870793620024232
 21
7.899255277239632
 31
0.0
  0
LINE
  5
C3B
330
1F
100
AcDbEntity
  8
0
  6
Continuous
 62
     7
370
    15
100
AcDbLine
 10
7.382604654206156
 20
7.899255277239632
 30
0.0
 11
7.323549563082277
 21
7.899255277239632
 31
0.0
  0
LINE
  5
C3C
330
1F
100
AcDbEntity
  8
0
  6
Continuous
 62
     7
370
    15
100
AcDbLine
 10
7.166069222308611
 20
7.899255277239632
 30
0.0
 11
7.107014131184731
 21
7.899255277239632
 31
0.0
  0
LINE
  5
C3D
330
1F
100
AcDbEntity
  8
0
  6
Continuous
 62
     7
370
    15
100
AcDbLine
 10
7.323549563082277
 20
7.918940356502582
 30
0.0
 11
7.323549563082277
 21
7.899255277239632
 31
0.0
  0
LINE
  5
C3E
330
1F
100
AcDbEntity
  8
0
  6
Continuous
 62
     7
370
    15
100
AcDbLine
 10
6.910163705217648
 20
7.899255277239632
 30
0.0
 11
6.910163705217648
 21
7.918940356502582
 31
0.0
  0
LINE
  5
C3F
330
1F
100
AcDbEntity
  8
0
  6
Continuous
 62
     7
370
    15
100
AcDbLine
 10
7.107014131184731
 20
7.918940356502582
 30
0.0
 11
6.910163705217648
 21
7.918940356502582
 31
0.0
  0
LINE
  5
C40
330
1F
100
AcDbEntity
  8
0
  6
Continuous
 62
     7
370
    15
100
AcDbLine
 10
7.323549563082277
 20
7.918940356502582
 30
0.0
 11
7.166069222308611
 21
7.918940356502582
 31
0.0
  0
LINE
  5
C41
330
1F
100
AcDbEntity
  8
0
  6
Continuous
 62
     7
370
    15
100
AcDbLine
 10
7.382604654206156
 20
7.748467845815574
 30
0.0
 11
7.382604654206156
 21
7.899255277239632
 31
0.0
  0
LINE
  5
C42
330
1F
100
AcDbEntity
  8
0
  6
Continuous
 62
     7
370
    15
100
AcDbLine
 10
7.382604654206156
 20
7.285081918889344
 30
0.0
 11
7.382604654206156
 21
7.435869350313403
 31
0.0
  0
LINE
  5
C43
330
1F
100
AcDbEntity
  8
0
  6
Continuous
 62
     7
370
    15
100
AcDbLine
 10
7.232998389137165
 20
7.827208162867378
 30
0.0
 11
7.272368400998096
 21
7.827208162867378
 31
0.0
  0
LINE
  5
C44
330
1F
100
AcDbEntity
  8
0
  6
Continuous
 62
     7
370
    15
100
AcDbLine
 10
7.348772858367284
 20
7.265397132956339
 30
0.0
 11
7.348772858367284
 21
7.285081918889344
 31
0.0
  0
LINE
  5
C45
330
1F
100
AcDbEntity
  8
0
  6
Continuous
 62
     7
370
    15
100
AcDbLine
 10
7.348772858367284
 20
7.265397132956339
 30
0.0
 11
7.323549563082277
 21
7.265397132956339
 31
0.0
  0
LINE
  5
C46
330
1F
100
AcDbEntity
  8
0
  6
Continuous
 62
     7
370
    15
100
AcDbLine
 10
7.348772858367284
 20
7.899255277239632
 30
0.0
 11
7.348772858367284
 21
7.918940356502582
 31
0.0
  0
LINE
  5
C47
330
1F
100
AcDbEntity
  8
0
  6
Continuous
 62
     7
370
    15
100
AcDbLine
 10
7.323549563082277
 20
7.918940356502582
 30
0.0
 11
7.348772858367284
 21
7.918940356502582
 31
0.0
  0
LINE
  5
C48
330
1F
100
AcDbEntity
  8
0
  6
Continuous
 62
     7
370
    15
100
AcDbLine
 10
7.107014131184731
 20
7.918940356502582
 30
0.0
 11
7.166069222308611
 21
7.918940356502582
 31
0.0
  0
LINE
  5
C49
330
1F
100
AcDbEntity
  8
0
  6
Continuous
 62
     7
370
    15
100
AcDbLine
 10
7.166069222308611
 20
7.265397132956339
 30
0.0
 11
7.107014131184731
 21
7.265397132956339
 31
0.0
  0
LINE
  5
C4A
330
1F
100
AcDbEntity
  8
0
  6
Continuous
 62
     7
370
    15
100
AcDbLine
 10
6.907786266015362
 20
7.899255277239632
 30
0.0
 11
6.907786266015362
 21
7.918940356502582
 31
0.0
  0
LINE
  5
C4B
330
1F
100
AcDbEntity
  8
0
  6
Continuous
 62
     7
370
    15
100
AcDbLine
 10
6.907786266015362
 20
7.918940356502582
 30
0.0
 11
6.910163705217648
 21
7.918940356502582
 31
0.0
  0
LINE
  5
C4C
330
1F
100
AcDbEntity
  8
0
  6
Continuous
 62
     7
370
    15
100
AcDbLine
 10
6.907786266015362
 20
7.265397132956339
 30
0.0
 11
6.907786266015362
 21
7.285081918889344
 31
0.0
  0
LINE
  5
C4D
330
1F
100
AcDbEntity
  8
0
  6
Continuous
 62
     7
370
    15
100
AcDbLine
 10
6.910163705217648
 20
7.265397132956339
 30
0.0
 11
6.907786266015362
 21
7.265397132956339
 31
0.0
  0
SPLINE
  5
C4E
330
1F
100
AcDbEntity
  8
0
  6
Continuous
 62
     7
370
    15
100
AcDbSpline
210
0.0
220
0.0
230
1.0
 70
    24
 71
     3
 72
     8
 73
     4
 74
     0
 42
0.0000000001
 43
0.0000000001
 40
0.0
 40
0.0
 40
0.0
 40
0.0
 40
0.9999999999999998
 40
0.9999999999999998
 40
0.9999999999999998
 40
0.9999999999999998
 10
7.348772862800561
 20
7.900169476068167
 30
0.0
 10
7.359799280609076
 20
7.900361942906943
 30
0.0
 10
7.370825698417591
 20
7.900554409745716
 30
0.0
 10
7.381852116226105
 20
7.900746876584491
 30
0.0
  0
LINE
  5
C53
330
1F
100
AcDbEntity
  8
0
  6
Continuous
100
AcDbLine
 10
7.017987238329077
 20
7.955058918298152
 30
0.0
 11
7.357987238329081
 21
7.955058918298152
 31
0.0
  0
LINE
  5
C54
330
1F
100
AcDbEntity
  8
0
  6
Continuous
100
AcDbLine
 10
7.017987238329077
 20
8.275058918298153
 30
0.0
 11
7.357987238329081
 21
8.275058918298153
 31
0.0
  0
LINE
  5
C55
330
1F
100
AcDbEntity
  8
0
  6
Continuous
100
AcDbLine
 10
7.017987238329077
 20
8.280058918298147
 30
0.0
 11
7.357987238329081
 21
8.280058918298147
 31
0.0
  0
LINE
  5
C56
330
1F
100
AcDbEntity
  8
0
  6
Continuous
100
AcDbLine
 10
7.017987238329077
 20
8.600058918298151
 30
0.0
 11
7.357987238329081
 21
8.600058918298147
 31
0.0
  0
LINE
  5
C57
330
1F
100
AcDbEntity
  8
0
  6
Continuous
100
AcDbLine
 10
7.357987238329081
 20
8.275058918298153
 30
0.0
 11
7.357987238329081
 21
7.955058918298152
 31
0.0
  0
LINE
  5
C58
330
1F
100
AcDbEntity
  8
0
  6
Continuous
100
AcDbLine
 10
7.357987238329081
 20
8.280058918298147
 30
0.0
 11
7.357987238329081
 21
8.600058918298147
 31
0.0
  0
CIRCLE
  5
C59
330
1F
100
AcDbEntity
  8
0
  6
Continuous
100
AcDbCircle
 10
7.18798723832908
 20
8.440058918298152
 30
0.0
 40
0.072060743863128
  0
LINE
  5
C5A
330
1F
100
AcDbEntity
  8
0
100
AcDbLine
 10
7.17673723832908
 20
8.38380891829815
 30
0.0
 11
7.17673723832908
 21
8.428808918298148
 31
0.0
  0
LINE
  5
C5B
330
1F
100
AcDbEntity
  8
0
100
AcDbLine
 10
7.199237238329081
 20
8.38380891829815
 30
0.0
 11
7.199237238329081
 21
8.428808918298152
 31
0.0
  0
LINE
  5
C5C
330
1F
100
AcDbEntity
  8
0
100
AcDbLine
 10
7.17673723832908
 20
8.38380891829815
 30
0.0
 11
7.199237238329081
 21
8.38380891829815
 31
0.0
  0
LINE
  5
C5D
330
1F
100
AcDbEntity
  8
0
100
AcDbLine
 10
7.199237238329081
 20
8.428808918298148
 30
0.0
 11
7.24423723832908
 21
8.428808918298148
 31
0.0
  0
LINE
  5
C5E
330
1F
100
AcDbEntity
  8
0
100
AcDbLine
 10
7.199237238329081
 20
8.451308918298153
 30
0.0
 11
7.24423723832908
 21
8.451308918298147
 31
0.0
  0
LINE
  5
C5F
330
1F
100
AcDbEntity
  8
0
100
AcDbLine
 10
7.199237238329081
 20
8.496308918298151
 30
0.0
 11
7.17673723832908
 21
8.496308918298151
 31
0.0
  0
LINE
  5
C60
330
1F
100
AcDbEntity
  8
0
100
AcDbLine
 10
7.17673723832908
 20
8.451308918298153
 30
0.0
 11
7.17673723832908
 21
8.496308918298151
 31
0.0
  0
LINE
  5
C61
330
1F
100
AcDbEntity
  8
0
100
AcDbLine
 10
7.13173723832908
 20
8.451308918298147
 30
0.0
 11
7.13173723832908
 21
8.428808918298148
 31
0.0
  0
LINE
  5
C62
330
1F
100
AcDbEntity
  8
0
100
AcDbLine
 10
7.13173723832908
 20
8.428808918298148
 30
0.0
 11
7.17673723832908
 21
8.428808918298148
 31
0.0
  0
LINE
  5
C63
330
1F
100
AcDbEntity
  8
0
100
AcDbLine
 10
7.13173723832908
 20
8.451308918298147
 30
0.0
 11
7.17673723832908
 21
8.451308918298153
 31
0.0
  0
LINE
  5
C64
330
1F
100
AcDbEntity
  8
0
100
AcDbLine
 10
7.199237238329081
 20
8.451308918298153
 30
0.0
 11
7.199237238329081
 21
8.496308918298151
 31
0.0
  0
LINE
  5
C65
330
1F
100
AcDbEntity
  8
0
100
AcDbLine
 10
7.24423723832908
 20
8.428808918298148
 30
0.0
 11
7.24423723832908
 21
8.451308918298147
 31
0.0
  0
CIRCLE
  5
C66
330
1F
100
AcDbEntity
  8
0
  6
Continuous
100
AcDbCircle
 10
7.18798723832908
 20
8.115058918298148
 30
0.0
 40
0.072060743863128
  0
LINE
  5
C67
330
1F
100
AcDbEntity
  8
0
100
AcDbLine
 10
7.17673723832908
 20
8.058808918298151
 30
0.0
 11
7.17673723832908
 21
8.103808918298152
 31
0.0
  0
LINE
  5
C68
330
1F
100
AcDbEntity
  8
0
100
AcDbLine
 10
7.199237238329081
 20
8.058808918298151
 30
0.0
 11
7.199237238329081
 21
8.103808918298152
 31
0.0
  0
LINE
  5
C69
330
1F
100
AcDbEntity
  8
0
100
AcDbLine
 10
7.17673723832908
 20
8.058808918298151
 30
0.0
 11
7.199237238329081
 21
8.058808918298151
 31
0.0
  0
LINE
  5
C6A
330
1F
100
AcDbEntity
  8
0
100
AcDbLine
 10
7.199237238329081
 20
8.103808918298152
 30
0.0
 11
7.24423723832908
 21
8.103808918298152
 31
0.0
  0
LINE
  5
C6B
330
1F
100
AcDbEntity
  8
0
100
AcDbLine
 10
7.199237238329081
 20
8.126308918298152
 30
0.0
 11
7.24423723832908
 21
8.126308918298152
 31
0.0
  0
LINE
  5
C6C
330
1F
100
AcDbEntity
  8
0
100
AcDbLine
 10
7.199237238329081
 20
8.171308918298151
 30
0.0
 11
7.17673723832908
 21
8.171308918298151
 31
0.0
  0
LINE
  5
C6D
330
1F
100
AcDbEntity
  8
0
100
AcDbLine
 10
7.17673723832908
 20
8.126308918298152
 30
0.0
 11
7.17673723832908
 21
8.171308918298151
 31
0.0
  0
LINE
  5
C6E
330
1F
100
AcDbEntity
  8
0
100
AcDbLine
 10
7.13173723832908
 20
8.126308918298152
 30
0.0
 11
7.13173723832908
 21
8.103808918298152
 31
0.0
  0
LINE
  5
C6F
330
1F
100
AcDbEntity
  8
0
100
AcDbLine
 10
7.13173723832908
 20
8.103808918298152
 30
0.0
 11
7.17673723832908
 21
8.103808918298152
 31
0.0
  0
LINE
  5
C70
330
1F
100
AcDbEntity
  8
0
100
AcDbLine
 10
7.13173723832908
 20
8.126308918298152
 30
0.0
 11
7.17673723832908
 21
8.126308918298152
 31
0.0
  0
LINE
  5
C71
330
1F
100
AcDbEntity
  8
0
100
AcDbLine
 10
7.199237238329081
 20
8.126308918298152
 30
0.0
 11
7.199237238329081
 21
8.171308918298151
 31
0.0
  0
LINE
  5
C72
330
1F
100
AcDbEntity
  8
0
100
AcDbLine
 10
7.24423723832908
 20
8.103808918298152
 30
0.0
 11
7.24423723832908
 21
8.126308918298152
 31
0.0
  0
LINE
  5
C77
330
1F
100
AcDbEntity
  8
0
100
AcDbLine
 10
7.017987238329077
 20
7.955058918298152
 30
0.0
 11
7.017987238329077
 21
8.600058918298151
 31
0.0
  0
CIRCLE
  5
C78
330
1F
100
AcDbEntity
  8
0
  6
Continuous
 62
     3
100
AcDbCircle
 10
7.06514673131782
 20
7.114312295828093
 30
0.0
 40
0.078
  0
CIRCLE
  5
C79
330
1F
100
AcDbEntity
  8
0
  6
Continuous
 62
     3
100
AcDbCircle
 10
7.265146731317818
 20
7.114312295828093
 30
0.0
 40
0.078
  0
CIRCLE
  5
C7A
330
1F
100
AcDbEntity
  8
0
  6
Continuous
 62
     7
100
AcDbCircle
 10
7.267914605317821
 20
7.114316516228089
 30
0.0
 40
0.059
  0
CIRCLE
  5
C7B
330
1F
100
AcDbEntity
  8
0
  6
Continuous
 62
     7
100
AcDbCircle
 10
7.067914605317822
 20
7.114316516228089
 30
0.0
 40
0.059
  0
LINE
  5
C7C
330
1F
100
AcDbEntity
  8
0
100
AcDbLine
 10
6.933266693801366
 20
7.213714099595468
 30
0.0
 11
7.412627183282916
 21
7.213714099595468
 31
0.0
  0
LINE
  5
C7D
330
1F
100
AcDbEntity
  8
0
100
AcDbLine
 10
7.412627183282916
 20
7.213714099595468
 30
0.0
 11
7.412627183282916
 21
7.012659891172428
 31
0.0
  0
LINE
  5
C7E
330
1F
100
AcDbEntity
  8
0
100
AcDbLine
 10
7.412627183282916
 20
7.012659891172428
 30
0.0
 11
6.933266693801366
 21
7.012659891172428
 31
0.0
  0
LINE
  5
C7F
330
1F
100
AcDbEntity
  8
0
100
AcDbLine
 10
6.933266693801366
 20
7.012659891172428
 30
0.0
 11
6.933266693801366
 21
7.213714099595468
 31
0.0
  0
LINE
  5
C80
330
1F
100
AcDbEntity
  8
0
  6
Continuous
 62
     7
100
AcDbLine
 10
7.015825892971968
 20
3.374600829917984
 30
0.0
 11
7.009481965237597
 21
3.380944757652359
 31
0.0
  0
LINE
  5
C81
330
1F
100
AcDbEntity
  8
0
  6
Continuous
 62
     7
100
AcDbLine
 10
7.024284463284468
 20
3.421122966636734
 30
0.0
 11
7.030628391018847
 21
3.414779038902361
 31
0.0
  0
LINE
  5
C82
330
1F
100
AcDbEntity
  8
0
  6
Continuous
 62
     7
100
AcDbLine
 10
6.973533041409467
 20
3.355569046714859
 30
0.0
 11
7.015825892971968
 21
3.355569046714859
 31
0.0
  0
LINE
  5
C83
330
1F
100
AcDbEntity
  8
0
  6
Continuous
 62
     7
100
AcDbLine
 10
7.015825892971968
 20
3.374600829917984
 30
0.0
 11
7.024284463284468
 21
3.374600829917984
 31
0.0
  0
LINE
  5
C84
330
1F
100
AcDbEntity
  8
0
  6
Continuous
 62
     7
100
AcDbLine
 10
7.204029082425094
 20
3.379887436363298
 30
0.0
 11
7.168080158596972
 21
3.379887436363298
 31
0.0
  0
LINE
  5
C85
330
1F
100
AcDbEntity
  8
0
  6
Continuous
 62
     7
100
AcDbLine
 10
7.07080660000322
 20
3.379887436363298
 30
0.0
 11
7.030628391018847
 21
3.379887436363298
 31
0.0
  0
LINE
  5
C86
330
1F
100
AcDbEntity
  8
0
  6
Continuous
 62
     7
100
AcDbLine
 10
7.009481965237597
 20
3.380944757652359
 30
0.0
 11
7.030628391018847
 21
3.380944757652359
 31
0.0
  0
LINE
  5
C87
330
1F
100
AcDbEntity
  8
0
  6
Continuous
 62
     7
100
AcDbLine
 10
7.102526238675095
 20
3.380944757652359
 30
0.0
 11
7.136360519925093
 21
3.380944757652359
 31
0.0
  0
LINE
  5
C88
330
1F
100
AcDbEntity
  8
0
  6
Continuous
 62
     7
100
AcDbLine
 10
7.110984808987594
 20
3.389403327964859
 30
0.0
 11
7.127901949612592
 21
3.389403327964859
 31
0.0
  0
LINE
  5
C89
330
1F
100
AcDbEntity
  8
0
  6
Continuous
 62
     7
100
AcDbLine
 10
7.015825892971968
 20
3.480332958824234
 30
0.0
 11
7.009481965237597
 21
3.486676886558609
 31
0.0
  0
LINE
  5
C8A
330
1F
100
AcDbEntity
  8
0
  6
Continuous
 62
     7
100
AcDbLine
 10
7.127901949612592
 20
3.389403327964859
 30
0.0
 11
7.134396160368158
 21
3.382909117210142
 31
0.0
  0
LINE
  5
C8B
330
1F
100
AcDbEntity
  8
0
  6
Continuous
 62
     7
100
AcDbLine
 10
7.110984808987594
 20
3.406320468589861
 30
0.0
 11
7.104490598232874
 21
3.412814679345424
 31
0.0
  0
LINE
  5
C8C
330
1F
100
AcDbEntity
  8
0
  6
Continuous
 62
     7
100
AcDbLine
 10
7.127901949612592
 20
3.406320468589861
 30
0.0
 11
7.110984808987594
 21
3.406320468589861
 31
0.0
  0
LINE
  5
C8D
330
1F
100
AcDbEntity
  8
0
  6
Continuous
 62
     7
100
AcDbLine
 10
7.136360519925093
 20
3.414779038902361
 30
0.0
 11
7.102526238675095
 21
3.414779038902361
 31
0.0
  0
LINE
  5
C8E
330
1F
100
AcDbEntity
  8
0
  6
Continuous
 62
     7
100
AcDbLine
 10
7.030628391018847
 20
3.414779038902361
 30
0.0
 11
7.009481965237597
 21
3.414779038902361
 31
0.0
  0
LINE
  5
C8F
330
1F
100
AcDbEntity
  8
0
  6
Continuous
 62
     7
100
AcDbLine
 10
7.204029082425094
 20
3.415836360191423
 30
0.0
 11
7.168080158596972
 21
3.415836360191423
 31
0.0
  0
LINE
  5
C90
330
1F
100
AcDbEntity
  8
0
  6
Continuous
 62
     7
100
AcDbLine
 10
7.07080660000322
 20
3.415836360191423
 30
0.0
 11
7.030628391018847
 21
3.415836360191423
 31
0.0
  0
LINE
  5
C91
330
1F
100
AcDbEntity
  8
0
  6
Continuous
 62
     7
100
AcDbLine
 10
7.024284463284468
 20
3.421122966636734
 30
0.0
 11
7.015825892971968
 21
3.421122966636734
 31
0.0
  0
LINE
  5
C92
330
1F
100
AcDbEntity
  8
0
  6
Continuous
 62
     7
100
AcDbLine
 10
7.210373010159469
 20
3.332307978355483
 30
0.0
 11
7.204029082425094
 21
3.338651906089859
 31
0.0
  0
LINE
  5
C93
330
1F
100
AcDbEntity
  8
0
  6
Continuous
 62
     7
100
AcDbLine
 10
7.015825892971968
 20
3.440154749839861
 30
0.0
 11
6.973533041409467
 21
3.440154749839861
 31
0.0
  0
LINE
  5
C94
330
1F
100
AcDbEntity
  8
0
  6
Continuous
 62
     7
100
AcDbLine
 10
7.024284463284468
 20
3.526855095542984
 30
0.0
 11
7.030628391018847
 21
3.520511167808609
 31
0.0
  0
LINE
  5
C95
330
1F
100
AcDbEntity
  8
0
  6
Continuous
 62
     7
100
AcDbLine
 10
6.973533041409467
 20
3.461301175621109
 30
0.0
 11
7.015825892971968
 21
3.461301175621109
 31
0.0
  0
LINE
  5
C96
330
1F
100
AcDbEntity
  8
0
  6
Continuous
 62
     7
100
AcDbLine
 10
7.015825892971968
 20
3.586065087730483
 30
0.0
 11
7.009481965237597
 21
3.592409015464861
 31
0.0
  0
LINE
  5
C97
330
1F
100
AcDbEntity
  8
0
  6
Continuous
 62
     7
100
AcDbLine
 10
7.288614785550094
 20
3.808102558433612
 30
0.0
 11
7.288614785550093
 21
3.093353367027359
 31
0.0
  0
LINE
  5
C98
330
1F
100
AcDbEntity
  8
0
  6
Continuous
 62
     7
100
AcDbLine
 10
7.015825892971968
 20
3.480332958824234
 30
0.0
 11
7.024284463284468
 21
3.480332958824234
 31
0.0
  0
LINE
  5
C99
330
1F
100
AcDbEntity
  8
0
  6
Continuous
 62
     7
100
AcDbLine
 10
7.204029082425094
 20
3.485619565269548
 30
0.0
 11
7.168080158596972
 21
3.485619565269548
 31
0.0
  0
LINE
  5
C9A
330
1F
100
AcDbEntity
  8
0
  6
Continuous
 62
     7
100
AcDbLine
 10
7.07080660000322
 20
3.485619565269548
 30
0.0
 11
7.030628391018847
 21
3.485619565269548
 31
0.0
  0
LINE
  5
C9B
330
1F
100
AcDbEntity
  8
0
  6
Continuous
 62
     7
100
AcDbLine
 10
7.009481965237597
 20
3.486676886558609
 30
0.0
 11
7.030628391018847
 21
3.486676886558609
 31
0.0
  0
LINE
  5
C9C
330
1F
100
AcDbEntity
  8
0
  6
Continuous
 62
     7
100
AcDbLine
 10
7.102526238675095
 20
3.486676886558609
 30
0.0
 11
7.136360519925093
 21
3.486676886558609
 31
0.0
  0
LINE
  5
C9D
330
1F
100
AcDbEntity
  8
0
  6
Continuous
 62
     7
100
AcDbLine
 10
7.127901949612592
 20
3.495135456871111
 30
0.0
 11
7.134396160368158
 21
3.48864124611639
 31
0.0
  0
LINE
  5
C9E
330
1F
100
AcDbEntity
  8
0
  6
Continuous
 62
     7
100
AcDbLine
 10
7.110984808987594
 20
3.512052597496111
 30
0.0
 11
7.104490598232874
 21
3.518546808251673
 31
0.0
  0
LINE
  5
C9F
330
1F
100
AcDbEntity
  8
0
  6
Continuous
 62
     7
100
AcDbLine
 10
7.263239074612593
 20
3.704485072105486
 30
0.0
 11
7.263239074612593
 21
3.780612204917983
 31
0.0
  0
LINE
  5
CA0
330
1F
100
AcDbEntity
  8
0
  6
Continuous
 62
     7
100
AcDbLine
 10
7.25689514687822
 20
3.710828999839859
 30
0.0
 11
7.25689514687822
 21
3.774268277183609
 31
0.0
  0
LINE
  5
CA1
330
1F
100
AcDbEntity
  8
0
  6
Continuous
 62
     7
100
AcDbLine
 10
7.127901949612592
 20
3.406320468589861
 30
0.0
 11
7.134396160368158
 21
3.412814679345424
 31
0.0
  0
LINE
  5
CA2
330
1F
100
AcDbEntity
  8
0
  6
Continuous
 62
     7
100
AcDbLine
 10
7.110984808987594
 20
3.389403327964859
 30
0.0
 11
7.104490598232874
 21
3.382909117210142
 31
0.0
  0
LINE
  5
CA3
330
1F
100
AcDbEntity
  8
0
  6
Continuous
 62
     7
100
AcDbLine
 10
7.110984808987594
 20
3.495135456871111
 30
0.0
 11
7.127901949612592
 21
3.495135456871111
 31
0.0
  0
LINE
  5
CA4
330
1F
100
AcDbEntity
  8
0
  6
Continuous
 62
     7
100
AcDbLine
 10
7.127901949612592
 20
3.512052597496111
 30
0.0
 11
7.110984808987594
 21
3.512052597496111
 31
0.0
  0
LINE
  5
CA5
330
1F
100
AcDbEntity
  8
0
  6
Continuous
 62
     7
100
AcDbLine
 10
7.024284463284468
 20
3.632587224449236
 30
0.0
 11
7.030628391018847
 21
3.626243296714861
 31
0.0
  0
LINE
  5
CA6
330
1F
100
AcDbEntity
  8
0
  6
Continuous
 62
     7
100
AcDbLine
 10
7.024284463284468
 20
3.332307978355483
 30
0.0
 11
7.030628391018847
 21
3.338651906089859
 31
0.0
  0
LINE
  5
CA7
330
1F
100
AcDbEntity
  8
0
  6
Continuous
 62
     7
100
AcDbLine
 10
7.136360519925093
 20
3.520511167808609
 30
0.0
 11
7.102526238675095
 21
3.520511167808609
 31
0.0
  0
LINE
  5
CA8
330
1F
100
AcDbEntity
  8
0
  6
Continuous
 62
     7
100
AcDbLine
 10
7.030628391018847
 20
3.520511167808609
 30
0.0
 11
7.009481965237597
 21
3.520511167808609
 31
0.0
  0
LINE
  5
CA9
330
1F
100
AcDbEntity
  8
0
  6
Continuous
 62
     7
100
AcDbLine
 10
7.204029082425094
 20
3.521568489097673
 30
0.0
 11
7.168080158596972
 21
3.521568489097673
 31
0.0
  0
LINE
  5
CAA
330
1F
100
AcDbEntity
  8
0
  6
Continuous
 62
     7
100
AcDbLine
 10
7.07080660000322
 20
3.521568489097673
 30
0.0
 11
7.030628391018847
 21
3.521568489097673
 31
0.0
  0
LINE
  5
CAB
330
1F
100
AcDbEntity
  8
0
  6
Continuous
 62
     7
100
AcDbLine
 10
7.024284463284468
 20
3.526855095542984
 30
0.0
 11
7.015825892971968
 21
3.526855095542984
 31
0.0
  0
LINE
  5
CAC
330
1F
100
AcDbEntity
  8
0
  6
Continuous
 62
     7
100
AcDbLine
 10
7.015825892971968
 20
3.691797216636734
 30
0.0
 11
7.009481965237597
 21
3.698141144371109
 31
0.0
  0
LINE
  5
CAD
330
1F
100
AcDbEntity
  8
0
  6
Continuous
 62
     7
100
AcDbLine
 10
7.210373010159469
 20
3.704485072105486
 30
0.0
 11
7.210373010159469
 21
3.463415818199234
 31
0.0
  0
LINE
  5
CAE
330
1F
100
AcDbEntity
  8
0
  6
Continuous
 62
     7
100
AcDbLine
 10
7.210373010159469
 20
3.387288685386734
 30
0.0
 11
7.210373010159469
 21
3.332307978355483
 31
0.0
  0
LINE
  5
CAF
330
1F
100
AcDbEntity
  8
0
  6
Continuous
 62
     7
100
AcDbLine
 10
7.015825892971968
 20
3.545886878746109
 30
0.0
 11
6.973533041409467
 21
3.545886878746109
 31
0.0
  0
LINE
  5
CB0
330
1F
100
AcDbEntity
  8
0
  6
Continuous
 62
     7
100
AcDbLine
 10
7.127901949612592
 20
3.600867585777359
 30
0.0
 11
7.134396160368158
 21
3.594373375022641
 31
0.0
  0
LINE
  5
CB1
330
1F
100
AcDbEntity
  8
0
  6
Continuous
 62
     7
100
AcDbLine
 10
7.110984808987594
 20
3.617784726402359
 30
0.0
 11
7.104490598232874
 21
3.624278937157923
 31
0.0
  0
LINE
  5
CB2
330
1F
100
AcDbEntity
  8
0
  6
Continuous
 62
     7
100
AcDbLine
 10
7.204029082425094
 20
3.338651906089859
 30
0.0
 11
7.204029082425094
 21
3.774268277183609
 31
0.0
  0
LINE
  5
CB3
330
1F
100
AcDbEntity
  8
0
  6
Continuous
 62
     7
100
AcDbLine
 10
7.024284463284468
 20
3.374600829917984
 30
0.0
 11
7.030628391018847
 21
3.380944757652359
 31
0.0
  0
LINE
  5
CB4
330
1F
100
AcDbEntity
  8
0
  6
Continuous
 62
     7
100
AcDbLine
 10
6.973533041409467
 20
3.567033304527359
 30
0.0
 11
7.015825892971968
 21
3.567033304527359
 31
0.0
  0
LINE
  5
CB5
330
1F
100
AcDbEntity
  8
0
  6
Continuous
 62
     7
100
AcDbLine
 10
7.024284463284468
 20
3.738319353355484
 30
0.0
 11
7.030628391018847
 21
3.731975425621109
 31
0.0
  0
LINE
  5
CB6
330
1F
100
AcDbEntity
  8
0
  6
Continuous
 62
     7
100
AcDbLine
 10
7.168080158596972
 20
3.774268277183609
 30
0.0
 11
7.168080158596972
 21
3.733032746910173
 31
0.0
  0
LINE
  5
CB7
330
1F
100
AcDbEntity
  8
0
  6
Continuous
 62
     7
100
AcDbLine
 10
7.168080158596972
 20
3.697083823082048
 30
0.0
 11
7.168080158596972
 21
3.627300618003923
 31
0.0
  0
LINE
  5
CB8
330
1F
100
AcDbEntity
  8
0
  6
Continuous
 62
     7
100
AcDbLine
 10
7.168080158596972
 20
3.591351694175799
 30
0.0
 11
7.168080158596972
 21
3.521568489097673
 31
0.0
  0
LINE
  5
CB9
330
1F
100
AcDbEntity
  8
0
  6
Continuous
 62
     7
100
AcDbLine
 10
7.168080158596972
 20
3.485619565269548
 30
0.0
 11
7.168080158596972
 21
3.415836360191423
 31
0.0
  0
LINE
  5
CBA
330
1F
100
AcDbEntity
  8
0
  6
Continuous
 62
     7
100
AcDbLine
 10
7.168080158596972
 20
3.338651906089859
 30
0.0
 11
7.168080158596972
 21
3.379887436363298
 31
0.0
  0
LINE
  5
CBB
330
1F
100
AcDbEntity
  8
0
  6
Continuous
 62
     7
100
AcDbLine
 10
7.127901949612592
 20
3.512052597496111
 30
0.0
 11
7.134396160368158
 21
3.518546808251673
 31
0.0
  0
LINE
  5
CBC
330
1F
100
AcDbEntity
  8
0
  6
Continuous
 62
     7
100
AcDbLine
 10
7.110984808987594
 20
3.495135456871111
 30
0.0
 11
7.104490598232874
 21
3.48864124611639
 31
0.0
  0
LINE
  5
CBD
330
1F
100
AcDbEntity
  8
0
  6
Continuous
 62
     7
100
AcDbLine
 10
7.015825892971968
 20
3.421122966636734
 30
0.0
 11
7.009481965237597
 21
3.414779038902361
 31
0.0
  0
LINE
  5
CBE
330
1F
100
AcDbEntity
  8
0
  6
Continuous
 62
     7
100
AcDbLine
 10
7.015825892971968
 20
3.586065087730483
 30
0.0
 11
7.024284463284468
 21
3.586065087730483
 31
0.0
  0
LINE
  5
CBF
330
1F
100
AcDbEntity
  8
0
  6
Continuous
 62
     7
100
AcDbLine
 10
7.204029082425094
 20
3.591351694175799
 30
0.0
 11
7.168080158596972
 21
3.591351694175799
 31
0.0
  0
LINE
  5
CC0
330
1F
100
AcDbEntity
  8
0
  6
Continuous
 62
     7
100
AcDbLine
 10
7.07080660000322
 20
3.591351694175799
 30
0.0
 11
7.030628391018847
 21
3.591351694175799
 31
0.0
  0
LINE
  5
CC1
330
1F
100
AcDbEntity
  8
0
  6
Continuous
 62
     7
100
AcDbLine
 10
7.009481965237597
 20
3.592409015464861
 30
0.0
 11
7.030628391018847
 21
3.592409015464861
 31
0.0
  0
LINE
  5
CC2
330
1F
100
AcDbEntity
  8
0
  6
Continuous
 62
     7
100
AcDbLine
 10
7.102526238675095
 20
3.592409015464861
 30
0.0
 11
7.136360519925093
 21
3.592409015464861
 31
0.0
  0
LINE
  5
CC3
330
1F
100
AcDbEntity
  8
0
  6
Continuous
 62
     7
100
AcDbLine
 10
7.110984808987594
 20
3.600867585777359
 30
0.0
 11
7.127901949612592
 21
3.600867585777359
 31
0.0
  0
LINE
  5
CC4
330
1F
100
AcDbEntity
  8
0
  6
Continuous
 62
     7
100
AcDbLine
 10
7.030628391018847
 20
3.774268277183609
 30
0.0
 11
7.024284463284468
 21
3.780612204917983
 31
0.0
  0
LINE
  5
CC5
330
1F
100
AcDbEntity
  8
0
  6
Continuous
 62
     7
100
AcDbLine
 10
7.136360519925093
 20
3.380944757652359
 30
0.0
 11
7.136360519925093
 21
3.414779038902361
 31
0.0
  0
LINE
  5
CC6
330
1F
100
AcDbEntity
  8
0
  6
Continuous
 62
     7
100
AcDbLine
 10
7.136360519925093
 20
3.486676886558609
 30
0.0
 11
7.136360519925093
 21
3.520511167808609
 31
0.0
  0
LINE
  5
CC7
330
1F
100
AcDbEntity
  8
0
  6
Continuous
 62
     7
100
AcDbLine
 10
7.136360519925093
 20
3.592409015464861
 30
0.0
 11
7.136360519925093
 21
3.626243296714861
 31
0.0
  0
LINE
  5
CC8
330
1F
100
AcDbEntity
  8
0
  6
Continuous
 62
     7
100
AcDbLine
 10
7.136360519925093
 20
3.698141144371109
 30
0.0
 11
7.136360519925093
 21
3.731975425621109
 31
0.0
  0
LINE
  5
CC9
330
1F
100
AcDbEntity
  8
0
  6
Continuous
 62
     7
100
AcDbLine
 10
7.127901949612592
 20
3.617784726402359
 30
0.0
 11
7.110984808987594
 21
3.617784726402359
 31
0.0
  0
LINE
  5
CCA
330
1F
100
AcDbEntity
  8
0
  6
Continuous
 62
     7
100
AcDbLine
 10
7.136360519925093
 20
3.626243296714861
 30
0.0
 11
7.102526238675095
 21
3.626243296714861
 31
0.0
  0
LINE
  5
CCB
330
1F
100
AcDbEntity
  8
0
  6
Continuous
 62
     7
100
AcDbLine
 10
7.030628391018847
 20
3.626243296714861
 30
0.0
 11
7.009481965237597
 21
3.626243296714861
 31
0.0
  0
LINE
  5
CCC
330
1F
100
AcDbEntity
  8
0
  6
Continuous
 62
     7
100
AcDbLine
 10
7.204029082425094
 20
3.627300618003923
 30
0.0
 11
7.168080158596972
 21
3.627300618003923
 31
0.0
  0
LINE
  5
CCD
330
1F
100
AcDbEntity
  8
0
  6
Continuous
 62
     7
100
AcDbLine
 10
7.07080660000322
 20
3.627300618003923
 30
0.0
 11
7.030628391018847
 21
3.627300618003923
 31
0.0
  0
LINE
  5
CCE
330
1F
100
AcDbEntity
  8
0
  6
Continuous
 62
     7
100
AcDbLine
 10
7.127901949612592
 20
3.706599714683609
 30
0.0
 11
7.134396160368158
 21
3.700105503928893
 31
0.0
  0
LINE
  5
CCF
330
1F
100
AcDbEntity
  8
0
  6
Continuous
 62
     7
100
AcDbLine
 10
7.110984808987594
 20
3.723516855308609
 30
0.0
 11
7.104490598232874
 21
3.730011066064174
 31
0.0
  0
LINE
  5
CD0
330
1F
100
AcDbEntity
  8
0
  6
Continuous
 62
     7
100
AcDbLine
 10
7.127901949612592
 20
3.389403327964859
 30
0.0
 11
7.127901949612592
 21
3.406320468589861
 31
0.0
  0
LINE
  5
CD1
330
1F
100
AcDbEntity
  8
0
  6
Continuous
 62
     7
100
AcDbLine
 10
7.127901949612592
 20
3.495135456871111
 30
0.0
 11
7.127901949612592
 21
3.512052597496111
 31
0.0
  0
LINE
  5
CD2
330
1F
100
AcDbEntity
  8
0
  6
Continuous
 62
     7
100
AcDbLine
 10
7.127901949612592
 20
3.600867585777359
 30
0.0
 11
7.127901949612592
 21
3.617784726402359
 31
0.0
  0
LINE
  5
CD3
330
1F
100
AcDbEntity
  8
0
  6
Continuous
 62
     7
100
AcDbLine
 10
7.127901949612592
 20
3.706599714683609
 30
0.0
 11
7.127901949612592
 21
3.723516855308609
 31
0.0
  0
LINE
  5
CD4
330
1F
100
AcDbEntity
  8
0
  6
Continuous
 62
     7
100
AcDbLine
 10
7.024284463284468
 20
3.480332958824234
 30
0.0
 11
7.030628391018847
 21
3.486676886558609
 31
0.0
  0
LINE
  5
CD5
330
1F
100
AcDbEntity
  8
0
  6
Continuous
 62
     7
100
AcDbLine
 10
7.024284463284468
 20
3.632587224449236
 30
0.0
 11
7.015825892971968
 21
3.632587224449236
 31
0.0
  0
LINE
  5
CD6
330
1F
100
AcDbEntity
  8
0
  6
Continuous
 62
     7
100
AcDbLine
 10
7.015825892971968
 20
3.651619007652359
 30
0.0
 11
6.973533041409467
 21
3.651619007652359
 31
0.0
  0
LINE
  5
CD7
330
1F
100
AcDbEntity
  8
0
  6
Continuous
 62
     7
100
AcDbLine
 10
7.110984808987594
 20
3.723516855308609
 30
0.0
 11
7.110984808987594
 21
3.706599714683609
 31
0.0
  0
LINE
  5
CD8
330
1F
100
AcDbEntity
  8
0
  6
Continuous
 62
     7
100
AcDbLine
 10
7.110984808987594
 20
3.617784726402359
 30
0.0
 11
7.110984808987594
 21
3.600867585777359
 31
0.0
  0
LINE
  5
CD9
330
1F
100
AcDbEntity
  8
0
  6
Continuous
 62
     7
100
AcDbLine
 10
7.110984808987594
 20
3.512052597496111
 30
0.0
 11
7.110984808987594
 21
3.495135456871111
 31
0.0
  0
LINE
  5
CDA
330
1F
100
AcDbEntity
  8
0
  6
Continuous
 62
     7
100
AcDbLine
 10
7.110984808987594
 20
3.406320468589861
 30
0.0
 11
7.110984808987594
 21
3.389403327964859
 31
0.0
  0
LINE
  5
CDB
330
1F
100
AcDbEntity
  8
0
  6
Continuous
 62
     7
100
AcDbLine
 10
7.102526238675095
 20
3.731975425621109
 30
0.0
 11
7.102526238675095
 21
3.698141144371109
 31
0.0
  0
LINE
  5
CDC
330
1F
100
AcDbEntity
  8
0
  6
Continuous
 62
     7
100
AcDbLine
 10
7.102526238675095
 20
3.626243296714861
 30
0.0
 11
7.102526238675095
 21
3.592409015464861
 31
0.0
  0
LINE
  5
CDD
330
1F
100
AcDbEntity
  8
0
  6
Continuous
 62
     7
100
AcDbLine
 10
7.102526238675095
 20
3.520511167808609
 30
0.0
 11
7.102526238675095
 21
3.486676886558609
 31
0.0
  0
LINE
  5
CDE
330
1F
100
AcDbEntity
  8
0
  6
Continuous
 62
     7
100
AcDbLine
 10
7.102526238675095
 20
3.414779038902361
 30
0.0
 11
7.102526238675095
 21
3.380944757652359
 31
0.0
  0
LINE
  5
CDF
330
1F
100
AcDbEntity
  8
0
  6
Continuous
 62
     7
100
AcDbLine
 10
7.127901949612592
 20
3.617784726402359
 30
0.0
 11
7.134396160368158
 21
3.624278937157923
 31
0.0
  0
LINE
  5
CE0
330
1F
100
AcDbEntity
  8
0
  6
Continuous
 62
     7
100
AcDbLine
 10
7.110984808987594
 20
3.600867585777359
 30
0.0
 11
7.104490598232874
 21
3.594373375022641
 31
0.0
  0
LINE
  5
CE1
330
1F
100
AcDbEntity
  8
0
  6
Continuous
 62
     7
100
AcDbLine
 10
6.973533041409467
 20
3.672765433433609
 30
0.0
 11
7.015825892971968
 21
3.672765433433609
 31
0.0
  0
LINE
  5
CE2
330
1F
100
AcDbEntity
  8
0
  6
Continuous
 62
     7
100
AcDbLine
 10
7.07080660000322
 20
3.774268277183609
 30
0.0
 11
7.07080660000322
 21
3.733032746910173
 31
0.0
  0
LINE
  5
CE3
330
1F
100
AcDbEntity
  8
0
  6
Continuous
 62
     7
100
AcDbLine
 10
7.07080660000322
 20
3.697083823082048
 30
0.0
 11
7.07080660000322
 21
3.627300618003923
 31
0.0
  0
LINE
  5
CE4
330
1F
100
AcDbEntity
  8
0
  6
Continuous
 62
     7
100
AcDbLine
 10
7.07080660000322
 20
3.591351694175799
 30
0.0
 11
7.07080660000322
 21
3.521568489097673
 31
0.0
  0
LINE
  5
CE5
330
1F
100
AcDbEntity
  8
0
  6
Continuous
 62
     7
100
AcDbLine
 10
7.07080660000322
 20
3.485619565269548
 30
0.0
 11
7.07080660000322
 21
3.415836360191423
 31
0.0
  0
LINE
  5
CE6
330
1F
100
AcDbEntity
  8
0
  6
Continuous
 62
     7
100
AcDbLine
 10
7.07080660000322
 20
3.338651906089859
 30
0.0
 11
7.07080660000322
 21
3.379887436363298
 31
0.0
  0
LINE
  5
CE7
330
1F
100
AcDbEntity
  8
0
  6
Continuous
 62
     7
100
AcDbLine
 10
7.015825892971968
 20
3.526855095542984
 30
0.0
 11
7.009481965237597
 21
3.520511167808609
 31
0.0
  0
LINE
  5
CE8
330
1F
100
AcDbEntity
  8
0
  6
Continuous
 62
     7
100
AcDbLine
 10
7.25689514687822
 20
3.774268277183609
 30
0.0
 11
7.263239074612593
 21
3.780612204917983
 31
0.0
  0
LINE
  5
CE9
330
1F
100
AcDbEntity
  8
0
  6
Continuous
 62
     7
100
AcDbLine
 10
7.015825892971968
 20
3.691797216636734
 30
0.0
 11
7.024284463284468
 21
3.691797216636734
 31
0.0
  0
LINE
  5
CEA
330
1F
100
AcDbEntity
  8
0
  6
Continuous
 62
     7
100
AcDbLine
 10
7.204029082425094
 20
3.697083823082048
 30
0.0
 11
7.168080158596972
 21
3.697083823082048
 31
0.0
  0
LINE
  5
CEB
330
1F
100
AcDbEntity
  8
0
  6
Continuous
 62
     7
100
AcDbLine
 10
7.07080660000322
 20
3.697083823082048
 30
0.0
 11
7.030628391018847
 21
3.697083823082048
 31
0.0
  0
LINE
  5
CEC
330
1F
100
AcDbEntity
  8
0
  6
Continuous
 62
     7
100
AcDbLine
 10
7.009481965237597
 20
3.698141144371109
 30
0.0
 11
7.030628391018847
 21
3.698141144371109
 31
0.0
  0
LINE
  5
CED
330
1F
100
AcDbEntity
  8
0
  6
Continuous
 62
     7
100
AcDbLine
 10
7.102526238675095
 20
3.698141144371109
 30
0.0
 11
7.136360519925093
 21
3.698141144371109
 31
0.0
  0
LINE
  5
CEE
330
1F
100
AcDbEntity
  8
0
  6
Continuous
 62
     7
100
AcDbLine
 10
7.210373010159469
 20
3.704485072105486
 30
0.0
 11
7.206506540311215
 21
3.708351541954584
 31
0.0
  0
LINE
  5
CEF
330
1F
100
AcDbEntity
  8
0
  6
Continuous
 62
     7
100
AcDbLine
 10
7.024284463284468
 20
3.586065087730483
 30
0.0
 11
7.030628391018847
 21
3.592409015464861
 31
0.0
  0
LINE
  5
CF0
330
1F
100
AcDbEntity
  8
0
  6
Continuous
 62
     7
100
AcDbLine
 10
7.210373010159469
 20
3.704485072105486
 30
0.0
 11
7.263239074612593
 21
3.704485072105486
 31
0.0
  0
LINE
  5
CF1
330
1F
100
AcDbEntity
  8
0
  6
Continuous
 62
     7
100
AcDbLine
 10
7.110984808987594
 20
3.706599714683609
 30
0.0
 11
7.127901949612592
 21
3.706599714683609
 31
0.0
  0
LINE
  5
CF2
330
1F
100
AcDbEntity
  8
0
  6
Continuous
 62
     7
100
AcDbLine
 10
7.212487652737594
 20
3.710828999839859
 30
0.0
 11
7.25689514687822
 21
3.710828999839859
 31
0.0
  0
LINE
  5
CF3
330
1F
100
AcDbEntity
  8
0
  6
Continuous
 62
     7
100
AcDbLine
 10
7.263239074612593
 20
3.704485072105486
 30
0.0
 11
7.25689514687822
 21
3.710828999839859
 31
0.0
  0
LINE
  5
CF4
330
1F
100
AcDbEntity
  8
0
  6
Continuous
 62
     7
100
AcDbLine
 10
7.030628391018847
 20
3.774268277183609
 30
0.0
 11
7.030628391018847
 21
3.731975425621109
 31
0.0
  0
LINE
  5
CF5
330
1F
100
AcDbEntity
  8
0
  6
Continuous
 62
     7
100
AcDbLine
 10
7.030628391018847
 20
3.698141144371109
 30
0.0
 11
7.030628391018847
 21
3.626243296714861
 31
0.0
  0
LINE
  5
CF6
330
1F
100
AcDbEntity
  8
0
  6
Continuous
 62
     7
100
AcDbLine
 10
7.030628391018847
 20
3.592409015464861
 30
0.0
 11
7.030628391018847
 21
3.520511167808609
 31
0.0
  0
LINE
  5
CF7
330
1F
100
AcDbEntity
  8
0
  6
Continuous
 62
     7
100
AcDbLine
 10
7.030628391018847
 20
3.486676886558609
 30
0.0
 11
7.030628391018847
 21
3.414779038902361
 31
0.0
  0
LINE
  5
CF8
330
1F
100
AcDbEntity
  8
0
  6
Continuous
 62
     7
100
AcDbLine
 10
7.030628391018847
 20
3.380944757652359
 30
0.0
 11
7.030628391018847
 21
3.338651906089859
 31
0.0
  0
LINE
  5
CF9
330
1F
100
AcDbEntity
  8
0
  6
Continuous
 62
     7
100
AcDbLine
 10
7.024284463284468
 20
3.332307978355483
 30
0.0
 11
7.024284463284468
 21
3.374600829917984
 31
0.0
  0
LINE
  5
CFA
330
1F
100
AcDbEntity
  8
0
  6
Continuous
 62
     7
100
AcDbLine
 10
7.024284463284468
 20
3.421122966636734
 30
0.0
 11
7.024284463284468
 21
3.480332958824234
 31
0.0
  0
LINE
  5
CFB
330
1F
100
AcDbEntity
  8
0
  6
Continuous
 62
     7
100
AcDbLine
 10
7.024284463284468
 20
3.526855095542984
 30
0.0
 11
7.024284463284468
 21
3.586065087730483
 31
0.0
  0
LINE
  5
CFC
330
1F
100
AcDbEntity
  8
0
  6
Continuous
 62
     7
100
AcDbLine
 10
7.024284463284468
 20
3.632587224449236
 30
0.0
 11
7.024284463284468
 21
3.691797216636734
 31
0.0
  0
LINE
  5
CFD
330
1F
100
AcDbEntity
  8
0
  6
Continuous
 62
     7
100
AcDbLine
 10
7.024284463284468
 20
3.738319353355484
 30
0.0
 11
7.024284463284468
 21
3.780612204917983
 31
0.0
  0
LINE
  5
CFE
330
1F
100
AcDbEntity
  8
0
  6
Continuous
 62
     7
100
AcDbLine
 10
7.127901949612592
 20
3.723516855308609
 30
0.0
 11
7.134396160368158
 21
3.730011066064174
 31
0.0
  0
LINE
  5
CFF
330
1F
100
AcDbEntity
  8
0
  6
Continuous
 62
     7
100
AcDbLine
 10
7.110984808987594
 20
3.706599714683609
 30
0.0
 11
7.104490598232874
 21
3.700105503928893
 31
0.0
  0
LINE
  5
D00
330
1F
100
AcDbEntity
  8
0
  6
Continuous
 62
     7
100
AcDbLine
 10
7.127901949612592
 20
3.723516855308609
 30
0.0
 11
7.110984808987594
 21
3.723516855308609
 31
0.0
  0
LINE
  5
D01
330
1F
100
AcDbEntity
  8
0
  6
Continuous
 62
     7
100
AcDbLine
 10
7.136360519925093
 20
3.731975425621109
 30
0.0
 11
7.102526238675095
 21
3.731975425621109
 31
0.0
  0
LINE
  5
D02
330
1F
100
AcDbEntity
  8
0
  6
Continuous
 62
     7
100
AcDbLine
 10
7.030628391018847
 20
3.731975425621109
 30
0.0
 11
7.009481965237597
 21
3.731975425621109
 31
0.0
  0
LINE
  5
D03
330
1F
100
AcDbEntity
  8
0
  6
Continuous
 62
     7
100
AcDbLine
 10
7.204029082425094
 20
3.733032746910173
 30
0.0
 11
7.168080158596972
 21
3.733032746910173
 31
0.0
  0
LINE
  5
D04
330
1F
100
AcDbEntity
  8
0
  6
Continuous
 62
     7
100
AcDbLine
 10
7.07080660000322
 20
3.733032746910173
 30
0.0
 11
7.030628391018847
 21
3.733032746910173
 31
0.0
  0
LINE
  5
D05
330
1F
100
AcDbEntity
  8
0
  6
Continuous
 62
     7
100
AcDbLine
 10
7.024284463284468
 20
3.738319353355484
 30
0.0
 11
7.015825892971968
 21
3.738319353355484
 31
0.0
  0
LINE
  5
D06
330
1F
100
AcDbEntity
  8
0
  6
Continuous
 62
     7
100
AcDbLine
 10
7.015825892971968
 20
3.355569046714859
 30
0.0
 11
7.015825892971968
 21
3.374600829917984
 31
0.0
  0
LINE
  5
D07
330
1F
100
AcDbEntity
  8
0
  6
Continuous
 62
     7
100
AcDbLine
 10
7.015825892971968
 20
3.421122966636734
 30
0.0
 11
7.015825892971968
 21
3.440154749839861
 31
0.0
  0
LINE
  5
D08
330
1F
100
AcDbEntity
  8
0
  6
Continuous
 62
     7
100
AcDbLine
 10
7.015825892971968
 20
3.461301175621109
 30
0.0
 11
7.015825892971968
 21
3.480332958824234
 31
0.0
  0
LINE
  5
D09
330
1F
100
AcDbEntity
  8
0
  6
Continuous
 62
     7
100
AcDbLine
 10
7.015825892971968
 20
3.526855095542984
 30
0.0
 11
7.015825892971968
 21
3.545886878746109
 31
0.0
  0
LINE
  5
D0A
330
1F
100
AcDbEntity
  8
0
  6
Continuous
 62
     7
100
AcDbLine
 10
7.015825892971968
 20
3.567033304527359
 30
0.0
 11
7.015825892971968
 21
3.586065087730483
 31
0.0
  0
LINE
  5
D0B
330
1F
100
AcDbEntity
  8
0
  6
Continuous
 62
     7
100
AcDbLine
 10
7.015825892971968
 20
3.632587224449236
 30
0.0
 11
7.015825892971968
 21
3.651619007652359
 31
0.0
  0
LINE
  5
D0C
330
1F
100
AcDbEntity
  8
0
  6
Continuous
 62
     7
100
AcDbLine
 10
7.015825892971968
 20
3.672765433433609
 30
0.0
 11
7.015825892971968
 21
3.691797216636734
 31
0.0
  0
LINE
  5
D0D
330
1F
100
AcDbEntity
  8
0
  6
Continuous
 62
     7
100
AcDbLine
 10
7.015825892971968
 20
3.738319353355484
 30
0.0
 11
7.015825892971968
 21
3.757351136558611
 31
0.0
  0
LINE
  5
D0E
330
1F
100
AcDbEntity
  8
0
  6
Continuous
 62
     7
100
AcDbLine
 10
7.009481965237597
 20
3.355569046714859
 30
0.0
 11
7.009481965237597
 21
3.380944757652359
 31
0.0
  0
LINE
  5
D0F
330
1F
100
AcDbEntity
  8
0
  6
Continuous
 62
     7
100
AcDbLine
 10
7.009481965237597
 20
3.414779038902361
 30
0.0
 11
7.009481965237597
 21
3.440154749839861
 31
0.0
  0
LINE
  5
D10
330
1F
100
AcDbEntity
  8
0
  6
Continuous
 62
     7
100
AcDbLine
 10
7.009481965237597
 20
3.461301175621109
 30
0.0
 11
7.009481965237597
 21
3.486676886558609
 31
0.0
  0
LINE
  5
D11
330
1F
100
AcDbEntity
  8
0
  6
Continuous
 62
     7
100
AcDbLine
 10
7.009481965237597
 20
3.520511167808609
 30
0.0
 11
7.009481965237597
 21
3.545886878746109
 31
0.0
  0
LINE
  5
D12
330
1F
100
AcDbEntity
  8
0
  6
Continuous
 62
     7
100
AcDbLine
 10
7.009481965237597
 20
3.567033304527359
 30
0.0
 11
7.009481965237597
 21
3.592409015464861
 31
0.0
  0
LINE
  5
D13
330
1F
100
AcDbEntity
  8
0
  6
Continuous
 62
     7
100
AcDbLine
 10
7.009481965237597
 20
3.626243296714861
 30
0.0
 11
7.009481965237597
 21
3.651619007652359
 31
0.0
  0
LINE
  5
D14
330
1F
100
AcDbEntity
  8
0
  6
Continuous
 62
     7
100
AcDbLine
 10
7.009481965237597
 20
3.672765433433609
 30
0.0
 11
7.009481965237597
 21
3.698141144371109
 31
0.0
  0
LINE
  5
D15
330
1F
100
AcDbEntity
  8
0
  6
Continuous
 62
     7
100
AcDbLine
 10
7.009481965237597
 20
3.731975425621109
 30
0.0
 11
7.009481965237597
 21
3.757351136558611
 31
0.0
  0
LINE
  5
D16
330
1F
100
AcDbEntity
  8
0
  6
Continuous
 62
     7
100
AcDbLine
 10
7.015825892971968
 20
3.632587224449236
 30
0.0
 11
7.009481965237597
 21
3.626243296714861
 31
0.0
  0
LINE
  5
D17
330
1F
100
AcDbEntity
  8
0
  6
Continuous
 62
     7
100
AcDbLine
 10
7.015825892971968
 20
3.757351136558611
 30
0.0
 11
6.973533041409467
 21
3.757351136558611
 31
0.0
  0
LINE
  5
D18
330
1F
100
AcDbEntity
  8
0
  6
Continuous
 62
     7
100
AcDbLine
 10
6.979876969143844
 20
3.757351136558611
 30
0.0
 11
6.979876969143844
 21
3.672765433433609
 31
0.0
  0
LINE
  5
D19
330
1F
100
AcDbEntity
  8
0
  6
Continuous
 62
     7
100
AcDbLine
 10
6.979876969143844
 20
3.651619007652359
 30
0.0
 11
6.979876969143844
 21
3.567033304527359
 31
0.0
  0
LINE
  5
D1A
330
1F
100
AcDbEntity
  8
0
  6
Continuous
 62
     7
100
AcDbLine
 10
6.979876969143844
 20
3.545886878746109
 30
0.0
 11
6.979876969143844
 21
3.461301175621109
 31
0.0
  0
LINE
  5
D1B
330
1F
100
AcDbEntity
  8
0
  6
Continuous
 62
     7
100
AcDbLine
 10
6.979876969143844
 20
3.440154749839861
 30
0.0
 11
6.979876969143844
 21
3.355569046714859
 31
0.0
  0
LINE
  5
D1C
330
1F
100
AcDbEntity
  8
0
  6
Continuous
 62
     7
100
AcDbLine
 10
6.973533041409467
 20
3.757351136558611
 30
0.0
 11
6.973533041409467
 21
3.672765433433609
 31
0.0
  0
LINE
  5
D1D
330
1F
100
AcDbEntity
  8
0
  6
Continuous
 62
     7
100
AcDbLine
 10
6.973533041409467
 20
3.651619007652359
 30
0.0
 11
6.973533041409467
 21
3.567033304527359
 31
0.0
  0
LINE
  5
D1E
330
1F
100
AcDbEntity
  8
0
  6
Continuous
 62
     7
100
AcDbLine
 10
6.973533041409467
 20
3.545886878746109
 30
0.0
 11
6.973533041409467
 21
3.461301175621109
 31
0.0
  0
LINE
  5
D1F
330
1F
100
AcDbEntity
  8
0
  6
Continuous
 62
     7
100
AcDbLine
 10
6.973533041409467
 20
3.440154749839861
 30
0.0
 11
6.973533041409467
 21
3.355569046714859
 31
0.0
  0
LINE
  5
D20
330
1F
100
AcDbEntity
  8
0
  6
Continuous
 62
     7
100
AcDbLine
 10
7.024284463284468
 20
3.691797216636734
 30
0.0
 11
7.030628391018847
 21
3.698141144371109
 31
0.0
  0
LINE
  5
D21
330
1F
100
AcDbEntity
  8
0
  6
Continuous
 62
     7
100
AcDbLine
 10
7.030628391018847
 20
3.774268277183609
 30
0.0
 11
7.25689514687822
 21
3.774268277183609
 31
0.0
  0
LINE
  5
D22
330
1F
100
AcDbEntity
  8
0
  6
Continuous
 62
     7
100
AcDbLine
 10
7.024284463284468
 20
3.780612204917983
 30
0.0
 11
7.263239074612593
 21
3.780612204917983
 31
0.0
  0
LINE
  5
D23
330
1F
100
AcDbEntity
  8
0
  6
Continuous
 62
     7
100
AcDbLine
 10
6.954501258206343
 20
3.093353367027359
 30
0.0
 11
6.954501258206345
 21
3.808102558433612
 31
0.0
  0
LINE
  5
D24
330
1F
100
AcDbEntity
  8
0
  6
Continuous
 62
     7
100
AcDbLine
 10
7.288614785550094
 20
3.808102558433612
 30
0.0
 11
6.954501258206345
 21
3.808102558433612
 31
0.0
  0
LINE
  5
D25
330
1F
100
AcDbEntity
  8
0
  6
Continuous
 62
     7
100
AcDbLine
 10
7.015825892971968
 20
3.738319353355484
 30
0.0
 11
7.009481965237597
 21
3.731975425621109
 31
0.0
  0
ARC
  5
D26
330
1F
100
AcDbEntity
  8
0
  6
Continuous
 62
     7
100
AcDbCircle
 10
7.119443379300093
 20
3.397861898277359
 30
0.0
 40
0.02114642578125
100
AcDbArc
 50
126.8698976458006
 51
143.1301023542005
  0
ARC
  5
D27
330
1F
100
AcDbEntity
  8
0
  6
Continuous
 62
     7
100
AcDbCircle
 10
7.119443379300093
 20
3.397861898277359
 30
0.0
 40
0.02114642578125
100
AcDbArc
 50
36.8698976457995
 51
53.13010235420039
  0
ARC
  5
D28
330
1F
100
AcDbEntity
  8
0
  6
Continuous
 62
     7
100
AcDbCircle
 10
7.119443379300093
 20
3.397861898277359
 30
0.0
 40
0.02114642578125
100
AcDbArc
 50
306.8698976458005
 51
323.1301023542004
  0
ARC
  5
D29
330
1F
100
AcDbEntity
  8
0
  6
Continuous
 62
     7
100
AcDbCircle
 10
7.119443379300093
 20
3.397861898277359
 30
0.0
 40
0.02114642578125
100
AcDbArc
 50
216.8698976457995
 51
233.1301023542005
  0
ARC
  5
D2A
330
1F
100
AcDbEntity
  8
0
  6
Continuous
 62
     7
100
AcDbCircle
 10
7.119443379300093
 20
3.715058284996111
 30
0.0
 40
0.02114642578125
100
AcDbArc
 50
126.8698976458006
 51
143.1301023542005
  0
ARC
  5
D2B
330
1F
100
AcDbEntity
  8
0
  6
Continuous
 62
     7
100
AcDbCircle
 10
7.119443379300093
 20
3.715058284996111
 30
0.0
 40
0.02114642578125
100
AcDbArc
 50
36.8698976457995
 51
53.13010235420039
  0
ARC
  5
D2C
330
1F
100
AcDbEntity
  8
0
  6
Continuous
 62
     7
100
AcDbCircle
 10
7.119443379300093
 20
3.715058284996111
 30
0.0
 40
0.02114642578125
100
AcDbArc
 50
306.8698976458005
 51
323.1301023542004
  0
ARC
  5
D2D
330
1F
100
AcDbEntity
  8
0
  6
Continuous
 62
     7
100
AcDbCircle
 10
7.119443379300093
 20
3.715058284996111
 30
0.0
 40
0.02114642578125
100
AcDbArc
 50
216.8698976457995
 51
233.1301023542005
  0
ARC
  5
D2E
330
1F
100
AcDbEntity
  8
0
  6
Continuous
 62
     7
100
AcDbCircle
 10
7.119443379300093
 20
3.609326156089862
 30
0.0
 40
0.02114642578125
100
AcDbArc
 50
126.8698976458006
 51
143.1301023542005
  0
ARC
  5
D2F
330
1F
100
AcDbEntity
  8
0
  6
Continuous
 62
     7
100
AcDbCircle
 10
7.119443379300093
 20
3.609326156089862
 30
0.0
 40
0.02114642578125
100
AcDbArc
 50
36.8698976457995
 51
53.13010235420039
  0
ARC
  5
D30
330
1F
100
AcDbEntity
  8
0
  6
Continuous
 62
     7
100
AcDbCircle
 10
7.119443379300093
 20
3.609326156089862
 30
0.0
 40
0.02114642578125
100
AcDbArc
 50
306.8698976458005
 51
323.1301023542004
  0
ARC
  5
D31
330
1F
100
AcDbEntity
  8
0
  6
Continuous
 62
     7
100
AcDbCircle
 10
7.119443379300093
 20
3.609326156089862
 30
0.0
 40
0.02114642578125
100
AcDbArc
 50
216.8698976457995
 51
233.1301023542005
  0
ARC
  5
D32
330
1F
100
AcDbEntity
  8
0
  6
Continuous
 62
     7
100
AcDbCircle
 10
7.119443379300093
 20
3.503594027183611
 30
0.0
 40
0.02114642578125
100
AcDbArc
 50
126.8698976458006
 51
143.1301023542005
  0
ARC
  5
D33
330
1F
100
AcDbEntity
  8
0
  6
Continuous
 62
     7
100
AcDbCircle
 10
7.119443379300093
 20
3.503594027183611
 30
0.0
 40
0.02114642578125
100
AcDbArc
 50
36.8698976457995
 51
53.13010235420039
  0
ARC
  5
D34
330
1F
100
AcDbEntity
  8
0
  6
Continuous
 62
     7
100
AcDbCircle
 10
7.119443379300093
 20
3.503594027183611
 30
0.0
 40
0.02114642578125
100
AcDbArc
 50
306.8698976458005
 51
323.1301023542004
  0
ARC
  5
D35
330
1F
100
AcDbEntity
  8
0
  6
Continuous
 62
     7
100
AcDbCircle
 10
7.119443379300093
 20
3.503594027183611
 30
0.0
 40
0.02114642578125
100
AcDbArc
 50
216.8698976457995
 51
233.1301023542005
  0
ARC
  5
D36
330
1F
100
AcDbEntity
  8
0
  6
Continuous
 62
     7
100
AcDbCircle
 10
7.212487652737594
 20
3.702370429527359
 30
0.0
 40
0.0084585703125
100
AcDbArc
 50
90.0
 51
180.0
  0
CIRCLE
  5
D37
330
1F
100
AcDbEntity
  8
0
  6
Continuous
 62
     7
100
AcDbCircle
 10
7.119443379300093
 20
3.609326156089862
 30
0.0
 40
0.044407494140625
  0
CIRCLE
  5
D38
330
1F
100
AcDbEntity
  8
0
  6
Continuous
 62
     7
100
AcDbCircle
 10
7.119443379300093
 20
3.715058284996111
 30
0.0
 40
0.044407494140625
  0
CIRCLE
  5
D39
330
1F
100
AcDbEntity
  8
0
  6
Continuous
 62
     7
100
AcDbCircle
 10
7.119443379300093
 20
3.609326156089862
 30
0.0
 40
0.03383428125
  0
CIRCLE
  5
D3A
330
1F
100
AcDbEntity
  8
0
  6
Continuous
 62
     7
100
AcDbCircle
 10
7.119443379300093
 20
3.397861898277359
 30
0.0
 40
0.03383428125
  0
CIRCLE
  5
D3B
330
1F
100
AcDbEntity
  8
0
  6
Continuous
 62
     7
100
AcDbCircle
 10
7.119443379300093
 20
3.503594027183611
 30
0.0
 40
0.03383428125
  0
CIRCLE
  5
D3C
330
1F
100
AcDbEntity
  8
0
  6
Continuous
 62
     7
100
AcDbCircle
 10
7.119443379300093
 20
3.715058284996111
 30
0.0
 40
0.03383428125
  0
CIRCLE
  5
D3D
330
1F
100
AcDbEntity
  8
0
  6
Continuous
 62
     7
100
AcDbCircle
 10
7.119443379300093
 20
3.397861898277359
 30
0.0
 40
0.044407494140625
  0
CIRCLE
  5
D3E
330
1F
100
AcDbEntity
  8
0
  6
Continuous
 62
     7
100
AcDbCircle
 10
7.119443379300093
 20
3.503594027183611
 30
0.0
 40
0.044407494140625
  0
LINE
  5
D3F
330
1F
100
AcDbEntity
  8
0
  6
Continuous
 62
     7
100
AcDbLine
 10
7.015825892971968
 20
4.339915654684294
 30
0.0
 11
7.009481965237597
 21
4.346259582418671
 31
0.0
  0
LINE
  5
D40
330
1F
100
AcDbEntity
  8
0
  6
Continuous
 62
     7
100
AcDbLine
 10
7.024284463284468
 20
4.386437791403045
 30
0.0
 11
7.030628391018847
 21
4.380093863668668
 31
0.0
  0
LINE
  5
D41
330
1F
100
AcDbEntity
  8
0
  6
Continuous
 62
     7
100
AcDbLine
 10
6.973533041409467
 20
4.320883871481171
 30
0.0
 11
7.015825892971968
 21
4.320883871481171
 31
0.0
  0
LINE
  5
D42
330
1F
100
AcDbEntity
  8
0
  6
Continuous
 62
     7
100
AcDbLine
 10
7.015825892971968
 20
4.339915654684294
 30
0.0
 11
7.024284463284468
 21
4.339915654684294
 31
0.0
  0
LINE
  5
D43
330
1F
100
AcDbEntity
  8
0
  6
Continuous
 62
     7
100
AcDbLine
 10
7.204029082425094
 20
4.345202261129609
 30
0.0
 11
7.168080158596972
 21
4.345202261129609
 31
0.0
  0
LINE
  5
D44
330
1F
100
AcDbEntity
  8
0
  6
Continuous
 62
     7
100
AcDbLine
 10
7.07080660000322
 20
4.345202261129609
 30
0.0
 11
7.030628391018847
 21
4.345202261129609
 31
0.0
  0
LINE
  5
D45
330
1F
100
AcDbEntity
  8
0
  6
Continuous
 62
     7
100
AcDbLine
 10
7.009481965237597
 20
4.346259582418671
 30
0.0
 11
7.030628391018847
 21
4.346259582418671
 31
0.0
  0
LINE
  5
D46
330
1F
100
AcDbEntity
  8
0
  6
Continuous
 62
     7
100
AcDbLine
 10
7.102526238675095
 20
4.346259582418671
 30
0.0
 11
7.136360519925093
 21
4.346259582418671
 31
0.0
  0
LINE
  5
D47
330
1F
100
AcDbEntity
  8
0
  6
Continuous
 62
     7
100
AcDbLine
 10
7.110984808987594
 20
4.35471815273117
 30
0.0
 11
7.127901949612592
 21
4.35471815273117
 31
0.0
  0
LINE
  5
D48
330
1F
100
AcDbEntity
  8
0
  6
Continuous
 62
     7
100
AcDbLine
 10
7.015825892971968
 20
4.445647783590548
 30
0.0
 11
7.009481965237597
 21
4.45199171132492
 31
0.0
  0
LINE
  5
D49
330
1F
100
AcDbEntity
  8
0
  6
Continuous
 62
     7
100
AcDbLine
 10
7.127901949612592
 20
4.35471815273117
 30
0.0
 11
7.134396160368158
 21
4.348223941976451
 31
0.0
  0
LINE
  5
D4A
330
1F
100
AcDbEntity
  8
0
  6
Continuous
 62
     7
100
AcDbLine
 10
7.110984808987594
 20
4.371635293356169
 30
0.0
 11
7.104490598232874
 21
4.378129504111734
 31
0.0
  0
LINE
  5
D4B
330
1F
100
AcDbEntity
  8
0
  6
Continuous
 62
     7
100
AcDbLine
 10
7.127901949612592
 20
4.371635293356169
 30
0.0
 11
7.110984808987594
 21
4.371635293356169
 31
0.0
  0
LINE
  5
D4C
330
1F
100
AcDbEntity
  8
0
  6
Continuous
 62
     7
100
AcDbLine
 10
7.136360519925093
 20
4.380093863668668
 30
0.0
 11
7.102526238675095
 21
4.380093863668668
 31
0.0
  0
LINE
  5
D4D
330
1F
100
AcDbEntity
  8
0
  6
Continuous
 62
     7
100
AcDbLine
 10
7.030628391018847
 20
4.380093863668668
 30
0.0
 11
7.009481965237597
 21
4.380093863668668
 31
0.0
  0
LINE
  5
D4E
330
1F
100
AcDbEntity
  8
0
  6
Continuous
 62
     7
100
AcDbLine
 10
7.204029082425094
 20
4.381151184957733
 30
0.0
 11
7.168080158596972
 21
4.381151184957733
 31
0.0
  0
LINE
  5
D4F
330
1F
100
AcDbEntity
  8
0
  6
Continuous
 62
     7
100
AcDbLine
 10
7.07080660000322
 20
4.381151184957733
 30
0.0
 11
7.030628391018847
 21
4.381151184957733
 31
0.0
  0
LINE
  5
D50
330
1F
100
AcDbEntity
  8
0
  6
Continuous
 62
     7
100
AcDbLine
 10
7.024284463284468
 20
4.386437791403045
 30
0.0
 11
7.015825892971968
 21
4.386437791403045
 31
0.0
  0
LINE
  5
D51
330
1F
100
AcDbEntity
  8
0
  6
Continuous
 62
     7
100
AcDbLine
 10
7.210373010159469
 20
4.297622803121797
 30
0.0
 11
7.204029082425094
 21
4.303966730856171
 31
0.0
  0
LINE
  5
D52
330
1F
100
AcDbEntity
  8
0
  6
Continuous
 62
     7
100
AcDbLine
 10
7.015825892971968
 20
4.405469574606169
 30
0.0
 11
6.973533041409467
 21
4.405469574606169
 31
0.0
  0
LINE
  5
D53
330
1F
100
AcDbEntity
  8
0
  6
Continuous
 62
     7
100
AcDbLine
 10
7.024284463284468
 20
4.492169920309295
 30
0.0
 11
7.030628391018847
 21
4.485825992574921
 31
0.0
  0
LINE
  5
D54
330
1F
100
AcDbEntity
  8
0
  6
Continuous
 62
     7
100
AcDbLine
 10
6.973533041409467
 20
4.426616000387419
 30
0.0
 11
7.015825892971968
 21
4.426616000387419
 31
0.0
  0
LINE
  5
D55
330
1F
100
AcDbEntity
  8
0
  6
Continuous
 62
     7
100
AcDbLine
 10
7.015825892971968
 20
4.551379912496795
 30
0.0
 11
7.009481965237597
 21
4.557723840231171
 31
0.0
  0
LINE
  5
D56
330
1F
100
AcDbEntity
  8
0
  6
Continuous
 62
     7
100
AcDbLine
 10
7.288614785550094
 20
4.77341738319992
 30
0.0
 11
7.288614785550094
 21
3.83451607851242
 31
0.0
  0
LINE
  5
D57
330
1F
100
AcDbEntity
  8
0
  6
Continuous
 62
     7
100
AcDbLine
 10
7.015825892971968
 20
4.445647783590548
 30
0.0
 11
7.024284463284468
 21
4.445647783590548
 31
0.0
  0
LINE
  5
D58
330
1F
100
AcDbEntity
  8
0
  6
Continuous
 62
     7
100
AcDbLine
 10
7.204029082425094
 20
4.450934390035858
 30
0.0
 11
7.168080158596972
 21
4.450934390035858
 31
0.0
  0
LINE
  5
D59
330
1F
100
AcDbEntity
  8
0
  6
Continuous
 62
     7
100
AcDbLine
 10
7.07080660000322
 20
4.450934390035858
 30
0.0
 11
7.030628391018847
 21
4.450934390035858
 31
0.0
  0
LINE
  5
D5A
330
1F
100
AcDbEntity
  8
0
  6
Continuous
 62
     7
100
AcDbLine
 10
7.009481965237597
 20
4.45199171132492
 30
0.0
 11
7.030628391018847
 21
4.45199171132492
 31
0.0
  0
LINE
  5
D5B
330
1F
100
AcDbEntity
  8
0
  6
Continuous
 62
     7
100
AcDbLine
 10
7.102526238675095
 20
4.45199171132492
 30
0.0
 11
7.136360519925093
 21
4.45199171132492
 31
0.0
  0
LINE
  5
D5C
330
1F
100
AcDbEntity
  8
0
  6
Continuous
 62
     7
100
AcDbLine
 10
7.127901949612592
 20
4.460450281637419
 30
0.0
 11
7.134396160368158
 21
4.453956070882702
 31
0.0
  0
LINE
  5
D5D
330
1F
100
AcDbEntity
  8
0
  6
Continuous
 62
     7
100
AcDbLine
 10
7.110984808987594
 20
4.47736742226242
 30
0.0
 11
7.104490598232874
 21
4.483861633017984
 31
0.0
  0
LINE
  5
D5E
330
1F
100
AcDbEntity
  8
0
  6
Continuous
 62
     7
100
AcDbLine
 10
7.263239074612593
 20
4.669799896871794
 30
0.0
 11
7.263239074612593
 21
4.745927029684296
 31
0.0
  0
LINE
  5
D5F
330
1F
100
AcDbEntity
  8
0
  6
Continuous
 62
     7
100
AcDbLine
 10
7.25689514687822
 20
4.676143824606168
 30
0.0
 11
7.25689514687822
 21
4.739583101949921
 31
0.0
  0
LINE
  5
D60
330
1F
100
AcDbEntity
  8
0
  6
Continuous
 62
     7
100
AcDbLine
 10
7.127901949612592
 20
4.371635293356169
 30
0.0
 11
7.134396160368158
 21
4.378129504111734
 31
0.0
  0
LINE
  5
D61
330
1F
100
AcDbEntity
  8
0
  6
Continuous
 62
     7
100
AcDbLine
 10
7.110984808987594
 20
4.35471815273117
 30
0.0
 11
7.104490598232874
 21
4.348223941976451
 31
0.0
  0
LINE
  5
D62
330
1F
100
AcDbEntity
  8
0
  6
Continuous
 62
     7
100
AcDbLine
 10
7.110984808987594
 20
4.460450281637419
 30
0.0
 11
7.127901949612592
 21
4.460450281637419
 31
0.0
  0
LINE
  5
D63
330
1F
100
AcDbEntity
  8
0
  6
Continuous
 62
     7
100
AcDbLine
 10
7.127901949612592
 20
4.47736742226242
 30
0.0
 11
7.110984808987594
 21
4.47736742226242
 31
0.0
  0
LINE
  5
D64
330
1F
100
AcDbEntity
  8
0
  6
Continuous
 62
     7
100
AcDbLine
 10
7.024284463284468
 20
4.597902049215544
 30
0.0
 11
7.030628391018847
 21
4.591558121481171
 31
0.0
  0
LINE
  5
D65
330
1F
100
AcDbEntity
  8
0
  6
Continuous
 62
     7
100
AcDbLine
 10
7.024284463284468
 20
4.297622803121797
 30
0.0
 11
7.030628391018847
 21
4.303966730856171
 31
0.0
  0
LINE
  5
D66
330
1F
100
AcDbEntity
  8
0
  6
Continuous
 62
     7
100
AcDbLine
 10
7.136360519925093
 20
4.485825992574921
 30
0.0
 11
7.102526238675095
 21
4.485825992574921
 31
0.0
  0
LINE
  5
D67
330
1F
100
AcDbEntity
  8
0
  6
Continuous
 62
     7
100
AcDbLine
 10
7.030628391018847
 20
4.485825992574921
 30
0.0
 11
7.009481965237597
 21
4.485825992574921
 31
0.0
  0
LINE
  5
D68
330
1F
100
AcDbEntity
  8
0
  6
Continuous
 62
     7
100
AcDbLine
 10
7.204029082425094
 20
4.486883313863983
 30
0.0
 11
7.168080158596972
 21
4.486883313863983
 31
0.0
  0
LINE
  5
D69
330
1F
100
AcDbEntity
  8
0
  6
Continuous
 62
     7
100
AcDbLine
 10
7.07080660000322
 20
4.486883313863983
 30
0.0
 11
7.030628391018847
 21
4.486883313863983
 31
0.0
  0
LINE
  5
D6A
330
1F
100
AcDbEntity
  8
0
  6
Continuous
 62
     7
100
AcDbLine
 10
7.024284463284468
 20
4.492169920309295
 30
0.0
 11
7.015825892971968
 21
4.492169920309295
 31
0.0
  0
LINE
  5
D6B
330
1F
100
AcDbEntity
  8
0
  6
Continuous
 62
     7
100
AcDbLine
 10
7.015825892971968
 20
4.657112041403044
 30
0.0
 11
7.009481965237597
 21
4.66345596913742
 31
0.0
  0
LINE
  5
D6C
330
1F
100
AcDbEntity
  8
0
  6
Continuous
 62
     7
100
AcDbLine
 10
7.210373010159469
 20
4.669799896871794
 30
0.0
 11
7.210373010159469
 21
4.428730642965546
 31
0.0
  0
LINE
  5
D6D
330
1F
100
AcDbEntity
  8
0
  6
Continuous
 62
     7
100
AcDbLine
 10
7.210373010159469
 20
4.352603510153047
 30
0.0
 11
7.210373010159469
 21
4.297622803121797
 31
0.0
  0
LINE
  5
D6E
330
1F
100
AcDbEntity
  8
0
  6
Continuous
 62
     7
100
AcDbLine
 10
7.015825892971968
 20
4.51120170351242
 30
0.0
 11
6.973533041409467
 21
4.51120170351242
 31
0.0
  0
LINE
  5
D6F
330
1F
100
AcDbEntity
  8
0
  6
Continuous
 62
     7
100
AcDbLine
 10
7.127901949612592
 20
4.56618241054367
 30
0.0
 11
7.134396160368158
 21
4.559688199788951
 31
0.0
  0
LINE
  5
D70
330
1F
100
AcDbEntity
  8
0
  6
Continuous
 62
     7
100
AcDbLine
 10
7.110984808987594
 20
4.583099551168671
 30
0.0
 11
7.104490598232874
 21
4.589593761924233
 31
0.0
  0
LINE
  5
D71
330
1F
100
AcDbEntity
  8
0
  6
Continuous
 62
     7
100
AcDbLine
 10
7.204029082425094
 20
4.303966730856171
 30
0.0
 11
7.204029082425094
 21
4.739583101949921
 31
0.0
  0
LINE
  5
D72
330
1F
100
AcDbEntity
  8
0
  6
Continuous
 62
     7
100
AcDbLine
 10
7.024284463284468
 20
4.339915654684294
 30
0.0
 11
7.030628391018847
 21
4.346259582418671
 31
0.0
  0
LINE
  5
D73
330
1F
100
AcDbEntity
  8
0
  6
Continuous
 62
     7
100
AcDbLine
 10
6.973533041409467
 20
4.53234812929367
 30
0.0
 11
7.015825892971968
 21
4.53234812929367
 31
0.0
  0
LINE
  5
D74
330
1F
100
AcDbEntity
  8
0
  6
Continuous
 62
     7
100
AcDbLine
 10
7.024284463284468
 20
4.703634178121796
 30
0.0
 11
7.030628391018847
 21
4.697290250387418
 31
0.0
  0
LINE
  5
D75
330
1F
100
AcDbEntity
  8
0
  6
Continuous
 62
     7
100
AcDbLine
 10
7.168080158596972
 20
4.739583101949921
 30
0.0
 11
7.168080158596972
 21
4.698347571676483
 31
0.0
  0
LINE
  5
D76
330
1F
100
AcDbEntity
  8
0
  6
Continuous
 62
     7
100
AcDbLine
 10
7.168080158596972
 20
4.662398647848358
 30
0.0
 11
7.168080158596972
 21
4.592615442770235
 31
0.0
  0
LINE
  5
D77
330
1F
100
AcDbEntity
  8
0
  6
Continuous
 62
     7
100
AcDbLine
 10
7.168080158596972
 20
4.556666518942107
 30
0.0
 11
7.168080158596972
 21
4.486883313863983
 31
0.0
  0
LINE
  5
D78
330
1F
100
AcDbEntity
  8
0
  6
Continuous
 62
     7
100
AcDbLine
 10
7.168080158596972
 20
4.450934390035858
 30
0.0
 11
7.168080158596972
 21
4.381151184957733
 31
0.0
  0
LINE
  5
D79
330
1F
100
AcDbEntity
  8
0
  6
Continuous
 62
     7
100
AcDbLine
 10
7.168080158596972
 20
4.303966730856171
 30
0.0
 11
7.168080158596972
 21
4.345202261129609
 31
0.0
  0
LINE
  5
D7A
330
1F
100
AcDbEntity
  8
0
  6
Continuous
 62
     7
100
AcDbLine
 10
7.127901949612592
 20
4.47736742226242
 30
0.0
 11
7.134396160368158
 21
4.483861633017984
 31
0.0
  0
LINE
  5
D7B
330
1F
100
AcDbEntity
  8
0
  6
Continuous
 62
     7
100
AcDbLine
 10
7.110984808987594
 20
4.460450281637419
 30
0.0
 11
7.104490598232874
 21
4.453956070882702
 31
0.0
  0
LINE
  5
D7C
330
1F
100
AcDbEntity
  8
0
  6
Continuous
 62
     7
100
AcDbLine
 10
7.015825892971968
 20
4.386437791403045
 30
0.0
 11
7.009481965237597
 21
4.380093863668668
 31
0.0
  0
LINE
  5
D7D
330
1F
100
AcDbEntity
  8
0
  6
Continuous
 62
     7
100
AcDbLine
 10
7.015825892971968
 20
4.551379912496795
 30
0.0
 11
7.024284463284468
 21
4.551379912496795
 31
0.0
  0
LINE
  5
D7E
330
1F
100
AcDbEntity
  8
0
  6
Continuous
 62
     7
100
AcDbLine
 10
7.204029082425094
 20
4.556666518942107
 30
0.0
 11
7.168080158596972
 21
4.556666518942107
 31
0.0
  0
LINE
  5
D7F
330
1F
100
AcDbEntity
  8
0
  6
Continuous
 62
     7
100
AcDbLine
 10
7.07080660000322
 20
4.556666518942107
 30
0.0
 11
7.030628391018847
 21
4.556666518942107
 31
0.0
  0
LINE
  5
D80
330
1F
100
AcDbEntity
  8
0
  6
Continuous
 62
     7
100
AcDbLine
 10
7.009481965237597
 20
4.557723840231171
 30
0.0
 11
7.030628391018847
 21
4.557723840231171
 31
0.0
  0
LINE
  5
D81
330
1F
100
AcDbEntity
  8
0
  6
Continuous
 62
     7
100
AcDbLine
 10
7.102526238675095
 20
4.557723840231171
 30
0.0
 11
7.136360519925093
 21
4.557723840231171
 31
0.0
  0
LINE
  5
D82
330
1F
100
AcDbEntity
  8
0
  6
Continuous
 62
     7
100
AcDbLine
 10
7.110984808987594
 20
4.56618241054367
 30
0.0
 11
7.127901949612592
 21
4.56618241054367
 31
0.0
  0
LINE
  5
D83
330
1F
100
AcDbEntity
  8
0
  6
Continuous
 62
     7
100
AcDbLine
 10
7.030628391018847
 20
4.739583101949921
 30
0.0
 11
7.024284463284468
 21
4.745927029684296
 31
0.0
  0
LINE
  5
D84
330
1F
100
AcDbEntity
  8
0
  6
Continuous
 62
     7
100
AcDbLine
 10
7.136360519925093
 20
4.346259582418671
 30
0.0
 11
7.136360519925093
 21
4.380093863668668
 31
0.0
  0
LINE
  5
D85
330
1F
100
AcDbEntity
  8
0
  6
Continuous
 62
     7
100
AcDbLine
 10
7.136360519925093
 20
4.45199171132492
 30
0.0
 11
7.136360519925093
 21
4.485825992574921
 31
0.0
  0
LINE
  5
D86
330
1F
100
AcDbEntity
  8
0
  6
Continuous
 62
     7
100
AcDbLine
 10
7.136360519925093
 20
4.557723840231171
 30
0.0
 11
7.136360519925093
 21
4.591558121481171
 31
0.0
  0
LINE
  5
D87
330
1F
100
AcDbEntity
  8
0
  6
Continuous
 62
     7
100
AcDbLine
 10
7.136360519925093
 20
4.66345596913742
 30
0.0
 11
7.136360519925093
 21
4.697290250387418
 31
0.0
  0
LINE
  5
D88
330
1F
100
AcDbEntity
  8
0
  6
Continuous
 62
     7
100
AcDbLine
 10
7.127901949612592
 20
4.583099551168671
 30
0.0
 11
7.110984808987594
 21
4.583099551168671
 31
0.0
  0
LINE
  5
D89
330
1F
100
AcDbEntity
  8
0
  6
Continuous
 62
     7
100
AcDbLine
 10
7.136360519925093
 20
4.591558121481171
 30
0.0
 11
7.102526238675095
 21
4.591558121481171
 31
0.0
  0
LINE
  5
D8A
330
1F
100
AcDbEntity
  8
0
  6
Continuous
 62
     7
100
AcDbLine
 10
7.030628391018847
 20
4.591558121481171
 30
0.0
 11
7.009481965237597
 21
4.591558121481171
 31
0.0
  0
LINE
  5
D8B
330
1F
100
AcDbEntity
  8
0
  6
Continuous
 62
     7
100
AcDbLine
 10
7.204029082425094
 20
4.592615442770235
 30
0.0
 11
7.168080158596972
 21
4.592615442770235
 31
0.0
  0
LINE
  5
D8C
330
1F
100
AcDbEntity
  8
0
  6
Continuous
 62
     7
100
AcDbLine
 10
7.07080660000322
 20
4.592615442770235
 30
0.0
 11
7.030628391018847
 21
4.592615442770235
 31
0.0
  0
LINE
  5
D8D
330
1F
100
AcDbEntity
  8
0
  6
Continuous
 62
     7
100
AcDbLine
 10
7.127901949612592
 20
4.671914539449922
 30
0.0
 11
7.134396160368158
 21
4.665420328695202
 31
0.0
  0
LINE
  5
D8E
330
1F
100
AcDbEntity
  8
0
  6
Continuous
 62
     7
100
AcDbLine
 10
7.110984808987594
 20
4.68883168007492
 30
0.0
 11
7.104490598232874
 21
4.695325890830487
 31
0.0
  0
LINE
  5
D8F
330
1F
100
AcDbEntity
  8
0
  6
Continuous
 62
     7
100
AcDbLine
 10
7.127901949612592
 20
4.35471815273117
 30
0.0
 11
7.127901949612592
 21
4.371635293356169
 31
0.0
  0
LINE
  5
D90
330
1F
100
AcDbEntity
  8
0
  6
Continuous
 62
     7
100
AcDbLine
 10
7.127901949612592
 20
4.460450281637419
 30
0.0
 11
7.127901949612592
 21
4.47736742226242
 31
0.0
  0
LINE
  5
D91
330
1F
100
AcDbEntity
  8
0
  6
Continuous
 62
     7
100
AcDbLine
 10
7.127901949612592
 20
4.56618241054367
 30
0.0
 11
7.127901949612592
 21
4.583099551168671
 31
0.0
  0
LINE
  5
D92
330
1F
100
AcDbEntity
  8
0
  6
Continuous
 62
     7
100
AcDbLine
 10
7.127901949612592
 20
4.671914539449922
 30
0.0
 11
7.127901949612592
 21
4.68883168007492
 31
0.0
  0
LINE
  5
D93
330
1F
100
AcDbEntity
  8
0
  6
Continuous
 62
     7
100
AcDbLine
 10
7.024284463284468
 20
4.445647783590548
 30
0.0
 11
7.030628391018847
 21
4.45199171132492
 31
0.0
  0
LINE
  5
D94
330
1F
100
AcDbEntity
  8
0
  6
Continuous
 62
     7
100
AcDbLine
 10
7.024284463284468
 20
4.597902049215544
 30
0.0
 11
7.015825892971968
 21
4.597902049215544
 31
0.0
  0
LINE
  5
D95
330
1F
100
AcDbEntity
  8
0
  6
Continuous
 62
     7
100
AcDbLine
 10
7.015825892971968
 20
4.61693383241867
 30
0.0
 11
6.973533041409467
 21
4.61693383241867
 31
0.0
  0
LINE
  5
D96
330
1F
100
AcDbEntity
  8
0
  6
Continuous
 62
     7
100
AcDbLine
 10
7.110984808987594
 20
4.68883168007492
 30
0.0
 11
7.110984808987594
 21
4.671914539449922
 31
0.0
  0
LINE
  5
D97
330
1F
100
AcDbEntity
  8
0
  6
Continuous
 62
     7
100
AcDbLine
 10
7.110984808987594
 20
4.583099551168671
 30
0.0
 11
7.110984808987594
 21
4.56618241054367
 31
0.0
  0
LINE
  5
D98
330
1F
100
AcDbEntity
  8
0
  6
Continuous
 62
     7
100
AcDbLine
 10
7.110984808987594
 20
4.47736742226242
 30
0.0
 11
7.110984808987594
 21
4.460450281637419
 31
0.0
  0
LINE
  5
D99
330
1F
100
AcDbEntity
  8
0
  6
Continuous
 62
     7
100
AcDbLine
 10
7.110984808987594
 20
4.371635293356169
 30
0.0
 11
7.110984808987594
 21
4.35471815273117
 31
0.0
  0
LINE
  5
D9A
330
1F
100
AcDbEntity
  8
0
  6
Continuous
 62
     7
100
AcDbLine
 10
7.102526238675095
 20
4.697290250387418
 30
0.0
 11
7.102526238675095
 21
4.66345596913742
 31
0.0
  0
LINE
  5
D9B
330
1F
100
AcDbEntity
  8
0
  6
Continuous
 62
     7
100
AcDbLine
 10
7.102526238675095
 20
4.591558121481171
 30
0.0
 11
7.102526238675095
 21
4.557723840231171
 31
0.0
  0
LINE
  5
D9C
330
1F
100
AcDbEntity
  8
0
  6
Continuous
 62
     7
100
AcDbLine
 10
7.102526238675095
 20
4.485825992574921
 30
0.0
 11
7.102526238675095
 21
4.45199171132492
 31
0.0
  0
LINE
  5
D9D
330
1F
100
AcDbEntity
  8
0
  6
Continuous
 62
     7
100
AcDbLine
 10
7.102526238675095
 20
4.380093863668668
 30
0.0
 11
7.102526238675095
 21
4.346259582418671
 31
0.0
  0
LINE
  5
D9E
330
1F
100
AcDbEntity
  8
0
  6
Continuous
 62
     7
100
AcDbLine
 10
7.127901949612592
 20
4.583099551168671
 30
0.0
 11
7.134396160368158
 21
4.589593761924233
 31
0.0
  0
LINE
  5
D9F
330
1F
100
AcDbEntity
  8
0
  6
Continuous
 62
     7
100
AcDbLine
 10
7.110984808987594
 20
4.56618241054367
 30
0.0
 11
7.104490598232874
 21
4.559688199788951
 31
0.0
  0
LINE
  5
DA0
330
1F
100
AcDbEntity
  8
0
  6
Continuous
 62
     7
100
AcDbLine
 10
6.973533041409467
 20
4.638080258199919
 30
0.0
 11
7.015825892971968
 21
4.638080258199919
 31
0.0
  0
LINE
  5
DA1
330
1F
100
AcDbEntity
  8
0
  6
Continuous
 62
     7
100
AcDbLine
 10
7.07080660000322
 20
4.739583101949921
 30
0.0
 11
7.07080660000322
 21
4.698347571676483
 31
0.0
  0
LINE
  5
DA2
330
1F
100
AcDbEntity
  8
0
  6
Continuous
 62
     7
100
AcDbLine
 10
7.07080660000322
 20
4.662398647848358
 30
0.0
 11
7.07080660000322
 21
4.592615442770235
 31
0.0
  0
LINE
  5
DA3
330
1F
100
AcDbEntity
  8
0
  6
Continuous
 62
     7
100
AcDbLine
 10
7.07080660000322
 20
4.556666518942107
 30
0.0
 11
7.07080660000322
 21
4.486883313863983
 31
0.0
  0
LINE
  5
DA4
330
1F
100
AcDbEntity
  8
0
  6
Continuous
 62
     7
100
AcDbLine
 10
7.07080660000322
 20
4.450934390035858
 30
0.0
 11
7.07080660000322
 21
4.381151184957733
 31
0.0
  0
LINE
  5
DA5
330
1F
100
AcDbEntity
  8
0
  6
Continuous
 62
     7
100
AcDbLine
 10
7.07080660000322
 20
4.303966730856171
 30
0.0
 11
7.07080660000322
 21
4.345202261129609
 31
0.0
  0
LINE
  5
DA6
330
1F
100
AcDbEntity
  8
0
  6
Continuous
 62
     7
100
AcDbLine
 10
7.015825892971968
 20
4.492169920309295
 30
0.0
 11
7.009481965237597
 21
4.485825992574921
 31
0.0
  0
LINE
  5
DA7
330
1F
100
AcDbEntity
  8
0
  6
Continuous
 62
     7
100
AcDbLine
 10
7.25689514687822
 20
4.739583101949921
 30
0.0
 11
7.263239074612593
 21
4.745927029684296
 31
0.0
  0
LINE
  5
DA8
330
1F
100
AcDbEntity
  8
0
  6
Continuous
 62
     7
100
AcDbLine
 10
7.015825892971968
 20
4.657112041403044
 30
0.0
 11
7.024284463284468
 21
4.657112041403044
 31
0.0
  0
LINE
  5
DA9
330
1F
100
AcDbEntity
  8
0
  6
Continuous
 62
     7
100
AcDbLine
 10
7.204029082425094
 20
4.662398647848358
 30
0.0
 11
7.168080158596972
 21
4.662398647848358
 31
0.0
  0
LINE
  5
DAA
330
1F
100
AcDbEntity
  8
0
  6
Continuous
 62
     7
100
AcDbLine
 10
7.07080660000322
 20
4.662398647848358
 30
0.0
 11
7.030628391018847
 21
4.662398647848358
 31
0.0
  0
LINE
  5
DAB
330
1F
100
AcDbEntity
  8
0
  6
Continuous
 62
     7
100
AcDbLine
 10
7.009481965237597
 20
4.66345596913742
 30
0.0
 11
7.030628391018847
 21
4.66345596913742
 31
0.0
  0
LINE
  5
DAC
330
1F
100
AcDbEntity
  8
0
  6
Continuous
 62
     7
100
AcDbLine
 10
7.102526238675095
 20
4.66345596913742
 30
0.0
 11
7.136360519925093
 21
4.66345596913742
 31
0.0
  0
LINE
  5
DAD
330
1F
100
AcDbEntity
  8
0
  6
Continuous
 62
     7
100
AcDbLine
 10
7.210373010159469
 20
4.669799896871794
 30
0.0
 11
7.206506540311215
 21
4.673666366720896
 31
0.0
  0
LINE
  5
DAE
330
1F
100
AcDbEntity
  8
0
  6
Continuous
 62
     7
100
AcDbLine
 10
7.024284463284468
 20
4.551379912496795
 30
0.0
 11
7.030628391018847
 21
4.557723840231171
 31
0.0
  0
LINE
  5
DAF
330
1F
100
AcDbEntity
  8
0
  6
Continuous
 62
     7
100
AcDbLine
 10
7.210373010159469
 20
4.669799896871794
 30
0.0
 11
7.263239074612593
 21
4.669799896871794
 31
0.0
  0
LINE
  5
DB0
330
1F
100
AcDbEntity
  8
0
  6
Continuous
 62
     7
100
AcDbLine
 10
7.110984808987594
 20
4.671914539449922
 30
0.0
 11
7.127901949612592
 21
4.671914539449922
 31
0.0
  0
LINE
  5
DB1
330
1F
100
AcDbEntity
  8
0
  6
Continuous
 62
     7
100
AcDbLine
 10
7.212487652737594
 20
4.676143824606168
 30
0.0
 11
7.25689514687822
 21
4.676143824606168
 31
0.0
  0
LINE
  5
DB2
330
1F
100
AcDbEntity
  8
0
  6
Continuous
 62
     7
100
AcDbLine
 10
7.263239074612593
 20
4.669799896871794
 30
0.0
 11
7.25689514687822
 21
4.676143824606168
 31
0.0
  0
LINE
  5
DB3
330
1F
100
AcDbEntity
  8
0
  6
Continuous
 62
     7
100
AcDbLine
 10
7.030628391018847
 20
4.739583101949921
 30
0.0
 11
7.030628391018847
 21
4.697290250387418
 31
0.0
  0
LINE
  5
DB4
330
1F
100
AcDbEntity
  8
0
  6
Continuous
 62
     7
100
AcDbLine
 10
7.030628391018847
 20
4.66345596913742
 30
0.0
 11
7.030628391018847
 21
4.591558121481171
 31
0.0
  0
LINE
  5
DB5
330
1F
100
AcDbEntity
  8
0
  6
Continuous
 62
     7
100
AcDbLine
 10
7.030628391018847
 20
4.557723840231171
 30
0.0
 11
7.030628391018847
 21
4.485825992574921
 31
0.0
  0
LINE
  5
DB6
330
1F
100
AcDbEntity
  8
0
  6
Continuous
 62
     7
100
AcDbLine
 10
7.030628391018847
 20
4.45199171132492
 30
0.0
 11
7.030628391018847
 21
4.380093863668668
 31
0.0
  0
LINE
  5
DB7
330
1F
100
AcDbEntity
  8
0
  6
Continuous
 62
     7
100
AcDbLine
 10
7.030628391018847
 20
4.346259582418671
 30
0.0
 11
7.030628391018847
 21
4.303966730856171
 31
0.0
  0
LINE
  5
DB8
330
1F
100
AcDbEntity
  8
0
  6
Continuous
 62
     7
100
AcDbLine
 10
7.024284463284468
 20
4.297622803121797
 30
0.0
 11
7.024284463284468
 21
4.339915654684294
 31
0.0
  0
LINE
  5
DB9
330
1F
100
AcDbEntity
  8
0
  6
Continuous
 62
     7
100
AcDbLine
 10
7.024284463284468
 20
4.386437791403045
 30
0.0
 11
7.024284463284468
 21
4.445647783590548
 31
0.0
  0
LINE
  5
DBA
330
1F
100
AcDbEntity
  8
0
  6
Continuous
 62
     7
100
AcDbLine
 10
7.024284463284468
 20
4.492169920309295
 30
0.0
 11
7.024284463284468
 21
4.551379912496795
 31
0.0
  0
LINE
  5
DBB
330
1F
100
AcDbEntity
  8
0
  6
Continuous
 62
     7
100
AcDbLine
 10
7.024284463284468
 20
4.597902049215544
 30
0.0
 11
7.024284463284468
 21
4.657112041403044
 31
0.0
  0
LINE
  5
DBC
330
1F
100
AcDbEntity
  8
0
  6
Continuous
 62
     7
100
AcDbLine
 10
7.024284463284468
 20
4.703634178121796
 30
0.0
 11
7.024284463284468
 21
4.745927029684296
 31
0.0
  0
LINE
  5
DBD
330
1F
100
AcDbEntity
  8
0
  6
Continuous
 62
     7
100
AcDbLine
 10
7.127901949612592
 20
4.68883168007492
 30
0.0
 11
7.134396160368158
 21
4.695325890830487
 31
0.0
  0
LINE
  5
DBE
330
1F
100
AcDbEntity
  8
0
  6
Continuous
 62
     7
100
AcDbLine
 10
7.110984808987594
 20
4.671914539449922
 30
0.0
 11
7.104490598232874
 21
4.665420328695202
 31
0.0
  0
LINE
  5
DBF
330
1F
100
AcDbEntity
  8
0
  6
Continuous
 62
     7
100
AcDbLine
 10
7.127901949612592
 20
4.68883168007492
 30
0.0
 11
7.110984808987594
 21
4.68883168007492
 31
0.0
  0
LINE
  5
DC0
330
1F
100
AcDbEntity
  8
0
  6
Continuous
 62
     7
100
AcDbLine
 10
7.136360519925093
 20
4.697290250387418
 30
0.0
 11
7.102526238675095
 21
4.697290250387418
 31
0.0
  0
LINE
  5
DC1
330
1F
100
AcDbEntity
  8
0
  6
Continuous
 62
     7
100
AcDbLine
 10
7.030628391018847
 20
4.697290250387418
 30
0.0
 11
7.009481965237597
 21
4.697290250387418
 31
0.0
  0
LINE
  5
DC2
330
1F
100
AcDbEntity
  8
0
  6
Continuous
 62
     7
100
AcDbLine
 10
7.204029082425094
 20
4.698347571676483
 30
0.0
 11
7.168080158596972
 21
4.698347571676483
 31
0.0
  0
LINE
  5
DC3
330
1F
100
AcDbEntity
  8
0
  6
Continuous
 62
     7
100
AcDbLine
 10
7.07080660000322
 20
4.698347571676483
 30
0.0
 11
7.030628391018847
 21
4.698347571676483
 31
0.0
  0
LINE
  5
DC4
330
1F
100
AcDbEntity
  8
0
  6
Continuous
 62
     7
100
AcDbLine
 10
7.024284463284468
 20
4.703634178121796
 30
0.0
 11
7.015825892971968
 21
4.703634178121796
 31
0.0
  0
LINE
  5
DC5
330
1F
100
AcDbEntity
  8
0
  6
Continuous
 62
     7
100
AcDbLine
 10
7.015825892971968
 20
4.320883871481171
 30
0.0
 11
7.015825892971968
 21
4.339915654684294
 31
0.0
  0
LINE
  5
DC6
330
1F
100
AcDbEntity
  8
0
  6
Continuous
 62
     7
100
AcDbLine
 10
7.015825892971968
 20
4.386437791403045
 30
0.0
 11
7.015825892971968
 21
4.405469574606169
 31
0.0
  0
LINE
  5
DC7
330
1F
100
AcDbEntity
  8
0
  6
Continuous
 62
     7
100
AcDbLine
 10
7.015825892971968
 20
4.426616000387419
 30
0.0
 11
7.015825892971968
 21
4.445647783590548
 31
0.0
  0
LINE
  5
DC8
330
1F
100
AcDbEntity
  8
0
  6
Continuous
 62
     7
100
AcDbLine
 10
7.015825892971968
 20
4.492169920309295
 30
0.0
 11
7.015825892971968
 21
4.51120170351242
 31
0.0
  0
LINE
  5
DC9
330
1F
100
AcDbEntity
  8
0
  6
Continuous
 62
     7
100
AcDbLine
 10
7.015825892971968
 20
4.53234812929367
 30
0.0
 11
7.015825892971968
 21
4.551379912496795
 31
0.0
  0
LINE
  5
DCA
330
1F
100
AcDbEntity
  8
0
  6
Continuous
 62
     7
100
AcDbLine
 10
7.015825892971968
 20
4.597902049215544
 30
0.0
 11
7.015825892971968
 21
4.61693383241867
 31
0.0
  0
LINE
  5
DCB
330
1F
100
AcDbEntity
  8
0
  6
Continuous
 62
     7
100
AcDbLine
 10
7.015825892971968
 20
4.638080258199919
 30
0.0
 11
7.015825892971968
 21
4.657112041403044
 31
0.0
  0
LINE
  5
DCC
330
1F
100
AcDbEntity
  8
0
  6
Continuous
 62
     7
100
AcDbLine
 10
7.015825892971968
 20
4.703634178121796
 30
0.0
 11
7.015825892971968
 21
4.72266596132492
 31
0.0
  0
LINE
  5
DCD
330
1F
100
AcDbEntity
  8
0
  6
Continuous
 62
     7
100
AcDbLine
 10
7.009481965237597
 20
4.320883871481171
 30
0.0
 11
7.009481965237597
 21
4.346259582418671
 31
0.0
  0
LINE
  5
DCE
330
1F
100
AcDbEntity
  8
0
  6
Continuous
 62
     7
100
AcDbLine
 10
7.009481965237597
 20
4.380093863668668
 30
0.0
 11
7.009481965237597
 21
4.405469574606169
 31
0.0
  0
LINE
  5
DCF
330
1F
100
AcDbEntity
  8
0
  6
Continuous
 62
     7
100
AcDbLine
 10
7.009481965237597
 20
4.426616000387419
 30
0.0
 11
7.009481965237597
 21
4.45199171132492
 31
0.0
  0
LINE
  5
DD0
330
1F
100
AcDbEntity
  8
0
  6
Continuous
 62
     7
100
AcDbLine
 10
7.009481965237597
 20
4.485825992574921
 30
0.0
 11
7.009481965237597
 21
4.51120170351242
 31
0.0
  0
LINE
  5
DD1
330
1F
100
AcDbEntity
  8
0
  6
Continuous
 62
     7
100
AcDbLine
 10
7.009481965237597
 20
4.53234812929367
 30
0.0
 11
7.009481965237597
 21
4.557723840231171
 31
0.0
  0
LINE
  5
DD2
330
1F
100
AcDbEntity
  8
0
  6
Continuous
 62
     7
100
AcDbLine
 10
7.009481965237597
 20
4.591558121481171
 30
0.0
 11
7.009481965237597
 21
4.61693383241867
 31
0.0
  0
LINE
  5
DD3
330
1F
100
AcDbEntity
  8
0
  6
Continuous
 62
     7
100
AcDbLine
 10
7.009481965237597
 20
4.638080258199919
 30
0.0
 11
7.009481965237597
 21
4.66345596913742
 31
0.0
  0
LINE
  5
DD4
330
1F
100
AcDbEntity
  8
0
  6
Continuous
 62
     7
100
AcDbLine
 10
7.009481965237597
 20
4.697290250387418
 30
0.0
 11
7.009481965237597
 21
4.72266596132492
 31
0.0
  0
LINE
  5
DD5
330
1F
100
AcDbEntity
  8
0
  6
Continuous
 62
     7
100
AcDbLine
 10
7.015825892971968
 20
4.597902049215544
 30
0.0
 11
7.009481965237597
 21
4.591558121481171
 31
0.0
  0
LINE
  5
DD6
330
1F
100
AcDbEntity
  8
0
  6
Continuous
 62
     7
100
AcDbLine
 10
7.015825892971968
 20
4.72266596132492
 30
0.0
 11
6.973533041409467
 21
4.72266596132492
 31
0.0
  0
LINE
  5
DD7
330
1F
100
AcDbEntity
  8
0
  6
Continuous
 62
     7
100
AcDbLine
 10
6.979876969143844
 20
4.72266596132492
 30
0.0
 11
6.979876969143844
 21
4.638080258199919
 31
0.0
  0
LINE
  5
DD8
330
1F
100
AcDbEntity
  8
0
  6
Continuous
 62
     7
100
AcDbLine
 10
6.979876969143844
 20
4.61693383241867
 30
0.0
 11
6.979876969143844
 21
4.53234812929367
 31
0.0
  0
LINE
  5
DD9
330
1F
100
AcDbEntity
  8
0
  6
Continuous
 62
     7
100
AcDbLine
 10
6.979876969143844
 20
4.51120170351242
 30
0.0
 11
6.979876969143844
 21
4.426616000387419
 31
0.0
  0
LINE
  5
DDA
330
1F
100
AcDbEntity
  8
0
  6
Continuous
 62
     7
100
AcDbLine
 10
6.979876969143844
 20
4.405469574606169
 30
0.0
 11
6.979876969143844
 21
4.320883871481171
 31
0.0
  0
LINE
  5
DDB
330
1F
100
AcDbEntity
  8
0
  6
Continuous
 62
     7
100
AcDbLine
 10
6.973533041409467
 20
4.72266596132492
 30
0.0
 11
6.973533041409467
 21
4.638080258199919
 31
0.0
  0
LINE
  5
DDC
330
1F
100
AcDbEntity
  8
0
  6
Continuous
 62
     7
100
AcDbLine
 10
6.973533041409467
 20
4.61693383241867
 30
0.0
 11
6.973533041409467
 21
4.53234812929367
 31
0.0
  0
LINE
  5
DDD
330
1F
100
AcDbEntity
  8
0
  6
Continuous
 62
     7
100
AcDbLine
 10
6.973533041409467
 20
4.51120170351242
 30
0.0
 11
6.973533041409467
 21
4.426616000387419
 31
0.0
  0
LINE
  5
DDE
330
1F
100
AcDbEntity
  8
0
  6
Continuous
 62
     7
100
AcDbLine
 10
6.973533041409467
 20
4.405469574606169
 30
0.0
 11
6.973533041409467
 21
4.320883871481171
 31
0.0
  0
LINE
  5
DDF
330
1F
100
AcDbEntity
  8
0
  6
Continuous
 62
     7
100
AcDbLine
 10
7.024284463284468
 20
4.657112041403044
 30
0.0
 11
7.030628391018847
 21
4.66345596913742
 31
0.0
  0
LINE
  5
DE0
330
1F
100
AcDbEntity
  8
0
  6
Continuous
 62
     7
100
AcDbLine
 10
7.030628391018847
 20
4.739583101949921
 30
0.0
 11
7.25689514687822
 21
4.739583101949921
 31
0.0
  0
LINE
  5
DE1
330
1F
100
AcDbEntity
  8
0
  6
Continuous
 62
     7
100
AcDbLine
 10
7.024284463284468
 20
4.745927029684296
 30
0.0
 11
7.263239074612593
 21
4.745927029684296
 31
0.0
  0
LINE
  5
DE2
330
1F
100
AcDbEntity
  8
0
  6
Continuous
 62
     7
100
AcDbLine
 10
6.954501258206345
 20
3.83451607851242
 30
0.0
 11
6.954501258206345
 21
4.77341738319992
 31
0.0
  0
LINE
  5
DE3
330
1F
100
AcDbEntity
  8
0
  6
Continuous
 62
     7
100
AcDbLine
 10
7.288614785550094
 20
4.77341738319992
 30
0.0
 11
6.954501258206345
 21
4.77341738319992
 31
0.0
  0
LINE
  5
DE4
330
1F
100
AcDbEntity
  8
0
  6
Continuous
 62
     7
100
AcDbLine
 10
7.015825892971968
 20
4.703634178121796
 30
0.0
 11
7.009481965237597
 21
4.697290250387418
 31
0.0
  0
ARC
  5
DE5
330
1F
100
AcDbEntity
  8
0
  6
Continuous
 62
     7
100
AcDbCircle
 10
7.119443379300093
 20
4.36317672304367
 30
0.0
 40
0.02114642578125
100
AcDbArc
 50
126.8698976458006
 51
143.1301023542005
  0
ARC
  5
DE6
330
1F
100
AcDbEntity
  8
0
  6
Continuous
 62
     7
100
AcDbCircle
 10
7.119443379300093
 20
4.36317672304367
 30
0.0
 40
0.02114642578125
100
AcDbArc
 50
36.8698976457995
 51
53.13010235420039
  0
ARC
  5
DE7
330
1F
100
AcDbEntity
  8
0
  6
Continuous
 62
     7
100
AcDbCircle
 10
7.119443379300093
 20
4.36317672304367
 30
0.0
 40
0.02114642578125
100
AcDbArc
 50
306.8698976458005
 51
323.1301023542004
  0
ARC
  5
DE8
330
1F
100
AcDbEntity
  8
0
  6
Continuous
 62
     7
100
AcDbCircle
 10
7.119443379300093
 20
4.36317672304367
 30
0.0
 40
0.02114642578125
100
AcDbArc
 50
216.8698976457995
 51
233.1301023542005
  0
ARC
  5
DE9
330
1F
100
AcDbEntity
  8
0
  6
Continuous
 62
     7
100
AcDbCircle
 10
7.119443379300093
 20
4.680373109762421
 30
0.0
 40
0.02114642578125
100
AcDbArc
 50
126.8698976458006
 51
143.1301023542005
  0
ARC
  5
DEA
330
1F
100
AcDbEntity
  8
0
  6
Continuous
 62
     7
100
AcDbCircle
 10
7.119443379300093
 20
4.680373109762421
 30
0.0
 40
0.02114642578125
100
AcDbArc
 50
36.8698976457995
 51
53.13010235420039
  0
ARC
  5
DEB
330
1F
100
AcDbEntity
  8
0
  6
Continuous
 62
     7
100
AcDbCircle
 10
7.119443379300093
 20
4.680373109762421
 30
0.0
 40
0.02114642578125
100
AcDbArc
 50
306.8698976458005
 51
323.1301023542004
  0
ARC
  5
DEC
330
1F
100
AcDbEntity
  8
0
  6
Continuous
 62
     7
100
AcDbCircle
 10
7.119443379300093
 20
4.680373109762421
 30
0.0
 40
0.02114642578125
100
AcDbArc
 50
216.8698976457995
 51
233.1301023542005
  0
ARC
  5
DED
330
1F
100
AcDbEntity
  8
0
  6
Continuous
 62
     7
100
AcDbCircle
 10
7.119443379300093
 20
4.57464098085617
 30
0.0
 40
0.02114642578125
100
AcDbArc
 50
126.8698976458006
 51
143.1301023542005
  0
ARC
  5
DEE
330
1F
100
AcDbEntity
  8
0
  6
Continuous
 62
     7
100
AcDbCircle
 10
7.119443379300093
 20
4.57464098085617
 30
0.0
 40
0.02114642578125
100
AcDbArc
 50
36.8698976457995
 51
53.13010235420039
  0
ARC
  5
DEF
330
1F
100
AcDbEntity
  8
0
  6
Continuous
 62
     7
100
AcDbCircle
 10
7.119443379300093
 20
4.57464098085617
 30
0.0
 40
0.02114642578125
100
AcDbArc
 50
306.8698976458005
 51
323.1301023542004
  0
ARC
  5
DF0
330
1F
100
AcDbEntity
  8
0
  6
Continuous
 62
     7
100
AcDbCircle
 10
7.119443379300093
 20
4.57464098085617
 30
0.0
 40
0.02114642578125
100
AcDbArc
 50
216.8698976457995
 51
233.1301023542005
  0
ARC
  5
DF1
330
1F
100
AcDbEntity
  8
0
  6
Continuous
 62
     7
100
AcDbCircle
 10
7.119443379300093
 20
4.46890885194992
 30
0.0
 40
0.02114642578125
100
AcDbArc
 50
126.8698976458006
 51
143.1301023542005
  0
ARC
  5
DF2
330
1F
100
AcDbEntity
  8
0
  6
Continuous
 62
     7
100
AcDbCircle
 10
7.119443379300093
 20
4.46890885194992
 30
0.0
 40
0.02114642578125
100
AcDbArc
 50
36.8698976457995
 51
53.13010235420039
  0
ARC
  5
DF3
330
1F
100
AcDbEntity
  8
0
  6
Continuous
 62
     7
100
AcDbCircle
 10
7.119443379300093
 20
4.46890885194992
 30
0.0
 40
0.02114642578125
100
AcDbArc
 50
306.8698976458005
 51
323.1301023542004
  0
ARC
  5
DF4
330
1F
100
AcDbEntity
  8
0
  6
Continuous
 62
     7
100
AcDbCircle
 10
7.119443379300093
 20
4.46890885194992
 30
0.0
 40
0.02114642578125
100
AcDbArc
 50
216.8698976457995
 51
233.1301023542005
  0
ARC
  5
DF5
330
1F
100
AcDbEntity
  8
0
  6
Continuous
 62
     7
100
AcDbCircle
 10
7.212487652737594
 20
4.667685254293671
 30
0.0
 40
0.0084585703125
100
AcDbArc
 50
90.0
 51
180.0
  0
CIRCLE
  5
DF6
330
1F
100
AcDbEntity
  8
0
  6
Continuous
 62
     7
100
AcDbCircle
 10
7.119443379300093
 20
4.57464098085617
 30
0.0
 40
0.044407494140625
  0
CIRCLE
  5
DF7
330
1F
100
AcDbEntity
  8
0
  6
Continuous
 62
     7
100
AcDbCircle
 10
7.119443379300093
 20
4.680373109762421
 30
0.0
 40
0.044407494140625
  0
CIRCLE
  5
DF8
330
1F
100
AcDbEntity
  8
0
  6
Continuous
 62
     7
100
AcDbCircle
 10
7.119443379300093
 20
4.57464098085617
 30
0.0
 40
0.03383428125
  0
CIRCLE
  5
DF9
330
1F
100
AcDbEntity
  8
0
  6
Continuous
 62
     7
100
AcDbCircle
 10
7.119443379300093
 20
4.36317672304367
 30
0.0
 40
0.03383428125
  0
CIRCLE
  5
DFA
330
1F
100
AcDbEntity
  8
0
  6
Continuous
 62
     7
100
AcDbCircle
 10
7.119443379300093
 20
4.46890885194992
 30
0.0
 40
0.03383428125
  0
CIRCLE
  5
DFB
330
1F
100
AcDbEntity
  8
0
  6
Continuous
 62
     7
100
AcDbCircle
 10
7.119443379300093
 20
4.680373109762421
 30
0.0
 40
0.03383428125
  0
CIRCLE
  5
DFC
330
1F
100
AcDbEntity
  8
0
  6
Continuous
 62
     7
100
AcDbCircle
 10
7.119443379300093
 20
4.36317672304367
 30
0.0
 40
0.044407494140625
  0
CIRCLE
  5
DFD
330
1F
100
AcDbEntity
  8
0
  6
Continuous
 62
     7
100
AcDbCircle
 10
7.119443379300093
 20
4.46890885194992
 30
0.0
 40
0.044407494140625
  0
LINE
  5
DFE
330
1F
100
AcDbEntity
  8
0
  6
Continuous
 62
     7
100
AcDbLine
 10
6.954501258206343
 20
3.83451607851242
 30
0.0
 11
7.288614785550094
 21
3.83451607851242
 31
0.0
  0
LINE
  5
DFF
330
1F
100
AcDbEntity
  8
0
  6
Continuous
 62
     7
100
AcDbLine
 10
7.015825892971968
 20
3.904299283590546
 30
0.0
 11
7.009481965237597
 21
3.91064321132492
 31
0.0
  0
LINE
  5
E00
330
1F
100
AcDbEntity
  8
0
  6
Continuous
 62
     7
100
AcDbLine
 10
7.210373010159469
 20
3.862006432028044
 30
0.0
 11
7.024284463284468
 21
3.862006432028044
 31
0.0
  0
LINE
  5
E01
330
1F
100
AcDbEntity
  8
0
  6
Continuous
 62
     7
100
AcDbLine
 10
7.204029082425094
 20
3.86835035976242
 30
0.0
 11
7.030628391018847
 21
3.86835035976242
 31
0.0
  0
LINE
  5
E02
330
1F
100
AcDbEntity
  8
0
  6
Continuous
 62
     7
100
AcDbLine
 10
7.024284463284468
 20
3.950821420309296
 30
0.0
 11
7.030628391018847
 21
3.94447749257492
 31
0.0
  0
LINE
  5
E03
330
1F
100
AcDbEntity
  8
0
  6
Continuous
 62
     7
100
AcDbLine
 10
6.973533041409467
 20
3.885267500387421
 30
0.0
 11
7.015825892971968
 21
3.885267500387421
 31
0.0
  0
LINE
  5
E04
330
1F
100
AcDbEntity
  8
0
  6
Continuous
 62
     7
100
AcDbLine
 10
7.015825892971968
 20
3.904299283590546
 30
0.0
 11
7.024284463284468
 21
3.904299283590546
 31
0.0
  0
LINE
  5
E05
330
1F
100
AcDbEntity
  8
0
  6
Continuous
 62
     7
100
AcDbLine
 10
7.204029082425094
 20
3.909585890035858
 30
0.0
 11
7.168080158596972
 21
3.909585890035858
 31
0.0
  0
LINE
  5
E06
330
1F
100
AcDbEntity
  8
0
  6
Continuous
 62
     7
100
AcDbLine
 10
7.07080660000322
 20
3.909585890035858
 30
0.0
 11
7.030628391018847
 21
3.909585890035858
 31
0.0
  0
LINE
  5
E07
330
1F
100
AcDbEntity
  8
0
  6
Continuous
 62
     7
100
AcDbLine
 10
7.009481965237597
 20
3.91064321132492
 30
0.0
 11
7.030628391018847
 21
3.91064321132492
 31
0.0
  0
LINE
  5
E08
330
1F
100
AcDbEntity
  8
0
  6
Continuous
 62
     7
100
AcDbLine
 10
7.102526238675095
 20
3.91064321132492
 30
0.0
 11
7.136360519925093
 21
3.91064321132492
 31
0.0
  0
LINE
  5
E09
330
1F
100
AcDbEntity
  8
0
  6
Continuous
 62
     7
100
AcDbLine
 10
7.210373010159469
 20
3.916987139059296
 30
0.0
 11
7.263239074612593
 21
3.916987139059296
 31
0.0
  0
LINE
  5
E0A
330
1F
100
AcDbEntity
  8
0
  6
Continuous
 62
     7
100
AcDbLine
 10
7.110984808987594
 20
3.91910178163742
 30
0.0
 11
7.127901949612592
 21
3.91910178163742
 31
0.0
  0
LINE
  5
E0B
330
1F
100
AcDbEntity
  8
0
  6
Continuous
 62
     7
100
AcDbLine
 10
7.212487652737594
 20
3.923331066793672
 30
0.0
 11
7.25689514687822
 21
3.923331066793672
 31
0.0
  0
LINE
  5
E0C
330
1F
100
AcDbEntity
  8
0
  6
Continuous
 62
     7
100
AcDbLine
 10
7.015825892971968
 20
4.010031412496794
 30
0.0
 11
7.009481965237597
 21
4.01637534023117
 31
0.0
  0
LINE
  5
E0D
330
1F
100
AcDbEntity
  8
0
  6
Continuous
 62
     7
100
AcDbLine
 10
7.127901949612592
 20
3.91910178163742
 30
0.0
 11
7.134396160368158
 21
3.912607570882702
 31
0.0
  0
LINE
  5
E0E
330
1F
100
AcDbEntity
  8
0
  6
Continuous
 62
     7
100
AcDbLine
 10
7.110984808987594
 20
3.93601892226242
 30
0.0
 11
7.104490598232874
 21
3.942513133017984
 31
0.0
  0
LINE
  5
E0F
330
1F
100
AcDbEntity
  8
0
  6
Continuous
 62
     7
100
AcDbLine
 10
7.127901949612592
 20
3.93601892226242
 30
0.0
 11
7.110984808987594
 21
3.93601892226242
 31
0.0
  0
LINE
  5
E10
330
1F
100
AcDbEntity
  8
0
  6
Continuous
 62
     7
100
AcDbLine
 10
7.136360519925093
 20
3.94447749257492
 30
0.0
 11
7.102526238675095
 21
3.94447749257492
 31
0.0
  0
LINE
  5
E11
330
1F
100
AcDbEntity
  8
0
  6
Continuous
 62
     7
100
AcDbLine
 10
7.030628391018847
 20
3.94447749257492
 30
0.0
 11
7.009481965237597
 21
3.94447749257492
 31
0.0
  0
LINE
  5
E12
330
1F
100
AcDbEntity
  8
0
  6
Continuous
 62
     7
100
AcDbLine
 10
7.204029082425094
 20
3.945534813863981
 30
0.0
 11
7.168080158596972
 21
3.945534813863981
 31
0.0
  0
LINE
  5
E13
330
1F
100
AcDbEntity
  8
0
  6
Continuous
 62
     7
100
AcDbLine
 10
7.07080660000322
 20
3.945534813863981
 30
0.0
 11
7.030628391018847
 21
3.945534813863981
 31
0.0
  0
LINE
  5
E14
330
1F
100
AcDbEntity
  8
0
  6
Continuous
 62
     7
100
AcDbLine
 10
7.024284463284468
 20
3.950821420309296
 30
0.0
 11
7.015825892971968
 21
3.950821420309296
 31
0.0
  0
LINE
  5
E15
330
1F
100
AcDbEntity
  8
0
  6
Continuous
 62
     7
100
AcDbLine
 10
7.210373010159469
 20
3.862006432028044
 30
0.0
 11
7.204029082425094
 21
3.86835035976242
 31
0.0
  0
LINE
  5
E16
330
1F
100
AcDbEntity
  8
0
  6
Continuous
 62
     7
100
AcDbLine
 10
7.015825892971968
 20
3.969853203512421
 30
0.0
 11
6.973533041409467
 21
3.969853203512421
 31
0.0
  0
LINE
  5
E17
330
1F
100
AcDbEntity
  8
0
  6
Continuous
 62
     7
100
AcDbLine
 10
7.024284463284468
 20
4.056553549215546
 30
0.0
 11
7.030628391018847
 21
4.050209621481168
 31
0.0
  0
LINE
  5
E18
330
1F
100
AcDbEntity
  8
0
  6
Continuous
 62
     7
100
AcDbLine
 10
7.263239074612593
 20
3.993114271871793
 30
0.0
 11
7.25689514687822
 21
3.98677034413742
 31
0.0
  0
LINE
  5
E19
330
1F
100
AcDbEntity
  8
0
  6
Continuous
 62
     7
100
AcDbLine
 10
7.25689514687822
 20
3.98677034413742
 30
0.0
 11
7.212487652737594
 21
3.98677034413742
 31
0.0
  0
LINE
  5
E1A
330
1F
100
AcDbEntity
  8
0
  6
Continuous
 62
     7
100
AcDbLine
 10
6.973533041409467
 20
3.99099962929367
 30
0.0
 11
7.015825892971968
 21
3.99099962929367
 31
0.0
  0
LINE
  5
E1B
330
1F
100
AcDbEntity
  8
0
  6
Continuous
 62
     7
100
AcDbLine
 10
7.263239074612593
 20
3.993114271871793
 30
0.0
 11
7.210373010159469
 21
3.993114271871793
 31
0.0
  0
LINE
  5
E1C
330
1F
100
AcDbEntity
  8
0
  6
Continuous
 62
     7
100
AcDbLine
 10
7.210373010159469
 20
3.916987139059296
 30
0.0
 11
7.206506540311215
 21
3.920853608908393
 31
0.0
  0
LINE
  5
E1D
330
1F
100
AcDbEntity
  8
0
  6
Continuous
 62
     7
100
AcDbLine
 10
7.015825892971968
 20
4.115763541403045
 30
0.0
 11
7.009481965237597
 21
4.122107469137421
 31
0.0
  0
LINE
  5
E1E
330
1F
100
AcDbEntity
  8
0
  6
Continuous
 62
     7
100
AcDbLine
 10
7.015825892971968
 20
4.010031412496794
 30
0.0
 11
7.024284463284468
 21
4.010031412496794
 31
0.0
  0
LINE
  5
E1F
330
1F
100
AcDbEntity
  8
0
  6
Continuous
 62
     7
100
AcDbLine
 10
7.204029082425094
 20
4.015318018942108
 30
0.0
 11
7.168080158596972
 21
4.015318018942108
 31
0.0
  0
LINE
  5
E20
330
1F
100
AcDbEntity
  8
0
  6
Continuous
 62
     7
100
AcDbLine
 10
7.07080660000322
 20
4.015318018942108
 30
0.0
 11
7.030628391018847
 21
4.015318018942108
 31
0.0
  0
LINE
  5
E21
330
1F
100
AcDbEntity
  8
0
  6
Continuous
 62
     7
100
AcDbLine
 10
7.009481965237597
 20
4.01637534023117
 30
0.0
 11
7.030628391018847
 21
4.01637534023117
 31
0.0
  0
LINE
  5
E22
330
1F
100
AcDbEntity
  8
0
  6
Continuous
 62
     7
100
AcDbLine
 10
7.102526238675095
 20
4.01637534023117
 30
0.0
 11
7.136360519925093
 21
4.01637534023117
 31
0.0
  0
LINE
  5
E23
330
1F
100
AcDbEntity
  8
0
  6
Continuous
 62
     7
100
AcDbLine
 10
7.127901949612592
 20
4.024833910543671
 30
0.0
 11
7.134396160368158
 21
4.018339699788952
 31
0.0
  0
LINE
  5
E24
330
1F
100
AcDbEntity
  8
0
  6
Continuous
 62
     7
100
AcDbLine
 10
7.110984808987594
 20
4.041751051168669
 30
0.0
 11
7.104490598232874
 21
4.048245261924234
 31
0.0
  0
LINE
  5
E25
330
1F
100
AcDbEntity
  8
0
  6
Continuous
 62
     7
100
AcDbLine
 10
7.263239074612593
 20
3.916987139059296
 30
0.0
 11
7.263239074612593
 21
3.993114271871793
 31
0.0
  0
LINE
  5
E26
330
1F
100
AcDbEntity
  8
0
  6
Continuous
 62
     7
100
AcDbLine
 10
7.25689514687822
 20
3.923331066793672
 30
0.0
 11
7.25689514687822
 21
3.98677034413742
 31
0.0
  0
LINE
  5
E27
330
1F
100
AcDbEntity
  8
0
  6
Continuous
 62
     7
100
AcDbLine
 10
7.210373010159469
 20
3.993114271871793
 30
0.0
 11
7.206506540311215
 21
3.989247802022693
 31
0.0
  0
LINE
  5
E28
330
1F
100
AcDbEntity
  8
0
  6
Continuous
 62
     7
100
AcDbLine
 10
7.127901949612592
 20
3.93601892226242
 30
0.0
 11
7.134396160368158
 21
3.942513133017984
 31
0.0
  0
LINE
  5
E29
330
1F
100
AcDbEntity
  8
0
  6
Continuous
 62
     7
100
AcDbLine
 10
7.110984808987594
 20
3.91910178163742
 30
0.0
 11
7.104490598232874
 21
3.912607570882702
 31
0.0
  0
LINE
  5
E2A
330
1F
100
AcDbEntity
  8
0
  6
Continuous
 62
     7
100
AcDbLine
 10
7.110984808987594
 20
4.024833910543671
 30
0.0
 11
7.127901949612592
 21
4.024833910543671
 31
0.0
  0
LINE
  5
E2B
330
1F
100
AcDbEntity
  8
0
  6
Continuous
 62
     7
100
AcDbLine
 10
7.127901949612592
 20
4.041751051168669
 30
0.0
 11
7.110984808987594
 21
4.041751051168669
 31
0.0
  0
LINE
  5
E2C
330
1F
100
AcDbEntity
  8
0
  6
Continuous
 62
     7
100
AcDbLine
 10
7.263239074612593
 20
3.916987139059296
 30
0.0
 11
7.25689514687822
 21
3.923331066793672
 31
0.0
  0
LINE
  5
E2D
330
1F
100
AcDbEntity
  8
0
  6
Continuous
 62
     7
100
AcDbLine
 10
7.024284463284468
 20
4.162285678121794
 30
0.0
 11
7.030628391018847
 21
4.15594175038742
 31
0.0
  0
LINE
  5
E2E
330
1F
100
AcDbEntity
  8
0
  6
Continuous
 62
     7
100
AcDbLine
 10
7.024284463284468
 20
3.862006432028044
 30
0.0
 11
7.030628391018847
 21
3.86835035976242
 31
0.0
  0
LINE
  5
E2F
330
1F
100
AcDbEntity
  8
0
  6
Continuous
 62
     7
100
AcDbLine
 10
7.136360519925093
 20
4.050209621481168
 30
0.0
 11
7.102526238675095
 21
4.050209621481168
 31
0.0
  0
LINE
  5
E30
330
1F
100
AcDbEntity
  8
0
  6
Continuous
 62
     7
100
AcDbLine
 10
7.030628391018847
 20
4.050209621481168
 30
0.0
 11
7.009481965237597
 21
4.050209621481168
 31
0.0
  0
LINE
  5
E31
330
1F
100
AcDbEntity
  8
0
  6
Continuous
 62
     7
100
AcDbLine
 10
7.204029082425094
 20
4.051266942770233
 30
0.0
 11
7.168080158596972
 21
4.051266942770233
 31
0.0
  0
LINE
  5
E32
330
1F
100
AcDbEntity
  8
0
  6
Continuous
 62
     7
100
AcDbLine
 10
7.07080660000322
 20
4.051266942770233
 30
0.0
 11
7.030628391018847
 21
4.051266942770233
 31
0.0
  0
LINE
  5
E33
330
1F
100
AcDbEntity
  8
0
  6
Continuous
 62
     7
100
AcDbLine
 10
7.024284463284468
 20
4.056553549215546
 30
0.0
 11
7.015825892971968
 21
4.056553549215546
 31
0.0
  0
LINE
  5
E34
330
1F
100
AcDbEntity
  8
0
  6
Continuous
 62
     7
100
AcDbLine
 10
7.015825892971968
 20
4.221495670309295
 30
0.0
 11
7.009481965237597
 21
4.22783959804367
 31
0.0
  0
LINE
  5
E35
330
1F
100
AcDbEntity
  8
0
  6
Continuous
 62
     7
100
AcDbLine
 10
7.210373010159469
 20
4.234183525778046
 30
0.0
 11
7.210373010159469
 21
3.993114271871793
 31
0.0
  0
LINE
  5
E36
330
1F
100
AcDbEntity
  8
0
  6
Continuous
 62
     7
100
AcDbLine
 10
7.210373010159469
 20
3.916987139059296
 30
0.0
 11
7.210373010159469
 21
3.862006432028044
 31
0.0
  0
LINE
  5
E37
330
1F
100
AcDbEntity
  8
0
  6
Continuous
 62
     7
100
AcDbLine
 10
7.015825892971968
 20
4.075585332418668
 30
0.0
 11
6.973533041409467
 21
4.075585332418668
 31
0.0
  0
LINE
  5
E38
330
1F
100
AcDbEntity
  8
0
  6
Continuous
 62
     7
100
AcDbLine
 10
7.127901949612592
 20
4.130566039449917
 30
0.0
 11
7.134396160368158
 21
4.124071828695202
 31
0.0
  0
LINE
  5
E39
330
1F
100
AcDbEntity
  8
0
  6
Continuous
 62
     7
100
AcDbLine
 10
7.110984808987594
 20
4.147483180074918
 30
0.0
 11
7.104490598232874
 21
4.153977390830484
 31
0.0
  0
LINE
  5
E3A
330
1F
100
AcDbEntity
  8
0
  6
Continuous
 62
     7
100
AcDbLine
 10
7.204029082425094
 20
3.86835035976242
 30
0.0
 11
7.204029082425094
 21
4.303966730856171
 31
0.0
  0
LINE
  5
E3B
330
1F
100
AcDbEntity
  8
0
  6
Continuous
 62
     7
100
AcDbLine
 10
7.024284463284468
 20
3.904299283590546
 30
0.0
 11
7.030628391018847
 21
3.91064321132492
 31
0.0
  0
LINE
  5
E3C
330
1F
100
AcDbEntity
  8
0
  6
Continuous
 62
     7
100
AcDbLine
 10
6.973533041409467
 20
4.096731758199918
 30
0.0
 11
7.015825892971968
 21
4.096731758199918
 31
0.0
  0
LINE
  5
E3D
330
1F
100
AcDbEntity
  8
0
  6
Continuous
 62
     7
100
AcDbLine
 10
7.024284463284468
 20
4.268017807028043
 30
0.0
 11
7.030628391018847
 21
4.261673879293669
 31
0.0
  0
LINE
  5
E3E
330
1F
100
AcDbEntity
  8
0
  6
Continuous
 62
     7
100
AcDbLine
 10
7.168080158596972
 20
4.303966730856171
 30
0.0
 11
7.168080158596972
 21
4.262731200582734
 31
0.0
  0
LINE
  5
E3F
330
1F
100
AcDbEntity
  8
0
  6
Continuous
 62
     7
100
AcDbLine
 10
7.168080158596972
 20
4.226782276754607
 30
0.0
 11
7.168080158596972
 21
4.156999071676484
 31
0.0
  0
LINE
  5
E40
330
1F
100
AcDbEntity
  8
0
  6
Continuous
 62
     7
100
AcDbLine
 10
7.168080158596972
 20
4.121050147848356
 30
0.0
 11
7.168080158596972
 21
4.051266942770233
 31
0.0
  0
LINE
  5
E41
330
1F
100
AcDbEntity
  8
0
  6
Continuous
 62
     7
100
AcDbLine
 10
7.168080158596972
 20
4.015318018942108
 30
0.0
 11
7.168080158596972
 21
3.945534813863981
 31
0.0
  0
LINE
  5
E42
330
1F
100
AcDbEntity
  8
0
  6
Continuous
 62
     7
100
AcDbLine
 10
7.168080158596972
 20
3.86835035976242
 30
0.0
 11
7.168080158596972
 21
3.909585890035858
 31
0.0
  0
LINE
  5
E43
330
1F
100
AcDbEntity
  8
0
  6
Continuous
 62
     7
100
AcDbLine
 10
7.127901949612592
 20
4.041751051168669
 30
0.0
 11
7.134396160368158
 21
4.048245261924234
 31
0.0
  0
LINE
  5
E44
330
1F
100
AcDbEntity
  8
0
  6
Continuous
 62
     7
100
AcDbLine
 10
7.110984808987594
 20
4.024833910543671
 30
0.0
 11
7.104490598232874
 21
4.018339699788952
 31
0.0
  0
LINE
  5
E45
330
1F
100
AcDbEntity
  8
0
  6
Continuous
 62
     7
100
AcDbLine
 10
7.015825892971968
 20
3.950821420309296
 30
0.0
 11
7.009481965237597
 21
3.94447749257492
 31
0.0
  0
LINE
  5
E46
330
1F
100
AcDbEntity
  8
0
  6
Continuous
 62
     7
100
AcDbLine
 10
7.015825892971968
 20
4.115763541403045
 30
0.0
 11
7.024284463284468
 21
4.115763541403045
 31
0.0
  0
LINE
  5
E47
330
1F
100
AcDbEntity
  8
0
  6
Continuous
 62
     7
100
AcDbLine
 10
7.204029082425094
 20
4.121050147848356
 30
0.0
 11
7.168080158596972
 21
4.121050147848356
 31
0.0
  0
LINE
  5
E48
330
1F
100
AcDbEntity
  8
0
  6
Continuous
 62
     7
100
AcDbLine
 10
7.07080660000322
 20
4.121050147848356
 30
0.0
 11
7.030628391018847
 21
4.121050147848356
 31
0.0
  0
LINE
  5
E49
330
1F
100
AcDbEntity
  8
0
  6
Continuous
 62
     7
100
AcDbLine
 10
7.009481965237597
 20
4.122107469137421
 30
0.0
 11
7.030628391018847
 21
4.122107469137421
 31
0.0
  0
LINE
  5
E4A
330
1F
100
AcDbEntity
  8
0
  6
Continuous
 62
     7
100
AcDbLine
 10
7.102526238675095
 20
4.122107469137421
 30
0.0
 11
7.136360519925093
 21
4.122107469137421
 31
0.0
  0
LINE
  5
E4B
330
1F
100
AcDbEntity
  8
0
  6
Continuous
 62
     7
100
AcDbLine
 10
7.110984808987594
 20
4.130566039449917
 30
0.0
 11
7.127901949612592
 21
4.130566039449917
 31
0.0
  0
LINE
  5
E4C
330
1F
100
AcDbEntity
  8
0
  6
Continuous
 62
     7
100
AcDbLine
 10
7.030628391018847
 20
4.303966730856171
 30
0.0
 11
7.024284463284468
 21
4.310310658590545
 31
0.0
  0
LINE
  5
E4D
330
1F
100
AcDbEntity
  8
0
  6
Continuous
 62
     7
100
AcDbLine
 10
7.136360519925093
 20
3.91064321132492
 30
0.0
 11
7.136360519925093
 21
3.94447749257492
 31
0.0
  0
LINE
  5
E4E
330
1F
100
AcDbEntity
  8
0
  6
Continuous
 62
     7
100
AcDbLine
 10
7.136360519925093
 20
4.01637534023117
 30
0.0
 11
7.136360519925093
 21
4.050209621481168
 31
0.0
  0
LINE
  5
E4F
330
1F
100
AcDbEntity
  8
0
  6
Continuous
 62
     7
100
AcDbLine
 10
7.136360519925093
 20
4.122107469137421
 30
0.0
 11
7.136360519925093
 21
4.15594175038742
 31
0.0
  0
LINE
  5
E50
330
1F
100
AcDbEntity
  8
0
  6
Continuous
 62
     7
100
AcDbLine
 10
7.136360519925093
 20
4.22783959804367
 30
0.0
 11
7.136360519925093
 21
4.261673879293669
 31
0.0
  0
LINE
  5
E51
330
1F
100
AcDbEntity
  8
0
  6
Continuous
 62
     7
100
AcDbLine
 10
7.127901949612592
 20
4.147483180074918
 30
0.0
 11
7.110984808987594
 21
4.147483180074918
 31
0.0
  0
LINE
  5
E52
330
1F
100
AcDbEntity
  8
0
  6
Continuous
 62
     7
100
AcDbLine
 10
7.136360519925093
 20
4.15594175038742
 30
0.0
 11
7.102526238675095
 21
4.15594175038742
 31
0.0
  0
LINE
  5
E53
330
1F
100
AcDbEntity
  8
0
  6
Continuous
 62
     7
100
AcDbLine
 10
7.030628391018847
 20
4.15594175038742
 30
0.0
 11
7.009481965237597
 21
4.15594175038742
 31
0.0
  0
LINE
  5
E54
330
1F
100
AcDbEntity
  8
0
  6
Continuous
 62
     7
100
AcDbLine
 10
7.204029082425094
 20
4.156999071676484
 30
0.0
 11
7.168080158596972
 21
4.156999071676484
 31
0.0
  0
LINE
  5
E55
330
1F
100
AcDbEntity
  8
0
  6
Continuous
 62
     7
100
AcDbLine
 10
7.07080660000322
 20
4.156999071676484
 30
0.0
 11
7.030628391018847
 21
4.156999071676484
 31
0.0
  0
LINE
  5
E56
330
1F
100
AcDbEntity
  8
0
  6
Continuous
 62
     7
100
AcDbLine
 10
7.127901949612592
 20
4.236298168356171
 30
0.0
 11
7.134396160368158
 21
4.229803957601451
 31
0.0
  0
LINE
  5
E57
330
1F
100
AcDbEntity
  8
0
  6
Continuous
 62
     7
100
AcDbLine
 10
7.110984808987594
 20
4.253215308981172
 30
0.0
 11
7.104490598232874
 21
4.259709519736733
 31
0.0
  0
LINE
  5
E58
330
1F
100
AcDbEntity
  8
0
  6
Continuous
 62
     7
100
AcDbLine
 10
7.127901949612592
 20
3.91910178163742
 30
0.0
 11
7.127901949612592
 21
3.93601892226242
 31
0.0
  0
LINE
  5
E59
330
1F
100
AcDbEntity
  8
0
  6
Continuous
 62
     7
100
AcDbLine
 10
7.127901949612592
 20
4.024833910543671
 30
0.0
 11
7.127901949612592
 21
4.041751051168669
 31
0.0
  0
LINE
  5
E5A
330
1F
100
AcDbEntity
  8
0
  6
Continuous
 62
     7
100
AcDbLine
 10
7.127901949612592
 20
4.130566039449917
 30
0.0
 11
7.127901949612592
 21
4.147483180074918
 31
0.0
  0
LINE
  5
E5B
330
1F
100
AcDbEntity
  8
0
  6
Continuous
 62
     7
100
AcDbLine
 10
7.127901949612592
 20
4.236298168356171
 30
0.0
 11
7.127901949612592
 21
4.253215308981172
 31
0.0
  0
LINE
  5
E5C
330
1F
100
AcDbEntity
  8
0
  6
Continuous
 62
     7
100
AcDbLine
 10
7.024284463284468
 20
4.010031412496794
 30
0.0
 11
7.030628391018847
 21
4.01637534023117
 31
0.0
  0
LINE
  5
E5D
330
1F
100
AcDbEntity
  8
0
  6
Continuous
 62
     7
100
AcDbLine
 10
7.024284463284468
 20
4.162285678121794
 30
0.0
 11
7.015825892971968
 21
4.162285678121794
 31
0.0
  0
LINE
  5
E5E
330
1F
100
AcDbEntity
  8
0
  6
Continuous
 62
     7
100
AcDbLine
 10
7.015825892971968
 20
4.181317461324921
 30
0.0
 11
6.973533041409467
 21
4.181317461324921
 31
0.0
  0
LINE
  5
E5F
330
1F
100
AcDbEntity
  8
0
  6
Continuous
 62
     7
100
AcDbLine
 10
7.110984808987594
 20
4.253215308981172
 30
0.0
 11
7.110984808987594
 21
4.236298168356171
 31
0.0
  0
LINE
  5
E60
330
1F
100
AcDbEntity
  8
0
  6
Continuous
 62
     7
100
AcDbLine
 10
7.110984808987594
 20
4.147483180074918
 30
0.0
 11
7.110984808987594
 21
4.130566039449917
 31
0.0
  0
LINE
  5
E61
330
1F
100
AcDbEntity
  8
0
  6
Continuous
 62
     7
100
AcDbLine
 10
7.110984808987594
 20
4.041751051168669
 30
0.0
 11
7.110984808987594
 21
4.024833910543671
 31
0.0
  0
LINE
  5
E62
330
1F
100
AcDbEntity
  8
0
  6
Continuous
 62
     7
100
AcDbLine
 10
7.110984808987594
 20
3.93601892226242
 30
0.0
 11
7.110984808987594
 21
3.91910178163742
 31
0.0
  0
LINE
  5
E63
330
1F
100
AcDbEntity
  8
0
  6
Continuous
 62
     7
100
AcDbLine
 10
7.102526238675095
 20
4.261673879293669
 30
0.0
 11
7.102526238675095
 21
4.22783959804367
 31
0.0
  0
LINE
  5
E64
330
1F
100
AcDbEntity
  8
0
  6
Continuous
 62
     7
100
AcDbLine
 10
7.102526238675095
 20
4.15594175038742
 30
0.0
 11
7.102526238675095
 21
4.122107469137421
 31
0.0
  0
LINE
  5
E65
330
1F
100
AcDbEntity
  8
0
  6
Continuous
 62
     7
100
AcDbLine
 10
7.102526238675095
 20
4.050209621481168
 30
0.0
 11
7.102526238675095
 21
4.01637534023117
 31
0.0
  0
LINE
  5
E66
330
1F
100
AcDbEntity
  8
0
  6
Continuous
 62
     7
100
AcDbLine
 10
7.102526238675095
 20
3.94447749257492
 30
0.0
 11
7.102526238675095
 21
3.91064321132492
 31
0.0
  0
LINE
  5
E67
330
1F
100
AcDbEntity
  8
0
  6
Continuous
 62
     7
100
AcDbLine
 10
7.127901949612592
 20
4.147483180074918
 30
0.0
 11
7.134396160368158
 21
4.153977390830484
 31
0.0
  0
LINE
  5
E68
330
1F
100
AcDbEntity
  8
0
  6
Continuous
 62
     7
100
AcDbLine
 10
7.110984808987594
 20
4.130566039449917
 30
0.0
 11
7.104490598232874
 21
4.124071828695202
 31
0.0
  0
LINE
  5
E69
330
1F
100
AcDbEntity
  8
0
  6
Continuous
 62
     7
100
AcDbLine
 10
6.973533041409467
 20
4.202463887106171
 30
0.0
 11
7.015825892971968
 21
4.202463887106171
 31
0.0
  0
LINE
  5
E6A
330
1F
100
AcDbEntity
  8
0
  6
Continuous
 62
     7
100
AcDbLine
 10
7.07080660000322
 20
4.303966730856171
 30
0.0
 11
7.07080660000322
 21
4.262731200582734
 31
0.0
  0
LINE
  5
E6B
330
1F
100
AcDbEntity
  8
0
  6
Continuous
 62
     7
100
AcDbLine
 10
7.07080660000322
 20
4.226782276754607
 30
0.0
 11
7.07080660000322
 21
4.156999071676484
 31
0.0
  0
LINE
  5
E6C
330
1F
100
AcDbEntity
  8
0
  6
Continuous
 62
     7
100
AcDbLine
 10
7.07080660000322
 20
4.121050147848356
 30
0.0
 11
7.07080660000322
 21
4.051266942770233
 31
0.0
  0
LINE
  5
E6D
330
1F
100
AcDbEntity
  8
0
  6
Continuous
 62
     7
100
AcDbLine
 10
7.07080660000322
 20
4.015318018942108
 30
0.0
 11
7.07080660000322
 21
3.945534813863981
 31
0.0
  0
LINE
  5
E6E
330
1F
100
AcDbEntity
  8
0
  6
Continuous
 62
     7
100
AcDbLine
 10
7.07080660000322
 20
3.86835035976242
 30
0.0
 11
7.07080660000322
 21
3.909585890035858
 31
0.0
  0
LINE
  5
E6F
330
1F
100
AcDbEntity
  8
0
  6
Continuous
 62
     7
100
AcDbLine
 10
7.015825892971968
 20
4.056553549215546
 30
0.0
 11
7.009481965237597
 21
4.050209621481168
 31
0.0
  0
LINE
  5
E70
330
1F
100
AcDbEntity
  8
0
  6
Continuous
 62
     7
100
AcDbLine
 10
7.015825892971968
 20
4.221495670309295
 30
0.0
 11
7.024284463284468
 21
4.221495670309295
 31
0.0
  0
LINE
  5
E71
330
1F
100
AcDbEntity
  8
0
  6
Continuous
 62
     7
100
AcDbLine
 10
7.204029082425094
 20
4.226782276754607
 30
0.0
 11
7.168080158596972
 21
4.226782276754607
 31
0.0
  0
LINE
  5
E72
330
1F
100
AcDbEntity
  8
0
  6
Continuous
 62
     7
100
AcDbLine
 10
7.07080660000322
 20
4.226782276754607
 30
0.0
 11
7.030628391018847
 21
4.226782276754607
 31
0.0
  0
LINE
  5
E73
330
1F
100
AcDbEntity
  8
0
  6
Continuous
 62
     7
100
AcDbLine
 10
7.009481965237597
 20
4.22783959804367
 30
0.0
 11
7.030628391018847
 21
4.22783959804367
 31
0.0
  0
LINE
  5
E74
330
1F
100
AcDbEntity
  8
0
  6
Continuous
 62
     7
100
AcDbLine
 10
7.102526238675095
 20
4.22783959804367
 30
0.0
 11
7.136360519925093
 21
4.22783959804367
 31
0.0
  0
LINE
  5
E75
330
1F
100
AcDbEntity
  8
0
  6
Continuous
 62
     7
100
AcDbLine
 10
7.024284463284468
 20
4.115763541403045
 30
0.0
 11
7.030628391018847
 21
4.122107469137421
 31
0.0
  0
LINE
  5
E76
330
1F
100
AcDbEntity
  8
0
  6
Continuous
 62
     7
100
AcDbLine
 10
7.110984808987594
 20
4.236298168356171
 30
0.0
 11
7.127901949612592
 21
4.236298168356171
 31
0.0
  0
LINE
  5
E77
330
1F
100
AcDbEntity
  8
0
  6
Continuous
 62
     7
100
AcDbLine
 10
7.030628391018847
 20
4.303966730856171
 30
0.0
 11
7.030628391018847
 21
4.261673879293669
 31
0.0
  0
LINE
  5
E78
330
1F
100
AcDbEntity
  8
0
  6
Continuous
 62
     7
100
AcDbLine
 10
7.030628391018847
 20
4.22783959804367
 30
0.0
 11
7.030628391018847
 21
4.15594175038742
 31
0.0
  0
LINE
  5
E79
330
1F
100
AcDbEntity
  8
0
  6
Continuous
 62
     7
100
AcDbLine
 10
7.030628391018847
 20
4.122107469137421
 30
0.0
 11
7.030628391018847
 21
4.050209621481168
 31
0.0
  0
LINE
  5
E7A
330
1F
100
AcDbEntity
  8
0
  6
Continuous
 62
     7
100
AcDbLine
 10
7.030628391018847
 20
4.01637534023117
 30
0.0
 11
7.030628391018847
 21
3.94447749257492
 31
0.0
  0
LINE
  5
E7B
330
1F
100
AcDbEntity
  8
0
  6
Continuous
 62
     7
100
AcDbLine
 10
7.030628391018847
 20
3.91064321132492
 30
0.0
 11
7.030628391018847
 21
3.86835035976242
 31
0.0
  0
LINE
  5
E7C
330
1F
100
AcDbEntity
  8
0
  6
Continuous
 62
     7
100
AcDbLine
 10
7.024284463284468
 20
3.862006432028044
 30
0.0
 11
7.024284463284468
 21
3.904299283590546
 31
0.0
  0
LINE
  5
E7D
330
1F
100
AcDbEntity
  8
0
  6
Continuous
 62
     7
100
AcDbLine
 10
7.024284463284468
 20
3.950821420309296
 30
0.0
 11
7.024284463284468
 21
4.010031412496794
 31
0.0
  0
LINE
  5
E7E
330
1F
100
AcDbEntity
  8
0
  6
Continuous
 62
     7
100
AcDbLine
 10
7.024284463284468
 20
4.056553549215546
 30
0.0
 11
7.024284463284468
 21
4.115763541403045
 31
0.0
  0
LINE
  5
E7F
330
1F
100
AcDbEntity
  8
0
  6
Continuous
 62
     7
100
AcDbLine
 10
7.024284463284468
 20
4.162285678121794
 30
0.0
 11
7.024284463284468
 21
4.221495670309295
 31
0.0
  0
LINE
  5
E80
330
1F
100
AcDbEntity
  8
0
  6
Continuous
 62
     7
100
AcDbLine
 10
7.024284463284468
 20
4.268017807028043
 30
0.0
 11
7.024284463284468
 21
4.310310658590545
 31
0.0
  0
LINE
  5
E81
330
1F
100
AcDbEntity
  8
0
  6
Continuous
 62
     7
100
AcDbLine
 10
7.127901949612592
 20
4.253215308981172
 30
0.0
 11
7.134396160368158
 21
4.259709519736733
 31
0.0
  0
LINE
  5
E82
330
1F
100
AcDbEntity
  8
0
  6
Continuous
 62
     7
100
AcDbLine
 10
7.110984808987594
 20
4.236298168356171
 30
0.0
 11
7.104490598232874
 21
4.229803957601451
 31
0.0
  0
LINE
  5
E83
330
1F
100
AcDbEntity
  8
0
  6
Continuous
 62
     7
100
AcDbLine
 10
7.127901949612592
 20
4.253215308981172
 30
0.0
 11
7.110984808987594
 21
4.253215308981172
 31
0.0
  0
LINE
  5
E84
330
1F
100
AcDbEntity
  8
0
  6
Continuous
 62
     7
100
AcDbLine
 10
7.136360519925093
 20
4.261673879293669
 30
0.0
 11
7.102526238675095
 21
4.261673879293669
 31
0.0
  0
LINE
  5
E85
330
1F
100
AcDbEntity
  8
0
  6
Continuous
 62
     7
100
AcDbLine
 10
7.030628391018847
 20
4.261673879293669
 30
0.0
 11
7.009481965237597
 21
4.261673879293669
 31
0.0
  0
LINE
  5
E86
330
1F
100
AcDbEntity
  8
0
  6
Continuous
 62
     7
100
AcDbLine
 10
7.204029082425094
 20
4.262731200582734
 30
0.0
 11
7.168080158596972
 21
4.262731200582734
 31
0.0
  0
LINE
  5
E87
330
1F
100
AcDbEntity
  8
0
  6
Continuous
 62
     7
100
AcDbLine
 10
7.07080660000322
 20
4.262731200582734
 30
0.0
 11
7.030628391018847
 21
4.262731200582734
 31
0.0
  0
LINE
  5
E88
330
1F
100
AcDbEntity
  8
0
  6
Continuous
 62
     7
100
AcDbLine
 10
7.024284463284468
 20
4.268017807028043
 30
0.0
 11
7.015825892971968
 21
4.268017807028043
 31
0.0
  0
LINE
  5
E89
330
1F
100
AcDbEntity
  8
0
  6
Continuous
 62
     7
100
AcDbLine
 10
7.015825892971968
 20
3.885267500387421
 30
0.0
 11
7.015825892971968
 21
3.904299283590546
 31
0.0
  0
LINE
  5
E8A
330
1F
100
AcDbEntity
  8
0
  6
Continuous
 62
     7
100
AcDbLine
 10
7.015825892971968
 20
3.950821420309296
 30
0.0
 11
7.015825892971968
 21
3.969853203512421
 31
0.0
  0
LINE
  5
E8B
330
1F
100
AcDbEntity
  8
0
  6
Continuous
 62
     7
100
AcDbLine
 10
7.015825892971968
 20
3.99099962929367
 30
0.0
 11
7.015825892971968
 21
4.010031412496794
 31
0.0
  0
LINE
  5
E8C
330
1F
100
AcDbEntity
  8
0
  6
Continuous
 62
     7
100
AcDbLine
 10
7.015825892971968
 20
4.056553549215546
 30
0.0
 11
7.015825892971968
 21
4.075585332418668
 31
0.0
  0
LINE
  5
E8D
330
1F
100
AcDbEntity
  8
0
  6
Continuous
 62
     7
100
AcDbLine
 10
7.015825892971968
 20
4.096731758199918
 30
0.0
 11
7.015825892971968
 21
4.115763541403045
 31
0.0
  0
LINE
  5
E8E
330
1F
100
AcDbEntity
  8
0
  6
Continuous
 62
     7
100
AcDbLine
 10
7.015825892971968
 20
4.162285678121794
 30
0.0
 11
7.015825892971968
 21
4.181317461324921
 31
0.0
  0
LINE
  5
E8F
330
1F
100
AcDbEntity
  8
0
  6
Continuous
 62
     7
100
AcDbLine
 10
7.015825892971968
 20
4.202463887106171
 30
0.0
 11
7.015825892971968
 21
4.221495670309295
 31
0.0
  0
LINE
  5
E90
330
1F
100
AcDbEntity
  8
0
  6
Continuous
 62
     7
100
AcDbLine
 10
7.015825892971968
 20
4.268017807028043
 30
0.0
 11
7.015825892971968
 21
4.28704959023117
 31
0.0
  0
LINE
  5
E91
330
1F
100
AcDbEntity
  8
0
  6
Continuous
 62
     7
100
AcDbLine
 10
7.009481965237597
 20
3.885267500387421
 30
0.0
 11
7.009481965237597
 21
3.91064321132492
 31
0.0
  0
LINE
  5
E92
330
1F
100
AcDbEntity
  8
0
  6
Continuous
 62
     7
100
AcDbLine
 10
7.009481965237597
 20
3.94447749257492
 30
0.0
 11
7.009481965237597
 21
3.969853203512421
 31
0.0
  0
LINE
  5
E93
330
1F
100
AcDbEntity
  8
0
  6
Continuous
 62
     7
100
AcDbLine
 10
7.009481965237597
 20
3.99099962929367
 30
0.0
 11
7.009481965237597
 21
4.01637534023117
 31
0.0
  0
LINE
  5
E94
330
1F
100
AcDbEntity
  8
0
  6
Continuous
 62
     7
100
AcDbLine
 10
7.009481965237597
 20
4.050209621481168
 30
0.0
 11
7.009481965237597
 21
4.075585332418668
 31
0.0
  0
LINE
  5
E95
330
1F
100
AcDbEntity
  8
0
  6
Continuous
 62
     7
100
AcDbLine
 10
7.009481965237597
 20
4.096731758199918
 30
0.0
 11
7.009481965237597
 21
4.122107469137421
 31
0.0
  0
LINE
  5
E96
330
1F
100
AcDbEntity
  8
0
  6
Continuous
 62
     7
100
AcDbLine
 10
7.009481965237597
 20
4.15594175038742
 30
0.0
 11
7.009481965237597
 21
4.181317461324921
 31
0.0
  0
LINE
  5
E97
330
1F
100
AcDbEntity
  8
0
  6
Continuous
 62
     7
100
AcDbLine
 10
7.009481965237597
 20
4.202463887106171
 30
0.0
 11
7.009481965237597
 21
4.22783959804367
 31
0.0
  0
LINE
  5
E98
330
1F
100
AcDbEntity
  8
0
  6
Continuous
 62
     7
100
AcDbLine
 10
7.009481965237597
 20
4.261673879293669
 30
0.0
 11
7.009481965237597
 21
4.28704959023117
 31
0.0
  0
LINE
  5
E99
330
1F
100
AcDbEntity
  8
0
  6
Continuous
 62
     7
100
AcDbLine
 10
7.015825892971968
 20
4.162285678121794
 30
0.0
 11
7.009481965237597
 21
4.15594175038742
 31
0.0
  0
LINE
  5
E9A
330
1F
100
AcDbEntity
  8
0
  6
Continuous
 62
     7
100
AcDbLine
 10
7.015825892971968
 20
4.28704959023117
 30
0.0
 11
6.973533041409467
 21
4.28704959023117
 31
0.0
  0
LINE
  5
E9B
330
1F
100
AcDbEntity
  8
0
  6
Continuous
 62
     7
100
AcDbLine
 10
6.979876969143844
 20
4.28704959023117
 30
0.0
 11
6.979876969143844
 21
4.202463887106171
 31
0.0
  0
LINE
  5
E9C
330
1F
100
AcDbEntity
  8
0
  6
Continuous
 62
     7
100
AcDbLine
 10
6.979876969143844
 20
4.181317461324921
 30
0.0
 11
6.979876969143844
 21
4.096731758199918
 31
0.0
  0
LINE
  5
E9D
330
1F
100
AcDbEntity
  8
0
  6
Continuous
 62
     7
100
AcDbLine
 10
6.979876969143844
 20
4.075585332418668
 30
0.0
 11
6.979876969143844
 21
3.99099962929367
 31
0.0
  0
LINE
  5
E9E
330
1F
100
AcDbEntity
  8
0
  6
Continuous
 62
     7
100
AcDbLine
 10
6.979876969143844
 20
3.969853203512421
 30
0.0
 11
6.979876969143844
 21
3.885267500387421
 31
0.0
  0
LINE
  5
E9F
330
1F
100
AcDbEntity
  8
0
  6
Continuous
 62
     7
100
AcDbLine
 10
6.973533041409467
 20
4.28704959023117
 30
0.0
 11
6.973533041409467
 21
4.202463887106171
 31
0.0
  0
LINE
  5
EA0
330
1F
100
AcDbEntity
  8
0
  6
Continuous
 62
     7
100
AcDbLine
 10
6.973533041409467
 20
4.181317461324921
 30
0.0
 11
6.973533041409467
 21
4.096731758199918
 31
0.0
  0
LINE
  5
EA1
330
1F
100
AcDbEntity
  8
0
  6
Continuous
 62
     7
100
AcDbLine
 10
6.973533041409467
 20
4.075585332418668
 30
0.0
 11
6.973533041409467
 21
3.99099962929367
 31
0.0
  0
LINE
  5
EA2
330
1F
100
AcDbEntity
  8
0
  6
Continuous
 62
     7
100
AcDbLine
 10
6.973533041409467
 20
3.969853203512421
 30
0.0
 11
6.973533041409467
 21
3.885267500387421
 31
0.0
  0
LINE
  5
EA3
330
1F
100
AcDbEntity
  8
0
  6
Continuous
 62
     7
100
AcDbLine
 10
7.024284463284468
 20
4.221495670309295
 30
0.0
 11
7.030628391018847
 21
4.22783959804367
 31
0.0
  0
LINE
  5
EA4
330
1F
100
AcDbEntity
  8
0
  6
Continuous
 62
     7
100
AcDbLine
 10
7.015825892971968
 20
4.268017807028043
 30
0.0
 11
7.009481965237597
 21
4.261673879293669
 31
0.0
  0
ARC
  5
EA5
330
1F
100
AcDbEntity
  8
0
  6
Continuous
 62
     7
100
AcDbCircle
 10
7.119443379300093
 20
3.927560351949921
 30
0.0
 40
0.02114642578125
100
AcDbArc
 50
126.8698976458006
 51
143.1301023542005
  0
ARC
  5
EA6
330
1F
100
AcDbEntity
  8
0
  6
Continuous
 62
     7
100
AcDbCircle
 10
7.119443379300093
 20
3.927560351949921
 30
0.0
 40
0.02114642578125
100
AcDbArc
 50
36.8698976457995
 51
53.13010235420039
  0
ARC
  5
EA7
330
1F
100
AcDbEntity
  8
0
  6
Continuous
 62
     7
100
AcDbCircle
 10
7.119443379300093
 20
3.927560351949921
 30
0.0
 40
0.02114642578125
100
AcDbArc
 50
306.8698976458005
 51
323.1301023542004
  0
ARC
  5
EA8
330
1F
100
AcDbEntity
  8
0
  6
Continuous
 62
     7
100
AcDbCircle
 10
7.119443379300093
 20
3.927560351949921
 30
0.0
 40
0.02114642578125
100
AcDbArc
 50
216.8698976457995
 51
233.1301023542005
  0
ARC
  5
EA9
330
1F
100
AcDbEntity
  8
0
  6
Continuous
 62
     7
100
AcDbCircle
 10
7.119443379300093
 20
4.24475673866867
 30
0.0
 40
0.02114642578125
100
AcDbArc
 50
126.8698976458006
 51
143.1301023542005
  0
ARC
  5
EAA
330
1F
100
AcDbEntity
  8
0
  6
Continuous
 62
     7
100
AcDbCircle
 10
7.119443379300093
 20
4.24475673866867
 30
0.0
 40
0.02114642578125
100
AcDbArc
 50
36.8698976457995
 51
53.13010235420039
  0
ARC
  5
EAB
330
1F
100
AcDbEntity
  8
0
  6
Continuous
 62
     7
100
AcDbCircle
 10
7.119443379300093
 20
4.24475673866867
 30
0.0
 40
0.02114642578125
100
AcDbArc
 50
306.8698976458005
 51
323.1301023542004
  0
ARC
  5
EAC
330
1F
100
AcDbEntity
  8
0
  6
Continuous
 62
     7
100
AcDbCircle
 10
7.119443379300093
 20
4.24475673866867
 30
0.0
 40
0.02114642578125
100
AcDbArc
 50
216.8698976457995
 51
233.1301023542005
  0
ARC
  5
EAD
330
1F
100
AcDbEntity
  8
0
  6
Continuous
 62
     7
100
AcDbCircle
 10
7.119443379300093
 20
4.139024609762421
 30
0.0
 40
0.02114642578125
100
AcDbArc
 50
126.8698976458006
 51
143.1301023542005
  0
ARC
  5
EAE
330
1F
100
AcDbEntity
  8
0
  6
Continuous
 62
     7
100
AcDbCircle
 10
7.119443379300093
 20
4.139024609762421
 30
0.0
 40
0.02114642578125
100
AcDbArc
 50
36.8698976457995
 51
53.13010235420039
  0
ARC
  5
EAF
330
1F
100
AcDbEntity
  8
0
  6
Continuous
 62
     7
100
AcDbCircle
 10
7.119443379300093
 20
4.139024609762421
 30
0.0
 40
0.02114642578125
100
AcDbArc
 50
306.8698976458005
 51
323.1301023542004
  0
ARC
  5
EB0
330
1F
100
AcDbEntity
  8
0
  6
Continuous
 62
     7
100
AcDbCircle
 10
7.119443379300093
 20
4.139024609762421
 30
0.0
 40
0.02114642578125
100
AcDbArc
 50
216.8698976457995
 51
233.1301023542005
  0
ARC
  5
EB1
330
1F
100
AcDbEntity
  8
0
  6
Continuous
 62
     7
100
AcDbCircle
 10
7.119443379300093
 20
4.03329248085617
 30
0.0
 40
0.02114642578125
100
AcDbArc
 50
126.8698976458006
 51
143.1301023542005
  0
ARC
  5
EB2
330
1F
100
AcDbEntity
  8
0
  6
Continuous
 62
     7
100
AcDbCircle
 10
7.119443379300093
 20
4.03329248085617
 30
0.0
 40
0.02114642578125
100
AcDbArc
 50
36.8698976457995
 51
53.13010235420039
  0
ARC
  5
EB3
330
1F
100
AcDbEntity
  8
0
  6
Continuous
 62
     7
100
AcDbCircle
 10
7.119443379300093
 20
4.03329248085617
 30
0.0
 40
0.02114642578125
100
AcDbArc
 50
306.8698976458005
 51
323.1301023542004
  0
ARC
  5
EB4
330
1F
100
AcDbEntity
  8
0
  6
Continuous
 62
     7
100
AcDbCircle
 10
7.119443379300093
 20
4.03329248085617
 30
0.0
 40
0.02114642578125
100
AcDbArc
 50
216.8698976457995
 51
233.1301023542005
  0
ARC
  5
EB5
330
1F
100
AcDbEntity
  8
0
  6
Continuous
 62
     7
100
AcDbCircle
 10
7.212487652737594
 20
3.995228914449922
 30
0.0
 40
0.0084585703125
100
AcDbArc
 50
180.0
 51
270.0
  0
ARC
  5
EB6
330
1F
100
AcDbEntity
  8
0
  6
Continuous
 62
     7
100
AcDbCircle
 10
7.212487652737594
 20
3.914872496481168
 30
0.0
 40
0.0084585703125
100
AcDbArc
 50
90.0
 51
180.0
  0
CIRCLE
  5
EB7
330
1F
100
AcDbEntity
  8
0
  6
Continuous
 62
     7
100
AcDbCircle
 10
7.119443379300093
 20
4.139024609762421
 30
0.0
 40
0.044407494140625
  0
CIRCLE
  5
EB8
330
1F
100
AcDbEntity
  8
0
  6
Continuous
 62
     7
100
AcDbCircle
 10
7.119443379300093
 20
4.24475673866867
 30
0.0
 40
0.044407494140625
  0
CIRCLE
  5
EB9
330
1F
100
AcDbEntity
  8
0
  6
Continuous
 62
     7
100
AcDbCircle
 10
7.119443379300093
 20
4.139024609762421
 30
0.0
 40
0.03383428125
  0
CIRCLE
  5
EBA
330
1F
100
AcDbEntity
  8
0
  6
Continuous
 62
     7
100
AcDbCircle
 10
7.119443379300093
 20
3.927560351949921
 30
0.0
 40
0.03383428125
  0
CIRCLE
  5
EBB
330
1F
100
AcDbEntity
  8
0
  6
Continuous
 62
     7
100
AcDbCircle
 10
7.119443379300093
 20
4.03329248085617
 30
0.0
 40
0.03383428125
  0
CIRCLE
  5
EBC
330
1F
100
AcDbEntity
  8
0
  6
Continuous
 62
     7
100
AcDbCircle
 10
7.119443379300093
 20
4.24475673866867
 30
0.0
 40
0.03383428125
  0
CIRCLE
  5
EBD
330
1F
100
AcDbEntity
  8
0
  6
Continuous
 62
     7
100
AcDbCircle
 10
7.119443379300093
 20
3.927560351949921
 30
0.0
 40
0.044407494140625
  0
CIRCLE
  5
EBE
330
1F
100
AcDbEntity
  8
0
  6
Continuous
 62
     7
100
AcDbCircle
 10
7.119443379300093
 20
4.03329248085617
 30
0.0
 40
0.044407494140625
  0
LINE
  5
EBF
330
1F
100
AcDbEntity
  8
0
  6
Continuous
 62
     7
100
AcDbLine
 10
6.954501258206343
 20
3.093353367027361
 30
0.0
 11
7.288614785550094
 21
3.093353367027361
 31
0.0
  0
LINE
  5
EC0
330
1F
100
AcDbEntity
  8
0
  6
Continuous
 62
     7
100
AcDbLine
 10
7.015825892971968
 20
3.163136572105486
 30
0.0
 11
7.009481965237597
 21
3.169480499839859
 31
0.0
  0
LINE
  5
EC1
330
1F
100
AcDbEntity
  8
0
  6
Continuous
 62
     7
100
AcDbLine
 10
7.210373010159469
 20
3.120843720542984
 30
0.0
 11
7.024284463284468
 21
3.120843720542984
 31
0.0
  0
LINE
  5
EC2
330
1F
100
AcDbEntity
  8
0
  6
Continuous
 62
     7
100
AcDbLine
 10
7.204029082425094
 20
3.127187648277359
 30
0.0
 11
7.030628391018847
 21
3.127187648277359
 31
0.0
  0
LINE
  5
EC3
330
1F
100
AcDbEntity
  8
0
  6
Continuous
 62
     7
100
AcDbLine
 10
7.024284463284468
 20
3.209658708824234
 30
0.0
 11
7.030628391018847
 21
3.203314781089861
 31
0.0
  0
LINE
  5
EC4
330
1F
100
AcDbEntity
  8
0
  6
Continuous
 62
     7
100
AcDbLine
 10
6.973533041409467
 20
3.144104788902359
 30
0.0
 11
7.015825892971968
 21
3.144104788902359
 31
0.0
  0
LINE
  5
EC5
330
1F
100
AcDbEntity
  8
0
  6
Continuous
 62
     7
100
AcDbLine
 10
7.015825892971968
 20
3.163136572105486
 30
0.0
 11
7.024284463284468
 21
3.163136572105486
 31
0.0
  0
LINE
  5
EC6
330
1F
100
AcDbEntity
  8
0
  6
Continuous
 62
     7
100
AcDbLine
 10
7.204029082425094
 20
3.168423178550797
 30
0.0
 11
7.168080158596972
 21
3.168423178550797
 31
0.0
  0
LINE
  5
EC7
330
1F
100
AcDbEntity
  8
0
  6
Continuous
 62
     7
100
AcDbLine
 10
7.07080660000322
 20
3.168423178550797
 30
0.0
 11
7.030628391018847
 21
3.168423178550797
 31
0.0
  0
LINE
  5
EC8
330
1F
100
AcDbEntity
  8
0
  6
Continuous
 62
     7
100
AcDbLine
 10
7.009481965237597
 20
3.169480499839859
 30
0.0
 11
7.030628391018847
 21
3.169480499839859
 31
0.0
  0
LINE
  5
EC9
330
1F
100
AcDbEntity
  8
0
  6
Continuous
 62
     7
100
AcDbLine
 10
7.102526238675095
 20
3.169480499839859
 30
0.0
 11
7.136360519925093
 21
3.169480499839859
 31
0.0
  0
LINE
  5
ECA
330
1F
100
AcDbEntity
  8
0
  6
Continuous
 62
     7
100
AcDbLine
 10
7.210373010159469
 20
3.175824427574234
 30
0.0
 11
7.263239074612593
 21
3.175824427574234
 31
0.0
  0
LINE
  5
ECB
330
1F
100
AcDbEntity
  8
0
  6
Continuous
 62
     7
100
AcDbLine
 10
7.110984808987594
 20
3.177939070152359
 30
0.0
 11
7.127901949612592
 21
3.177939070152359
 31
0.0
  0
LINE
  5
ECC
330
1F
100
AcDbEntity
  8
0
  6
Continuous
 62
     7
100
AcDbLine
 10
7.212487652737594
 20
3.182168355308611
 30
0.0
 11
7.25689514687822
 21
3.182168355308611
 31
0.0
  0
LINE
  5
ECD
330
1F
100
AcDbEntity
  8
0
  6
Continuous
 62
     7
100
AcDbLine
 10
7.015825892971968
 20
3.268868701011736
 30
0.0
 11
7.009481965237597
 21
3.275212628746109
 31
0.0
  0
LINE
  5
ECE
330
1F
100
AcDbEntity
  8
0
  6
Continuous
 62
     7
100
AcDbLine
 10
7.127901949612592
 20
3.177939070152359
 30
0.0
 11
7.134396160368158
 21
3.171444859397642
 31
0.0
  0
LINE
  5
ECF
330
1F
100
AcDbEntity
  8
0
  6
Continuous
 62
     7
100
AcDbLine
 10
7.110984808987594
 20
3.194856210777359
 30
0.0
 11
7.104490598232874
 21
3.201350421532923
 31
0.0
  0
LINE
  5
ED0
330
1F
100
AcDbEntity
  8
0
  6
Continuous
 62
     7
100
AcDbLine
 10
7.127901949612592
 20
3.194856210777359
 30
0.0
 11
7.110984808987594
 21
3.194856210777359
 31
0.0
  0
LINE
  5
ED1
330
1F
100
AcDbEntity
  8
0
  6
Continuous
 62
     7
100
AcDbLine
 10
7.136360519925093
 20
3.203314781089861
 30
0.0
 11
7.102526238675095
 21
3.203314781089861
 31
0.0
  0
LINE
  5
ED2
330
1F
100
AcDbEntity
  8
0
  6
Continuous
 62
     7
100
AcDbLine
 10
7.030628391018847
 20
3.203314781089861
 30
0.0
 11
7.009481965237597
 21
3.203314781089861
 31
0.0
  0
LINE
  5
ED3
330
1F
100
AcDbEntity
  8
0
  6
Continuous
 62
     7
100
AcDbLine
 10
7.204029082425094
 20
3.204372102378923
 30
0.0
 11
7.168080158596972
 21
3.204372102378923
 31
0.0
  0
LINE
  5
ED4
330
1F
100
AcDbEntity
  8
0
  6
Continuous
 62
     7
100
AcDbLine
 10
7.07080660000322
 20
3.204372102378923
 30
0.0
 11
7.030628391018847
 21
3.204372102378923
 31
0.0
  0
LINE
  5
ED5
330
1F
100
AcDbEntity
  8
0
  6
Continuous
 62
     7
100
AcDbLine
 10
7.024284463284468
 20
3.209658708824234
 30
0.0
 11
7.015825892971968
 21
3.209658708824234
 31
0.0
  0
LINE
  5
ED6
330
1F
100
AcDbEntity
  8
0
  6
Continuous
 62
     7
100
AcDbLine
 10
7.210373010159469
 20
3.120843720542984
 30
0.0
 11
7.204029082425094
 21
3.127187648277359
 31
0.0
  0
LINE
  5
ED7
330
1F
100
AcDbEntity
  8
0
  6
Continuous
 62
     7
100
AcDbLine
 10
7.015825892971968
 20
3.228690492027361
 30
0.0
 11
6.973533041409467
 21
3.228690492027361
 31
0.0
  0
LINE
  5
ED8
330
1F
100
AcDbEntity
  8
0
  6
Continuous
 62
     7
100
AcDbLine
 10
7.024284463284468
 20
3.315390837730486
 30
0.0
 11
7.030628391018847
 21
3.309046909996109
 31
0.0
  0
LINE
  5
ED9
330
1F
100
AcDbEntity
  8
0
  6
Continuous
 62
     7
100
AcDbLine
 10
7.263239074612593
 20
3.251951560386736
 30
0.0
 11
7.25689514687822
 21
3.245607632652361
 31
0.0
  0
LINE
  5
EDA
330
1F
100
AcDbEntity
  8
0
  6
Continuous
 62
     7
100
AcDbLine
 10
7.25689514687822
 20
3.245607632652361
 30
0.0
 11
7.212487652737594
 21
3.245607632652361
 31
0.0
  0
LINE
  5
EDB
330
1F
100
AcDbEntity
  8
0
  6
Continuous
 62
     7
100
AcDbLine
 10
6.973533041409467
 20
3.249836917808611
 30
0.0
 11
7.015825892971968
 21
3.249836917808611
 31
0.0
  0
LINE
  5
EDC
330
1F
100
AcDbEntity
  8
0
  6
Continuous
 62
     7
100
AcDbLine
 10
7.263239074612593
 20
3.251951560386736
 30
0.0
 11
7.210373010159469
 21
3.251951560386736
 31
0.0
  0
LINE
  5
EDD
330
1F
100
AcDbEntity
  8
0
  6
Continuous
 62
     7
100
AcDbLine
 10
7.210373010159469
 20
3.175824427574234
 30
0.0
 11
7.206506540311215
 21
3.179690897423336
 31
0.0
  0
LINE
  5
EDE
330
1F
100
AcDbEntity
  8
0
  6
Continuous
 62
     7
100
AcDbLine
 10
7.015825892971968
 20
3.268868701011736
 30
0.0
 11
7.024284463284468
 21
3.268868701011736
 31
0.0
  0
LINE
  5
EDF
330
1F
100
AcDbEntity
  8
0
  6
Continuous
 62
     7
100
AcDbLine
 10
7.204029082425094
 20
3.274155307457048
 30
0.0
 11
7.168080158596972
 21
3.274155307457048
 31
0.0
  0
LINE
  5
EE0
330
1F
100
AcDbEntity
  8
0
  6
Continuous
 62
     7
100
AcDbLine
 10
7.07080660000322
 20
3.274155307457048
 30
0.0
 11
7.030628391018847
 21
3.274155307457048
 31
0.0
  0
LINE
  5
EE1
330
1F
100
AcDbEntity
  8
0
  6
Continuous
 62
     7
100
AcDbLine
 10
7.009481965237597
 20
3.275212628746109
 30
0.0
 11
7.030628391018847
 21
3.275212628746109
 31
0.0
  0
LINE
  5
EE2
330
1F
100
AcDbEntity
  8
0
  6
Continuous
 62
     7
100
AcDbLine
 10
7.102526238675095
 20
3.275212628746109
 30
0.0
 11
7.136360519925093
 21
3.275212628746109
 31
0.0
  0
LINE
  5
EE3
330
1F
100
AcDbEntity
  8
0
  6
Continuous
 62
     7
100
AcDbLine
 10
7.127901949612592
 20
3.283671199058609
 30
0.0
 11
7.134396160368158
 21
3.277176988303891
 31
0.0
  0
LINE
  5
EE4
330
1F
100
AcDbEntity
  8
0
  6
Continuous
 62
     7
100
AcDbLine
 10
7.110984808987594
 20
3.300588339683609
 30
0.0
 11
7.104490598232874
 21
3.307082550439174
 31
0.0
  0
LINE
  5
EE5
330
1F
100
AcDbEntity
  8
0
  6
Continuous
 62
     7
100
AcDbLine
 10
7.263239074612593
 20
3.175824427574234
 30
0.0
 11
7.263239074612593
 21
3.251951560386736
 31
0.0
  0
LINE
  5
EE6
330
1F
100
AcDbEntity
  8
0
  6
Continuous
 62
     7
100
AcDbLine
 10
7.25689514687822
 20
3.182168355308611
 30
0.0
 11
7.25689514687822
 21
3.245607632652361
 31
0.0
  0
LINE
  5
EE7
330
1F
100
AcDbEntity
  8
0
  6
Continuous
 62
     7
100
AcDbLine
 10
7.210373010159469
 20
3.251951560386736
 30
0.0
 11
7.206506540311215
 21
3.248085090537633
 31
0.0
  0
LINE
  5
EE8
330
1F
100
AcDbEntity
  8
0
  6
Continuous
 62
     7
100
AcDbLine
 10
7.127901949612592
 20
3.194856210777359
 30
0.0
 11
7.134396160368158
 21
3.201350421532923
 31
0.0
  0
LINE
  5
EE9
330
1F
100
AcDbEntity
  8
0
  6
Continuous
 62
     7
100
AcDbLine
 10
7.110984808987594
 20
3.177939070152359
 30
0.0
 11
7.104490598232874
 21
3.171444859397642
 31
0.0
  0
LINE
  5
EEA
330
1F
100
AcDbEntity
  8
0
  6
Continuous
 62
     7
100
AcDbLine
 10
7.110984808987594
 20
3.283671199058609
 30
0.0
 11
7.127901949612592
 21
3.283671199058609
 31
0.0
  0
LINE
  5
EEB
330
1F
100
AcDbEntity
  8
0
  6
Continuous
 62
     7
100
AcDbLine
 10
7.127901949612592
 20
3.300588339683609
 30
0.0
 11
7.110984808987594
 21
3.300588339683609
 31
0.0
  0
LINE
  5
EEC
330
1F
100
AcDbEntity
  8
0
  6
Continuous
 62
     7
100
AcDbLine
 10
7.263239074612593
 20
3.175824427574234
 30
0.0
 11
7.25689514687822
 21
3.182168355308611
 31
0.0
  0
LINE
  5
EED
330
1F
100
AcDbEntity
  8
0
  6
Continuous
 62
     7
100
AcDbLine
 10
7.024284463284468
 20
3.120843720542984
 30
0.0
 11
7.030628391018847
 21
3.127187648277359
 31
0.0
  0
LINE
  5
EEE
330
1F
100
AcDbEntity
  8
0
  6
Continuous
 62
     7
100
AcDbLine
 10
7.136360519925093
 20
3.309046909996109
 30
0.0
 11
7.102526238675095
 21
3.309046909996109
 31
0.0
  0
LINE
  5
EEF
330
1F
100
AcDbEntity
  8
0
  6
Continuous
 62
     7
100
AcDbLine
 10
7.030628391018847
 20
3.309046909996109
 30
0.0
 11
7.009481965237597
 21
3.309046909996109
 31
0.0
  0
LINE
  5
EF0
330
1F
100
AcDbEntity
  8
0
  6
Continuous
 62
     7
100
AcDbLine
 10
7.204029082425094
 20
3.310104231285173
 30
0.0
 11
7.168080158596972
 21
3.310104231285173
 31
0.0
  0
LINE
  5
EF1
330
1F
100
AcDbEntity
  8
0
  6
Continuous
 62
     7
100
AcDbLine
 10
7.07080660000322
 20
3.310104231285173
 30
0.0
 11
7.030628391018847
 21
3.310104231285173
 31
0.0
  0
LINE
  5
EF2
330
1F
100
AcDbEntity
  8
0
  6
Continuous
 62
     7
100
AcDbLine
 10
7.024284463284468
 20
3.315390837730486
 30
0.0
 11
7.015825892971968
 21
3.315390837730486
 31
0.0
  0
LINE
  5
EF3
330
1F
100
AcDbEntity
  8
0
  6
Continuous
 62
     7
100
AcDbLine
 10
7.210373010159469
 20
3.493020814292986
 30
0.0
 11
7.210373010159469
 21
3.251951560386736
 31
0.0
  0
LINE
  5
EF4
330
1F
100
AcDbEntity
  8
0
  6
Continuous
 62
     7
100
AcDbLine
 10
7.210373010159469
 20
3.175824427574234
 30
0.0
 11
7.210373010159469
 21
3.120843720542984
 31
0.0
  0
LINE
  5
EF5
330
1F
100
AcDbEntity
  8
0
  6
Continuous
 62
     7
100
AcDbLine
 10
7.015825892971968
 20
3.334422620933609
 30
0.0
 11
6.973533041409467
 21
3.334422620933609
 31
0.0
  0
LINE
  5
EF6
330
1F
100
AcDbEntity
  8
0
  6
Continuous
 62
     7
100
AcDbLine
 10
7.204029082425094
 20
3.127187648277359
 30
0.0
 11
7.204029082425094
 21
3.562804019371111
 31
0.0
  0
LINE
  5
EF7
330
1F
100
AcDbEntity
  8
0
  6
Continuous
 62
     7
100
AcDbLine
 10
7.024284463284468
 20
3.163136572105486
 30
0.0
 11
7.030628391018847
 21
3.169480499839859
 31
0.0
  0
LINE
  5
EF8
330
1F
100
AcDbEntity
  8
0
  6
Continuous
 62
     7
100
AcDbLine
 10
7.168080158596972
 20
3.379887436363298
 30
0.0
 11
7.168080158596972
 21
3.310104231285173
 31
0.0
  0
LINE
  5
EF9
330
1F
100
AcDbEntity
  8
0
  6
Continuous
 62
     7
100
AcDbLine
 10
7.168080158596972
 20
3.274155307457048
 30
0.0
 11
7.168080158596972
 21
3.204372102378923
 31
0.0
  0
LINE
  5
EFA
330
1F
100
AcDbEntity
  8
0
  6
Continuous
 62
     7
100
AcDbLine
 10
7.168080158596972
 20
3.127187648277359
 30
0.0
 11
7.168080158596972
 21
3.168423178550797
 31
0.0
  0
LINE
  5
EFB
330
1F
100
AcDbEntity
  8
0
  6
Continuous
 62
     7
100
AcDbLine
 10
7.127901949612592
 20
3.300588339683609
 30
0.0
 11
7.134396160368158
 21
3.307082550439174
 31
0.0
  0
LINE
  5
EFC
330
1F
100
AcDbEntity
  8
0
  6
Continuous
 62
     7
100
AcDbLine
 10
7.110984808987594
 20
3.283671199058609
 30
0.0
 11
7.104490598232874
 21
3.277176988303891
 31
0.0
  0
LINE
  5
EFD
330
1F
100
AcDbEntity
  8
0
  6
Continuous
 62
     7
100
AcDbLine
 10
7.015825892971968
 20
3.209658708824234
 30
0.0
 11
7.009481965237597
 21
3.203314781089861
 31
0.0
  0
LINE
  5
EFE
330
1F
100
AcDbEntity
  8
0
  6
Continuous
 62
     7
100
AcDbLine
 10
7.136360519925093
 20
3.169480499839859
 30
0.0
 11
7.136360519925093
 21
3.203314781089861
 31
0.0
  0
LINE
  5
EFF
330
1F
100
AcDbEntity
  8
0
  6
Continuous
 62
     7
100
AcDbLine
 10
7.136360519925093
 20
3.275212628746109
 30
0.0
 11
7.136360519925093
 21
3.309046909996109
 31
0.0
  0
LINE
  5
F00
330
1F
100
AcDbEntity
  8
0
  6
Continuous
 62
     7
100
AcDbLine
 10
7.127901949612592
 20
3.177939070152359
 30
0.0
 11
7.127901949612592
 21
3.194856210777359
 31
0.0
  0
LINE
  5
F01
330
1F
100
AcDbEntity
  8
0
  6
Continuous
 62
     7
100
AcDbLine
 10
7.127901949612592
 20
3.283671199058609
 30
0.0
 11
7.127901949612592
 21
3.300588339683609
 31
0.0
  0
LINE
  5
F02
330
1F
100
AcDbEntity
  8
0
  6
Continuous
 62
     7
100
AcDbLine
 10
7.024284463284468
 20
3.268868701011736
 30
0.0
 11
7.030628391018847
 21
3.275212628746109
 31
0.0
  0
LINE
  5
F03
330
1F
100
AcDbEntity
  8
0
  6
Continuous
 62
     7
100
AcDbLine
 10
7.110984808987594
 20
3.300588339683609
 30
0.0
 11
7.110984808987594
 21
3.283671199058609
 31
0.0
  0
LINE
  5
F04
330
1F
100
AcDbEntity
  8
0
  6
Continuous
 62
     7
100
AcDbLine
 10
7.110984808987594
 20
3.194856210777359
 30
0.0
 11
7.110984808987594
 21
3.177939070152359
 31
0.0
  0
LINE
  5
F05
330
1F
100
AcDbEntity
  8
0
  6
Continuous
 62
     7
100
AcDbLine
 10
7.102526238675095
 20
3.309046909996109
 30
0.0
 11
7.102526238675095
 21
3.275212628746109
 31
0.0
  0
LINE
  5
F06
330
1F
100
AcDbEntity
  8
0
  6
Continuous
 62
     7
100
AcDbLine
 10
7.102526238675095
 20
3.203314781089861
 30
0.0
 11
7.102526238675095
 21
3.169480499839859
 31
0.0
  0
LINE
  5
F07
330
1F
100
AcDbEntity
  8
0
  6
Continuous
 62
     7
100
AcDbLine
 10
7.07080660000322
 20
3.379887436363298
 30
0.0
 11
7.07080660000322
 21
3.310104231285173
 31
0.0
  0
LINE
  5
F08
330
1F
100
AcDbEntity
  8
0
  6
Continuous
 62
     7
100
AcDbLine
 10
7.07080660000322
 20
3.274155307457048
 30
0.0
 11
7.07080660000322
 21
3.204372102378923
 31
0.0
  0
LINE
  5
F09
330
1F
100
AcDbEntity
  8
0
  6
Continuous
 62
     7
100
AcDbLine
 10
7.07080660000322
 20
3.127187648277359
 30
0.0
 11
7.07080660000322
 21
3.168423178550797
 31
0.0
  0
LINE
  5
F0A
330
1F
100
AcDbEntity
  8
0
  6
Continuous
 62
     7
100
AcDbLine
 10
7.015825892971968
 20
3.315390837730486
 30
0.0
 11
7.009481965237597
 21
3.309046909996109
 31
0.0
  0
LINE
  5
F0B
330
1F
100
AcDbEntity
  8
0
  6
Continuous
 62
     7
100
AcDbLine
 10
7.030628391018847
 20
3.380944757652359
 30
0.0
 11
7.030628391018847
 21
3.309046909996109
 31
0.0
  0
LINE
  5
F0C
330
1F
100
AcDbEntity
  8
0
  6
Continuous
 62
     7
100
AcDbLine
 10
7.030628391018847
 20
3.275212628746109
 30
0.0
 11
7.030628391018847
 21
3.203314781089861
 31
0.0
  0
LINE
  5
F0D
330
1F
100
AcDbEntity
  8
0
  6
Continuous
 62
     7
100
AcDbLine
 10
7.030628391018847
 20
3.169480499839859
 30
0.0
 11
7.030628391018847
 21
3.127187648277359
 31
0.0
  0
LINE
  5
F0E
330
1F
100
AcDbEntity
  8
0
  6
Continuous
 62
     7
100
AcDbLine
 10
7.024284463284468
 20
3.120843720542984
 30
0.0
 11
7.024284463284468
 21
3.163136572105486
 31
0.0
  0
LINE
  5
F0F
330
1F
100
AcDbEntity
  8
0
  6
Continuous
 62
     7
100
AcDbLine
 10
7.024284463284468
 20
3.209658708824234
 30
0.0
 11
7.024284463284468
 21
3.268868701011736
 31
0.0
  0
LINE
  5
F10
330
1F
100
AcDbEntity
  8
0
  6
Continuous
 62
     7
100
AcDbLine
 10
7.024284463284468
 20
3.315390837730486
 30
0.0
 11
7.024284463284468
 21
3.374600829917984
 31
0.0
  0
LINE
  5
F11
330
1F
100
AcDbEntity
  8
0
  6
Continuous
 62
     7
100
AcDbLine
 10
7.015825892971968
 20
3.144104788902359
 30
0.0
 11
7.015825892971968
 21
3.163136572105486
 31
0.0
  0
LINE
  5
F12
330
1F
100
AcDbEntity
  8
0
  6
Continuous
 62
     7
100
AcDbLine
 10
7.015825892971968
 20
3.209658708824234
 30
0.0
 11
7.015825892971968
 21
3.228690492027361
 31
0.0
  0
LINE
  5
F13
330
1F
100
AcDbEntity
  8
0
  6
Continuous
 62
     7
100
AcDbLine
 10
7.015825892971968
 20
3.249836917808611
 30
0.0
 11
7.015825892971968
 21
3.268868701011736
 31
0.0
  0
LINE
  5
F14
330
1F
100
AcDbEntity
  8
0
  6
Continuous
 62
     7
100
AcDbLine
 10
7.015825892971968
 20
3.315390837730486
 30
0.0
 11
7.015825892971968
 21
3.334422620933609
 31
0.0
  0
LINE
  5
F15
330
1F
100
AcDbEntity
  8
0
  6
Continuous
 62
     7
100
AcDbLine
 10
7.009481965237597
 20
3.144104788902359
 30
0.0
 11
7.009481965237597
 21
3.169480499839859
 31
0.0
  0
LINE
  5
F16
330
1F
100
AcDbEntity
  8
0
  6
Continuous
 62
     7
100
AcDbLine
 10
7.009481965237597
 20
3.203314781089861
 30
0.0
 11
7.009481965237597
 21
3.228690492027361
 31
0.0
  0
LINE
  5
F17
330
1F
100
AcDbEntity
  8
0
  6
Continuous
 62
     7
100
AcDbLine
 10
7.009481965237597
 20
3.249836917808611
 30
0.0
 11
7.009481965237597
 21
3.275212628746109
 31
0.0
  0
LINE
  5
F18
330
1F
100
AcDbEntity
  8
0
  6
Continuous
 62
     7
100
AcDbLine
 10
7.009481965237597
 20
3.309046909996109
 30
0.0
 11
7.009481965237597
 21
3.334422620933609
 31
0.0
  0
LINE
  5
F19
330
1F
100
AcDbEntity
  8
0
  6
Continuous
 62
     7
100
AcDbLine
 10
6.979876969143844
 20
3.334422620933609
 30
0.0
 11
6.979876969143844
 21
3.249836917808611
 31
0.0
  0
LINE
  5
F1A
330
1F
100
AcDbEntity
  8
0
  6
Continuous
 62
     7
100
AcDbLine
 10
6.979876969143844
 20
3.228690492027361
 30
0.0
 11
6.979876969143844
 21
3.144104788902359
 31
0.0
  0
LINE
  5
F1B
330
1F
100
AcDbEntity
  8
0
  6
Continuous
 62
     7
100
AcDbLine
 10
6.973533041409467
 20
3.334422620933609
 30
0.0
 11
6.973533041409467
 21
3.249836917808611
 31
0.0
  0
LINE
  5
F1C
330
1F
100
AcDbEntity
  8
0
  6
Continuous
 62
     7
100
AcDbLine
 10
6.973533041409467
 20
3.228690492027361
 30
0.0
 11
6.973533041409467
 21
3.144104788902359
 31
0.0
  0
ARC
  5
F1D
330
1F
100
AcDbEntity
  8
0
  6
Continuous
 62
     7
100
AcDbCircle
 10
7.119443379300093
 20
3.186397640464861
 30
0.0
 40
0.02114642578125
100
AcDbArc
 50
126.8698976458006
 51
143.1301023542005
  0
ARC
  5
F1E
330
1F
100
AcDbEntity
  8
0
  6
Continuous
 62
     7
100
AcDbCircle
 10
7.119443379300093
 20
3.186397640464861
 30
0.0
 40
0.02114642578125
100
AcDbArc
 50
36.8698976457995
 51
53.13010235420039
  0
ARC
  5
F1F
330
1F
100
AcDbEntity
  8
0
  6
Continuous
 62
     7
100
AcDbCircle
 10
7.119443379300093
 20
3.186397640464861
 30
0.0
 40
0.02114642578125
100
AcDbArc
 50
306.8698976458005
 51
323.1301023542004
  0
ARC
  5
F20
330
1F
100
AcDbEntity
  8
0
  6
Continuous
 62
     7
100
AcDbCircle
 10
7.119443379300093
 20
3.186397640464861
 30
0.0
 40
0.02114642578125
100
AcDbArc
 50
216.8698976457995
 51
233.1301023542005
  0
ARC
  5
F21
330
1F
100
AcDbEntity
  8
0
  6
Continuous
 62
     7
100
AcDbCircle
 10
7.119443379300093
 20
3.292129769371109
 30
0.0
 40
0.02114642578125
100
AcDbArc
 50
126.8698976458006
 51
143.1301023542005
  0
ARC
  5
F22
330
1F
100
AcDbEntity
  8
0
  6
Continuous
 62
     7
100
AcDbCircle
 10
7.119443379300093
 20
3.292129769371109
 30
0.0
 40
0.02114642578125
100
AcDbArc
 50
36.8698976457995
 51
53.13010235420039
  0
ARC
  5
F23
330
1F
100
AcDbEntity
  8
0
  6
Continuous
 62
     7
100
AcDbCircle
 10
7.119443379300093
 20
3.292129769371109
 30
0.0
 40
0.02114642578125
100
AcDbArc
 50
306.8698976458005
 51
323.1301023542004
  0
ARC
  5
F24
330
1F
100
AcDbEntity
  8
0
  6
Continuous
 62
     7
100
AcDbCircle
 10
7.119443379300093
 20
3.292129769371109
 30
0.0
 40
0.02114642578125
100
AcDbArc
 50
216.8698976457995
 51
233.1301023542005
  0
ARC
  5
F25
330
1F
100
AcDbEntity
  8
0
  6
Continuous
 62
     7
100
AcDbCircle
 10
7.212487652737594
 20
3.254066202964861
 30
0.0
 40
0.0084585703125
100
AcDbArc
 50
180.0
 51
270.0
  0
ARC
  5
F26
330
1F
100
AcDbEntity
  8
0
  6
Continuous
 62
     7
100
AcDbCircle
 10
7.212487652737594
 20
3.173709784996111
 30
0.0
 40
0.0084585703125
100
AcDbArc
 50
90.0
 51
180.0
  0
CIRCLE
  5
F27
330
1F
100
AcDbEntity
  8
0
  6
Continuous
 62
     7
100
AcDbCircle
 10
7.119443379300093
 20
3.186397640464861
 30
0.0
 40
0.03383428125
  0
CIRCLE
  5
F28
330
1F
100
AcDbEntity
  8
0
  6
Continuous
 62
     7
100
AcDbCircle
 10
7.119443379300093
 20
3.292129769371109
 30
0.0
 40
0.03383428125
  0
CIRCLE
  5
F29
330
1F
100
AcDbEntity
  8
0
  6
Continuous
 62
     7
100
AcDbCircle
 10
7.119443379300093
 20
3.186397640464861
 30
0.0
 40
0.044407494140625
  0
CIRCLE
  5
F2A
330
1F
100
AcDbEntity
  8
0
  6
Continuous
 62
     7
100
AcDbCircle
 10
7.119443379300093
 20
3.292129769371109
 30
0.0
 40
0.044407494140625
  0
DIMENSION
  5
FD3
330
1F
100
AcDbEntity
  8
0
100
AcDbDimension
  2
*D14
 10
12.6557640372
 20
2.64685056713348
 30
0.0
 11
12.09076402495
 21
2.76935056713348
 31
0.0
 70
    32
 71
     5
 42
1.130000024500001
  3
Standard
100
AcDbAlignedDimension
 13
11.5257640127
 23
2.967665764499998
 33
0.0
 14
12.6557640372
 24
2.967665764499998
 34
0.0
100
AcDbRotatedDimension
1001
ACAD
1000
DSTYLE
1002
{
1070
    41
1040
0.13
1070
    42
1040
0.05
1070
    44
1040
0.125
1070
    77
1070
     1
1070
   140
1040
0.125
1070
   147
1040
0.06
1070
   271
1070
     2
1070
   272
1070
     2
1002
}
  0
CIRCLE
  5
FE0
330
1F
100
AcDbEntity
  8
0
  6
Continuous
 62
     3
100
AcDbCircle
 10
7.06514673131782
 20
8.736712295828091
 30
0.0
 40
0.078
  0
CIRCLE
  5
FE1
330
1F
100
AcDbEntity
  8
0
  6
Continuous
 62
     3
100
AcDbCircle
 10
7.265146731317818
 20
8.736712295828091
 30
0.0
 40
0.078
  0
CIRCLE
  5
FE2
330
1F
100
AcDbEntity
  8
0
  6
Continuous
 62
     7
100
AcDbCircle
 10
7.267914605317821
 20
8.736716516228089
 30
0.0
 40
0.059
  0
CIRCLE
  5
FE3
330
1F
100
AcDbEntity
  8
0
  6
Continuous
 62
     7
100
AcDbCircle
 10
7.067914605317822
 20
8.736716516228089
 30
0.0
 40
0.059
  0
LINE
  5
FE4
330
1F
100
AcDbEntity
  8
0
100
AcDbLine
 10
6.933266693801366
 20
8.836114099595466
 30
0.0
 11
7.412627183282916
 21
8.836114099595466
 31
0.0
  0
LINE
  5
FE5
330
1F
100
AcDbEntity
  8
0
100
AcDbLine
 10
7.412627183282916
 20
8.836114099595466
 30
0.0
 11
7.412627183282916
 21
8.635059891172428
 31
0.0
  0
LINE
  5
FE6
330
1F
100
AcDbEntity
  8
0
100
AcDbLine
 10
7.412627183282916
 20
8.635059891172428
 30
0.0
 11
6.933266693801366
 21
8.635059891172428
 31
0.0
  0
LINE
  5
FE7
330
1F
100
AcDbEntity
  8
0
100
AcDbLine
 10
6.933266693801366
 20
8.635059891172428
 30
0.0
 11
6.933266693801366
 21
8.836114099595466
 31
0.0
  0
LINE
  5
FE8
330
1F
100
AcDbEntity
  8
0
  6
Continuous
 62
     7
370
    15
100
AcDbLine
 10
6.4869473934
 20
8.947678560609055
 30
0.0
 11
6.4869473934
 21
3.047665640299998
 31
0.0
  0
LINE
  5
FEF
330
1F
100
AcDbEntity
  8
0
100
AcDbLine
 10
6.506947389176052
 20
8.967665553869421
 30
0.0
 11
7.535877743292977
 21
8.967658404576811
 31
0.0
  0
LINE
  5
FF7
330
1F
100
AcDbEntity
  8
0
  6
Continuous
 62
     7
370
    15
100
AcDbLine
 10
7.4200724011
 20
12.5021903484
 30
0.0
 11
7.0338224964
 21
12.5021903484
 31
0.0
  0
ARC
  5
FF8
330
1F
100
AcDbEntity
  8
0
  6
Continuous
 62
     7
370
    15
100
AcDbCircle
 10
7.4200724599
 20
12.5490654603
 30
0.0
 40
0.046875
100
AcDbArc
 50
270.0000000003
 51
89.99999999969999
  0
LINE
  5
FF9
330
1F
100
AcDbEntity
  8
0
  6
Continuous
 62
     7
370
    15
100
AcDbLine
 10
7.0338224964
 20
12.5959403587
 30
0.0
 11
7.4200724011
 21
12.5959403587
 31
0.0
  0
ARC
  5
FFA
330
1F
100
AcDbEntity
  8
0
  6
Continuous
 62
     7
370
    15
100
AcDbCircle
 10
7.033822459899998
 20
12.5490654603
 30
0.0
 40
0.046875
100
AcDbArc
 50
90.00000000029997
 51
270.0
  0
LINE
  5
FFB
330
1F
100
AcDbEntity
  8
0
  6
Continuous
 62
     7
370
    15
100
AcDbLine
 10
7.4200724011
 20
12.689690369
 30
0.0
 11
7.0338224964
 21
12.689690369
 31
0.0
  0
ARC
  5
FFC
330
1F
100
AcDbEntity
  8
0
  6
Continuous
 62
     7
370
    15
100
AcDbCircle
 10
7.4200724599
 20
12.7365654603
 30
0.0
 40
0.046875
100
AcDbArc
 50
270.0000000003
 51
89.99999999969999
  0
LINE
  5
FFD
330
1F
100
AcDbEntity
  8
0
  6
Continuous
 62
     7
370
    15
100
AcDbLine
 10
7.0338224964
 20
12.7834403793
 30
0.0
 11
7.4200724011
 21
12.7834403793
 31
0.0
  0
ARC
  5
FFE
330
1F
100
AcDbEntity
  8
0
  6
Continuous
 62
     7
370
    15
100
AcDbCircle
 10
7.033822459899998
 20
12.7365654603
 30
0.0
 40
0.046875
100
AcDbArc
 50
90.00000000029997
 51
270.0
  0
LINE
  5
FFF
330
1F
100
AcDbEntity
  8
0
  6
Continuous
 62
     7
370
    15
100
AcDbLine
 10
7.4200724011
 20
12.8771903897
 30
0.0
 11
7.0338224964
 21
12.8771903897
 31
0.0
  0
ARC
  5
1000
330
1F
100
AcDbEntity
  8
0
  6
Continuous
 62
     7
370
    15
100
AcDbCircle
 10
7.4200724599
 20
12.9240654603
 30
0.0
 40
0.046875
100
AcDbArc
 50
270.0000000003
 51
89.99999999969999
  0
LINE
  5
1001
330
1F
100
AcDbEntity
  8
0
  6
Continuous
 62
     7
370
    15
100
AcDbLine
 10
7.0338224964
 20
12.9709404
 30
0.0
 11
7.4200724011
 21
12.9709404
 31
0.0
  0
ARC
  5
1002
330
1F
100
AcDbEntity
  8
0
  6
Continuous
 62
     7
370
    15
100
AcDbCircle
 10
7.033822459899998
 20
12.9240654603
 30
0.0
 40
0.046875
100
AcDbArc
 50
90.00000000029997
 51
270.0
  0
LINE
  5
1004
330
1F
100
AcDbEntity
  8
0
100
AcDbLine
 10
6.566947393400002
 20
10.31662396561511
 30
0.0
 11
7.5369474599
 21
10.3134404603
 31
0.0
  0
IMAGE
  5
1017
330
1F
100
AcDbEntity
  8
0
 92
      140
310
8C000000010000008400000006000000050000006C4A09325C651A406292047C8F6F134000000000000000006C4A09325C651A40CA2571F0B0C313400000000000000000F62866CBF7F41D40CA2571F0B0C313400000000000000000F62866CBF7F41D406292047C8F6F134000000000000000006C4A09325C651A40629204
310
7C8F6F13400000000000000000
100
AcDbRasterImage
 90
        0
 10
6.598984510247287
 20
4.858945787219086
 30
0.0
 11
0.0005627319853727
 21
0.0
 31
0.0
 12
0.0
 22
0.0005627319853727
 32
0.0
 13
1582.0
 23
146.0
340
1014
 70
     7
280
     0
281
    50
282
    50
283
     0
360
1018
 71
     1
 91
        2
 14
-0.5
 24
-0.5
 14
1581.5
 24
145.5
  0
ENDSEC
  0
SECTION
  2
OBJECTS
  0
DICTIONARY
  5
C
330
0
100
AcDbDictionary
281
     1
  3
ACAD_COLOR
350
741
  3
ACAD_GROUP
350
D
  3
ACAD_IMAGE_DICT
350
1013
  3
ACAD_IMAGE_VARS
350
1016
  3
ACAD_LAYOUT
350
1A
  3
ACAD_MATERIAL
350
740
  3
ACAD_MLINESTYLE
350
17
  3
ACAD_PLOTSETTINGS
350
19
  3
ACAD_PLOTSTYLENAME
350
E
  3
ACAD_TABLESTYLE
350
742
  3
AcDbVariableDictionary
350
747
  3
ASE_INDEX_DICTIONARY
350
F8C
  0
DICTIONARY
  5
100A
330
2
100
AcDbDictionary
280
     1
281
     1
  3
ACAD_LAYERSTATES
360
100B
  0
DICTIONARY
  5
FE9
330
1F
100
AcDbDictionary
280
     1
281
     1
  3
ACAD_SORTENTS
360
FEA
  0
IMAGEDEF_REACTOR
  5
1018
330
1017
100
AcDbRasterImageDefReactor
 90
        2
330
1017
  0
DICTIONARY
  5
741
102
{ACAD_REACTORS
330
C
102
}
330
C
100
AcDbDictionary
281
     1
  0
DICTIONARY
  5
D
102
{ACAD_REACTORS
330
C
102
}
330
C
100
AcDbDictionary
281
     1
  0
DICTIONARY
  5
1013
102
{ACAD_REACTORS
330
C
102
}
330
C
100
AcDbDictionary
281
     1
  3
Kollmorgen2
350
1014
  0
RASTERVARIABLES
  5
1016
102
{ACAD_REACTORS
330
C
102
}
330
C
100
AcDbRasterVariables
 90
        0
 70
     1
 71
     1
 72
     5
  0
DICTIONARY
  5
1A
102
{ACAD_REACTORS
330
C
102
}
330
C
100
AcDbDictionary
281
     1
  3
Layout1
350
1E
  3
Layout2
350
26
  3
Model
350
22
  0
DICTIONARY
  5
740
102
{ACAD_REACTORS
330
C
102
}
330
C
100
AcDbDictionary
281
     1
  0
DICTIONARY
  5
17
102
{ACAD_REACTORS
330
C
102
}
330
C
100
AcDbDictionary
281
     1
  3
Standard
350
18
  0
DICTIONARY
  5
19
102
{ACAD_REACTORS
330
C
102
}
330
C
100
AcDbDictionary
281
     1
  0
ACDBDICTIONARYWDFLT
  5
E
102
{ACAD_REACTORS
330
C
102
}
330
C
100
AcDbDictionary
281
     1
  3
Normal
350
F
100
AcDbDictionaryWithDefault
340
F
  0
DICTIONARY
  5
742
102
{ACAD_REACTORS
330
C
102
}
330
C
100
AcDbDictionary
281
     1
  3
Standard
350
743
  0
DICTIONARY
  5
747
102
{ACAD_REACTORS
330
C
102
}
330
C
100
AcDbDictionary
281
     1
  3
CTABLESTYLE
350
748
  0
DICTIONARY
  5
F8C
102
{ACAD_REACTORS
330
C
102
}
330
C
100
AcDbDictionary
281
     1
  3
ASEBlockHierarchyIndexRecord
350
F8E
1001
DCO15
1040
1728281119.313
  0
DICTIONARY
  5
100B
102
{ACAD_REACTORS
330
100A
102
}
330
100A
100
AcDbDictionary
281
     1
  0
SORTENTSTABLE
  5
FEA
102
{ACAD_REACTORS
330
FE9
102
}
330
FE9
100
AcDbSortentsTable
330
1F
331
F28
  5
F2A
331
EF2
  5
EF4
331
E7E
  5
E80
331
E5F
  5
E61
331
EB4
  5
EB6
331
ED3
  5
ED5
331
F29
  5
FD3
331
E7F
  5
E81
331
EB5
  5
EB7
331
ED4
  5
ED6
331
EF3
  5
EF5
331
F2A
  5
FE0
331
EF4
  5
EF6
331
EB6
  5
EB8
331
ED5
  5
ED7
331
EB7
  5
EB9
331
ED6
  5
ED8
331
EF5
  5
EF7
331
EF6
  5
EF8
331
ED7
  5
ED9
331
EF7
  5
EF9
331
BC8
  5
BCA
331
BC9
  5
BCB
331
BE8
  5
BEA
331
540
  5
542
331
C08
  5
C0A
331
BE9
  5
BEB
331
BCA
  5
BCC
331
5C0
  5
5C2
331
541
  5
543
331
C09
  5
C0B
331
C28
  5
C2A
331
BCB
  5
BCD
331
BEA
  5
BEC
331
5C1
  5
5C3
331
5E0
  5
5E2
331
C29
  5
C2B
331
C0A
  5
C0C
331
BCC
  5
BCE
331
BEB
  5
BED
331
C40
  5
C42
331
5E1
  5
5E3
331
C0B
  5
C0D
331
C2A
  5
C2C
331
BCD
  5
BCF
331
BEC
  5
BEE
331
C41
  5
C43
331
C60
  5
C62
331
619
  5
61B
331
5E2
  5
5E4
331
C80
  5
C82
331
C61
  5
C63
331
C2B
  5
C2D
331
C0C
  5
C0E
331
BCE
  5
BD0
331
BED
  5
BEF
331
C42
  5
C44
331
61A
  5
61C
331
5E3
  5
5E5
331
680
  5
682
331
C81
  5
C83
331
CA0
  5
CA2
331
C2C
  5
C2E
331
C0D
  5
C0F
331
BCF
  5
BD1
331
BEE
  5
BF0
331
C43
  5
C45
331
C62
  5
C64
331
61B
  5
61D
331
5C5
  5
5C7
331
5E4
  5
5E6
331
681
  5
683
331
CA1
  5
CA3
331
C82
  5
C84
331
C63
  5
C65
331
C2D
  5
C2F
331
C0E
  5
C10
331
BD0
  5
BD2
331
BEF
  5
BF1
331
C44
  5
C46
331
CB8
  5
CBA
331
FE0
  5
FE2
331
61C
  5
61E
331
5E5
  5
5E7
331
682
  5
684
331
CD8
  5
CDA
331
C83
  5
C85
331
CA2
  5
CA4
331
C2E
  5
C30
331
C0F
  5
C11
331
BF0
  5
BF2
331
BD1
  5
BD3
331
C45
  5
C47
331
C64
  5
C66
331
CB9
  5
CBB
331
FE1
  5
FE3
331
61D
  5
61F
331
5E6
  5
5E8
331
683
  5
685
331
CF8
  5
CFA
331
CA3
  5
CA5
331
C84
  5
C86
331
CBA
  5
CBC
331
C65
  5
C67
331
C10
  5
C12
331
C2F
  5
C31
331
BD2
  5
BD4
331
BF1
  5
BF3
331
C46
  5
C48
331
CD9
  5
CDB
331
FE2
  5
FE4
331
5C8
  5
5CA
331
5E7
  5
5E9
331
684
  5
686
331
718
  5
71A
331
D18
  5
D1A
331
CF9
  5
CFB
331
CDA
  5
CDC
331
C85
  5
C87
331
CA4
  5
CA6
331
C30
  5
C32
331
C11
  5
C13
331
BF2
  5
BF4
331
BD3
  5
BD5
331
C47
  5
C49
331
C66
  5
C68
331
CBB
  5
CBD
331
FE3
  5
FE5
331
5E8
  5
5EA
331
5C9
  5
5CB
331
4CB
  5
4CD
331
685
  5
687
331
719
  5
71B
331
CFA
  5
CFC
331
D19
  5
D1B
331
D30
  5
D32
331
CA5
  5
CA7
331
C86
  5
C88
331
CBC
  5
CBE
331
C67
  5
C69
331
C12
  5
C14
331
C31
  5
C33
331
BD4
  5
BD6
331
BF3
  5
BF5
331
C48
  5
C4A
331
CDB
  5
CDD
331
FE4
  5
FE6
331
5E9
  5
5EB
331
5CA
  5
5CC
331
4CC
  5
4CE
331
686
  5
688
331
71A
  5
721
331
D1A
  5
D1C
331
CFB
  5
CFD
331
D31
  5
D33
331
D50
  5
D52
331
CDC
  5
CDE
331
C87
  5
C89
331
CA6
  5
CA8
331
C32
  5
C34
331
C13
  5
C15
331
BF4
  5
BF6
331
BD5
  5
BD7
331
C49
  5
C4B
331
C68
  5
C6A
331
CBD
  5
CBF
331
FE5
  5
FE7
331
B70
  5
B72
331
71B
  5
727
331
6AE
  5
6D5
331
5EA
  5
5EC
331
5CB
  5
5CD
331
639
  5
63B
331
4CD
  5
4CF
331
687
  5
689
331
6D5
  5
700
331
D70
  5
D72
331
CFC
  5
CFE
331
D1B
  5
D1D
331
D32
  5
D34
331
D51
  5
D53
331
CA7
  5
CA9
331
C88
  5
C8A
331
CBE
  5
CC0
331
C69
  5
C6B
331
C14
  5
C16
331
C33
  5
C35
331
BD6
  5
BD8
331
BF5
  5
BF7
331
C4A
  5
C4C
331
CDD
  5
CDF
331
FE6
  5
FE8
331
B90
  5
B92
331
5EB
  5
5ED
331
688
  5
68A
331
B71
  5
B73
331
D71
  5
D73
331
D90
  5
D92
331
D1C
  5
D1E
331
CFD
  5
CFF
331
D33
  5
D35
331
D52
  5
D54
331
CDE
  5
CE0
331
C89
  5
C8B
331
CA8
  5
CAA
331
C34
  5
C36
331
C15
  5
C17
331
C4B
  5
C4D
331
BF6
  5
BF8
331
BD7
  5
BD9
331
C6A
  5
C6C
331
CBF
  5
CC1
331
FE7
  5
FEB
331
BB0
  5
BB2
331
B91
  5
B93
331
5EC
  5
5EE
331
63B
  5
63D
331
689
  5
68B
331
B72
  5
B74
331
3A2
  5
3A2
331
D91
  5
D93
331
D72
  5
D74
331
CFE
  5
D00
331
D1D
  5
D1F
331
D34
  5
D36
331
D53
  5
D55
331
CDF
  5
CE1
331
CA9
  5
CAB
331
C8A
  5
C8C
331
C16
  5
C18
331
C35
  5
C37
331
BD8
  5
BDA
331
BF7
  5
BF9
331
C4C
  5
C4E
331
C6B
  5
C6D
331
CC0
  5
CC2
331
DA8
  5
DAA
331
FE8
  5
3B7
331
B92
  5
B94
331
BB1
  5
BB3
331
68A
  5
68C
331
73D
  5
B58
331
B73
  5
B75
331
5CE
  5
5D0
331
5AF
  5
5B1
331
5ED
  5
5EF
331
D92
  5
D94
331
D73
  5
D75
331
D1E
  5
D20
331
CFF
  5
D01
331
D35
  5
D37
331
D54
  5
D56
331
CE0
  5
CE2
331
C8B
  5
C8D
331
CAA
  5
CAC
331
C36
  5
C38
331
C17
  5
C19
331
BF8
  5
BFA
331
BD9
  5
BDB
331
C4D
  5
C53
331
C6C
  5
C6E
331
CC1
  5
CC3
331
DA9
  5
DAB
331
DC8
  5
DCA
331
BB2
  5
BB4
331
B93
  5
B95
331
63D
  5
63F
331
68B
  5
68D
331
700
  5
706
331
B74
  5
B76
331
5EE
  5
5F0
331
D93
  5
D95
331
D74
  5
D76
331
D00
  5
D02
331
D1F
  5
D21
331
D36
  5
D38
331
D55
  5
D57
331
CE1
  5
CE3
331
CAB
  5
CAD
331
C8C
  5
C8E
331
C18
  5
C1A
331
C37
  5
C39
331
BF9
  5
BFB
331
BDA
  5
BDC
331
C4E
  5
C54
331
C6D
  5
C6F
331
CC2
  5
CC4
331
DE8
  5
DEA
331
DC9
  5
DCB
331
DAA
  5
DAC
331
B94
  5
B96
331
BB3
  5
BB5
331
63E
  5
640
331
68C
  5
692
331
701
  5
707
331
B75
  5
B77
331
5D0
  5
5D2
331
5B1
  5
5B3
331
5EF
  5
5F1
331
3A5
  5
3A5
331
D94
  5
D96
331
D75
  5
D77
331
D56
  5
D58
331
D20
  5
D22
331
D01
  5
D03
331
D37
  5
D39
331
CAC
  5
CAE
331
C8D
  5
C8F
331
C38
  5
C3A
331
C19
  5
C1B
331
BFA
  5
BFC
331
BDB
  5
BDD
331
C6E
  5
C70
331
CC3
  5
CC5
331
CE2
  5
CE4
331
DE9
  5
DEB
331
E08
  5
E0A
331
DAB
  5
DAD
331
DCA
  5
DCC
331
BB4
  5
BB6
331
B95
  5
B97
331
B76
  5
B78
331
68D
  5
694
331
721
  5
730
331
B57
  5
B59
331
5B2
  5
5B4
331
5D1
  5
5D3
331
D76
  5
D78
331
D95
  5
D97
331
D02
  5
D04
331
D21
  5
D23
331
D38
  5
D3A
331
D57
  5
D59
331
CE3
  5
CE5
331
CAD
  5
CAF
331
C8E
  5
C90
331
C1A
  5
C1C
331
C39
  5
C3B
331
BFB
  5
BFD
331
BDC
  5
BDE
331
C6F
  5
C71
331
CC4
  5
CC6
331
E09
  5
E0B
331
DEA
  5
DEC
331
E20
  5
E22
331
DCB
  5
DCD
331
DAC
  5
DAE
331
B96
  5
B98
331
BB5
  5
BB7
331
B58
  5
B5A
331
B77
  5
B79
331
D96
  5
D98
331
D77
  5
D79
331
D58
  5
D5A
331
D22
  5
D24
331
D03
  5
D05
331
D39
  5
D3B
331
CAE
  5
CB0
331
C8F
  5
C91
331
C3A
  5
C3C
331
C1B
  5
C1D
331
C70
  5
C72
331
BDD
  5
BDF
331
BFC
  5
BFE
331
CC5
  5
CC7
331
CE4
  5
CE6
331
DEB
  5
DED
331
E0A
  5
E0C
331
DAD
  5
DAF
331
DCC
  5
DCE
331
E21
  5
E23
331
E40
  5
E42
331
BB6
  5
BB8
331
B97
  5
B99
331
B78
  5
B7A
331
4D5
  5
4D7
331
651
  5
653
331
B59
  5
B5B
331
3FF
  5
41F
331
D78
  5
D7A
331
D97
  5
D99
331
D23
  5
D25
331
D04
  5
D06
331
D3A
  5
D3C
331
D59
  5
D5B
331
CE5
  5
CE7
331
C90
  5
C92
331
CAF
  5
CB1
331
C1C
  5
C1E
331
C3B
  5
C3D
331
BFD
  5
BFF
331
BDE
  5
BE0
331
C71
  5
C77
331
CC6
  5
CC8
331
E60
  5
E62
331
E0B
  5
E0D
331
DEC
  5
DEE
331
E22
  5
E24
331
DCD
  5
DCF
331
DAE
  5
DB0
331
E41
  5
E43
331
B98
  5
B9A
331
BB7
  5
BB9
331
652
  5
654
331
B5A
  5
B5C
331
B79
  5
B7B
331
3A9
  5
3A9
331
D98
  5
D9A
331
D79
  5
D7B
331
D5A
  5
D5C
331
D24
  5
D26
331
D05
  5
D07
331
D3B
  5
D3D
331
CB0
  5
CB2
331
C91
  5
C93
331
C72
  5
C78
331
C3C
  5
C3E
331
C1D
  5
C1F
331
BDF
  5
BE1
331
BFE
  5
C00
331
C53
  5
C55
331
CC7
  5
CC9
331
CE6
  5
CE8
331
E80
  5
E82
331
E61
  5
E63
331
DED
  5
DEF
331
E0C
  5
E0E
331
DAF
  5
DB1
331
DCE
  5
DD0
331
E23
  5
E25
331
E42
  5
E44
331
BB8
  5
BBA
331
B99
  5
B9B
331
B7A
  5
B7C
331
706
  5
708
331
672
  5
674
331
B5B
  5
B5D
331
60C
  5
60E
331
D7A
  5
D7C
331
D99
  5
D9B
331
D25
  5
D27
331
D06
  5
D08
331
D3C
  5
D3E
331
D5B
  5
D5D
331
CE7
  5
CE9
331
C92
  5
C94
331
CB1
  5
CB3
331
C3D
  5
C3F
331
C1E
  5
C20
331
C54
  5
C56
331
BFF
  5
C01
331
BE0
  5
BE2
331
CC8
  5
CCA
331
E81
  5
E83
331
E62
  5
E64
331
E0D
  5
E0F
331
DEE
  5
DF0
331
E24
  5
E26
331
DCF
  5
DD1
331
DB0
  5
DB2
331
E43
  5
E45
331
E98
  5
E9A
331
B9A
  5
B9C
331
BB9
  5
BBB
331
692
  5
695
331
673
  5
675
331
707
  5
709
331
B5C
  5
B5E
331
B7B
  5
B7D
331
60D
  5
60F
331
D9A
  5
D9C
331
D7B
  5
D7D
331
D5C
  5
D5E
331
D07
  5
D09
331
D26
  5
D28
331
D3D
  5
D3F
331
CB2
  5
CB4
331
C93
  5
C95
331
C3E
  5
C40
331
C1F
  5
C21
331
C55
  5
C57
331
CC9
  5
CCB
331
CE8
  5
CEA
331
BE1
  5
BE3
331
C00
  5
C02
331
E82
  5
E84
331
E63
  5
E65
331
DEF
  5
DF1
331
E0E
  5
E10
331
DB1
  5
DB3
331
DD0
  5
DD2
331
E25
  5
E27
331
E44
  5
E46
331
E99
  5
E9B
331
EB8
  5
EBA
331
BBA
  5
BBC
331
B9B
  5
B9D
331
727
  5
731
331
6C2
  5
6F4
331
674
  5
676
331
708
  5
70A
331
B5D
  5
B5F
331
B7C
  5
B7E
331
60E
  5
610
331
539
  5
53B
331
3AC
  5
3AC
331
D7C
  5
D7E
331
D9B
  5
D9D
331
D27
  5
D29
331
D08
  5
D0A
331
D3E
  5
D40
331
D5D
  5
D5F
331
CE9
  5
CEB
331
C94
  5
C96
331
CB3
  5
CB5
331
C3F
  5
C41
331
C56
  5
C58
331
CCA
  5
CCC
331
BE2
  5
BE4
331
C01
  5
C03
331
C20
  5
C22
331
E83
  5
E85
331
E64
  5
E66
331
E45
  5
E47
331
E0F
  5
E11
331
DF0
  5
DF2
331
DB2
  5
DB4
331
DD1
  5
DD3
331
E26
  5
E28
331
E9A
  5
E9C
331
EB9
  5
EBB
331
ED8
  5
EDA
331
B9C
  5
B9E
331
BBB
  5
BBD
331
694
  5
696
331
675
  5
677
331
709
  5
70B
331
B5E
  5
B60
331
B7D
  5
B7F
331
60F
  5
611
331
5B9
  5
5BB
331
53A
  5
53C
331
3AD
  5
3AD
331
D9C
  5
D9E
331
D7D
  5
D7F
331
D5E
  5
D60
331
D09
  5
D0B
331
D28
  5
D2A
331
D3F
  5
D41
331
CB4
  5
CB6
331
C95
  5
C97
331
CCB
  5
CCD
331
C57
  5
C59
331
CEA
  5
CEC
331
C21
  5
C23
331
BE3
  5
BE5
331
C02
  5
C04
331
EF8
  5
EFA
331
E65
  5
E67
331
E84
  5
E86
331
DF1
  5
DF3
331
E10
  5
E12
331
DB3
  5
DB5
331
DD2
  5
DD4
331
E27
  5
E29
331
E46
  5
E48
331
E9B
  5
E9D
331
EBA
  5
EBC
331
ED9
  5
EDB
331
BBC
  5
BBE
331
B9D
  5
B9F
331
695
  5
697
331
676
  5
678
331
70A
  5
70C
331
B5F
  5
B61
331
B7E
  5
B80
331
53B
  5
53D
331
3AE
  5
3AE
331
D7E
  5
D80
331
D9D
  5
D9F
331
D5F
  5
D61
331
D29
  5
D2B
331
D0A
  5
D0C
331
D40
  5
D42
331
CEB
  5
CED
331
C96
  5
C98
331
CB5
  5
CB7
331
C58
  5
C5A
331
C77
  5
C79
331
CCC
  5
CCE
331
BE4
  5
BE6
331
C03
  5
C05
331
C22
  5
C24
331
F10
  5
F12
331
EF9
  5
EFB
331
E85
  5
E87
331
E66
  5
E68
331
E47
  5
E49
331
E11
  5
E13
331
DF2
  5
DF4
331
DB4
  5
DB6
331
DD3
  5
DD5
331
E28
  5
E2A
331
E9C
  5
E9E
331
EBB
  5
EBD
331
EDA
  5
EDC
331
BBD
  5
BBF
331
B9E
  5
BA0
331
B7F
  5
B81
331
696
  5
698
331
677
  5
679
331
70B
  5
70D
331
B60
  5
B62
331
5BB
  5
5BD
331
53C
  5
53E
331
D9E
  5
DA0
331
D7F
  5
D81
331
D60
  5
D62
331
D0B
  5
D0D
331
D2A
  5
D2C
331
D41
  5
D43
331
CB6
  5
CB8
331
C97
  5
C99
331
CCD
  5
CCF
331
CEC
  5
CEE
331
C59
  5
C5B
331
C78
  5
C7A
331
C23
  5
C25
331
BE5
  5
BE7
331
C04
  5
C06
331
EFA
  5
EFC
331
E67
  5
E69
331
E86
  5
E88
331
E12
  5
E14
331
DF3
  5
DF5
331
DB5
  5
DB7
331
DD4
  5
DD6
331
E29
  5
E2B
331
E48
  5
E4A
331
E9D
  5
E9F
331
EBC
  5
EBE
331
EDB
  5
EDD
331
F11
  5
F13
331
BBE
  5
BC0
331
B9F
  5
BA1
331
697
  5
699
331
70C
  5
70E
331
B61
  5
B63
331
B80
  5
B82
331
5DB
  5
5DD
331
5BC
  5
5BE
331
53D
  5
53F
331
678
  5
67A
331
D80
  5
D82
331
D9F
  5
DA1
331
D61
  5
D63
331
D2B
  5
D2D
331
D0C
  5
D0E
331
D42
  5
D44
331
CED
  5
CEF
331
CB7
  5
CB9
331
CCE
  5
CD0
331
C98
  5
C9A
331
C5A
  5
C5C
331
BE6
  5
BE8
331
C05
  5
C07
331
C24
  5
C26
331
C79
  5
C7B
331
EFB
  5
EFD
331
E87
  5
E89
331
E68
  5
E6A
331
E49
  5
E4B
331
E13
  5
E15
331
DF4
  5
DF6
331
DB6
  5
DB8
331
DD5
  5
DD7
331
E2A
  5
E2C
331
E9E
  5
EA0
331
EBD
  5
EBF
331
EDC
  5
EDE
331
F12
  5
F14
331
BBF
  5
BC1
331
BA0
  5
BA2
331
B81
  5
B83
331
70D
  5
70F
331
B62
  5
B64
331
5BD
  5
5BF
331
53E
  5
540
331
679
  5
67B
331
698
  5
69A
331
DA0
  5
DA2
331
D81
  5
D83
331
D0D
  5
D0F
331
D2C
  5
D2E
331
D43
  5
D45
331
D62
  5
D64
331
CCF
  5
CD1
331
CEE
  5
CF0
331
C5B
  5
C5D
331
C7A
  5
C7C
331
C25
  5
C27
331
BE7
  5
BE9
331
C06
  5
C08
331
C99
  5
C9B
331
E69
  5
E6B
331
E88
  5
E8A
331
E14
  5
E16
331
DF5
  5
DF7
331
DD6
  5
DD8
331
DB7
  5
DB9
331
E2B
  5
E2D
331
E4A
  5
E4C
331
E9F
  5
EA1
331
EBE
  5
EC0
331
EDD
  5
EDF
331
EFC
  5
EFE
331
F13
  5
F15
331
BA1
  5
BA3
331
BC0
  5
BC2
331
70E
  5
710
331
B63
  5
B65
331
B82
  5
B84
331
699
  5
69B
331
5DD
  5
5DF
331
5BE
  5
5C0
331
53F
  5
541
331
67A
  5
67C
331
3B2
  5
3B2
331
D82
  5
D84
331
DA1
  5
DA3
331
D63
  5
D65
331
D2D
  5
D2F
331
D0E
  5
D10
331
D44
  5
D46
331
CEF
  5
CF1
331
CD0
  5
CD2
331
C9A
  5
C9C
331
C5C
  5
C5E
331
C07
  5
C09
331
C26
  5
C28
331
C7B
  5
C7D
331
EFD
  5
EFF
331
E89
  5
E8B
331
E6A
  5
E6C
331
EA0
  5
EA2
331
E4B
  5
E4D
331
DF6
  5
DF8
331
E15
  5
E17
331
DB8
  5
DBA
331
DD7
  5
DD9
331
E2C
  5
E2E
331
EBF
  5
EC1
331
EDE
  5
EE0
331
F14
  5
F16
331
BC1
  5
BC3
331
BA2
  5
BA4
331
B83
  5
B85
331
70F
  5
711
331
B64
  5
B66
331
65C
  5
65E
331
5BF
  5
5C1
331
5DE
  5
5E0
331
67B
  5
67D
331
69A
  5
69C
331
DA2
  5
DA4
331
D83
  5
D85
331
D0F
  5
D11
331
D2E
  5
D30
331
D45
  5
D47
331
D64
  5
D66
331
CD1
  5
CD3
331
CF0
  5
CF2
331
C9B
  5
C9D
331
C5D
  5
C5F
331
C27
  5
C29
331
C7C
  5
C7E
331
E6B
  5
E6D
331
E8A
  5
E8C
331
E16
  5
E18
331
DF7
  5
DF9
331
DD8
  5
DDA
331
DB9
  5
DBB
331
E2D
  5
E2F
331
E4C
  5
E4E
331
EA1
  5
EA3
331
EC0
  5
EC2
331
EDF
  5
EE1
331
EFE
  5
F00
331
F15
  5
F17
331
BA3
  5
BA5
331
BC2
  5
BC4
331
710
  5
712
331
B65
  5
B67
331
B84
  5
B86
331
69B
  5
6AE
331
65D
  5
65F
331
67C
  5
67E
331
45
  5
45
331
DA3
  5
DA5
331
D84
  5
D86
331
D65
  5
D67
331
D2F
  5
D31
331
D46
  5
D48
331
CD2
  5
CD4
331
CF1
  5
CF3
331
D10
  5
D12
331
C9C
  5
C9E
331
C5E
  5
C60
331
C7D
  5
C7F
331
EFF
  5
F01
331
E8B
  5
E8D
331
E6C
  5
E6E
331
EA2
  5
EA4
331
E4D
  5
E4F
331
DF8
  5
DFA
331
E17
  5
E19
331
DBA
  5
DBC
331
DD9
  5
DDB
331
E2E
  5
E30
331
EC1
  5
EC3
331
EE0
  5
EE2
331
F16
  5
F18
331
BC3
  5
BC5
331
BA4
  5
BA6
331
B85
  5
B87
331
711
  5
713
331
730
  5
73D
331
B66
  5
B68
331
67D
  5
67F
331
69C
  5
6C2
331
3B5
  5
3B5
331
DA4
  5
DA6
331
D85
  5
D87
331
D47
  5
D49
331
D66
  5
D68
331
D11
  5
D13
331
CD3
  5
CD5
331
CF2
  5
CF4
331
C9D
  5
C9F
331
C5F
  5
C61
331
C7E
  5
C80
331
E6D
  5
E6F
331
E8C
  5
E8E
331
E18
  5
E1A
331
DF9
  5
DFB
331
DDA
  5
DDC
331
DBB
  5
DBD
331
E2F
  5
E31
331
E4E
  5
E50
331
EA3
  5
EA5
331
EC2
  5
EC4
331
EE1
  5
EE3
331
F00
  5
F02
331
F17
  5
F19
331
BA5
  5
BA7
331
BC4
  5
BC6
331
731
  5
B57
331
712
  5
714
331
B67
  5
B69
331
B86
  5
B88
331
65F
  5
673
331
67E
  5
680
331
3B6
  5
3B6
331
DA5
  5
DA7
331
D86
  5
D88
331
D67
  5
D69
331
D48
  5
D4A
331
D12
  5
D14
331
CD4
  5
CD6
331
CF3
  5
CF5
331
C7F
  5
C81
331
C9E
  5
CA0
331
F01
  5
F03
331
E8D
  5
E8F
331
E6E
  5
E70
331
EA4
  5
EA6
331
E4F
  5
E51
331
DFA
  5
DFC
331
E19
  5
E1B
331
DBC
  5
DBE
331
DDB
  5
DDD
331
E30
  5
E32
331
EC3
  5
EC5
331
EE2
  5
EE4
331
F18
  5
F1A
331
BC5
  5
BC7
331
BA6
  5
BA8
331
B87
  5
B89
331
713
  5
715
331
6F4
  5
701
331
B68
  5
B6A
331
67F
  5
681
331
3B7
  5
3B9
331
D87
  5
D89
331
DA6
  5
DA8
331
D49
  5
D4B
331
D13
  5
D15
331
CD5
  5
CD7
331
CF4
  5
CF6
331
D68
  5
D6A
331
C9F
  5
CA1
331
E6F
  5
E71
331
E8E
  5
E90
331
E50
  5
E52
331
E1A
  5
E1C
331
DFB
  5
DFD
331
DDC
  5
DDE
331
DBD
  5
DBF
331
E31
  5
E33
331
EA5
  5
EA7
331
EC4
  5
EC6
331
EE3
  5
EE5
331
F02
  5
F04
331
F19
  5
F1B
331
BA7
  5
BA9
331
BC6
  5
BC8
331
B69
  5
B6B
331
714
  5
716
331
B88
  5
B8A
331
3B8
  5
3BA
331
4B7
  5
4CC
331
D4A
  5
D4C
331
D14
  5
D16
331
CD6
  5
CD8
331
CF5
  5
CF7
331
D69
  5
D6B
331
D88
  5
D8A
331
DA7
  5
DA9
331
F03
  5
F05
331
EC5
  5
EC7
331
EA6
  5
EA8
331
EE4
  5
EE6
331
F1A
  5
F1C
331
E8F
  5
E91
331
E32
  5
E34
331
E51
  5
E53
331
DBE
  5
DC0
331
DDD
  5
DDF
331
DFC
  5
DFE
331
E1B
  5
E1D
331
E70
  5
E72
331
BC7
  5
BC9
331
B6A
  5
B6C
331
715
  5
718
331
B89
  5
B8B
331
BA8
  5
BAA
331
D89
  5
D8B
331
D4B
  5
D4D
331
CD7
  5
CD9
331
CF6
  5
CF8
331
D15
  5
D17
331
D6A
  5
D6C
331
EA7
  5
EA9
331
EC6
  5
EC8
331
EE5
  5
EE7
331
F04
  5
F06
331
F1B
  5
F1D
331
E52
  5
E54
331
E33
  5
E35
331
E71
  5
E73
331
E1C
  5
E1E
331
DDE
  5
DE0
331
DBF
  5
DC1
331
DFD
  5
DFF
331
E90
  5
E92
331
BA9
  5
BAB
331
B6B
  5
B6D
331
B8A
  5
B8C
331
716
  5
719
331
5B
  5
5B
331
3BA
  5
3BC
331
D4C
  5
D4E
331
D16
  5
D18
331
CF7
  5
CF9
331
D6B
  5
D6D
331
D8A
  5
D8C
331
F05
  5
F07
331
EC7
  5
EC9
331
EA8
  5
EAA
331
EE6
  5
EE8
331
F1C
  5
F1E
331
E91
  5
E93
331
E34
  5
E36
331
E53
  5
E55
331
DDF
  5
DE1
331
DC0
  5
DC2
331
DFE
  5
E00
331
E1D
  5
E1F
331
E72
  5
E74
331
B6C
  5
B6E
331
B8B
  5
B8D
331
BAA
  5
BAC
331
3BB
  5
3FF
331
D8B
  5
D8D
331
D4D
  5
D4F
331
D17
  5
D19
331
D6C
  5
D6E
331
EC8
  5
ECA
331
EA9
  5
EAB
331
EE7
  5
EE9
331
F06
  5
F08
331
F1D
  5
F1F
331
E92
  5
E94
331
E54
  5
E56
331
E35
  5
E37
331
E1E
  5
E20
331
DC1
  5
DC3
331
DE0
  5
DE2
331
DFF
  5
E01
331
E73
  5
E75
331
BAB
  5
BAD
331
B6D
  5
B6F
331
B8C
  5
B8E
331
3BC
  5
41E
331
D4E
  5
D50
331
D6D
  5
D6F
331
D8C
  5
D8E
331
FD3
  5
FE1
331
F07
  5
F09
331
EAA
  5
EAC
331
EC9
  5
ECB
331
EE8
  5
EEA
331
F1E
  5
F20
331
E93
  5
E95
331
E36
  5
E38
331
E55
  5
E57
331
E00
  5
E02
331
DC2
  5
DC4
331
DE1
  5
DE3
331
E1F
  5
E21
331
E74
  5
E76
331
BAC
  5
BAE
331
B6E
  5
B70
331
B8D
  5
B8F
331
D8D
  5
D8F
331
D4F
  5
D51
331
D6E
  5
D70
331
ECA
  5
ECC
331
EAB
  5
EAD
331
EE9
  5
EEB
331
F08
  5
F0A
331
F1F
  5
F21
331
E94
  5
E96
331
E56
  5
E58
331
E37
  5
E39
331
E01
  5
E03
331
DC3
  5
DC5
331
DE2
  5
DE4
331
E75
  5
E77
331
BAD
  5
BAF
331
B6F
  5
B71
331
B8E
  5
B90
331
D6F
  5
D71
331
D8E
  5
D90
331
F09
  5
F0B
331
EAC
  5
EAE
331
ECB
  5
ECD
331
EEA
  5
EEC
331
F20
  5
F22
331
E38
  5
E3A
331
E57
  5
E59
331
E02
  5
E04
331
DC4
  5
DC6
331
DE3
  5
DE5
331
E76
  5
E78
331
E95
  5
E97
331
BAE
  5
BB0
331
B8F
  5
B91
331
D8F
  5
D91
331
F0A
  5
F0C
331
ECC
  5
ECE
331
EAD
  5
EAF
331
EEB
  5
EED
331
F21
  5
F23
331
E96
  5
E98
331
E39
  5
E3B
331
E03
  5
E05
331
DC5
  5
DC7
331
DE4
  5
DE6
331
E58
  5
E5A
331
E77
  5
E79
331
BAF
  5
BB1
331
F0B
  5
F0D
331
EEC
  5
EEE
331
F22
  5
F24
331
E78
  5
E7A
331
E59
  5
E5B
331
E97
  5
E99
331
DE5
  5
DE7
331
E04
  5
E06
331
E3A
  5
E3C
331
DC6
  5
DC8
331
EAE
  5
EB0
331
ECD
  5
ECF
331
F0C
  5
F0E
331
EED
  5
EEF
331
F23
  5
F25
331
ECE
  5
ED0
331
E5A
  5
E5C
331
E79
  5
E7B
331
E05
  5
E07
331
DE6
  5
DE8
331
DC7
  5
DC9
331
E3B
  5
E3D
331
EAF
  5
EB1
331
EEE
  5
EF0
331
F0D
  5
F0F
331
F24
  5
F26
331
E7A
  5
E7C
331
E5B
  5
E5D
331
DE7
  5
DE9
331
E06
  5
E08
331
E3C
  5
E3E
331
EB0
  5
EB2
331
ECF
  5
ED1
331
F0E
  5
F10
331
ED0
  5
ED2
331
EEF
  5
EF1
331
F25
  5
F27
331
E5C
  5
E5E
331
E7B
  5
E7D
331
E07
  5
E09
331
E3D
  5
E3F
331
EB1
  5
EB3
331
EF0
  5
EF2
331
ED1
  5
ED3
331
F0F
  5
F11
331
F26
  5
F28
331
E7C
  5
E7E
331
E5D
  5
E5F
331
E3E
  5
E40
331
EB2
  5
EB4
331
ED2
  5
ED4
331
EF1
  5
EF3
331
F27
  5
F29
331
E5E
  5
E60
331
E7D
  5
E7F
331
E3F
  5
E41
331
EB3
  5
EB5
  0
IMAGEDEF
  5
1014
102
{ACAD_REACTORS
330
1013
330
100E
330
1018
102
}
330
1013
100
AcDbRasterImageDef
 90
        0
  1
C:\MD\DL-DIU\Kollmorgen2.bmp
 10
1582.0
 20
146.0
 11
0.0423334177814049
 21
0.0423334177814049
280
     1
281
     2
  0
LAYOUT
  5
1E
102
{ACAD_REACTORS
330
1A
102
}
330
1A
100
AcDbPlotSettings
  1

  2
none_device
  4

  6

 40
0.0
 41
0.0
 42
0.0
 43
0.0
 44
0.0
 45
0.0
 46
0.0
 47
0.0
 48
0.0
 49
0.0
140
0.0
141
0.0
142
1.0
143
1.0
 70
   688
 72
     0
 73
     0
 74
     5
  7
monochrome.ctb
 75
    16
147
1.0
 76
     0
 77
     2
 78
   300
148
0.0
149
0.0
100
AcDbLayout
  1
Layout1
 70
     1
 71
     1
 10
0.0
 20
0.0
 11
12.0
 21
9.0
 12
0.0
 22
0.0
 32
0.0
 14
1.000000000000000E+20
 24
1.000000000000000E+20
 34
1.000000000000000E+20
 15
-1.000000000000000E+20
 25
-1.000000000000000E+20
 35
-1.000000000000000E+20
146
0.0
 13
0.0
 23
0.0
 33
0.0
 16
1.0
 26
0.0
 36
0.0
 17
0.0
 27
1.0
 37
0.0
 76
     0
330
1B
  0
LAYOUT
  5
26
102
{ACAD_REACTORS
330
1A
102
}
330
1A
100
AcDbPlotSettings
  1

  2
none_device
  4

  6

 40
0.0
 41
0.0
 42
0.0
 43
0.0
 44
0.0
 45
0.0
 46
0.0
 47
0.0
 48
0.0
 49
0.0
140
0.0
141
0.0
142
1.0
143
1.0
 70
   688
 72
     0
 73
     0
 74
     5
  7
monochrome.ctb
 75
    16
147
1.0
 76
     0
 77
     2
 78
   300
148
0.0
149
0.0
100
AcDbLayout
  1
Layout2
 70
     1
 71
     2
 10
0.0
 20
0.0
 11
0.0
 21
0.0
 12
0.0
 22
0.0
 32
0.0
 14
0.0
 24
0.0
 34
0.0
 15
0.0
 25
0.0
 35
0.0
146
0.0
 13
0.0
 23
0.0
 33
0.0
 16
1.0
 26
0.0
 36
0.0
 17
0.0
 27
1.0
 37
0.0
 76
     0
330
23
  0
LAYOUT
  5
22
102
{ACAD_REACTORS
330
1A
102
}
330
1A
100
AcDbPlotSettings
  1

  2
\\fdlsv03\FDLPR01-PCL
  4
Letter
  6

 40
6.297083377838133
 41
6.297093868255615
 42
6.297073364257812
 43
6.297088623046875
 44
215.8999938964844
 45
279.3999938964844
 46
0.0
 47
31.52051099197417
 48
0.0
 49
0.0
140
0.0
141
0.0
142
1.0
143
1.54116467237482
 70
 11956
 72
     0
 73
     1
 74
     1
  7
monochrome.ctb
 75
     0
147
0.6488599290684969
 76
     0
 77
     2
 78
   300
148
-145.191139165395
149
-49.50124312841936
100
AcDbLayout
  1
Model
 70
     1
 71
     0
 10
0.0
 20
0.0
 11
22.0
 21
17.0
 12
0.0
 22
0.0
 32
0.0
 14
0.0
 24
0.0
 34
0.0
 15
22.0
 25
17.0
 35
0.0
146
0.0
 13
0.0
 23
0.0
 33
0.0
 16
1.0
 26
0.0
 36
0.0
 17
0.0
 27
1.0
 37
0.0
 76
     0
330
1F
1001
ACAD_PSEXT
1000
\\fdlsv03\FDLPR01-PCL
1000
Canon iR C5870 PCL5c
1000
FDL Color - 4th floor
1000
Color Canon iR 5870u
1070
     0
  0
MLINESTYLE
  5
18
102
{ACAD_REACTORS
330
17
102
}
330
17
100
AcDbMlineStyle
  2
STANDARD
 70
     0
  3

 62
   256
 51
90.0
 52
90.0
 71
     2
 49
0.5
 62
   256
  6
BYLAYER
 49
-0.5
 62
   256
  6
BYLAYER
  0
ACDBPLACEHOLDER
  5
F
102
{ACAD_REACTORS
330
E
102
}
330
E
  0
TABLESTYLE
  5
743
102
{ACAD_REACTORS
330
742
102
}
330
742
100
AcDbTableStyle
  3
Standard
 70
     0
 71
     0
 40
0.06
 41
0.06
280
     0
281
     0
  7
Standard
140
0.18
170
     2
 62
     0
 63
     7
283
     0
274
    -2
284
     1
 64
     0
275
    -2
285
     1
 65
     0
276
    -2
286
     1
 66
     0
277
    -2
287
     1
 67
     0
278
    -2
288
     1
 68
     0
279
    -2
289
     1
 69
     0
  7
Standard
140
0.25
170
     5
 62
     0
 63
     7
283
     0
274
    -2
284
     1
 64
     0
275
    -2
285
     1
 65
     0
276
    -2
286
     1
 66
     0
277
    -2
287
     1
 67
     0
278
    -2
288
     1
 68
     0
279
    -2
289
     1
 69
     0
  7
Standard
140
0.18
170
     5
 62
     0
 63
     7
283
     0
274
    -2
284
     1
 64
     0
275
    -2
285
     1
 65
     0
276
    -2
286
     1
 66
     0
277
    -2
287
     1
 67
     0
278
    -2
288
     1
 68
     0
279
    -2
289
     1
 69
     0
  0
DICTIONARYVAR
  5
748
102
{ACAD_REACTORS
330
747
102
}
330
747
100
DictionaryVariables
280
     0
  1
STANDARD
  0
XRECORD
  5
F8E
102
{ACAD_REACTORS
330
F8C
102
}
330
F8C
100
AcDbXrecord
280
     1
330
6F4
330
700
330
721
330
727
330
730
330
73D
  0
ENDSEC
  0
EOF
