  0
SECTION
  2
HEADER
  9
$ACADVER
  1
AC1015
  9
$ACADMAINTVER
 70
    10
  9
$DWGCODEPAGE
  3
ANSI_1252
  9
$INSBASE
 10
0.0
 20
0.0
 30
0.0
  9
$EXTMIN
 10
0.0
 20
0.2456391960479891
 30
0.0
  9
$EXTMAX
 10
22.0
 20
17.0
 30
7.978631459979119E+99
  9
$LIMMIN
 10
0.0
 20
0.0
  9
$LIMMAX
 10
420.0
 20
297.0
  9
$ORTHOMODE
 70
     0
  9
$REGENMODE
 70
     1
  9
$FILLMODE
 70
     1
  9
$QTEXTMODE
 70
     0
  9
$MIRRTEXT
 70
     0
  9
$LTSCALE
 40
1.0
  9
$ATTMODE
 70
     1
  9
$TEXTSIZE
 40
0.1
  9
$TRACEWID
 40
1.0
  9
$TEXTSTYLE
  7
STANDARD
  9
$CLAYER
  8
0
  9
$CELTYPE
  6
BYLAYER
  9
$CECOLOR
 62
   256
  9
$CELTSCALE
 40
1.0
  9
$DISPSILH
 70
     0
  9
$DIMSCALE
 40
1.0
  9
$DIMASZ
 40
0.14
  9
$DIMEXO
 40
0.125
  9
$DIMDLI
 40
0.5
  9
$DIMRND
 40
0.0
  9
$DIMDLE
 40
0.0
  9
$DIMEXE
 40
0.125
  9
$DIMTP
 40
0.1
  9
$DIMTM
 40
0.1
  9
$DIMTXT
 40
0.12
  9
$DIMCEN
 40
0.0
  9
$DIMTSZ
 40
0.0
  9
$DIMTOL
 70
     0
  9
$DIMLIM
 70
     0
  9
$DIMTIH
 70
     0
  9
$DIMTOH
 70
     0
  9
$DIMSE1
 70
     0
  9
$DIMSE2
 70
     0
  9
$DIMTAD
 70
     1
  9
$DIMZIN
 70
     7
  9
$DIMBLK
  1

  9
$DIMASO
 70
     1
  9
$DIMSHO
 70
     1
  9
$DIMPOST
  1
<>
  9
$DIMAPOST
  1
mm
  9
$DIMALT
 70
     0
  9
$DIMALTD
 70
     2
  9
$DIMALTF
 40
25.4
  9
$DIMLFAC
 40
1.0
  9
$DIMTOFL
 70
     0
  9
$DIMTVP
 40
0.0
  9
$DIMTIX
 70
     0
  9
$DIMSOXD
 70
     0
  9
$DIMSAH
 70
     0
  9
$DIMBLK1
  1

  9
$DIMBLK2
  1

  9
$DIMSTYLE
  2
GEN-ANSI
  9
$DIMCLRD
 70
   256
  9
$DIMCLRE
 70
   256
  9
$DIMCLRT
 70
     2
  9
$DIMTFAC
 40
0.71
  9
$DIMGAP
 40
0.06
  9
$DIMJUST
 70
     0
  9
$DIMSD1
 70
     0
  9
$DIMSD2
 70
     0
  9
$DIMTOLJ
 70
     1
  9
$DIMTZIN
 70
     0
  9
$DIMALTZ
 70
     0
  9
$DIMALTTZ
 70
     0
  9
$DIMUPT
 70
     0
  9
$DIMDEC
 70
     4
  9
$DIMTDEC
 70
     4
  9
$DIMALTU
 70
     2
  9
$DIMALTTD
 70
     4
  9
$DIMTXSTY
  7
STANDARD
  9
$DIMAUNIT
 70
     0
  9
$DIMADEC
 70
     0
  9
$DIMALTRND
 40
0.0
  9
$DIMAZIN
 70
     0
  9
$DIMDSEP
 70
    46
  9
$DIMATFIT
 70
     3
  9
$DIMFRAC
 70
     0
  9
$DIMLDRBLK
  1

  9
$DIMLUNIT
 70
     2
  9
$DIMLWD
 70
    -2
  9
$DIMLWE
 70
    -2
  9
$DIMTMOVE
 70
     0
  9
$LUNITS
 70
     2
  9
$LUPREC
 70
     3
  9
$SKETCHINC
 40
1.0
  9
$FILLETRAD
 40
0.0
  9
$AUNITS
 70
     0
  9
$AUPREC
 70
     0
  9
$MENU
  1
.
  9
$ELEVATION
 40
0.0
  9
$PELEVATION
 40
0.0
  9
$THICKNESS
 40
0.0
  9
$LIMCHECK
 70
     0
  9
$CHAMFERA
 40
2.5
  9
$CHAMFERB
 40
2.5
  9
$CHAMFERC
 40
20.0
  9
$CHAMFERD
 40
0.0
  9
$SKPOLY
 70
     0
  9
$TDCREATE
 40
2450932.121102060
  9
$TDUCREATE
 40
2450932.371102060
  9
$TDUPDATE
 40
2452585.617544293
  9
$TDUUPDATE
 40
2452585.867544293
  9
$TDINDWG
 40
0.5388079167
  9
$TDUSRTIMER
 40
0.5388079167
  9
$USRTIMER
 70
     1
  9
$ANGBASE
 50
0.0
  9
$ANGDIR
 70
     0
  9
$PDMODE
 70
     0
  9
$PDSIZE
 40
0.0
  9
$PLINEWID
 40
0.0
  9
$SPLFRAME
 70
     0
  9
$SPLINETYPE
 70
     6
  9
$SPLINESEGS
 70
     8
  9
$HANDSEED
  5
422C
  9
$SURFTAB1
 70
     6
  9
$SURFTAB2
 70
     6
  9
$SURFTYPE
 70
     6
  9
$SURFU
 70
     6
  9
$SURFV
 70
     6
  9
$UCSBASE
  2

  9
$UCSNAME
  2

  9
$UCSORG
 10
0.0
 20
0.0
 30
0.0
  9
$UCSXDIR
 10
1.0
 20
0.0
 30
0.0
  9
$UCSYDIR
 10
0.0
 20
1.0
 30
0.0
  9
$UCSORTHOREF
  2

  9
$UCSORTHOVIEW
 70
     0
  9
$UCSORGTOP
 10
0.0
 20
0.0
 30
0.0
  9
$UCSORGBOTTOM
 10
0.0
 20
0.0
 30
0.0
  9
$UCSORGLEFT
 10
0.0
 20
0.0
 30
0.0
  9
$UCSORGRIGHT
 10
0.0
 20
0.0
 30
0.0
  9
$UCSORGFRONT
 10
0.0
 20
0.0
 30
0.0
  9
$UCSORGBACK
 10
0.0
 20
0.0
 30
0.0
  9
$PUCSBASE
  2

  9
$PUCSNAME
  2

  9
$PUCSORG
 10
0.0
 20
0.0
 30
0.0
  9
$PUCSXDIR
 10
1.0
 20
0.0
 30
0.0
  9
$PUCSYDIR
 10
0.0
 20
1.0
 30
0.0
  9
$PUCSORTHOREF
  2

  9
$PUCSORTHOVIEW
 70
     0
  9
$PUCSORGTOP
 10
0.0
 20
0.0
 30
0.0
  9
$PUCSORGBOTTOM
 10
0.0
 20
0.0
 30
0.0
  9
$PUCSORGLEFT
 10
0.0
 20
0.0
 30
0.0
  9
$PUCSORGRIGHT
 10
0.0
 20
0.0
 30
0.0
  9
$PUCSORGFRONT
 10
0.0
 20
0.0
 30
0.0
  9
$PUCSORGBACK
 10
0.0
 20
0.0
 30
0.0
  9
$USERI1
 70
     0
  9
$USERI2
 70
     0
  9
$USERI3
 70
     0
  9
$USERI4
 70
     0
  9
$USERI5
 70
     0
  9
$USERR1
 40
0.0
  9
$USERR2
 40
0.0
  9
$USERR3
 40
0.0
  9
$USERR4
 40
0.0
  9
$USERR5
 40
0.0
  9
$WORLDVIEW
 70
     1
  9
$SHADEDGE
 70
     3
  9
$SHADEDIF
 70
    70
  9
$TILEMODE
 70
     1
  9
$MAXACTVP
 70
    48
  9
$PINSBASE
 10
0.0
 20
0.0
 30
0.0
  9
$PLIMCHECK
 70
     0
  9
$PEXTMIN
 10
1.000000000000000E+20
 20
1.000000000000000E+20
 30
1.000000000000000E+20
  9
$PEXTMAX
 10
-1.000000000000000E+20
 20
-1.000000000000000E+20
 30
-1.000000000000000E+20
  9
$PLIMMIN
 10
0.0
 20
0.0
  9
$PLIMMAX
 10
420.0
 20
297.0
  9
$UNITMODE
 70
     0
  9
$VISRETAIN
 70
     1
  9
$PLINEGEN
 70
     0
  9
$PSLTSCALE
 70
     1
  9
$TREEDEPTH
 70
  3020
  9
$CMLSTYLE
  2
STANDARD
  9
$CMLJUST
 70
     0
  9
$CMLSCALE
 40
20.0
  9
$PROXYGRAPHICS
 70
     1
  9
$MEASUREMENT
 70
     0
  9
$CELWEIGHT
370
    -1
  9
$ENDCAPS
280
     0
  9
$JOINSTYLE
280
     0
  9
$LWDISPLAY
290
     0
  9
$INSUNITS
 70
     0
  9
$HYPERLINKBASE
  1

  9
$STYLESHEET
  1
monochrome.ctb
  9
$XEDIT
290
     1
  9
$CEPSNTYPE
380
     0
  9
$PSTYLEMODE
290
     1
  9
$FINGERPRINTGUID
  2

  9
$VERSIONGUID
  2
{7DC7938B-7B3A-4682-8703-8AB0E9C8C281}
  9
$EXTNAMES
290
     1
  9
$PSVPSCALE
 40
0.0
  9
$OLESTARTUP
290
     0
  0
ENDSEC
  0
SECTION
  2
CLASSES
  0
CLASS
  1
XRECORD
  2
AcDbXrecord
  3
AutoCAD 2000
 90
    32768
280
     0
281
     0
  0
CLASS
  1
LWPOLYLINE
  2
AcDbPolyline
  3
AutoCAD 2000
 90
    32768
280
     0
281
     1
  0
CLASS
  1
ACDBDICTIONARYWDFLT
  2
AcDbDictionaryWithDefault
  3
AutoCAD 2000
 90
        0
280
     0
281
     0
  0
CLASS
  1
ACDBPLACEHOLDER
  2
AcDbPlaceHolder
  3
AutoCAD 2000
 90
        0
280
     0
281
     0
  0
CLASS
  1
LAYOUT
  2
AcDbLayout
  3
AutoCAD 2000
 90
        0
280
     0
281
     0
  0
CLASS
  1
LONG_TRANSACTION
  2
AcDbLongTransaction
  3
AutoCAD 2000
 90
    32768
280
     0
281
     0
  0
CLASS
  1
LWPOLYLINE
  2
AcDbPolyline
  3
AutoCAD 2000
 90
    32768
280
     0
281
     1
  0
CLASS
  1
HATCH
  2
AcDbHatch
  3
AutoCAD 2000
 90
    32768
280
     0
281
     1
  0
CLASS
  1
XRECORD
  2
AcDbXrecord
  3
AutoCAD 2000
 90
    32768
280
     0
281
     0
  0
CLASS
  1
ACME_DOCUMENT
  2
AcMeDbDoc
  3
AcMeServices
 90
        0
280
     0
281
     0
  0
CLASS
  1
AMGSETTINGSOBJ
  2
AmgSettingsObj
  3
"AcadM|Product Description: AutoCAD Mechanical 2000|Company: Autodesk"
 90
        0
280
     0
281
     0
  0
CLASS
  1
ACMESCOPE
  2
AcMeScope
  3
AcMeServices
 90
        0
280
     0
281
     0
  0
CLASS
  1
ACMECOMMANDHISTORY
  2
AcMeCommandHistory
  3
AcMeServices
 90
        0
280
     0
281
     0
  0
CLASS
  1
DICTIONARYVAR
  2
AcDbDictionaryVar
  3
AutoCAD 2000
 90
        0
280
     0
281
     0
  0
CLASS
  1
ACIMSYSVARMAN
  2
AcImSysVarManager
  3
AcMeServices
 90
        0
280
     0
281
     0
  0
CLASS
  1
ACIMREALSYSVAR
  2
AcImRealSysVar
  3
AcMeServices
 90
        0
280
     0
281
     0
  0
CLASS
  1
ACIMINTSYSVAR
  2
AcImIntSysVar
  3
AcMeServices
 90
        0
280
     0
281
     0
  0
CLASS
  1
ACMEDRAWINGMAN
  2
AcMeDrawingMan
  3
AcMeServices
 90
        0
280
     0
281
     0
  0
CLASS
  1
ACMEVIEW
  2
AcMeView
  3
AcMeServices
 90
        0
280
     0
281
     0
  0
CLASS
  1
ACDBENTITYCACHE
  2
AcMeEntityCache
  3
AcMeServices
 90
        0
280
     0
281
     0
  0
CLASS
  1
GSMANAGER
  2
AcMeGSManager
  3
AcMeServices
 90
        0
280
     0
281
     0
  0
CLASS
  1
AmdtInternalReactor
  2
AmdtInternalReactor
  3
AcMeServices
 90
        0
280
     0
281
     0
  0
CLASS
  1
ACMESTATEMGR
  2
AcMeStateMgr
  3
AcMeServices
 90
        0
280
     0
281
     0
  0
CLASS
  1
ACGREFMASTER
  2
AcGrefMaster
  3
AcAttribServices
 90
        0
280
     0
281
     0
  0
CLASS
  1
ACME_DATABASE
  2
AcMeDbDatabase
  3
AcMeServices
 90
        0
280
     0
281
     0
  0
CLASS
  1
ACRFINSADJUSTERMGR
  2
AcRfInsAdjusterMgr
  3
AcMeServices
 90
        0
280
     0
281
     0
  0
CLASS
  1
ACGREFMASTER
  2
AcGrefacadMaster
  3
AcGrefServices
 90
        0
280
     0
281
     0
  0
CLASS
  1
AMIMASTER
  2
AmiMaster
  3
AmiServices
 90
        0
280
     0
281
     0
  0
CLASS
  1
ACMDATADICTIONARY
  2
AcmDataDictionary
  3
"AcmSymBB|Product Description: AutoCAD Mechanical 2000|Company: Autodesk"
 90
        0
280
     0
281
     0
  0
CLASS
  1
ACMDATAENTRYBLOCK
  2
AcmDataEntryBlock
  3
"AcmSymBB|Product Description: AutoCAD Mechanical 2000|Company: Autodesk"
 90
        0
280
     0
281
     0
  0
CLASS
  1
ACIMSTRSYSVAR
  2
AcImStrSysVar
  3
AcMeServices
 90
        0
280
     0
281
     0
  0
CLASS
  1
ACMSTANDARDANSI
  2
AcmStandardANSI
  3
"Amdt_StdImp|Product Description: AutoCAD Mechanical 2000|Company: Autodesk"
 90
        0
280
     0
281
     0
  0
CLASS
  1
AMGOBJPROPCFG
  2
AmgObjPropCfg
  3
"AmgLay|Product Description: AutoCAD Mechanical 2000|Company: Autodesk"
 90
        1
280
     0
281
     0
  0
CLASS
  1
ACMSURFSTANDARDANSI
  2
AcmSurfTextStdANSI
  3
"Amdt_StdImp|Product Description: AutoCAD Mechanical 2000|Company: Autodesk"
 90
        0
280
     0
281
     0
  0
CLASS
  1
ACMFCFSTANDARDANSI
  2
AcmFCFStdANSI
  3
"Amdt_StdImp|Product Description: AutoCAD Mechanical 2000|Company: Autodesk"
 90
        0
280
     0
281
     0
  0
CLASS
  1
ACMWELDSTANDARDANSI
  2
AcmWeldingStdANSI
  3
"Amdt_StdImp|Product Description: AutoCAD Mechanical 2000|Company: Autodesk"
 90
        0
280
     0
281
     0
  0
CLASS
  1
ACMIDSTANDARDANSI
  2
AcmIdStdANSI
  3
"Amdt_StdImp|Product Description: AutoCAD Mechanical 2000|Company: Autodesk"
 90
        0
280
     0
281
     0
  0
CLASS
  1
ACMDATUMSTANDARDANSI
  2
AcmDatumStdANSI
  3
"Amdt_StdImp|Product Description: AutoCAD Mechanical 2000|Company: Autodesk"
 90
        0
280
     0
281
     0
  0
CLASS
  1
ACMBOMSTANDARDANSI
  2
AcmBOMStdANSI
  3
"Amdt_StdImp|Product Description: AutoCAD Mechanical 2000|Company: Autodesk"
 90
        0
280
     0
281
     0
  0
CLASS
  1
ACMDETAILSTANDARDANSI
  2
AmdtDetailSymStdANSI
  3
"Amdt_StdImp|Product Description: AutoCAD Mechanical 2000|Company: Autodesk"
 90
        0
280
     0
281
     0
  0
CLASS
  1
ACMSECTIONSTANDARDANSI
  2
AmdtSectionSymStdANSI
  3
"Amdt_StdImp|Product Description: AutoCAD Mechanical 2000|Company: Autodesk"
 90
        0
280
     0
281
     0
  0
CLASS
  1
ACMCENTERLINESTANDARDANSI
  2
AmdtCenterLineStdANSI
  3
"Amdt_StdImp|Product Description: AutoCAD Mechanical 2000|Company: Autodesk"
 90
        0
280
     0
281
     0
  0
CLASS
  1
ACMThreadLineSTANDARDANSI
  2
AmdtThreadLineStdANSI
  3
"Amdt_StdImp|Product Description: AutoCAD Mechanical 2000|Company: Autodesk"
 90
        0
280
     0
281
     0
  0
CLASS
  1
"AcAmgLayStd"
  2
AcAmgLayStd
  3
"AcAmgLayStd|Product Description: AutoCAD Mechanical 2000|Company: Autodesk"
 90
        0
280
     0
281
     0
  0
CLASS
  1
"AcAmgDimStd"
  2
AcAmgDimStd
  3
"AcAmgDimStd|Product Description: AutoCAD Mechanical 2000|Company: Autodesk"
 90
        0
280
     0
281
     0
  0
CLASS
  1
AcAmgTitleStd
  2
AcAmgTitleStd
  3
"TITLEAPP"
 90
        0
280
     0
281
     0
  0
CLASS
  1
ACAMGFILTERDAT
  2
AcAmgFilterDat
  3
"AcadM|Product Description: AutoCAD Mechanical 2000|Company: Autodesk"
 90
        0
280
     0
281
     0
  0
CLASS
  1
AMDTFORMULAUPDATEDISPATCHER
  2
AmdtFormulaUpdateDispatcher
  3
AcMeServices
 90
        0
280
     0
281
     0
  0
CLASS
  1
LAYER_INDEX
  2
AcDbLayerIndex
  3
AutoCAD 2000
 90
        0
280
     0
281
     0
  0
CLASS
  1
IDBUFFER
  2
AcDbIdBuffer
  3
AutoCAD 2000
 90
        0
280
     0
281
     0
  0
CLASS
  1
ACMSTANDARDISO
  2
AcmStandardISO
  3
"Amdt_StdImp|Product Description: AutoCAD Mechanical 2000|Company: Autodesk"
 90
        0
280
     0
281
     0
  0
CLASS
  1
AMDTEDGESTANDARDISO
  2
AmdtEdgeStdISO
  3
"Amdt_StdImp|Product Description: AutoCAD Mechanical 2000|Company: Autodesk"
 90
        0
280
     0
281
     0
  0
CLASS
  1
ACMSURFSTANDARDISO
  2
AcmSurfTextStdISO
  3
"Amdt_StdImp|Product Description: AutoCAD Mechanical 2000|Company: Autodesk"
 90
        0
280
     0
281
     0
  0
CLASS
  1
ACMFCFSTANDARDISO
  2
AcmFCFStdISO
  3
"Amdt_StdImp|Product Description: AutoCAD Mechanical 2000|Company: Autodesk"
 90
        0
280
     0
281
     0
  0
CLASS
  1
ACMWELDSTANDARDISO
  2
AcmWeldingStdISO
  3
"Amdt_StdImp|Product Description: AutoCAD Mechanical 2000|Company: Autodesk"
 90
        0
280
     0
281
     0
  0
CLASS
  1
ACMIDSTANDARDISO
  2
AcmIdStdISO
  3
"Amdt_StdImp|Product Description: AutoCAD Mechanical 2000|Company: Autodesk"
 90
        0
280
     0
281
     0
  0
CLASS
  1
ACMDATUMSTANDARDISO
  2
AcmDatumStdISO
  3
"Amdt_StdImp|Product Description: AutoCAD Mechanical 2000|Company: Autodesk"
 90
        0
280
     0
281
     0
  0
CLASS
  1
ACMBOMSTANDARDISO
  2
AcmBOMStdISO
  3
"Amdt_StdImp|Product Description: AutoCAD Mechanical 2000|Company: Autodesk"
 90
        0
280
     0
281
     0
  0
CLASS
  1
ACMDETAILSTANDARDISO
  2
AmdtDetailSymStdISO
  3
"Amdt_StdImp|Product Description: AutoCAD Mechanical 2000|Company: Autodesk"
 90
        0
280
     0
281
     0
  0
CLASS
  1
ACMSECTIONSTANDARDISO
  2
AmdtSectionSymStdISO
  3
"Amdt_StdImp|Product Description: AutoCAD Mechanical 2000|Company: Autodesk"
 90
        0
280
     0
281
     0
  0
CLASS
  1
ACMCENTERLINESTANDARDISO
  2
AmdtCenterLineStdISO
  3
"Amdt_StdImp|Product Description: AutoCAD Mechanical 2000|Company: Autodesk"
 90
        0
280
     0
281
     0
  0
CLASS
  1
ACMThreadLineSTANDARDISO
  2
AmdtThreadLineStdISO
  3
"Amdt_StdImp|Product Description: AutoCAD Mechanical 2000|Company: Autodesk"
 90
        0
280
     0
281
     0
  0
ENDSEC
  0
SECTION
  2
TABLES
  0
TABLE
  2
VPORT
  5
19
330
0
100
AcDbSymbolTable
 70
     4
  0
VPORT
  5
422B
330
19
100
AcDbSymbolTableRecord
100
AcDbViewportTableRecord
  2
*Active
 70
     0
 10
0.0
 20
0.0
 11
1.0
 21
1.0
 12
11.0
 22
8.622819598023994
 13
0.0
 23
0.0
 14
0.062
 24
0.062
 15
10.0
 25
10.0
 16
0.0
 26
0.0
 36
1.0
 17
0.0
 27
0.0
 37
0.0
 40
16.93780271056462
 41
1.6636197440585
 42
50.0
 43
0.0
 44
0.0
 50
0.0
 51
0.0
 71
     0
 72
   100
 73
     1
 74
     1
 75
     0
 76
     0
 77
     0
 78
     0
281
     0
 65
     1
110
0.0
120
0.0
130
0.0
111
1.0
121
0.0
131
0.0
112
0.0
122
1.0
132
0.0
 79
     0
146
0.0
  0
ENDTAB
  0
TABLE
  2
LTYPE
  5
14
330
0
100
AcDbSymbolTable
 70
    33
  0
LTYPE
  5
15
330
14
100
AcDbSymbolTableRecord
100
AcDbLinetypeTableRecord
  2
BYBLOCK
 70
     0
  3

 72
    65
 73
     0
 40
0.0
  0
LTYPE
  5
16
330
14
100
AcDbSymbolTableRecord
100
AcDbLinetypeTableRecord
  2
BYLAYER
 70
     0
  3

 72
    65
 73
     0
 40
0.0
  0
LTYPE
  5
8
330
14
100
AcDbSymbolTableRecord
100
AcDbLinetypeTableRecord
  2
CONTINUOUS
 70
     0
  3
Solid line
 72
    65
 73
     0
 40
0.0
  0
LTYPE
  5
27
330
14
100
AcDbSymbolTableRecord
100
AcDbLinetypeTableRecord
  2
MS
 70
     0
  3
MEDIUM_SOLID
 72
    65
 73
     0
 40
0.0
  0
LTYPE
  5
4E
330
14
100
AcDbSymbolTableRecord
100
AcDbLinetypeTableRecord
  2
LS
 70
     0
  3
LIGHT_SOLID
 72
    65
 73
     0
 40
0.0
  0
LTYPE
  5
28
330
14
100
AcDbSymbolTableRecord
100
AcDbLinetypeTableRecord
  2
LP
 70
     0
  3
LIGHT_PHANTOM
 72
    65
 73
     6
 40
1.5
 49
0.75
 74
     0
 49
-0.14999998
 74
     0
 49
0.14999998
 74
     0
 49
-0.14999998
 74
     0
 49
0.14999998
 74
     0
 49
-0.14999998
 74
     0
  0
LTYPE
  5
194
330
14
100
AcDbSymbolTableRecord
100
AcDbLinetypeTableRecord
  2
AM_ISO02W050
 70
     0
  3
__ __ __ __ __ __ __ __ __ __ __ __ __ __ __
 72
    65
 73
     2
 40
7.5
 49
6.0
 74
     0
 49
-1.5
 74
     0
  0
LTYPE
  5
195
330
14
100
AcDbSymbolTableRecord
100
AcDbLinetypeTableRecord
  2
AM_ISO08W050
 70
     0
  3
____ . ____ . ____ . ____ . ____ . ____ . ____
 72
    65
 73
     4
 40
18.0
 49
12.0
 74
     0
 49
-1.5
 74
     0
 49
3.0
 74
     0
 49
-1.5
 74
     0
  0
LTYPE
  5
196
330
14
100
AcDbSymbolTableRecord
100
AcDbLinetypeTableRecord
  2
AM_ISO09W050
 70
     0
  3
_____ . . _____ . . _____ . . ____ .. ____
 72
    65
 73
     6
 40
22.5
 49
12.0
 74
     0
 49
-1.5
 74
     0
 49
3.0
 74
     0
 49
-1.5
 74
     0
 49
3.0
 74
     0
 49
-1.5
 74
     0
  0
LTYPE
  5
197
330
14
100
AcDbSymbolTableRecord
100
AcDbLinetypeTableRecord
  2
Amconstr
 70
     0
  3
_______________________
 72
    65
 73
     2
 40
9999.0
 49
9999.0
 74
     0
 49
0.0
 74
     0
  0
LTYPE
  5
198
330
14
100
AcDbSymbolTableRecord
100
AcDbLinetypeTableRecord
  2
AM_ISO08W050x2
 70
     0
  3
__ . __ . __ . __ . __ . __
 72
    65
 73
     4
 40
9.0
 49
6.0
 74
     0
 49
-0.75
 74
     0
 49
1.5
 74
     0
 49
-0.75
 74
     0
  0
LTYPE
  5
199
330
14
100
AcDbSymbolTableRecord
100
AcDbLinetypeTableRecord
  2
AM_ISO02W050x2
 70
     0
  3
 _ _ _ _ _ _ _ _ _ _ _ _
 72
    65
 73
     2
 40
3.75
 49
3.0
 74
     0
 49
-0.75
 74
     0
  0
LTYPE
  5
19C
330
14
100
AcDbSymbolTableRecord
100
AcDbLinetypeTableRecord
  2
Amzigzag
 70
     0
  3
/\/-/\/-/\/-/\/-/\/-/\/
 72
    65
 73
     2
 40
11.00009999999999
 49
0.0001
 74
     4
 75
   135
340
19B
 46
0.04
 50
0.0
 44
0.0
 45
0.0
 49
-11.0
 74
     0
  0
LTYPE
  5
19D
330
14
100
AcDbSymbolTableRecord
100
AcDbLinetypeTableRecord
  2
HIDDEN
 70
     0
  3
Hidden __ __ __ __ __ __ __ __ __ __ __ __ __ _
 72
    65
 73
     2
 40
0.375
 49
0.25
 74
     0
 49
-0.125
 74
     0
  0
LTYPE
  5
19E
330
14
100
AcDbSymbolTableRecord
100
AcDbLinetypeTableRecord
  2
CENTER
 70
     0
  3
Center ____ _ ____ _ ____ _ ____ _ ____ _ ____
 72
    65
 73
     4
 40
2.0
 49
1.25
 74
     0
 49
-0.25
 74
     0
 49
0.25
 74
     0
 49
-0.25
 74
     0
  0
LTYPE
  5
19F
330
14
100
AcDbSymbolTableRecord
100
AcDbLinetypeTableRecord
  2
PHANTOM2
 70
     0
  3
Phantom (.5x) ___ _ _ ___ _ _ ___ _ _ ___ _ _
 72
    65
 73
     6
 40
1.25
 49
0.625
 74
     0
 49
-0.125
 74
     0
 49
0.125
 74
     0
 49
-0.125
 74
     0
 49
0.125
 74
     0
 49
-0.125
 74
     0
  0
LTYPE
  5
1A0
330
14
100
AcDbSymbolTableRecord
100
AcDbLinetypeTableRecord
  2
CENTER2
 70
     0
  3
Center (.5x) ___ _ ___ _ ___ _ ___ _ ___ _ ___
 72
    65
 73
     4
 40
1.125
 49
0.75
 74
     0
 49
-0.125
 74
     0
 49
0.125
 74
     0
 49
-0.125
 74
     0
  0
LTYPE
  5
1A1
330
14
100
AcDbSymbolTableRecord
100
AcDbLinetypeTableRecord
  2
HIDDEN2
 70
     0
  3
Hidden (.5x) _ _ _ _ _ _ _ _ _ _ _ _ _ _ _ _ _
 72
    65
 73
     2
 40
0.1875
 49
0.125
 74
     0
 49
-0.0625
 74
     0
  0
LTYPE
  5
1A2
330
14
100
AcDbSymbolTableRecord
100
AcDbLinetypeTableRecord
  2
Amzigzag2
 70
     0
  3
/\/-/\/-/\/-/\/-/\/-/\/
 72
    65
 73
     2
 40
0.4401
 49
0.0001
 74
     4
 75
   135
340
19B
 46
0.0016
 50
0.0
 44
0.0
 45
0.0
 49
-0.4400000000000001
 74
     0
  0
LTYPE
  5
1AF
330
14
100
AcDbSymbolTableRecord
100
AcDbLinetypeTableRecord
  2
ACANSTGB
 70
     0
  3
__ . . __ . .
 72
    65
 73
     6
 40
0.35433070866
 49
0.15748031496
 74
     0
 49
-0.03937007874
 74
     0
 49
0.03937007874
 74
     0
 49
-0.03937007874
 74
     0
 49
0.03937007874
 74
     0
 49
-0.03937007874
 74
     0
  0
LTYPE
  5
1B0
330
14
100
AcDbSymbolTableRecord
100
AcDbLinetypeTableRecord
  2
ACANSTGL
 70
     0
  3
_ _ _ _ _
 72
    65
 73
     2
 40
0.11811023622
 49
0.07874015748
 74
     0
 49
-0.03937007874
 74
     0
  0
LTYPE
  5
27F
330
14
100
AcDbSymbolTableRecord
100
AcDbLinetypeTableRecord
  2
L5
 70
     0
  3
L5
 72
    65
 73
     0
 40
0.0
  0
LTYPE
  5
280
330
14
100
AcDbSymbolTableRecord
100
AcDbLinetypeTableRecord
  2
L0
 70
     0
  3
L0
 72
    65
 73
     0
 40
0.0
  0
LTYPE
  5
281
330
14
100
AcDbSymbolTableRecord
100
AcDbLinetypeTableRecord
  2
L2
 70
     0
  3
L2
 72
    65
 73
     4
 40
1.125
 49
0.75
 74
     0
 49
-0.125
 74
     0
 49
0.125
 74
     0
 49
-0.125
 74
     0
  0
LTYPE
  5
282
330
14
100
AcDbSymbolTableRecord
100
AcDbLinetypeTableRecord
  2
LDM
 70
     0
  3
LDM
 72
    65
 73
     0
 40
0.0
  0
LTYPE
  5
283
330
14
100
AcDbSymbolTableRecord
100
AcDbLinetypeTableRecord
  2
LEA
 70
     0
  3
LEA
 72
    65
 73
     0
 40
0.0
  0
LTYPE
  5
D89
330
14
100
AcDbSymbolTableRecord
100
AcDbLinetypeTableRecord
  2
GEN7A
 70
     0
  3
__ . __ . __
 72
    65
 73
     4
 40
6.875
 49
4.75
 74
     0
 49
-0.875
 74
     0
 49
0.375
 74
     0
 49
-0.875
 74
     0
  0
LTYPE
  5
D8A
330
14
100
AcDbSymbolTableRecord
100
AcDbLinetypeTableRecord
  2
GEN3
 70
     0
  3
-- -- -- -- -- -- -- -- -- -- -- -- -- -- --
 72
    65
 73
     2
 40
6.25
 49
4.75
 74
     0
 49
-1.5
 74
     0
  0
LTYPE
  5
D8B
330
14
100
AcDbSymbolTableRecord
100
AcDbLinetypeTableRecord
  2
GEN7
 70
     0
  3
____ . ____ . ____ . ____ . ____ . ____ . ____
 72
    65
 73
     4
 40
13.75
 49
9.75
 74
     0
 49
-1.5
 74
     0
 49
1.0
 74
     0
 49
-1.5
 74
     0
  0
LTYPE
  5
D8C
330
14
100
AcDbSymbolTableRecord
100
AcDbLinetypeTableRecord
  2
GEN3A
 70
     0
  3
 - - - - -
 72
    65
 73
     2
 40
3.125
 49
2.25
 74
     0
 49
-0.875
 74
     0
  0
LTYPE
  5
D8D
330
14
100
AcDbSymbolTableRecord
100
AcDbLinetypeTableRecord
  2
GEN4A
 70
     0
  3
_____ . . _____ . . _____ . . ____ .. ____
 72
    65
 73
     6
 40
16.25
 49
9.75
 74
     0
 49
-1.5
 74
     0
 49
1.0
 74
     0
 49
-1.5
 74
     0
 49
1.0
 74
     0
 49
-1.5
 74
     0
  0
LTYPE
  5
D8E
330
14
100
AcDbSymbolTableRecord
100
AcDbLinetypeTableRecord
  2
GENZIGZAG
 70
     0
  3
/\/-/\/-/\/-/\/-/\/-/\/
 72
    65
 73
     2
 40
12.0001
 49
0.0001
 74
     4
 75
   135
340
D96
 46
2.0
 50
0.0
 44
0.0
 45
0.0
 49
-12.0
 74
     0
  0
LTYPE
  5
D8F
330
14
100
AcDbSymbolTableRecord
100
AcDbLinetypeTableRecord
  2
ACISOWELD
 70
     0
  3
_ _ _ _ _
 72
    65
 73
     2
 40
2.0
 49
2.0
 74
     0
 49
-1.0
 74
     0
  0
LTYPE
  5
D90
330
14
100
AcDbSymbolTableRecord
100
AcDbLinetypeTableRecord
  2
ACISOTGB
 70
     0
  3
__ . . __ . .
 72
    65
 73
     6
 40
9.0
 49
4.0
 74
     0
 49
-1.0
 74
     0
 49
1.0
 74
     0
 49
-1.0
 74
     0
 49
1.0
 74
     0
 49
-1.0
 74
     0
  0
LTYPE
  5
D91
330
14
100
AcDbSymbolTableRecord
100
AcDbLinetypeTableRecord
  2
ACISOTGL
 70
     0
  3
_ _ _ _ _
 72
    65
 73
     2
 40
3.0
 49
2.0
 74
     0
 49
-1.0
 74
     0
  0
ENDTAB
  0
TABLE
  2
LAYER
  5
10
330
0
100
AcDbSymbolTable
 70
    13
  0
LAYER
  5
4
330
10
100
AcDbSymbolTableRecord
100
AcDbLayerTableRecord
  2
0
 70
     0
 62
     7
  6
CONTINUOUS
370
    -3
390
5
  0
LAYER
  5
22
330
10
100
AcDbSymbolTableRecord
100
AcDbLayerTableRecord
  2
BORDER
 70
     0
 62
    15
  6
CONTINUOUS
370
    -3
390
5
  0
LAYER
  5
104
330
10
100
AcDbSymbolTableRecord
100
AcDbLayerTableRecord
  2
TITLE BLOCK
 70
     0
 62
     2
  6
CONTINUOUS
370
    -3
390
5
  0
LAYER
  5
284
330
10
100
AcDbSymbolTableRecord
100
AcDbLayerTableRecord
  2
800
 70
     0
 62
     7
  6
CONTINUOUS
370
    -3
390
5
  0
LAYER
  5
285
330
10
100
AcDbSymbolTableRecord
100
AcDbLayerTableRecord
  2
4
 70
     0
 62
     7
  6
CONTINUOUS
370
    -3
390
5
  0
LAYER
  5
286
330
10
100
AcDbSymbolTableRecord
100
AcDbLayerTableRecord
  2
6
 70
     0
 62
     7
  6
CONTINUOUS
370
    -3
390
5
  0
LAYER
  5
287
330
10
100
AcDbSymbolTableRecord
100
AcDbLayerTableRecord
  2
500
 70
     0
 62
     7
  6
CONTINUOUS
370
    -3
390
5
  0
LAYER
  5
288
330
10
100
AcDbSymbolTableRecord
100
AcDbLayerTableRecord
  2
Defpoints
 70
     0
 62
     7
  6
CONTINUOUS
290
     0
370
    -3
390
5
  0
LAYER
  5
D92
330
10
100
AcDbSymbolTableRecord
100
AcDbLayerTableRecord
  2
AM_VIS
 70
     0
 62
     7
  6
CONTINUOUS
370
    30
390
5
  0
LAYER
  5
D93
330
10
100
AcDbSymbolTableRecord
100
AcDbLayerTableRecord
  2
7A
 70
     0
 62
     4
  6
GEN7A
370
    -3
390
5
  0
LAYER
  5
D94
330
10
100
AcDbSymbolTableRecord
100
AcDbLayerTableRecord
  2
8
 70
     0
 62
     1
  6
CONTINUOUS
370
    -3
390
5
  0
LAYER
  5
D95
330
10
100
AcDbSymbolTableRecord
100
AcDbLayerTableRecord
  2
5
 70
     0
 62
     3
  6
CONTINUOUS
370
    -3
390
5
  0
LAYER
  5
1091
330
10
100
AcDbSymbolTableRecord
100
AcDbLayerTableRecord
  2
LAYER_1
 70
     0
 62
     7
  6
CONTINUOUS
370
    -3
390
5
  0
ENDTAB
  0
TABLE
  2
STYLE
  5
11
330
0
100
AcDbSymbolTable
 70
    12
  0
STYLE
  5
12
330
11
100
AcDbSymbolTableRecord
100
AcDbTextStyleTableRecord
  2
STANDARD
 70
     0
 40
0.0
 41
1.0
 50
0.0
 71
     0
 42
0.1
  3
migrator.shx
  4

  0
STYLE
  5
36
330
11
100
AcDbSymbolTableRecord
100
AcDbTextStyleTableRecord
  2
AE
 70
     0
 40
0.0
 41
1.0
 50
0.0
 71
     0
 42
0.16408998
  3
MIGRATOR
  4

  0
STYLE
  5
D1
330
11
100
AcDbSymbolTableRecord
100
AcDbTextStyleTableRecord
  2

 70
     1
 40
0.0
 41
1.0
 50
0.0
 71
     0
 42
1.0
  3
symtb128
  4

  0
STYLE
  5
19B
330
11
100
AcDbSymbolTableRecord
100
AcDbTextStyleTableRecord
  2

 70
     1
 40
0.0
 41
1.0
 50
0.0
 71
     0
 42
2.5
  3
ltypeshp.shx
  4

  0
STYLE
  5
1A3
330
11
100
AcDbSymbolTableRecord
100
AcDbTextStyleTableRecord
  2
ACANSTS
 70
     0
 40
1.0
 41
1.0
 50
0.0
 71
     0
 42
2.5
  3
romans.shx
  4

  0
STYLE
  5
1AE
330
11
100
AcDbSymbolTableRecord
100
AcDbTextStyleTableRecord
  2
ACANSGDT
 70
     0
 40
0.0
 41
1.0
 50
0.0
 71
     0
 42
2.5
  3
amgdtans.shx
  4

  0
STYLE
  5
289
330
11
100
AcDbSymbolTableRecord
100
AcDbTextStyleTableRecord
  2
T1
 70
     0
 40
4.0
 41
0.9
 50
0.0
 71
     0
 42
0.0
  3
medtext
  4

  0
STYLE
  5
28A
330
11
100
AcDbSymbolTableRecord
100
AcDbTextStyleTableRecord
  2
TDM
 70
     0
 40
4.0
 41
0.9
 50
0.0
 71
     0
 42
0.0
  3
medtext
  4

  0
STYLE
  5
28B
330
11
100
AcDbSymbolTableRecord
100
AcDbTextStyleTableRecord
  2
TR1
 70
     0
 40
4.0
 41
0.9
 50
0.0
 71
     0
 42
0.0
  3
medtext
  4

  0
STYLE
  5
D96
330
11
100
AcDbSymbolTableRecord
100
AcDbTextStyleTableRecord
  2

 70
     1
 40
0.0
 41
1.0
 50
0.0
 71
     0
 42
3.5
  3
genltshp.shx
  4

  0
STYLE
  5
D97
330
11
100
AcDbSymbolTableRecord
100
AcDbTextStyleTableRecord
  2
ACISOTS
 70
     0
 40
1.0
 41
1.0
 50
0.0
 71
     0
 42
3.5
  3
isocp.shx
  4

  0
STYLE
  5
D98
330
11
100
AcDbSymbolTableRecord
100
AcDbTextStyleTableRecord
  2
ACISOGDT
 70
     0
 40
0.0
 41
1.0
 50
0.0
 71
     0
 42
3.5
  3
amgdt.shx
  4

  0
ENDTAB
  0
TABLE
  2
VIEW
  5
17
330
0
100
AcDbSymbolTable
 70
     0
  0
ENDTAB
  0
TABLE
  2
UCS
  5
18
330
0
100
AcDbSymbolTable
 70
     0
  0
ENDTAB
  0
TABLE
  2
APPID
  5
1B
330
0
100
AcDbSymbolTable
 70
    11
  0
APPID
  5
1C
330
1B
100
AcDbSymbolTableRecord
100
AcDbRegAppTableRecord
  2
ACAD
 70
     0
  0
APPID
  5
2C
330
1B
100
AcDbSymbolTableRecord
100
AcDbRegAppTableRecord
  2
GENIUS_GENBLLY_14
 70
     0
  0
APPID
  5
2F
330
1B
100
AcDbSymbolTableRecord
100
AcDbRegAppTableRecord
  2
GENIUS_GENTRA_14
 70
     0
  0
APPID
  5
174
330
1B
100
AcDbSymbolTableRecord
100
AcDbRegAppTableRecord
  2
MCAD_NO_VIS
 70
     0
  0
APPID
  5
175
330
1B
100
AcDbSymbolTableRecord
100
AcDbRegAppTableRecord
  2
ACAD_TEMP_GRAPHIC
 70
     0
  0
APPID
  5
188
330
1B
100
AcDbSymbolTableRecord
100
AcDbRegAppTableRecord
  2
ACATTRIBSERVICES
 70
     0
  0
APPID
  5
CF4
330
1B
100
AcDbSymbolTableRecord
100
AcDbRegAppTableRecord
  2
GENIUS_GENDTOL_13
 70
     0
  0
APPID
  5
DA0
330
1B
100
AcDbSymbolTableRecord
100
AcDbRegAppTableRecord
  2
GENIUS_GENODEF_13
 70
     0
  0
APPID
  5
DA1
330
1B
100
AcDbSymbolTableRecord
100
AcDbRegAppTableRecord
  2
GENIUS_GENOBJ-N-CEN_13
 70
     0
  0
APPID
  5
DA2
330
1B
100
AcDbSymbolTableRecord
100
AcDbRegAppTableRecord
  2
GENIUS_GENOBJ-N-FIL_13
 70
     0
  0
APPID
  5
3DB3
330
1B
100
AcDbSymbolTableRecord
100
AcDbRegAppTableRecord
  2
DCO15
 70
     0
  0
ENDTAB
  0
TABLE
  2
DIMSTYLE
  5
1D
330
0
100
AcDbSymbolTable
 70
    23
100
AcDbDimStyleTable
 71
     6
340
CC2
340
292
340
291
340
290
340
28F
340
28E
  0
DIMSTYLE
105
24
102
{ACAD_REACTORS
330
40C2
102
}
330
1D
100
AcDbSymbolTableRecord
100
AcDbDimStyleTableRecord
  2
GEN-ANSI
 70
     0
  3
<>
  4
mm
 41
0.14
 42
0.125
 43
0.5
 44
0.125
 47
0.1
 48
0.1
 73
     0
 74
     0
 77
     1
 78
     7
140
0.12
141
0.0
146
0.71
147
0.06
176
   256
177
   256
178
     2
274
     4
340
12
  0
DIMSTYLE
105
1B4
330
1D
100
AcDbSymbolTableRecord
100
AcDbDimStyleTableRecord
  2
AM_ANSI
 70
     0
  4
mm
 41
0.1
 42
0.05
 43
0.5
 44
0.1
 47
0.1
 48
0.1
 78
     7
 79
     2
140
0.12
141
0.0
146
0.71
147
0.06
176
   256
177
   256
178
     2
275
     1
284
     7
340
12
371
    -1
372
    -1
  0
DIMSTYLE
105
1B5
330
1D
100
AcDbSymbolTableRecord
100
AcDbDimStyleTableRecord
  2
AM_ANSI$3
 70
     0
  4
mm
 41
0.1
 42
0.05
 43
0.5
 44
0.1
 47
0.1
 48
0.1
 78
     7
 79
     2
140
0.12
141
0.0
146
0.71
147
0.06
176
   256
177
   256
178
     2
275
     1
284
     7
288
     1
289
     0
340
12
371
    -1
372
    -1
  0
DIMSTYLE
105
1B6
330
1D
100
AcDbSymbolTableRecord
100
AcDbDimStyleTableRecord
  2
AM_ANSI$4
 70
     0
  4
mm
 41
0.1
 42
0.05
 43
0.5
 44
0.1
 47
0.1
 48
0.1
 78
     7
 79
     2
140
0.12
141
0.0
146
0.71
147
0.06
176
   256
177
   256
178
     2
275
     1
284
     7
288
     1
289
     0
340
12
371
    -1
372
    -1
  0
DIMSTYLE
105
1B7
330
1D
100
AcDbSymbolTableRecord
100
AcDbDimStyleTableRecord
  2
AM_ANSI$7
 70
     0
  4
mm
 41
0.1
 42
0.05
 43
0.5
 44
0.1
 47
0.1
 48
0.1
 78
     7
 79
     2
140
0.24
141
0.0
146
0.71
147
0.06
176
   256
177
   256
178
     2
275
     1
284
     7
340
12
371
    -1
372
    -1
  0
DIMSTYLE
105
1B8
330
1D
100
AcDbSymbolTableRecord
100
AcDbDimStyleTableRecord
  2
AM_ANSI$SF
 70
     0
  4
mm
 41
0.1
 42
0.05
 43
0.5
 44
0.1
 47
0.1
 48
0.1
 75
     1
 76
     1
 78
     7
 79
     2
140
0.12
141
0.0
146
0.71
147
0.06
176
   256
177
   256
178
     2
274
     4
284
     7
340
12
371
    -1
372
    -1
  0
DIMSTYLE
105
1BD
330
1D
100
AcDbSymbolTableRecord
100
AcDbDimStyleTableRecord
  2
AM_ANSI$SH
 70
     0
  4
mm
 41
0.1
 42
0.05
 43
0.5
 44
0.1
 47
0.1
 48
0.1
 75
     1
 76
     1
 78
     7
 79
     2
140
0.12
141
0.0
146
0.71
147
0.06
173
     1
176
   256
177
   256
178
     2
274
     4
284
     7
340
12
343
1B9
371
    -1
372
    -1
  0
DIMSTYLE
105
28C
102
{ACAD_REACTORS
330
3FC3
102
}
330
1D
100
AcDbSymbolTableRecord
100
AcDbDimStyleTableRecord
  2
MEDDIM1152
 70
     0
 45
0.01
 78
    12
146
0.7
172
     1
176
     7
177
     7
178
     7
273
     4
277
     4
279
     2
340
12
  0
DIMSTYLE
105
28D
102
{ACAD_REACTORS
330
3FD0
102
}
330
1D
100
AcDbSymbolTableRecord
100
AcDbDimStyleTableRecord
  2
MEDDIM1159
 70
     0
 45
0.01
 78
    12
146
0.7
172
     1
176
     7
177
     7
178
     7
273
     4
277
     4
279
     2
340
12
  0
DIMSTYLE
105
28E
102
{ACAD_REACTORS
330
3FAE
102
}
330
1D
100
AcDbSymbolTableRecord
100
AcDbDimStyleTableRecord
  2
MEDDIM1166
 70
     0
 45
0.01
 78
    12
146
0.7
172
     1
176
     7
177
     7
178
     7
273
     4
277
     4
279
     2
340
12
  0
DIMSTYLE
105
28F
330
1D
100
AcDbSymbolTableRecord
100
AcDbDimStyleTableRecord
  2
MEDDIM1185
 70
     0
 45
0.01
 78
    12
146
0.7
172
     1
176
     7
177
     7
178
     7
273
     4
277
     4
279
     2
340
12
  0
DIMSTYLE
105
290
102
{ACAD_REACTORS
330
6E2
102
}
330
1D
100
AcDbSymbolTableRecord
100
AcDbDimStyleTableRecord
  2
MEDDIM1198
 70
     0
 45
0.01
 78
    12
146
0.7
172
     1
176
     7
177
     7
178
     7
273
     4
277
     4
279
     2
340
12
  0
DIMSTYLE
105
291
330
1D
100
AcDbSymbolTableRecord
100
AcDbDimStyleTableRecord
  2
MEDDIM1205
 70
     0
 45
0.01
 78
    12
146
0.7
172
     1
176
     7
177
     7
178
     7
273
     4
277
     4
279
     2
340
12
  0
DIMSTYLE
105
292
102
{ACAD_REACTORS
330
3FBE
102
}
330
1D
100
AcDbSymbolTableRecord
100
AcDbDimStyleTableRecord
  2
MEDDIM1227
 70
     0
 45
0.01
 78
    12
146
0.7
172
     1
176
     7
177
     7
178
     7
273
     4
277
     4
279
     2
340
12
  0
DIMSTYLE
105
CC2
330
1D
100
AcDbSymbolTableRecord
100
AcDbDimStyleTableRecord
  2
STANDARD
 70
     0
340
12
  0
DIMSTYLE
105
D99
330
1D
100
AcDbSymbolTableRecord
100
AcDbDimStyleTableRecord
  2
GEN-ISO
 70
     0
  4
"
 41
2.5
 42
1.0
 43
7.0
 44
1.0
 47
0.1
 48
0.1
 73
     0
 74
     0
 77
     1
 78
     8
140
3.5
141
0.0
143
0.0393701
146
0.71
147
0.6
172
     1
176
   256
177
   256
178
     2
271
     2
272
     3
274
     4
283
     0
340
12
  0
DIMSTYLE
105
D9A
330
1D
100
AcDbSymbolTableRecord
100
AcDbDimStyleTableRecord
  2
GEN-ISO$4
 70
     0
  3
<>
  4
"
 40
0.06
 41
2.5
 42
1.0
 43
7.0
 44
1.0
 47
0.1
 48
0.1
 73
     0
 77
     1
 78
     8
140
3.5
141
0.0
143
0.0393701
146
0.71
147
0.6
176
   242
177
   242
178
   242
271
     2
272
     3
274
     4
283
     0
288
     1
340
12
  0
DIMSTYLE
105
D9B
330
1D
100
AcDbSymbolTableRecord
100
AcDbDimStyleTableRecord
  2
GEN-ISO$3
 70
     0
  3
<>
  4
"
 40
0.06
 41
2.5
 42
1.0
 43
7.0
 44
1.0
 47
0.1
 48
0.1
 73
     0
 77
     1
 78
     8
140
3.5
141
0.0
143
0.0393701
146
0.71
147
0.6
176
   242
177
   242
178
   242
271
     2
272
     3
274
     4
283
     0
288
     1
340
12
  0
DIMSTYLE
105
D9C
330
1D
100
AcDbSymbolTableRecord
100
AcDbDimStyleTableRecord
  2
GEN-ISO$6
 70
     0
  4
"
 41
2.5
 42
1.0
 43
7.0
 44
1.0
 47
0.1
 48
0.1
 73
     0
 74
     0
 78
     8
140
3.5
141
0.0
143
0.0393701
146
0.71
147
0.6
176
   256
177
   256
178
     2
271
     2
272
     3
274
     4
283
     0
340
12
  0
DIMSTYLE
105
D9D
330
1D
100
AcDbSymbolTableRecord
100
AcDbDimStyleTableRecord
  2
GEN-ISO-POS
 70
     0
  4
"
 41
2.5
 42
1.0
 43
7.0
 44
1.0
 47
0.1
 48
0.1
 73
     0
 74
     0
 78
     8
140
5.0
141
0.0
143
0.0393701
146
0.71
147
1.5
176
   256
177
   256
178
     2
271
     2
272
     3
274
     4
283
     0
340
12
  0
DIMSTYLE
105
D9E
330
1D
100
AcDbSymbolTableRecord
100
AcDbDimStyleTableRecord
  2
GEN-ISO-AXE-F
 70
     0
  4
"
 41
2.5
 42
1.0
 43
7.0
 44
1.0
 47
0.1
 48
0.1
 73
     0
 74
     0
 75
     1
 76
     1
 77
     1
 78
     8
140
3.5
141
0.0
143
0.0393701
146
0.71
147
0.6
172
     1
176
   256
177
   256
178
     2
271
     2
272
     3
274
     4
283
     0
340
12
  0
DIMSTYLE
105
D9F
330
1D
100
AcDbSymbolTableRecord
100
AcDbDimStyleTableRecord
  2
GEN-ISO-AXE-H
 70
     0
  4
"
 41
2.5
 42
1.0
 43
7.0
 44
1.0
 47
0.1
 48
0.1
 73
     0
 74
     0
 75
     1
 76
     1
 77
     1
 78
     8
140
3.5
141
0.0
143
0.0393701
144
2.0
146
0.71
147
0.6
172
     1
173
     1
176
   256
177
   256
178
     2
271
     2
272
     3
274
     4
283
     0
340
12
  0
DIMSTYLE
105
1092
330
1D
100
AcDbSymbolTableRecord
100
AcDbDimStyleTableRecord
  2
MEDDIM
 70
     0
 45
0.01
 78
    12
146
0.7
172
     1
176
     7
177
     7
178
     7
273
     4
277
     4
279
     2
340
12
  0
ENDTAB
  0
TABLE
  2
BLOCK_RECORD
  5
1
330
0
100
AcDbSymbolTable
 70
    23
  0
BLOCK_RECORD
  5
2
102
{ACAD_XDICTIONARY
360
164
102
}
330
1
100
AcDbSymbolTableRecord
100
AcDbBlockTableRecord
  2
*MODEL_SPACE
340
A
  0
BLOCK_RECORD
  5
C
102
{ACAD_XDICTIONARY
360
168
102
}
330
1
100
AcDbSymbolTableRecord
100
AcDbBlockTableRecord
  2
*PAPER_SPACE
340
F
  0
BLOCK_RECORD
  5
1B9
330
1
100
AcDbSymbolTableRecord
100
AcDbBlockTableRecord
  2
GENAXEH
340
0
  0
BLOCK_RECORD
  5
1C9
330
1
100
AcDbSymbolTableRecord
100
AcDbBlockTableRecord
  2
MEDFUNV_21
340
0
  0
BLOCK_RECORD
  5
1CD
330
1
100
AcDbSymbolTableRecord
100
AcDbBlockTableRecord
  2
MEDFUNV_6
340
0
102
{BLKREFS
331
216
331
209
331
1FC
331
1F6
331
1E1
102
}
  0
BLOCK_RECORD
  5
1D6
330
1
100
AcDbSymbolTableRecord
100
AcDbBlockTableRecord
  2
MEDFUNV_7
340
0
102
{BLKREFS
331
217
331
20A
331
1FD
331
1E0
102
}
  0
BLOCK_RECORD
  5
1DF
330
1
100
AcDbSymbolTableRecord
100
AcDbBlockTableRecord
  2
MEDCLUMP_DIM_1223_
340
0
102
{BLKREFS
331
1E9
102
}
  0
BLOCK_RECORD
  5
1E8
330
1
100
AcDbSymbolTableRecord
100
AcDbBlockTableRecord
  2
MEDCLUMP_DMS_1222_
340
0
102
{BLKREFS
331
6DD
102
}
  0
BLOCK_RECORD
  5
1EC
330
1
100
AcDbSymbolTableRecord
100
AcDbBlockTableRecord
  2
MEDCLUMP_DIM_1217_
340
0
102
{BLKREFS
331
1F1
102
}
  0
BLOCK_RECORD
  5
1F0
330
1
100
AcDbSymbolTableRecord
100
AcDbBlockTableRecord
  2
MEDCLUMP_DMS_1216_
340
0
102
{BLKREFS
331
A5A
102
}
  0
BLOCK_RECORD
  5
1F4
330
1
100
AcDbSymbolTableRecord
100
AcDbBlockTableRecord
  2
MEDCLUMP_NTE_1212_
340
0
102
{BLKREFS
331
6DC
102
}
  0
BLOCK_RECORD
  5
1FA
330
1
100
AcDbSymbolTableRecord
100
AcDbBlockTableRecord
  2
MEDCLUMP_DIM_1193_
340
0
102
{BLKREFS
331
204
102
}
  0
BLOCK_RECORD
  5
203
330
1
100
AcDbSymbolTableRecord
100
AcDbBlockTableRecord
  2
MEDCLUMP_DMS_1192_
340
0
  0
BLOCK_RECORD
  5
207
330
1
100
AcDbSymbolTableRecord
100
AcDbBlockTableRecord
  2
MEDCLUMP_DIM_1180_
340
0
102
{BLKREFS
331
211
102
}
  0
BLOCK_RECORD
  5
210
330
1
100
AcDbSymbolTableRecord
100
AcDbBlockTableRecord
  2
MEDCLUMP_DMS_1179_
340
0
  0
BLOCK_RECORD
  5
214
330
1
100
AcDbSymbolTableRecord
100
AcDbBlockTableRecord
  2
MEDCLUMP_DIM_1174_
340
0
102
{BLKREFS
331
21E
102
}
  0
BLOCK_RECORD
  5
21D
330
1
100
AcDbSymbolTableRecord
100
AcDbBlockTableRecord
  2
MEDCLUMP_DMS_1173_
340
0
  0
BLOCK_RECORD
  5
B69
330
1
100
AcDbSymbolTableRecord
100
AcDbBlockTableRecord
  2
*D15
340
0
  0
BLOCK_RECORD
  5
BCC
330
1
100
AcDbSymbolTableRecord
100
AcDbBlockTableRecord
  2
ASSEMBLY_C
340
0
102
{BLKREFS
331
3E80
331
421B
102
}
  0
BLOCK_RECORD
  5
CCC
330
1
100
AcDbSymbolTableRecord
100
AcDbBlockTableRecord
  2
A$C4F76053E
340
0
  0
BLOCK_RECORD
  5
3FFB
330
1
100
AcDbSymbolTableRecord
100
AcDbBlockTableRecord
  2
*D18
340
0
  0
BLOCK_RECORD
  5
4008
330
1
100
AcDbSymbolTableRecord
100
AcDbBlockTableRecord
  2
*D19
340
0
  0
BLOCK_RECORD
  5
4023
330
1
100
AcDbSymbolTableRecord
100
AcDbBlockTableRecord
  2
*D20
340
0
  0
BLOCK_RECORD
  5
4030
330
1
100
AcDbSymbolTableRecord
100
AcDbBlockTableRecord
  2
*D21
340
0
  0
BLOCK_RECORD
  5
40C3
330
1
100
AcDbSymbolTableRecord
100
AcDbBlockTableRecord
  2
*D22
340
0
  0
ENDTAB
  0
ENDSEC
  0
SECTION
  2
BLOCKS
  0
BLOCK
  5
3
330
2
100
AcDbEntity
  8
0
100
AcDbBlockBegin
  2
*MODEL_SPACE
 70
     2
 10
0.0
 20
0.0
 30
0.0
  3
*MODEL_SPACE
  1

  0
ENDBLK
  5
9
330
2
100
AcDbEntity
  8
0
100
AcDbBlockEnd
  0
BLOCK
  5
D
330
C
100
AcDbEntity
 67
     1
  8
0
100
AcDbBlockBegin
  2
*PAPER_SPACE
 70
     0
 10
0.0
 20
0.0
 30
0.0
  3
*PAPER_SPACE
  1

  0
ENDBLK
  5
E
330
C
100
AcDbEntity
 67
     1
  8
0
100
AcDbBlockEnd
  0
BLOCK
  5
1BB
330
1B9
100
AcDbEntity
  8
0
100
AcDbBlockBegin
  2
GENAXEH
 70
     0
 10
0.0
 20
0.0
 30
0.0
  3
GENAXEH
  1

  0
LINE
  5
1BA
330
1B9
100
AcDbEntity
  8
0
100
AcDbLine
 10
-1.0
 20
0.0
 30
0.0
 11
1.0
 21
0.0
 31
0.0
  0
ENDBLK
  5
1BC
330
1B9
100
AcDbEntity
  8
0
100
AcDbBlockEnd
  0
BLOCK
  5
1CB
330
1C9
100
AcDbEntity
  8
0
100
AcDbBlockBegin
  2
MEDFUNV_21
 70
     0
 10
0.0
 20
0.0
 30
0.0
  3
MEDFUNV_21
  1

  0
LWPOLYLINE
  5
1CA
330
1C9
100
AcDbEntity
  8
500
  6
L0
 62
     1
100
AcDbPolyline
 90
        6
 70
     0
 43
0.0
 10
0.0
 20
-2.500001999999999
 10
0.8333339999999999
 20
-1.666668
 10
0.8333339999999999
 20
-0.8333339999999999
 10
-0.8333339999999999
 20
0.8333339999999999
 10
-0.8333339999999999
 20
1.666668
 10
0.0
 20
2.500001999999999
  0
ENDBLK
  5
1CC
330
1C9
100
AcDbEntity
  8
0
100
AcDbBlockEnd
  0
BLOCK
  5
1D4
330
1CD
100
AcDbEntity
  8
0
100
AcDbBlockBegin
  2
MEDFUNV_6
 70
     0
 10
0.0
 20
0.0
 30
0.0
  3
MEDFUNV_6
  1

  0
LWPOLYLINE
  5
1CE
330
1CD
100
AcDbEntity
  8
4
  6
LDM
 62
     1
100
AcDbPolyline
 90
        4
 70
     0
 43
0.0
 10
3.500002999999999
 20
0.583334
 10
0.0
 20
0.0
 10
3.500002999999999
 20
-0.583334
 10
3.500002999999999
 20
0.583334
  0
LWPOLYLINE
  5
1CF
330
1CD
100
AcDbEntity
  8
4
  6
LDM
 62
     1
100
AcDbPolyline
 90
        3
 70
     0
 43
0.0
 38
7.978631459979119E+99
 10
3.500002999999999
 20
0.486111
 10
0.583334
 20
0.0
 10
3.500002999999999
 20
-0.486111
  0
LWPOLYLINE
  5
1D0
330
1CD
100
AcDbEntity
  8
4
  6
LDM
 62
     1
100
AcDbPolyline
 90
        3
 70
     0
 43
0.0
 38
7.978631459979119E+99
 10
3.500002999999999
 20
0.388889
 10
1.166668
 20
0.0
 10
3.500002999999999
 20
-0.388889
  0
LWPOLYLINE
  5
1D1
330
1CD
100
AcDbEntity
  8
4
  6
LDM
 62
     1
100
AcDbPolyline
 90
        3
 70
     0
 43
0.0
 38
7.978631459979119E+99
 10
3.500002999999999
 20
0.291667
 10
1.750000999999999
 20
0.0
 10
3.500002999999999
 20
-0.291667
  0
LWPOLYLINE
  5
1D2
330
1CD
100
AcDbEntity
  8
4
  6
LDM
 62
     1
100
AcDbPolyline
 90
        3
 70
     0
 43
0.0
 38
7.978631459979119E+99
 10
3.500002999999999
 20
0.194445
 10
2.333334999999999
 20
0.0
 10
3.500002999999999
 20
-0.194445
  0
LWPOLYLINE
  5
1D3
330
1CD
100
AcDbEntity
  8
4
  6
LDM
 62
     1
100
AcDbPolyline
 90
        3
 70
     0
 43
0.0
 38
7.978631459979119E+99
 10
3.500002999999999
 20
0.097222
 10
2.916668999999999
 20
0.0
 10
3.500002999999999
 20
-0.097222
  0
ENDBLK
  5
1D5
330
1CD
100
AcDbEntity
  8
0
100
AcDbBlockEnd
  0
BLOCK
  5
1DD
330
1D6
100
AcDbEntity
  8
0
100
AcDbBlockBegin
  2
MEDFUNV_7
 70
     0
 10
0.0
 20
0.0
 30
0.0
  3
MEDFUNV_7
  1

  0
LWPOLYLINE
  5
1D7
330
1D6
100
AcDbEntity
  8
4
  6
LDM
 62
     1
100
AcDbPolyline
 90
        4
 70
     0
 43
0.0
 10
-3.500002999999999
 20
0.583334
 10
0.0
 20
0.0
 10
-3.500002999999999
 20
-0.583334
 10
-3.500002999999999
 20
0.583334
  0
LWPOLYLINE
  5
1D8
330
1D6
100
AcDbEntity
  8
4
  6
LDM
 62
     1
100
AcDbPolyline
 90
        3
 70
     0
 43
0.0
 38
7.978631459979119E+99
 10
-3.500002999999999
 20
0.486111
 10
-0.583334
 20
0.0
 10
-3.500002999999999
 20
-0.486111
  0
LWPOLYLINE
  5
1D9
330
1D6
100
AcDbEntity
  8
4
  6
LDM
 62
     1
100
AcDbPolyline
 90
        3
 70
     0
 43
0.0
 38
7.978631459979119E+99
 10
-3.500002999999999
 20
0.388889
 10
-1.166668
 20
0.0
 10
-3.500002999999999
 20
-0.388889
  0
LWPOLYLINE
  5
1DA
330
1D6
100
AcDbEntity
  8
4
  6
LDM
 62
     1
100
AcDbPolyline
 90
        3
 70
     0
 43
0.0
 38
7.978631459979119E+99
 10
-3.500002999999999
 20
0.291667
 10
-1.750000999999999
 20
0.0
 10
-3.500002999999999
 20
-0.291667
  0
LWPOLYLINE
  5
1DB
330
1D6
100
AcDbEntity
  8
4
  6
LDM
 62
     1
100
AcDbPolyline
 90
        3
 70
     0
 43
0.0
 38
7.978631459979119E+99
 10
-3.500002999999999
 20
0.194445
 10
-2.333334999999999
 20
0.0
 10
-3.500002999999999
 20
-0.194445
  0
LWPOLYLINE
  5
1DC
330
1D6
100
AcDbEntity
  8
4
  6
LDM
 62
     1
100
AcDbPolyline
 90
        3
 70
     0
 43
0.0
 38
7.978631459979119E+99
 10
-3.500002999999999
 20
0.097222
 10
-2.916668999999999
 20
0.0
 10
-3.500002999999999
 20
-0.097222
  0
ENDBLK
  5
1DE
330
1D6
100
AcDbEntity
  8
0
100
AcDbBlockEnd
  0
BLOCK
  5
1E6
330
1DF
100
AcDbEntity
  8
0
100
AcDbBlockBegin
  2
MEDCLUMP_DIM_1223_
 70
     0
 10
0.0
 20
0.0
 30
0.0
  3
MEDCLUMP_DIM_1223_
  1

  0
INSERT
  5
1E0
330
1DF
100
AcDbEntity
  8
4
100
AcDbBlockReference
  2
MEDFUNV_7
 10
17.351948
 20
8.978225999999999
 30
0.0
 41
0.03937
 42
0.03937
 50
134.744277
  0
INSERT
  5
1E1
330
1DF
100
AcDbEntity
  8
4
100
AcDbBlockReference
  2
MEDFUNV_6
 10
17.263954
 20
9.067007999999999
 30
0.0
 41
0.03937
 42
0.03937
 50
134.744207
  0
LWPOLYLINE
  5
1E2
330
1DF
100
AcDbEntity
  8
4
  6
LDM
 62
     1
100
AcDbPolyline
 90
        3
 70
     0
 43
0.0
 10
17.6799
 20
8.781161
 10
17.545948
 20
8.782486
 10
17.351948
 20
8.978225999999999
  0
LWPOLYLINE
  5
1E3
330
1DF
100
AcDbEntity
  8
4
  6
LDM
 62
     1
100
AcDbPolyline
 90
        2
 70
     0
 43
0.0
 38
7.978631459979119E+99
 10
17.263954
 20
9.067007999999999
 10
17.069954
 20
9.262749000000001
  0
LWPOLYLINE
  5
1E4
330
1DF
100
AcDbEntity
  8
4
  6
LEA
 62
     1
100
AcDbPolyline
 90
        2
 70
     0
 43
0.0
 38
7.978631459979119E+99
 10
16.732109
 20
8.363896
 10
17.379911
 20
9.005939999999998
  0
LWPOLYLINE
  5
1E5
330
1DF
100
AcDbEntity
  8
4
  6
LEA
 62
     1
100
AcDbPolyline
 90
        2
 70
     0
 43
0.0
 38
7.978631459979119E+99
 10
16.765831
 20
8.573313
 10
17.291917
 20
9.094723
  0
ENDBLK
  5
1E7
330
1DF
100
AcDbEntity
  8
0
100
AcDbBlockEnd
  0
BLOCK
  5
1EA
330
1E8
100
AcDbEntity
  8
0
100
AcDbBlockBegin
  2
MEDCLUMP_DMS_1222_
 70
     0
 10
0.0
 20
0.0
 30
0.0
  3
MEDCLUMP_DMS_1222_
  1

  0
INSERT
  5
1E9
330
1E8
100
AcDbEntity
  8
0
100
AcDbBlockReference
  2
MEDCLUMP_DIM_1223_
 10
0.0
 20
0.0
 30
0.0
  0
ENDBLK
  5
1EB
330
1E8
100
AcDbEntity
  8
0
100
AcDbBlockEnd
  0
BLOCK
  5
1EE
330
1EC
100
AcDbEntity
  8
0
100
AcDbBlockBegin
  2
MEDCLUMP_DIM_1217_
 70
     0
 10
0.0
 20
0.0
 30
0.0
  3
MEDCLUMP_DIM_1217_
  1

  0
TEXT
  5
1ED
330
1EC
100
AcDbEntity
  8
4
 62
     1
100
AcDbText
 10
17.783625
 20
8.716160999999999
 30
0.0
 40
0.13
  1
0.12 THREAD
 41
1.010416666666666
  7
TDM
 72
     5
 11
19.044625
 21
8.716160999999999
 31
0.0
100
AcDbText
  0
ENDBLK
  5
1EF
330
1EC
100
AcDbEntity
  8
0
100
AcDbBlockEnd
  0
BLOCK
  5
1F2
330
1F0
100
AcDbEntity
  8
0
100
AcDbBlockBegin
  2
MEDCLUMP_DMS_1216_
 70
     0
 10
0.0
 20
0.0
 30
0.0
  3
MEDCLUMP_DMS_1216_
  1

  0
INSERT
  5
1F1
330
1F0
100
AcDbEntity
  8
0
100
AcDbBlockReference
  2
MEDCLUMP_DIM_1217_
 10
0.0
 20
0.0
 30
0.0
  0
ENDBLK
  5
1F3
330
1F0
100
AcDbEntity
  8
0
100
AcDbBlockEnd
  0
BLOCK
  5
1F8
330
1F4
100
AcDbEntity
  8
0
100
AcDbBlockBegin
  2
MEDCLUMP_NTE_1212_
 70
     0
 10
0.0
 20
0.0
 30
0.0
  3
MEDCLUMP_NTE_1212_
  1

  0
TEXT
  5
1F5
330
1F4
100
AcDbEntity
  8
4
 62
     1
100
AcDbText
 10
15.23742799999999
 20
6.398569999999999
 30
0.0
 40
0.15748
  1
 
 41
0.7777848333474422
  7
TDM
 72
     5
 11
15.34766499999999
 21
6.398569999999999
 31
0.0
100
AcDbText
  0
INSERT
  5
1F6
330
1F4
100
AcDbEntity
  8
4
100
AcDbBlockReference
  2
MEDFUNV_6
 10
15.969141
 20
7.626383999999999
 30
0.0
 41
0.03937
 42
0.03937
 50
248.191999
  0
LWPOLYLINE
  5
1F7
330
1F4
100
AcDbEntity
  8
4
  6
LDM
 62
     1
100
AcDbPolyline
 90
        3
 70
     0
 43
0.0
 10
15.969141
 20
7.626383999999999
 10
15.50935799999999
 20
6.47731
 10
15.384358
 20
6.47731
  0
ENDBLK
  5
1F9
330
1F4
100
AcDbEntity
  8
0
100
AcDbBlockEnd
  0
BLOCK
  5
201
330
1FA
100
AcDbEntity
  8
0
100
AcDbBlockBegin
  2
MEDCLUMP_DIM_1193_
 70
     0
 10
0.0
 20
0.0
 30
0.0
  3
MEDCLUMP_DIM_1193_
  1

  0
TEXT
  5
1FB
330
1FA
100
AcDbEntity
  8
4
 62
     1
100
AcDbText
 10
13.71340599999999
 20
10.707936
 30
0.0
 40
0.13
  1
12.0%%1281.0
  7
TDM
 72
     5
 11
14.623406
 21
10.707936
 31
0.0
100
AcDbText
  0
INSERT
  5
1FC
330
1FA
100
AcDbEntity
  8
4
100
AcDbBlockReference
  2
MEDFUNV_6
 10
16.738827
 20
10.77293599999999
 30
0.0
 41
0.03937
 42
0.03937
 50
180.0
  0
INSERT
  5
1FD
330
1FA
100
AcDbEntity
  8
4
100
AcDbBlockReference
  2
MEDFUNV_7
 10
12.113564
 20
10.77293599999999
 30
0.0
 41
0.03937
 42
0.03937
 50
180.0
  0
LWPOLYLINE
  5
1FE
330
1FA
100
AcDbEntity
  8
4
  6
LDM
 62
     1
100
AcDbPolyline
 90
        2
 70
     0
 43
0.0
 10
16.738827
 20
10.77293599999999
 10
14.683985
 20
10.77293599999999
  0
LWPOLYLINE
  5
1FF
330
1FA
100
AcDbEntity
  8
4
  6
LDM
 62
     1
100
AcDbPolyline
 90
        2
 70
     0
 43
0.0
 38
7.978631459979119E+99
 10
13.64470199999999
 20
10.77293599999999
 10
12.113564
 20
10.77293599999999
  0
LWPOLYLINE
  5
200
330
1FA
100
AcDbEntity
  8
4
  6
LEA
 62
     1
100
AcDbPolyline
 90
        2
 70
     0
 43
0.0
 38
7.978631459979119E+99
 10
12.113564
 20
9.327702
 10
12.113564
 20
10.812306
  0
ENDBLK
  5
202
330
1FA
100
AcDbEntity
  8
0
100
AcDbBlockEnd
  0
BLOCK
  5
205
330
203
100
AcDbEntity
  8
0
100
AcDbBlockBegin
  2
MEDCLUMP_DMS_1192_
 70
     0
 10
0.0
 20
0.0
 30
0.0
  3
MEDCLUMP_DMS_1192_
  1

  0
INSERT
  5
204
330
203
100
AcDbEntity
  8
0
100
AcDbBlockReference
  2
MEDCLUMP_DIM_1193_
 10
0.0
 20
0.0
 30
0.0
  0
ENDBLK
  5
206
330
203
100
AcDbEntity
  8
0
100
AcDbBlockEnd
  0
BLOCK
  5
20E
330
207
100
AcDbEntity
  8
0
100
AcDbBlockBegin
  2
MEDCLUMP_DIM_1180_
 70
     0
 10
0.0
 20
0.0
 30
0.0
  3
MEDCLUMP_DIM_1180_
  1

  0
TEXT
  5
208
330
207
100
AcDbEntity
  8
4
 62
     1
100
AcDbText
 10
4.215256
 20
10.72059499999999
 30
0.0
 40
0.13
  1
3.31 REF.
 41
1.053333333333332
  7
TDM
 72
     5
 11
5.242255999999999
 21
10.72059499999999
 31
0.0
100
AcDbText
  0
INSERT
  5
209
330
207
100
AcDbEntity
  8
4
100
AcDbBlockReference
  2
MEDFUNV_6
 10
6.342999999999999
 20
10.78559499999999
 30
0.0
 41
0.03937
 42
0.03937
 50
180.0
  0
INSERT
  5
20A
330
207
100
AcDbEntity
  8
4
100
AcDbBlockReference
  2
MEDFUNV_7
 10
3.0
 20
10.78559499999999
 30
0.0
 41
0.03937
 42
0.03937
 50
180.0
  0
LWPOLYLINE
  5
20B
330
207
100
AcDbEntity
  8
4
  6
LDM
 62
     1
100
AcDbPolyline
 90
        2
 70
     0
 43
0.0
 10
6.342999999999999
 20
10.78559499999999
 10
5.25733
 20
10.78559499999999
  0
LWPOLYLINE
  5
20C
330
207
100
AcDbEntity
  8
4
  6
LDM
 62
     1
100
AcDbPolyline
 90
        2
 70
     0
 43
0.0
 38
7.978631459979119E+99
 10
4.132595999999999
 20
10.78559499999999
 10
3.0
 20
10.78559499999999
  0
LWPOLYLINE
  5
20D
330
207
100
AcDbEntity
  8
4
  6
LEA
 62
     1
100
AcDbPolyline
 90
        2
 70
     0
 43
0.0
 38
7.978631459979119E+99
 10
6.342999999999999
 20
9.355594999999999
 10
6.342999999999999
 20
10.82496499999999
  0
ENDBLK
  5
20F
330
207
100
AcDbEntity
  8
0
100
AcDbBlockEnd
  0
BLOCK
  5
212
330
210
100
AcDbEntity
  8
0
100
AcDbBlockBegin
  2
MEDCLUMP_DMS_1179_
 70
     0
 10
0.0
 20
0.0
 30
0.0
  3
MEDCLUMP_DMS_1179_
  1

  0
INSERT
  5
211
330
210
100
AcDbEntity
  8
0
100
AcDbBlockReference
  2
MEDCLUMP_DIM_1180_
 10
0.0
 20
0.0
 30
0.0
  0
ENDBLK
  5
213
330
210
100
AcDbEntity
  8
0
100
AcDbBlockEnd
  0
BLOCK
  5
21B
330
214
100
AcDbEntity
  8
0
100
AcDbBlockBegin
  2
MEDCLUMP_DIM_1174_
 70
     0
 10
0.0
 20
0.0
 30
0.0
  3
MEDCLUMP_DIM_1174_
  1

  0
TEXT
  5
215
330
214
100
AcDbEntity
  8
4
 62
     1
100
AcDbText
 10
3.839255999999999
 20
10.22059499999999
 30
0.0
 40
0.13
  1
2.50 REF.
 41
1.053333333333333
  7
TDM
 72
     5
 11
4.866255999999999
 21
10.22059499999999
 31
0.0
100
AcDbText
  0
INSERT
  5
216
330
214
100
AcDbEntity
  8
4
100
AcDbBlockReference
  2
MEDFUNV_6
 10
5.591
 20
10.28559499999999
 30
0.0
 41
0.03937
 42
0.03937
 50
180.0
  0
INSERT
  5
217
330
214
100
AcDbEntity
  8
4
100
AcDbBlockReference
  2
MEDFUNV_7
 10
3.0
 20
10.28559499999999
 30
0.0
 41
0.03937
 42
0.03937
 50
180.0
  0
LWPOLYLINE
  5
218
330
214
100
AcDbEntity
  8
4
  6
LDM
 62
     1
100
AcDbPolyline
 90
        2
 70
     0
 43
0.0
 10
5.591
 20
10.28559499999999
 10
4.865241999999999
 20
10.28559499999999
  0
LWPOLYLINE
  5
219
330
214
100
AcDbEntity
  8
4
  6
LDM
 62
     1
100
AcDbPolyline
 90
        2
 70
     0
 43
0.0
 38
7.978631459979119E+99
 10
3.756596
 20
10.28559499999999
 10
3.0
 20
10.28559499999999
  0
LWPOLYLINE
  5
21A
330
214
100
AcDbEntity
  8
4
  6
LEA
 62
     1
100
AcDbPolyline
 90
        2
 70
     0
 43
0.0
 38
7.978631459979119E+99
 10
5.591
 20
9.395006
 10
5.591
 20
10.32496499999999
  0
ENDBLK
  5
21C
330
214
100
AcDbEntity
  8
0
100
AcDbBlockEnd
  0
BLOCK
  5
21F
330
21D
100
AcDbEntity
  8
0
100
AcDbBlockBegin
  2
MEDCLUMP_DMS_1173_
 70
     0
 10
0.0
 20
0.0
 30
0.0
  3
MEDCLUMP_DMS_1173_
  1

  0
INSERT
  5
21E
330
21D
100
AcDbEntity
  8
0
100
AcDbBlockReference
  2
MEDCLUMP_DIM_1174_
 10
0.0
 20
0.0
 30
0.0
  0
ENDBLK
  5
220
330
21D
100
AcDbEntity
  8
0
100
AcDbBlockEnd
  0
BLOCK
  5
B74
330
B69
100
AcDbEntity
  8
0
100
AcDbBlockBegin
  2
*D15
 70
     1
 10
0.0
 20
0.0
 30
0.0
  3
*D15
  1

  0
LINE
  5
CFD
330
B69
100
AcDbEntity
  8
4
 62
     7
370
    -2
100
AcDbLine
 10
3.443813055189764
 20
9.482588666661104
 30
0.0
 11
3.443813055189764
 21
11.4936826666611
 31
0.0
  0
LINE
  5
CFE
330
B69
100
AcDbEntity
  8
4
 62
     7
370
    -2
100
AcDbLine
 10
17.18264005518976
 20
8.635383666661105
 30
0.0
 11
17.18264005518976
 21
11.4936826666611
 31
0.0
  0
LINE
  5
CFF
330
B69
100
AcDbEntity
  8
4
 62
     7
370
    -2
100
AcDbLine
 10
3.623813055189764
 20
11.3136826666611
 30
0.0
 11
9.375426555189765
 21
11.3136826666611
 31
0.0
  0
LINE
  5
D00
330
B69
100
AcDbEntity
  8
4
 62
     7
370
    -2
100
AcDbLine
 10
17.00264005518976
 20
11.3136826666611
 30
0.0
 11
11.25102655518976
 21
11.3136826666611
 31
0.0
  0
SOLID
  5
D01
330
B69
100
AcDbEntity
  8
4
 62
     7
100
AcDbTrace
 10
3.623813055189764
 20
11.3436826666611
 30
0.0
 11
3.623813055189764
 21
11.2836826666611
 31
0.0
 12
3.443813055189764
 22
11.3136826666611
 32
0.0
 13
3.443813055189764
 23
11.3136826666611
 33
0.0
  0
SOLID
  5
D02
330
B69
100
AcDbEntity
  8
4
 62
     7
100
AcDbTrace
 10
17.00264005518976
 20
11.3436826666611
 30
0.0
 11
17.00264005518976
 21
11.2836826666611
 31
0.0
 12
17.18264005518976
 22
11.3136826666611
 32
0.0
 13
17.18264005518976
 23
11.3136826666611
 33
0.0
  0
MTEXT
  5
D03
330
B69
100
AcDbEntity
  8
4
 62
     7
100
AcDbMText
 10
10.31322655518976
 20
11.3136826666611
 30
0.0
 40
0.18
 41
0.0
 71
     5
 72
     1
  1
\A1;L (METERS)
 73
     1
 44
1.0
  0
POINT
  5
D04
330
B69
100
AcDbEntity
  8
Defpoints
 62
     0
100
AcDbPoint
 10
3.443813055189764
 20
9.420088666661104
 30
0.0
  0
POINT
  5
D05
330
B69
100
AcDbEntity
  8
Defpoints
 62
     0
100
AcDbPoint
 10
17.18264005518976
 20
8.572883666661105
 30
0.0
  0
POINT
  5
D06
330
B69
100
AcDbEntity
  8
Defpoints
 62
     0
100
AcDbPoint
 10
17.18264005518976
 20
11.3136826666611
 30
0.0
  0
ENDBLK
  5
B75
330
B69
100
AcDbEntity
  8
0
100
AcDbBlockEnd
  0
BLOCK
  5
C90
330
BCC
100
AcDbEntity
  8
0
100
AcDbBlockBegin
  2
ASSEMBLY_C
 70
     2
 10
0.0
 20
0.0
 30
0.0
  3
ASSEMBLY_C
  1

  0
LINE
  5
4168
330
BCC
100
AcDbEntity
  8
BORDER
  6
Continuous
100
AcDbLine
 10
0.0
 20
17.0
 30
0.0
 11
22.0
 21
17.0
 31
0.0
  0
LINE
  5
4169
330
BCC
100
AcDbEntity
  8
BORDER
100
AcDbLine
 10
0.5
 20
0.75
 30
0.0
 11
21.49999999999999
 21
0.75
 31
0.0
  0
LINE
  5
416A
330
BCC
100
AcDbEntity
  8
BORDER
100
AcDbLine
 10
0.5
 20
16.25
 30
0.0
 11
21.49999999999999
 21
16.25
 31
0.0
  0
ATTDEF
  5
416B
330
BCC
100
AcDbEntity
  8
TITLE BLOCK
  6
Continuous
100
AcDbText
 10
17.42499999999999
 20
1.875
 30
0.0
 40
0.1010611419
  1

100
AcDbAttributeDefinition
  3
Drawn by
  2
GEN-TITLE-NAME{5}
 70
     0
1001
GENIUS_GENBLLY_14
1000
BOR2
  0
ATTDEF
  5
416C
330
BCC
100
AcDbEntity
  8
TITLE BLOCK
  6
Continuous
100
AcDbText
 10
17.42499999999999
 20
1.625
 30
0.0
 40
0.1010611419
  1

100
AcDbAttributeDefinition
  3
Check by
  2
GEN-TITLE-CHKM{5}
 70
     0
1001
GENIUS_GENBLLY_14
1000
BOR2
  0
ATTDEF
  5
416D
330
BCC
100
AcDbEntity
  8
TITLE BLOCK
  6
Continuous
100
AcDbText
 10
17.42499999999999
 20
1.375
 30
0.0
 40
0.1010611419
  1

100
AcDbAttributeDefinition
  3
Approved by
  2
GEN-TITLE-APPM{5}
 70
     0
1001
GENIUS_GENBLLY_14
1000
BOR2
1001
GENIUS_GENTRA_14
1002
{
1070
     3
1000
GENTRAPR,%s,(GENMSG gentitus 73)
1000
Approved by
1000
gb
1070
     0
1002
}
  0
LINE
  5
416E
330
BCC
100
AcDbEntity
  8
TITLE BLOCK
  6
Continuous
100
AcDbLine
 10
15.59965639031853
 20
1.299999999999999
 30
0.0
 11
21.49999999999999
 21
1.299999999999999
 31
0.0
  0
LINE
  5
416F
330
BCC
100
AcDbEntity
  8
TITLE BLOCK
  6
Continuous
100
AcDbLine
 10
17.07518995515351
 20
1.549999999999999
 30
0.0
 11
21.49999999999999
 21
1.549999999999999
 31
0.0
  0
LINE
  5
4170
330
BCC
100
AcDbEntity
  8
TITLE BLOCK
  6
Continuous
100
AcDbLine
 10
17.07518995515351
 20
1.799999999999999
 30
0.0
 11
21.49999999999999
 21
1.799999999999999
 31
0.0
  0
LINE
  5
4171
330
BCC
100
AcDbEntity
  8
TITLE BLOCK
  6
Continuous
100
AcDbLine
 10
17.07518995515351
 20
2.049999999999999
 30
0.0
 11
21.49999999999999
 21
2.049999999999999
 31
0.0
  0
LINE
  5
4172
330
BCC
100
AcDbEntity
  8
TITLE BLOCK
  6
Continuous
100
AcDbLine
 10
12.75
 20
2.75
 30
0.0
 11
21.49999999999999
 21
2.75
 31
0.0
  0
TEXT
  5
4173
330
BCC
100
AcDbEntity
  8
TITLE BLOCK
  6
Continuous
100
AcDbText
 10
17.20669482722676
 20
2.346163262564664
 30
0.0
 40
0.1010611419
  1
  DRAWING
 50
0.09999996
  7
AE
100
AcDbText
  0
TEXT
  5
4174
330
BCC
100
AcDbEntity
  8
TITLE BLOCK
  6
Continuous
100
AcDbText
 10
17.20669482722676
 20
2.555546537751305
 30
0.0
 40
0.1010611419
  1
DO NOT SCALE
 50
0.09999996
  7
AE
100
AcDbText
  0
LINE
  5
4175
330
BCC
100
AcDbEntity
  8
BORDER
  6
Continuous
100
AcDbLine
 10
0.0
 20
0.2456391960479891
 30
0.0
 11
0.0
 21
17.0
 31
0.0
  0
LINE
  5
4176
330
BCC
100
AcDbEntity
  8
BORDER
100
AcDbLine
 10
0.5
 20
0.75
 30
0.0
 11
0.5
 21
16.25
 31
0.0
  0
TEXT
  5
4177
330
BCC
100
AcDbEntity
  8
BORDER
100
AcDbText
 10
0.1785739999999976
 20
2.0249996
 30
0.0
 40
0.19999999
  1
A
  7
AE
100
AcDbText
  0
LINE
  5
4178
330
BCC
100
AcDbEntity
  8
BORDER
100
AcDbLine
 10
0.1000060000000005
 20
8.4999991
 30
0.0
 11
0.3000030000000002
 21
8.4999991
 31
0.0
  0
LINE
  5
4179
330
BCC
100
AcDbEntity
  8
BORDER
100
AcDbLine
 10
0.3000179999999979
 20
8.399978599999998
 30
0.0
 11
0.5000149999999977
 21
8.499977099999998
 31
0.0
  0
TEXT
  5
417A
330
BCC
100
AcDbEntity
  8
BORDER
100
AcDbText
 10
0.1785739999999976
 20
6.2749996
 30
0.0
 40
0.19999999
  1
B
  7
AE
100
AcDbText
  0
LINE
  5
417B
330
BCC
100
AcDbEntity
  8
BORDER
100
AcDbLine
 10
0.1000060000000005
 20
4.25
 30
0.0
 11
0.5
 21
4.25
 31
0.0
  0
LINE
  5
417C
330
BCC
100
AcDbEntity
  8
BORDER
100
AcDbLine
 10
0.3000340000000001
 20
8.5999765
 30
0.0
 11
0.5000299999999989
 21
8.499978999999999
 31
0.0
  0
LINE
  5
417D
330
BCC
100
AcDbEntity
  8
BORDER
100
AcDbLine
 10
0.3000179999999979
 20
8.3999929
 30
0.0
 11
0.3000179999999979
 21
8.5999899
 31
0.0
  0
TEXT
  5
417E
330
BCC
100
AcDbEntity
  8
BORDER
100
AcDbText
 10
2.678573999999997
 20
0.27499998
 30
0.0
 40
0.19999999
  1
4
  7
AE
100
AcDbText
  0
LINE
  5
417F
330
BCC
100
AcDbEntity
  8
BORDER
100
AcDbLine
 10
5.5
 20
0.34999996
 30
0.0
 11
5.5
 21
0.75
 31
0.0
  0
TEXT
  5
4180
330
BCC
100
AcDbEntity
  8
BORDER
100
AcDbText
 10
8.178572
 20
0.27499998
 30
0.0
 40
0.19999999
  1
3
  7
AE
100
AcDbText
  0
TEXT
  5
4181
330
BCC
100
AcDbEntity
  8
BORDER
100
AcDbText
 10
13.5829811
 20
0.3329525
 30
0.0
 40
0.04
  1
FULL SIZE   50   02
 50
0.0999999600000013
 41
0.7749084200000001
  7
AE
100
AcDbText
  0
TEXT
  5
4182
330
BCC
100
AcDbEntity
  8
TITLE BLOCK
  6
Continuous
100
AcDbText
 10
13.87354307850001
 20
0.8400242034427522
 30
0.0
 40
0.075937067150492
  1
REVISION
 50
0.09999996
  7
AE
100
AcDbText
  0
LINE
  5
4183
330
BCC
100
AcDbEntity
  8
TITLE BLOCK
  6
Continuous
100
AcDbLine
 10
12.75
 20
1.0
 30
0.0
 11
15.59965639031853
 21
1.0
 31
0.0
  0
LINE
  5
4184
330
BCC
100
AcDbEntity
  8
TITLE BLOCK
  6
Continuous
100
AcDbLine
 10
12.75
 20
1.75
 30
0.0
 11
15.59965639031853
 21
1.75
 31
0.0
  0
LINE
  5
4185
330
BCC
100
AcDbEntity
  8
TITLE BLOCK
  6
Continuous
100
AcDbLine
 10
12.75
 20
2.0
 30
0.0
 11
15.59965639031853
 21
2.0
 31
0.0
  0
LINE
  5
4186
330
BCC
100
AcDbEntity
  8
TITLE BLOCK
  6
Continuous
100
AcDbLine
 10
12.75
 20
2.25
 30
0.0
 11
15.59965639031853
 21
2.25
 31
0.0
  0
LINE
  5
4187
330
BCC
100
AcDbEntity
  8
TITLE BLOCK
  6
Continuous
100
AcDbLine
 10
12.75
 20
2.5
 30
0.0
 11
15.59965639031853
 21
2.5
 31
0.0
  0
LINE
  5
4188
330
BCC
100
AcDbEntity
  8
TITLE BLOCK
  6
Continuous
100
AcDbLine
 10
12.75
 20
1.5
 30
0.0
 11
15.59965639031853
 21
1.5
 31
0.0
  0
LINE
  5
4189
330
BCC
100
AcDbEntity
  8
TITLE BLOCK
  6
Continuous
100
AcDbLine
 10
12.75
 20
1.25
 30
0.0
 11
15.59965639031853
 21
1.25
 31
0.0
  0
LINE
  5
418A
330
BCC
100
AcDbEntity
  8
BORDER
  6
LS
100
AcDbLine
 10
13.68000129999999
 20
0.55999994
 30
0.0
 11
13.68000129999999
 21
0.6999999900000001
 31
0.0
  0
LINE
  5
418B
330
BCC
100
AcDbEntity
  8
BORDER
  6
LS
100
AcDbLine
 10
13.7800016
 20
0.55999994
 30
0.0
 11
13.7800016
 21
0.6999999900000001
 31
0.0
  0
LINE
  5
418C
330
BCC
100
AcDbEntity
  8
BORDER
  6
LS
100
AcDbLine
 10
13.880002
 20
0.55999994
 30
0.0
 11
13.880002
 21
0.6999999900000001
 31
0.0
  0
LINE
  5
418D
330
BCC
100
AcDbEntity
  8
BORDER
  6
LS
100
AcDbLine
 10
13.7000017
 20
0.63999999
 30
0.0
 11
13.7000017
 21
0.6999999900000001
 31
0.0
  0
LINE
  5
418E
330
BCC
100
AcDbEntity
  8
BORDER
  6
LS
100
AcDbLine
 10
13.7200022
 20
0.59999996
 30
0.0
 11
13.7200022
 21
0.6999999900000001
 31
0.0
  0
LINE
  5
418F
330
BCC
100
AcDbEntity
  8
BORDER
  6
LS
100
AcDbLine
 10
13.7400026
 20
0.59999996
 30
0.0
 11
13.7400026
 21
0.6999999900000001
 31
0.0
  0
LINE
  5
4190
330
BCC
100
AcDbEntity
  8
BORDER
  6
LS
100
AcDbLine
 10
13.76000209999999
 20
0.63999999
 30
0.0
 11
13.76000209999999
 21
0.6999999900000001
 31
0.0
  0
LINE
  5
4191
330
BCC
100
AcDbEntity
  8
BORDER
  6
LS
100
AcDbLine
 10
13.80000209999999
 20
0.63999999
 30
0.0
 11
13.80000209999999
 21
0.6999999900000001
 31
0.0
  0
LINE
  5
4192
330
BCC
100
AcDbEntity
  8
BORDER
  6
LS
100
AcDbLine
 10
13.8200026
 20
0.59999996
 30
0.0
 11
13.8200026
 21
0.6999999900000001
 31
0.0
  0
LINE
  5
4193
330
BCC
100
AcDbEntity
  8
BORDER
  6
LS
100
AcDbLine
 10
13.840003
 20
0.59999996
 30
0.0
 11
13.840003
 21
0.6999999900000001
 31
0.0
  0
LINE
  5
4194
330
BCC
100
AcDbEntity
  8
BORDER
  6
LS
100
AcDbLine
 10
13.8600025
 20
0.63999999
 30
0.0
 11
13.8600025
 21
0.6999999900000001
 31
0.0
  0
LINE
  5
4195
330
BCC
100
AcDbEntity
  8
BORDER
  6
LS
100
AcDbLine
 10
13.90000249999999
 20
0.63999999
 30
0.0
 11
13.90000249999999
 21
0.6999999900000001
 31
0.0
  0
LINE
  5
4196
330
BCC
100
AcDbEntity
  8
BORDER
  6
LS
100
AcDbLine
 10
13.9200029
 20
0.59999996
 30
0.0
 11
13.9200029
 21
0.6999999900000001
 31
0.0
  0
LINE
  5
4197
330
BCC
100
AcDbEntity
  8
BORDER
  6
LS
100
AcDbLine
 10
13.4800005
 20
0.55999994
 30
0.0
 11
13.4800005
 21
0.6999999900000001
 31
0.0
  0
LINE
  5
4198
330
BCC
100
AcDbEntity
  8
BORDER
  6
LS
100
AcDbLine
 10
13.58000089999999
 20
0.55999994
 30
0.0
 11
13.58000089999999
 21
0.6999999900000001
 31
0.0
  0
LINE
  5
4199
330
BCC
100
AcDbEntity
  8
BORDER
  6
LS
100
AcDbLine
 10
13.4000006
 20
0.63999999
 30
0.0
 11
13.4000006
 21
0.6999999900000001
 31
0.0
  0
LINE
  5
419A
330
BCC
100
AcDbEntity
  8
BORDER
  6
LS
100
AcDbLine
 10
13.42000099999999
 20
0.59999996
 30
0.0
 11
13.42000099999999
 21
0.6999999900000001
 31
0.0
  0
LINE
  5
419B
330
BCC
100
AcDbEntity
  8
BORDER
  6
LS
100
AcDbLine
 10
13.4400015
 20
0.59999996
 30
0.0
 11
13.4400015
 21
0.6999999900000001
 31
0.0
  0
LINE
  5
419C
330
BCC
100
AcDbEntity
  8
BORDER
  6
LS
100
AcDbLine
 10
13.460001
 20
0.63999999
 30
0.0
 11
13.460001
 21
0.6999999900000001
 31
0.0
  0
LINE
  5
419D
330
BCC
100
AcDbEntity
  8
BORDER
  6
LS
100
AcDbLine
 10
13.50000089999999
 20
0.63999999
 30
0.0
 11
13.50000089999999
 21
0.6999999900000001
 31
0.0
  0
LINE
  5
419E
330
BCC
100
AcDbEntity
  8
BORDER
  6
LS
100
AcDbLine
 10
13.5200014
 20
0.59999996
 30
0.0
 11
13.5200014
 21
0.6999999900000001
 31
0.0
  0
LINE
  5
419F
330
BCC
100
AcDbEntity
  8
BORDER
  6
LS
100
AcDbLine
 10
13.5400019
 20
0.59999996
 30
0.0
 11
13.5400019
 21
0.6999999900000001
 31
0.0
  0
LINE
  5
41A0
330
BCC
100
AcDbEntity
  8
BORDER
  6
LS
100
AcDbLine
 10
13.5600014
 20
0.63999999
 30
0.0
 11
13.5600014
 21
0.6999999900000001
 31
0.0
  0
LINE
  5
41A1
330
BCC
100
AcDbEntity
  8
BORDER
  6
LS
100
AcDbLine
 10
13.6000013
 20
0.63999999
 30
0.0
 11
13.6000013
 21
0.6999999900000001
 31
0.0
  0
LINE
  5
41A2
330
BCC
100
AcDbEntity
  8
BORDER
  6
LS
100
AcDbLine
 10
13.62000179999999
 20
0.59999996
 30
0.0
 11
13.62000179999999
 21
0.6999999900000001
 31
0.0
  0
LINE
  5
41A3
330
BCC
100
AcDbEntity
  8
BORDER
  6
LS
100
AcDbLine
 10
13.6400022
 20
0.59999996
 30
0.0
 11
13.6400022
 21
0.6999999900000001
 31
0.0
  0
LINE
  5
41A4
330
BCC
100
AcDbEntity
  8
BORDER
  6
LS
100
AcDbLine
 10
13.6600017
 20
0.63999999
 30
0.0
 11
13.6600017
 21
0.6999999900000001
 31
0.0
  0
TEXT
  5
41A5
330
BCC
100
AcDbEntity
  8
BORDER
100
AcDbText
 10
13.7515001
 20
0.41995007
 30
0.0
 40
0.07999998
  1
4
 50
0.0999999600000013
  7
AE
100
AcDbText
  0
TEXT
  5
41A6
330
BCC
100
AcDbEntity
  8
BORDER
100
AcDbText
 10
13.3514986
 20
0.35995007
 30
0.0
 40
0.07999998
  1
0
 50
0.0999999600000013
  7
AE
100
AcDbText
  0
TEXT
  5
41A7
330
BCC
100
AcDbEntity
  8
BORDER
100
AcDbText
 10
13.5514994
 20
0.41995007
 30
0.0
 40
0.07999998
  1
2
 50
0.0999999600000013
  7
AE
100
AcDbText
  0
TEXT
  5
41A8
330
BCC
100
AcDbEntity
  8
BORDER
100
AcDbText
 10
12.8087463
 20
0.27487546
 30
0.0
 40
0.19999999
  1
2
 50
0.0999999600000013
  7
AE
100
AcDbText
  0
LINE
  5
41A9
330
BCC
100
AcDbEntity
  8
BORDER
  6
LS
100
AcDbLine
 10
13.3800001
 20
0.49999994
 30
0.0
 11
13.3800001
 21
0.6999999900000001
 31
0.0
  0
LINE
  5
41AA
330
BCC
100
AcDbEntity
  8
BORDER
100
AcDbLine
 10
10.900002
 20
0.55000043
 30
0.0
 11
11.00000199999999
 21
0.75
 31
0.0
  0
LINE
  5
41AB
330
BCC
100
AcDbEntity
  8
BORDER
100
AcDbLine
 10
11.000003
 20
0.7499994000000001
 30
0.0
 11
11.100003
 21
0.55000019
 31
0.0
  0
LINE
  5
41AC
330
BCC
100
AcDbEntity
  8
BORDER
100
AcDbLine
 10
10.90000099999999
 20
0.5499999500000001
 30
0.0
 11
11.1
 21
0.5499999500000001
 31
0.0
  0
LINE
  5
41AD
330
BCC
100
AcDbEntity
  8
BORDER
100
AcDbLine
 10
11.0
 20
0.3499999
 30
0.0
 11
11.0
 21
0.5499999500000001
 31
0.0
  0
LINE
  5
41AE
330
BCC
100
AcDbEntity
  8
BORDER
100
AcDbLine
 10
11.0
 20
0.3499999
 30
0.0
 11
11.0
 21
0.5499999500000001
 31
0.0
  0
LINE
  5
41AF
330
BCC
100
AcDbEntity
  8
TITLE BLOCK
  6
Continuous
100
AcDbLine
 10
13.9
 20
1.0
 30
0.0
 11
13.9
 21
2.75
 31
0.0
  0
TEXT
  5
41B0
330
BCC
100
AcDbEntity
  8
TITLE BLOCK
  6
Continuous
100
AcDbText
 10
12.83824213224503
 20
1.090349814097824
 30
0.0
 40
0.0771520776612738
  1
NO.
 50
0.09999996
  7
AE
100
AcDbText
  0
LINE
  5
41B1
330
BCC
100
AcDbEntity
  8
TITLE BLOCK
  6
Continuous
100
AcDbLine
 10
12.75
 20
0.7499656890232619
 30
0.0
 11
12.75
 21
2.75
 31
0.0
  0
LINE
  5
41B2
330
BCC
100
AcDbEntity
  8
TITLE BLOCK
  6
Continuous
100
AcDbLine
 10
13.1
 20
1.0
 30
0.0
 11
13.1
 21
2.75
 31
0.0
  0
TEXT
  5
41B3
330
BCC
100
AcDbEntity
  8
TITLE BLOCK
  6
Continuous
100
AcDbText
 10
13.40137402234739
 20
1.090958090874199
 30
0.0
 40
0.075937067150492
  1
DATE
 50
0.09999996
  7
AE
100
AcDbText
  0
LINE
  5
41B4
330
BCC
100
AcDbEntity
  8
BORDER
  6
LS
100
AcDbLine
 10
15.18000599999999
 20
0.55999994
 30
0.0
 11
15.18000599999999
 21
0.6999999900000001
 31
0.0
  0
LINE
  5
41B5
330
BCC
100
AcDbEntity
  8
BORDER
  6
LS
100
AcDbLine
 10
14.9800053
 20
0.55999994
 30
0.0
 11
14.9800053
 21
0.6999999900000001
 31
0.0
  0
LINE
  5
41B6
330
BCC
100
AcDbEntity
  8
BORDER
  6
LS
100
AcDbLine
 10
14.7800045
 20
0.55999994
 30
0.0
 11
14.7800045
 21
0.6999999900000001
 31
0.0
  0
LINE
  5
41B7
330
BCC
100
AcDbEntity
  8
BORDER
  6
LS
100
AcDbLine
 10
14.58000469999999
 20
0.55999994
 30
0.0
 11
14.58000469999999
 21
0.6999999900000001
 31
0.0
  0
LINE
  5
41B8
330
BCC
100
AcDbEntity
  8
BORDER
  6
LS
100
AcDbLine
 10
14.3600044
 20
0.63999999
 30
0.0
 11
14.3600044
 21
0.6999999900000001
 31
0.0
  0
LINE
  5
41B9
330
BCC
100
AcDbEntity
  8
BORDER
  6
LS
100
AcDbLine
 10
14.08000279999999
 20
0.55999994
 30
0.0
 11
14.08000279999999
 21
0.6999999900000001
 31
0.0
  0
LINE
  5
41BA
330
BCC
100
AcDbEntity
  8
BORDER
  6
LS
100
AcDbLine
 10
14.1800032
 20
0.55999994
 30
0.0
 11
14.1800032
 21
0.6999999900000001
 31
0.0
  0
LINE
  5
41BB
330
BCC
100
AcDbEntity
  8
BORDER
  6
LS
100
AcDbLine
 10
14.2800035
 20
0.55999994
 30
0.0
 11
14.2800035
 21
0.6999999900000001
 31
0.0
  0
LINE
  5
41BC
330
BCC
100
AcDbEntity
  8
BORDER
  6
LS
100
AcDbLine
 10
14.30000399999999
 20
0.63999999
 30
0.0
 11
14.30000399999999
 21
0.6999999900000001
 31
0.0
  0
LINE
  5
41BD
330
BCC
100
AcDbEntity
  8
BORDER
  6
LS
100
AcDbLine
 10
14.3200045
 20
0.59999996
 30
0.0
 11
14.3200045
 21
0.6999999900000001
 31
0.0
  0
LINE
  5
41BE
330
BCC
100
AcDbEntity
  8
BORDER
  6
LS
100
AcDbLine
 10
14.3400049
 20
0.59999996
 30
0.0
 11
14.3400049
 21
0.6999999900000001
 31
0.0
  0
LINE
  5
41BF
330
BCC
100
AcDbEntity
  8
BORDER
  6
LS
100
AcDbLine
 10
14.02000329999999
 20
0.59999996
 30
0.0
 11
14.02000329999999
 21
0.6999999900000001
 31
0.0
  0
LINE
  5
41C0
330
BCC
100
AcDbEntity
  8
BORDER
  6
LS
100
AcDbLine
 10
14.0400038
 20
0.59999996
 30
0.0
 11
14.0400038
 21
0.6999999900000001
 31
0.0
  0
LINE
  5
41C1
330
BCC
100
AcDbEntity
  8
BORDER
  6
LS
100
AcDbLine
 10
14.0600033
 20
0.63999999
 30
0.0
 11
14.0600033
 21
0.6999999900000001
 31
0.0
  0
LINE
  5
41C2
330
BCC
100
AcDbEntity
  8
BORDER
  6
LS
100
AcDbLine
 10
14.10000319999999
 20
0.63999999
 30
0.0
 11
14.10000319999999
 21
0.6999999900000001
 31
0.0
  0
LINE
  5
41C3
330
BCC
100
AcDbEntity
  8
BORDER
  6
LS
100
AcDbLine
 10
14.1200037
 20
0.59999996
 30
0.0
 11
14.1200037
 21
0.6999999900000001
 31
0.0
  0
LINE
  5
41C4
330
BCC
100
AcDbEntity
  8
BORDER
  6
LS
100
AcDbLine
 10
14.14000419999999
 20
0.59999996
 30
0.0
 11
14.14000419999999
 21
0.6999999900000001
 31
0.0
  0
LINE
  5
41C5
330
BCC
100
AcDbEntity
  8
BORDER
  6
LS
100
AcDbLine
 10
14.1600037
 20
0.63999999
 30
0.0
 11
14.1600037
 21
0.6999999900000001
 31
0.0
  0
LINE
  5
41C6
330
BCC
100
AcDbEntity
  8
BORDER
  6
LS
100
AcDbLine
 10
14.20000359999999
 20
0.63999999
 30
0.0
 11
14.20000359999999
 21
0.6999999900000001
 31
0.0
  0
LINE
  5
41C7
330
BCC
100
AcDbEntity
  8
BORDER
  6
LS
100
AcDbLine
 10
14.2200041
 20
0.59999996
 30
0.0
 11
14.2200041
 21
0.6999999900000001
 31
0.0
  0
LINE
  5
41C8
330
BCC
100
AcDbEntity
  8
BORDER
  6
LS
100
AcDbLine
 10
14.2400045
 20
0.59999996
 30
0.0
 11
14.2400045
 21
0.6999999900000001
 31
0.0
  0
LINE
  5
41C9
330
BCC
100
AcDbEntity
  8
BORDER
  6
LS
100
AcDbLine
 10
14.26000399999999
 20
0.63999999
 30
0.0
 11
14.26000399999999
 21
0.6999999900000001
 31
0.0
  0
LINE
  5
41CA
330
BCC
100
AcDbEntity
  8
BORDER
  6
LS
100
AcDbLine
 10
13.9800024
 20
0.55999994
 30
0.0
 11
13.9800024
 21
0.6999999900000001
 31
0.0
  0
LINE
  5
41CB
330
BCC
100
AcDbEntity
  8
BORDER
  6
LS
100
AcDbLine
 10
13.9400034
 20
0.59999996
 30
0.0
 11
13.9400034
 21
0.6999999900000001
 31
0.0
  0
LINE
  5
41CC
330
BCC
100
AcDbEntity
  8
BORDER
  6
LS
100
AcDbLine
 10
13.9600029
 20
0.63999999
 30
0.0
 11
13.9600029
 21
0.6999999900000001
 31
0.0
  0
LINE
  5
41CD
330
BCC
100
AcDbEntity
  8
BORDER
  6
LS
100
AcDbLine
 10
14.0000029
 20
0.63999999
 30
0.0
 11
14.0000029
 21
0.6999999900000001
 31
0.0
  0
TEXT
  5
41CE
330
BCC
100
AcDbEntity
  8
BORDER
100
AcDbText
 10
16.3514986
 20
0.35995007
 30
0.0
 40
0.07999998
  1
3
 50
0.0999999600000013
  7
AE
100
AcDbText
  0
TEXT
  5
41CF
330
BCC
100
AcDbEntity
  8
BORDER
100
AcDbText
 10
15.35149859999999
 20
0.35995007
 30
0.0
 40
0.07999998
  1
2
 50
0.0999999600000013
  7
AE
100
AcDbText
  0
TEXT
  5
41D0
330
BCC
100
AcDbEntity
  8
BORDER
100
AcDbText
 10
15.1515045
 20
0.41995007
 30
0.0
 40
0.07999998
  1
8
 50
0.0999999600000013
  7
AE
100
AcDbText
  0
TEXT
  5
41D1
330
BCC
100
AcDbEntity
  8
BORDER
100
AcDbText
 10
14.751503
 20
0.41995007
 30
0.0
 40
0.07999998
  1
4
 50
0.0999999600000013
  7
AE
100
AcDbText
  0
TEXT
  5
41D2
330
BCC
100
AcDbEntity
  8
BORDER
100
AcDbText
 10
14.3514986
 20
0.35995007
 30
0.0
 40
0.07999998
  1
1
 50
0.0999999600000013
  7
AE
100
AcDbText
  0
TEXT
  5
41D3
330
BCC
100
AcDbEntity
  8
BORDER
100
AcDbText
 10
14.5515032
 20
0.41995007
 30
0.0
 40
0.07999998
  1
2
 50
0.0999999600000013
  7
AE
100
AcDbText
  0
TEXT
  5
41D4
330
BCC
100
AcDbEntity
  8
BORDER
100
AcDbText
 10
14.9515037
 20
0.41995007
 30
0.0
 40
0.07999998
  1
6
 50
0.0999999600000013
  7
AE
100
AcDbText
  0
TEXT
  5
41D5
330
BCC
100
AcDbEntity
  8
BORDER
100
AcDbText
 10
14.1515017
 20
0.41995007
 30
0.0
 40
0.07999998
  1
8
 50
0.0999999600000013
  7
AE
100
AcDbText
  0
TEXT
  5
41D6
330
BCC
100
AcDbEntity
  8
BORDER
100
AcDbText
 10
13.9515009
 20
0.41995007
 30
0.0
 40
0.07999998
  1
6
 50
0.0999999600000013
  7
AE
100
AcDbText
  0
LINE
  5
41D7
330
BCC
100
AcDbEntity
  8
BORDER
  6
LS
100
AcDbLine
 10
16.3800001
 20
0.49999994
 30
0.0
 11
16.3800001
 21
0.6999999900000001
 31
0.0
  0
LINE
  5
41D8
330
BCC
100
AcDbEntity
  8
BORDER
  6
LS
100
AcDbLine
 10
14.3800001
 20
0.49999994
 30
0.0
 11
14.3800001
 21
0.6999999900000001
 31
0.0
  0
LINE
  5
41D9
330
BCC
100
AcDbEntity
  8
BORDER
  6
LS
100
AcDbLine
 10
15.3800001
 20
0.49999994
 30
0.0
 11
15.3800001
 21
0.6999999900000001
 31
0.0
  0
TEXT
  5
41DA
330
BCC
100
AcDbEntity
  8
TITLE BLOCK
  6
Continuous
100
AcDbText
 10
17.1
 20
1.949999999999999
 30
0.0
 40
0.075937067150492
  1
DR
 50
0.09999996
  7
AE
100
AcDbText
  0
TEXT
  5
41DB
330
BCC
100
AcDbEntity
  8
TITLE BLOCK
  6
Continuous
100
AcDbText
 10
17.1
 20
1.824999999999999
 30
0.0
 40
0.075937067150492
  1
BY
 50
0.09999996
  7
AE
100
AcDbText
  0
TEXT
  5
41DC
330
BCC
100
AcDbEntity
  8
TITLE BLOCK
  6
Continuous
100
AcDbText
 10
17.10620037256117
 20
1.574999999999999
 30
0.0
 40
0.075937067150492
  1
BY
 50
0.09999996
  7
AE
100
AcDbText
  0
TEXT
  5
41DD
330
BCC
100
AcDbEntity
  8
TITLE BLOCK
  6
Continuous
100
AcDbText
 10
17.1
 20
1.699999999999999
 30
0.0
 40
0.075937067150492
  1
CHK
 50
0.09999996
  7
AE
100
AcDbText
  0
TEXT
  5
41DE
330
BCC
100
AcDbEntity
  8
TITLE BLOCK
  6
Continuous
100
AcDbText
 10
17.11
 20
1.45
 30
0.0
 40
0.075937067150492
  1
APPD
 50
0.09999996
  7
AE
100
AcDbText
  0
TEXT
  5
41DF
330
BCC
100
AcDbEntity
  8
TITLE BLOCK
  6
Continuous
100
AcDbText
 10
17.1
 20
1.325
 30
0.0
 40
0.075937067150492
  1
BY
 50
0.09999996
  7
AE
100
AcDbText
  0
TEXT
  5
41E0
330
BCC
100
AcDbEntity
  8
TITLE BLOCK
  6
Continuous
100
AcDbText
 10
15.65
 20
1.149999999999999
 30
0.0
 40
0.075937067150492
  1
DRAWING NAME
 50
0.09999996
  7
AE
100
AcDbText
  0
TEXT
  5
41E1
330
BCC
100
AcDbEntity
  8
TITLE BLOCK
  6
Continuous
100
AcDbText
 10
15.615
 20
2.6
 30
0.0
 40
0.0645465051491158
  1
NOTICE: This drawing or material
 50
0.09999996
 41
0.7005041199999999
  7
AE
100
AcDbText
  0
LINE
  5
41E2
330
BCC
100
AcDbEntity
  8
TITLE BLOCK
  6
Continuous
100
AcDbLine
 10
17.07518995515351
 20
1.35
 30
0.0
 11
17.07518995515351
 21
2.75
 31
0.0
  0
LINE
  5
41E3
330
BCC
100
AcDbEntity
  8
TITLE BLOCK
  6
Continuous
100
AcDbLine
 10
15.59965639031853
 20
0.7499656890232619
 30
0.0
 11
15.59965639031853
 21
2.75
 31
0.0
  0
TEXT
  5
41E4
330
BCC
100
AcDbEntity
  8
TITLE BLOCK
  6
Continuous
100
AcDbText
 10
15.62129755351284
 20
1.956248812462206
 30
0.0
 40
0.0645465051491158
  1
reproduced, will be used only for
 50
0.09999996
 41
0.6799434399999999
  7
AE
100
AcDbText
  0
TEXT
  5
41E5
330
BCC
100
AcDbEntity
  8
TITLE BLOCK
  6
Continuous
100
AcDbText
 10
15.63514394391218
 20
1.445039114516279
 30
0.0
 40
0.0645465051491158
  1
consent of G&L Motion Control.
 50
0.09999996
 41
0.79688752
  7
AE
100
AcDbText
  0
TEXT
  5
41E6
330
BCC
100
AcDbEntity
  8
TITLE BLOCK
  6
Continuous
100
AcDbText
 10
15.61887681003094
 20
1.585049725173559
 30
0.0
 40
0.0645465051491158
  1
as authorized by specific written
 50
0.09999996
 41
0.6799434399999999
  7
AE
100
AcDbText
  0
TEXT
  5
41E7
330
BCC
100
AcDbEntity
  8
TITLE BLOCK
  6
Continuous
100
AcDbText
 10
15.6189200152052
 20
1.70690037169105
 30
0.0
 40
0.0645465051491158
  1
used or disclosed to anyone except
 50
0.09999996
 41
0.6605569100000001
  7
AE
100
AcDbText
  0
TEXT
  5
41E8
330
BCC
100
AcDbEntity
  8
TITLE BLOCK
  6
Continuous
100
AcDbText
 10
15.61564857341434
 20
1.835205659079424
 30
0.0
 40
0.0645465051491158
  1
your information, and will not be
 50
0.09999996
 41
0.6799434399999999
  7
AE
100
AcDbText
  0
TEXT
  5
41E9
330
BCC
100
AcDbEntity
  8
TITLE BLOCK
  6
Continuous
100
AcDbText
 10
15.62032080796545
 20
2.087377673718703
 30
0.0
 40
0.0645465051491158
  1
will not be copied or otherwise
 50
0.09999996
 41
0.72234601
  7
AE
100
AcDbText
  0
TEXT
  5
41EA
330
BCC
100
AcDbEntity
  8
TITLE BLOCK
  6
Continuous
100
AcDbText
 10
15.61448145506772
 20
2.218510103259664
 30
0.0
 40
0.0645465051491158
  1
in confidence on condition that it
 50
0.09999996
 41
0.6605569100000001
  7
AE
100
AcDbText
  0
TEXT
  5
41EB
330
BCC
100
AcDbEntity
  8
TITLE BLOCK
  6
Continuous
100
AcDbText
 10
15.61275421249727
 20
2.477540457117108
 30
0.0
 40
0.0645465051491158
  1
contains proprietary information
 50
0.09999996
 41
0.7005041199999999
  7
AE
100
AcDbText
  0
TEXT
  5
41EC
330
BCC
100
AcDbEntity
  8
TITLE BLOCK
  6
Continuous
100
AcDbText
 10
15.6184730152435
 20
2.346006933112137
 30
0.0
 40
0.0645465051491158
  1
of G&L Motion Control, is submitted
 50
0.09999996
 41
0.6799434399999999
  7
AE
100
AcDbText
  0
ATTDEF
  5
41ED
330
BCC
100
AcDbEntity
  8
TITLE BLOCK
  6
Continuous
100
AcDbText
 10
15.7
 20
0.95
 30
0.0
 40
0.126326427375
  1

 41
0.8
100
AcDbAttributeDefinition
  3
Drawing Name
  2
GEN-TITLE-DES1{15.54}
 70
     0
1001
GENIUS_GENBLLY_14
1000
BOR5
  0
TEXT
  5
41EE
330
BCC
100
AcDbEntity
  8
BORDER
100
AcDbText
 10
0.1785739999999976
 20
14.775
 30
0.0
 40
0.19999999
  1
D
  7
AE
100
AcDbText
  0
LINE
  5
41EF
330
BCC
100
AcDbEntity
  8
BORDER
100
AcDbLine
 10
0.1000060000000005
 20
12.75
 30
0.0
 11
0.5
 21
12.75
 31
0.0
  0
TEXT
  5
41F0
330
BCC
100
AcDbEntity
  8
BORDER
100
AcDbText
 10
0.1785739999999976
 20
10.52499999999999
 30
0.0
 40
0.19999999
  1
C
  7
AE
100
AcDbText
  0
TEXT
  5
41F1
330
BCC
100
AcDbEntity
  8
BORDER
100
AcDbText
 10
2.678573999999997
 20
16.52499399999999
 30
0.0
 40
0.19999999
  1
4
  7
AE
100
AcDbText
  0
LINE
  5
41F2
330
BCC
100
AcDbEntity
  8
BORDER
100
AcDbLine
 10
5.5
 20
16.25
 30
0.0
 11
5.5
 21
16.649994
 31
0.0
  0
TEXT
  5
41F3
330
BCC
100
AcDbEntity
  8
BORDER
100
AcDbText
 10
8.178572
 20
16.52499399999999
 30
0.0
 40
0.19999999
  1
3
  7
AE
100
AcDbText
  0
TEXT
  5
41F4
330
BCC
100
AcDbEntity
  8
BORDER
100
AcDbText
 10
13.6785717
 20
16.52499399999999
 30
0.0
 40
0.19999999
  1
2
  7
AE
100
AcDbText
  0
LINE
  5
41F5
330
BCC
100
AcDbEntity
  8
BORDER
100
AcDbLine
 10
10.900011
 20
16.449982
 30
0.0
 11
11.000015
 21
16.249985
 31
0.0
  0
LINE
  5
41F6
330
BCC
100
AcDbEntity
  8
BORDER
100
AcDbLine
 10
10.90000099999999
 20
16.449997
 30
0.0
 11
11.1
 21
16.449997
 31
0.0
  0
LINE
  5
41F7
330
BCC
100
AcDbEntity
  8
BORDER
100
AcDbLine
 10
11.000011
 20
16.25
 30
0.0
 11
11.10001
 21
16.449997
 31
0.0
  0
LINE
  5
41F8
330
BCC
100
AcDbEntity
  8
BORDER
100
AcDbLine
 10
10.90000099999999
 20
16.449997
 30
0.0
 11
11.1
 21
16.449997
 31
0.0
  0
LINE
  5
41F9
330
BCC
100
AcDbEntity
  8
BORDER
100
AcDbLine
 10
11.0
 20
16.449997
 30
0.0
 11
11.0
 21
16.649994
 31
0.0
  0
LINE
  5
41FA
330
BCC
100
AcDbEntity
  8
BORDER
100
AcDbLine
 10
16.5
 20
16.25
 30
0.0
 11
16.5
 21
16.649994
 31
0.0
  0
LINE
  5
41FB
330
BCC
100
AcDbEntity
  8
BORDER
  6
Continuous
100
AcDbLine
 10
22.0
 20
0.2456391960479891
 30
0.0
 11
22.0
 21
17.0
 31
0.0
  0
LINE
  5
41FC
330
BCC
100
AcDbEntity
  8
BORDER
100
AcDbLine
 10
21.49999999999999
 20
0.75
 30
0.0
 11
21.49999999999999
 21
16.25
 31
0.0
  0
ATTDEF
  5
41FD
330
BCC
100
AcDbEntity
  8
TITLE BLOCK
  6
Continuous
100
AcDbText
 10
20.89999999999999
 20
1.375
 30
0.0
 40
0.11808994431015
  1

 41
0.8
100
AcDbAttributeDefinition
  3
Sheet of
  2
GEN-TITLE-SHEET-OF{2.62}
 70
     0
1001
GENIUS_GENBLLY_14
1000
BOR3
  0
ATTDEF
  5
41FE
330
BCC
100
AcDbEntity
  8
TITLE BLOCK
  6
Continuous
100
AcDbText
 10
20.5
 20
1.375
 30
0.0
 40
0.11808994431015
  1

 41
0.8
100
AcDbAttributeDefinition
  3
Sheet
  2
GEN-TITLE-SHEET{2.62}
 70
     0
1001
GENIUS_GENBLLY_14
1000
BOR3
  0
TEXT
  5
41FF
330
BCC
100
AcDbEntity
  8
BORDER
100
AcDbText
 10
21.67857146
 20
2.0249996
 30
0.0
 40
0.19999999
  1
A
  7
AE
100
AcDbText
  0
TEXT
  5
4200
330
BCC
100
AcDbEntity
  8
BORDER
100
AcDbText
 10
19.17857169999999
 20
0.27499998
 30
0.0
 40
0.19999999
  1
1
  7
AE
100
AcDbText
  0
TEXT
  5
4201
330
BCC
100
AcDbEntity
  8
TITLE BLOCK
  6
Continuous
100
AcDbText
 10
20.07499999999999
 20
1.699999999999999
 30
0.0
 40
0.075937067150492
  1
DATE
 50
0.09999996
  7
AE
100
AcDbText
  0
TEXT
  5
4202
330
BCC
100
AcDbEntity
  8
TITLE BLOCK
  6
Continuous
100
AcDbText
 10
20.07499999999999
 20
1.45
 30
0.0
 40
0.075937067150492
  1
SHEET   OF
 50
0.09999996
  7
AE
100
AcDbText
  0
ATTDEF
  5
4203
330
BCC
100
AcDbEntity
  8
TITLE BLOCK
  6
Continuous
100
AcDbText
 10
18.94999999999999
 20
1.375
 30
0.0
 40
0.1010611419
  1

 41
0.8
100
AcDbAttributeDefinition
  3
Material
  2
GEN-TITLE-MAT{11.15}
 70
     0
1001
GENIUS_GENBLLY_14
1000
BOR3
  0
ATTDEF
  5
4204
330
BCC
100
AcDbEntity
  8
TITLE BLOCK
  6
Continuous
100
AcDbText
 10
18.94999999999999
 20
1.625
 30
0.0
 40
0.1010611419
  1

100
AcDbAttributeDefinition
  3
Machine
  2
GEN-TITLE-MACH{5}
 70
     0
1001
GENIUS_GENBLLY_14
1000
BOR2
  0
ATTDEF
  5
4205
330
BCC
100
AcDbEntity
  8
TITLE BLOCK
  6
Continuous
100
AcDbText
 10
18.94999999999999
 20
1.875
 30
0.0
 40
0.1010611419
  1

100
AcDbAttributeDefinition
  3
Ref. No.
  2
GEN-TITLE-REF{5}
 70
     0
1001
GENIUS_GENBLLY_14
1000
BOR2
  0
TEXT
  5
4206
330
BCC
100
AcDbEntity
  8
TITLE BLOCK
  6
Continuous
100
AcDbText
 10
18.6
 20
1.45
 30
0.0
 40
0.075937067150492
  1
MATL
 50
0.09999996
  7
AE
100
AcDbText
  0
TEXT
  5
4207
330
BCC
100
AcDbEntity
  8
TITLE BLOCK
  6
Continuous
100
AcDbText
 10
18.6
 20
1.699999999999999
 30
0.0
 40
0.075937067150492
  1
MACH
 50
0.09999996
  7
AE
100
AcDbText
  0
TEXT
  5
4208
330
BCC
100
AcDbEntity
  8
TITLE BLOCK
  6
Continuous
100
AcDbText
 10
18.6
 20
1.949999999999999
 30
0.0
 40
0.075937067150492
  1
REF
 50
0.09999996
  7
AE
100
AcDbText
  0
TEXT
  5
4209
330
BCC
100
AcDbEntity
  8
TITLE BLOCK
  6
Continuous
100
AcDbText
 10
18.6
 20
1.149999999999999
 30
0.0
 40
0.075937067150492
  1
DRAWING NUMBER
 50
0.09999996
  7
AE
100
AcDbText
  0
LINE
  5
420A
330
BCC
100
AcDbEntity
  8
TITLE BLOCK
  6
Continuous
100
AcDbLine
 10
18.54999999999999
 20
0.7499656890232619
 30
0.0
 11
18.54999999999999
 21
2.75
 31
0.0
  0
LINE
  5
420B
330
BCC
100
AcDbEntity
  8
TITLE BLOCK
  6
Continuous
100
AcDbLine
 10
20.02625718126358
 20
1.299999999999999
 30
0.0
 11
20.02625718126354
 21
1.799999999999999
 31
0.0
  0
ATTDEF
  5
420C
330
BCC
100
AcDbEntity
  8
TITLE BLOCK
  6
Continuous
100
AcDbText
 10
20.42499999999999
 20
1.625
 30
0.0
 40
0.1010611419
  1

100
AcDbAttributeDefinition
  3
Date
  2
GEN-TITLE-PLOT{5}
 70
     0
1001
GENIUS_GENBLLY_14
1000
BOR2
  0
ATTDEF
  5
420D
330
BCC
100
AcDbEntity
  8
TITLE BLOCK
  6
Continuous
100
AcDbText
 10
18.89999999999999
 20
0.85
 30
0.0
 40
0.196816573850279
  1

 41
0.8
100
AcDbAttributeDefinition
  3
Drawing Number
  2
GEN-TITLE-NR{13.37}
 70
     0
1001
GENIUS_GENBLLY_14
1000
BOR5
  0
LINE
  5
420E
330
BCC
100
AcDbEntity
  8
BORDER
100
AcDbLine
 10
21.70000315
 20
8.5
 30
0.0
 11
21.90000009999999
 21
8.5
 31
0.0
  0
LINE
  5
420F
330
BCC
100
AcDbEntity
  8
BORDER
100
AcDbLine
 10
21.50001131999999
 20
8.499981899999999
 30
0.0
 11
21.70000713999999
 21
8.399983399999999
 31
0.0
  0
TEXT
  5
4210
330
BCC
100
AcDbEntity
  8
BORDER
100
AcDbText
 10
21.67857146
 20
6.2749996
 30
0.0
 40
0.19999999
  1
B
  7
AE
100
AcDbText
  0
LINE
  5
4211
330
BCC
100
AcDbEntity
  8
BORDER
100
AcDbLine
 10
21.49999951999999
 20
8.499982800000001
 30
0.0
 11
21.69999569999999
 21
8.599980399999999
 31
0.0
  0
LINE
  5
4212
330
BCC
100
AcDbEntity
  8
BORDER
100
AcDbLine
 10
21.70000315
 20
8.3999939
 30
0.0
 11
21.70000315
 21
8.5999908
 31
0.0
  0
TEXT
  5
4213
330
BCC
100
AcDbEntity
  8
BORDER
100
AcDbText
 10
21.67857146
 20
14.775
 30
0.0
 40
0.19999999
  1
D
  7
AE
100
AcDbText
  0
LINE
  5
4214
330
BCC
100
AcDbEntity
  8
BORDER
100
AcDbLine
 10
21.49999999999999
 20
12.75
 30
0.0
 11
21.90000003999999
 21
12.75
 31
0.0
  0
TEXT
  5
4215
330
BCC
100
AcDbEntity
  8
BORDER
100
AcDbText
 10
21.67857146
 20
10.52499999999999
 30
0.0
 40
0.19999999
  1
C
  7
AE
100
AcDbText
  0
TEXT
  5
4216
330
BCC
100
AcDbEntity
  8
BORDER
100
AcDbText
 10
19.17857169999999
 20
16.52499399999999
 30
0.0
 40
0.19999999
  1
1
  7
AE
100
AcDbText
  0
LINE
  5
4217
330
BCC
100
AcDbEntity
  8
BORDER
  6
Continuous
 62
    15
100
AcDbLine
 10
0.0
 20
0.2456391960479891
 30
0.0
 11
22.0
 21
0.2456391960479891
 31
0.0
  0
MTEXT
  5
4218
330
BCC
100
AcDbEntity
  8
BORDER
  6
Continuous
100
AcDbMText
 10
20.00308979335871
 20
2.6
 30
0.0
 40
0.125
 41
2.663
 71
     2
 72
     5
  1
{\fArial|b0|i0|c0|p34;\C1;G & L Motion Control Inc.}
 73
     1
 44
1.0
  0
MTEXT
  5
4219
330
BCC
100
AcDbEntity
  8
BORDER
  6
Continuous
100
AcDbMText
 10
20.00412857763948
 20
2.278264837305509
 30
0.0
 40
0.07874
 41
2.862
 71
     5
 72
     1
  1
{\Fromans.shx;\C9;672 South Military Road\PFond du Lac, Wisconsin 54936 U.S.A.}
 73
     1
 44
1.0
  0
ENDBLK
  5
C91
330
BCC
100
AcDbEntity
  8
0
100
AcDbBlockEnd
  0
BLOCK
  5
CCF
330
CCC
100
AcDbEntity
  8
0
100
AcDbBlockBegin
  2
A$C4F76053E
 70
     0
 10
0.0
 20
0.0
 30
0.0
  3
A$C4F76053E
  1

  0
MTEXT
  5
CCD
330
CCC
100
AcDbEntity
  8
0
100
AcDbMText
 10
-4.535114937015489
 20
-3.905305472352832
 30
0.0
 40
0.125
 41
0.0
 71
     3
 72
     1
  1
LABEL CONNECTOR\PAS SHOWN 
 73
     1
 44
1.0
  0
MTEXT
  5
CCE
330
CCC
100
AcDbEntity
  8
0
100
AcDbMText
 10
-8.333017987392072
 20
-5.422864188570173
 30
0.0
 40
0.1
 41
5.652499999999999
 71
     1
 72
     5
  3
SPECIFICATIONS:\P\P1. LABEL CABLE AND CONNECTORS AS SHOWN.\P\P2. INSPECT FOR SHORTS. CONNECTIVITY MUST CONFORM TO WIRING DIAGRAM.\P\P3. PACKAGE PER MD.1000.5034 PACKAGING SPECIFICATION.\P\P4. WIRING DIAGRAM SHOWING PIN ORIENTATION AND COLOR CODE MUST
  1
 BE INCLUDED IN BOX.\P\P5. CHANGES TO THESE SPECIFICATIONS MUST BE APPROVED, IN WRITING, BY THE G&L Motion Control ENGINEERING DEPARTMENT.
 73
     1
 44
1.0
  0
ENDBLK
  5
CD0
330
CCC
100
AcDbEntity
  8
0
100
AcDbBlockEnd
  0
BLOCK
  5
4006
330
3FFB
100
AcDbEntity
  8
0
100
AcDbBlockBegin
  2
*D18
 70
     1
 10
0.0
 20
0.0
 30
0.0
  3
*D18
  1

  0
LINE
  5
403F
330
3FFB
100
AcDbEntity
  8
4
 62
     7
370
    -2
100
AcDbLine
 10
19.10104612011911
 20
12.09423196079284
 30
0.0
 11
19.83960554472614
 21
12.88092991057128
 31
0.0
  0
LINE
  5
4040
330
3FFB
100
AcDbEntity
  8
4
 62
     7
370
    -2
100
AcDbLine
 10
20.53396212011911
 20
10.74899696079284
 30
0.0
 11
21.27252154472614
 21
11.53569491057128
 31
0.0
  0
LINE
  5
4041
330
3FFB
100
AcDbEntity
  8
4
 62
     7
370
    -2
100
AcDbLine
 10
19.84763564482901
 20
12.62649815647534
 30
0.0
 11
20.2411305073723
 21
12.25708148347187
 31
0.0
  0
LINE
  5
4042
330
3FFB
100
AcDbEntity
  8
4
 62
     7
370
    -2
100
AcDbLine
 10
21.0180897906302
 20
11.52766481046841
 30
0.0
 11
20.62459492808689
 21
11.89708148347188
 31
0.0
  0
SOLID
  5
4043
330
3FFB
100
AcDbEntity
  8
4
 62
     7
100
AcDbTrace
 10
19.8681691159951
 20
12.64836997765857
 30
0.0
 11
19.82710217366292
 21
12.6046263352921
 31
0.0
 12
19.7164047177296
 22
12.74969898347187
 32
0.0
 13
19.7164047177296
 23
12.74969898347187
 33
0.0
  0
SOLID
  5
4044
330
3FFB
100
AcDbEntity
  8
4
 62
     7
100
AcDbTrace
 10
21.03862326179628
 20
11.54953663165165
 30
0.0
 11
20.99755631946411
 21
11.50579298928518
 31
0.0
 12
21.1493207177296
 22
11.40446398347187
 32
0.0
 13
21.1493207177296
 23
11.40446398347187
 33
0.0
  0
MTEXT
  5
4045
330
3FFB
100
AcDbEntity
  8
4
 62
     7
100
AcDbMText
 10
20.4328627177296
 20
12.07708148347188
 30
0.0
 40
0.18
 41
0.0
 71
     5
 72
     1
  1
\A1;2"
 73
     1
 44
1.0
  0
POINT
  5
4046
330
3FFB
100
AcDbEntity
  8
Defpoints
 62
     0
100
AcDbPoint
 10
19.05826805518976
 20
12.0486656666611
 30
0.0
  0
POINT
  5
4047
330
3FFB
100
AcDbEntity
  8
Defpoints
 62
     0
100
AcDbPoint
 10
20.49118405518976
 20
10.7034306666611
 30
0.0
  0
POINT
  5
4048
330
3FFB
100
AcDbEntity
  8
Defpoints
 62
     0
100
AcDbPoint
 10
21.1493207177296
 20
11.40446398347187
 30
0.0
  0
ENDBLK
  5
4007
330
3FFB
100
AcDbEntity
  8
0
100
AcDbBlockEnd
  0
BLOCK
  5
4013
330
4008
100
AcDbEntity
  8
0
100
AcDbBlockBegin
  2
*D19
 70
     1
 10
0.0
 20
0.0
 30
0.0
  3
*D19
  1

  0
LINE
  5
4049
330
4008
100
AcDbEntity
  8
4
 62
     7
370
    -2
100
AcDbLine
 10
17.37382963898137
 20
7.624787003122706
 30
0.0
 11
15.93845994674682
 21
7.129879617134386
 31
0.0
  0
LINE
  5
404A
330
4008
100
AcDbEntity
  8
4
 62
     7
370
    -2
100
AcDbLine
 10
16.88562563898137
 20
9.040715003122704
 30
0.0
 11
15.45025594674683
 21
8.545807617134384
 31
0.0
  0
LINE
  5
404B
330
4008
100
AcDbEntity
  8
4
 62
     7
370
    -2
100
AcDbLine
 10
16.04995555443639
 20
7.358721766805143
 30
0.0
 11
15.94624309066081
 21
7.659516888124979
 31
0.0
  0
LINE
  5
404C
330
4008
100
AcDbEntity
  8
4
 62
     7
370
    -2
100
AcDbLine
 10
15.67909809641759
 20
8.434312009444814
 30
0.0
 11
15.78281056019316
 21
8.133516888124979
 31
0.0
  0
SOLID
  5
404D
330
4008
100
AcDbEntity
  8
4
 62
     7
100
AcDbTrace
 10
16.07831703421642
 20
7.368500645303576
 30
0.0
 11
16.02159407465637
 21
7.34894288830671
 31
0.0
 12
16.10862882542699
 22
7.18855288812498
 32
0.0
 13
16.10862882542699
 23
7.18855288812498
 33
0.0
  0
SOLID
  5
404E
330
4008
100
AcDbEntity
  8
4
 62
     7
100
AcDbTrace
 10
15.70745957619761
 20
8.444090887943248
 30
0.0
 11
15.65073661663756
 21
8.424533130946382
 31
0.0
 12
15.62042482542699
 22
8.604480888124978
 32
0.0
 13
15.62042482542699
 23
8.604480888124978
 33
0.0
  0
MTEXT
  5
404F
330
4008
100
AcDbEntity
  8
4
 62
     7
100
AcDbMText
 10
15.86452682542699
 20
7.896516888124979
 30
0.0
 40
0.18
 41
0.0
 71
     5
 72
     1
  1
\A1;1{\H0.700000x;\S1/2;}"
 73
     1
 44
1.0
  0
POINT
  5
4050
330
4008
100
AcDbEntity
  8
Defpoints
 62
     0
100
AcDbPoint
 10
17.43291605518976
 20
7.645159666661107
 30
0.0
  0
POINT
  5
4051
330
4008
100
AcDbEntity
  8
Defpoints
 62
     0
100
AcDbPoint
 10
16.94471205518977
 20
9.061087666661105
 30
0.0
  0
POINT
  5
4052
330
4008
100
AcDbEntity
  8
Defpoints
 62
     0
100
AcDbPoint
 10
15.62042482542699
 20
8.604480888124978
 30
0.0
  0
ENDBLK
  5
4014
330
4008
100
AcDbEntity
  8
0
100
AcDbBlockEnd
  0
BLOCK
  5
402E
330
4023
100
AcDbEntity
  8
0
100
AcDbBlockBegin
  2
*D20
 70
     1
 10
0.0
 20
0.0
 30
0.0
  3
*D20
  1

  0
LINE
  5
405E
330
4023
100
AcDbEntity
  8
4
 62
     7
370
    -2
100
AcDbLine
 10
19.66205125283253
 20
7.271471516655565
 30
0.0
 11
20.38987469188466
 21
6.543648862129259
 31
0.0
  0
LINE
  5
405F
330
4023
100
AcDbEntity
  8
4
 62
     7
370
    -2
100
AcDbLine
 10
18.73432825283253
 20
6.343747516655567
 30
0.0
 11
19.46215169188466
 21
5.615924862129261
 31
0.0
  0
LINE
  5
4060
330
4023
100
AcDbEntity
  8
4
 62
     7
370
    -2
100
AcDbLine
 10
20.13531625065754
 20
6.543648724934049
 30
0.0
 11
20.03573364720959
 21
6.444066014145214
 31
0.0
  0
LINE
  5
4061
330
4023
100
AcDbEntity
  8
4
 62
     7
370
    -2
100
AcDbLine
 10
19.46215155468945
 20
5.870483303356381
 30
0.0
 11
19.5617341581374
 21
5.970066014145213
 31
0.0
  0
SOLID
  5
4062
330
4023
100
AcDbEntity
  8
4
 62
     7
100
AcDbTrace
 10
20.11410303578901
 20
6.564861916936708
 30
0.0
 11
20.15652946552607
 21
6.52243553293139
 31
0.0
 12
20.2625954026735
 22
6.670928014145214
 32
0.0
 13
20.2625954026735
 23
6.670928014145214
 33
0.0
  0
SOLID
  5
4063
330
4023
100
AcDbEntity
  8
4
 62
     7
100
AcDbTrace
 10
19.44093833982092
 20
5.89169649535904
 30
0.0
 11
19.48336476955797
 21
5.849270111353722
 31
0.0
 12
19.3348724026735
 22
5.743204014145216
 32
0.0
 13
19.3348724026735
 23
5.743204014145216
 33
0.0
  0
MTEXT
  5
4064
330
4023
100
AcDbEntity
  8
4
 62
     7
100
AcDbMText
 10
19.7987339026735
 20
6.207066014145217
 30
0.0
 40
0.18
 41
0.0
 71
     5
 72
     1
  1
\A1;1{\H0.700000x;\S5/16;}"
 73
     1
 44
1.0
  0
POINT
  5
4065
330
4023
100
AcDbEntity
  8
Defpoints
 62
     0
100
AcDbPoint
 10
19.61785705518976
 20
7.315665666661105
 30
0.0
  0
POINT
  5
4066
330
4023
100
AcDbEntity
  8
Defpoints
 62
     0
100
AcDbPoint
 10
18.69013405518976
 20
6.387941666661107
 30
0.0
  0
POINT
  5
4067
330
4023
100
AcDbEntity
  8
Defpoints
 62
     0
100
AcDbPoint
 10
19.3348724026735
 20
5.743204014145216
 30
0.0
  0
ENDBLK
  5
402F
330
4023
100
AcDbEntity
  8
0
100
AcDbBlockEnd
  0
BLOCK
  5
403D
330
4030
100
AcDbEntity
  8
0
100
AcDbBlockBegin
  2
*D21
 70
     1
 10
0.0
 20
0.0
 30
0.0
  3
*D21
  1

  0
LINE
  5
4068
330
4030
100
AcDbEntity
  8
4
 62
     7
370
    -2
100
AcDbLine
 10
20.53537837901374
 20
10.65923664283727
 30
0.0
 11
21.2682589132739
 21
9.926361083520959
 31
0.0
  0
LINE
  5
4069
330
4030
100
AcDbEntity
  8
4
 62
     7
370
    -2
100
AcDbLine
 10
20.09343837901375
 20
10.21729364283728
 30
0.0
 11
20.82631891327391
 21
9.48441808352096
 31
0.0
  0
LINE
  5
406A
330
4030
100
AcDbEntity
  8
4
 62
     7
370
    -2
100
AcDbLine
 10
21.26825804927344
 20
10.18091952474665
 30
0.0
 11
21.39553683788605
 21
10.30819917735972
 31
0.0
  0
LINE
  5
406B
330
4030
100
AcDbEntity
  8
4
 62
     7
370
    -2
100
AcDbLine
 10
20.57176047204822
 20
9.484417219520492
 30
0.0
 11
20.44448168343561
 21
9.357137566907415
 31
0.0
  0
LINE
  5
406C
330
4030
100
AcDbEntity
  8
4
 62
     7
370
    -2
100
AcDbLine
 10
21.14097926066083
 20
10.05363987213357
 30
0.0
 11
21.12466926066083
 21
10.03732976141718
 31
0.0
  0
LINE
  5
406D
330
4030
100
AcDbEntity
  8
4
 62
     7
370
    -2
100
AcDbLine
 10
20.69903926066083
 20
9.611696872133572
 30
0.0
 11
20.71534926066083
 21
9.628006982849957
 31
0.0
  0
SOLID
  5
406E
330
4030
100
AcDbEntity
  8
4
 62
     7
100
AcDbTrace
 10
21.24704477383792
 20
10.20213265618208
 30
0.0
 11
21.28947132470895
 21
10.15970639331121
 31
0.0
 12
21.14097926066083
 22
10.05363987213357
 32
0.0
 13
21.14097926066083
 23
10.05363987213357
 33
0.0
  0
SOLID
  5
406F
330
4030
100
AcDbEntity
  8
4
 62
     7
100
AcDbTrace
 10
20.55054719661271
 20
9.505630350955929
 30
0.0
 11
20.59297374748373
 21
9.463204088085056
 31
0.0
 12
20.69903926066083
 22
9.611696872133572
 32
0.0
 13
20.69903926066083
 23
9.611696872133572
 33
0.0
  0
MTEXT
  5
4070
330
4030
100
AcDbEntity
  8
4
 62
     7
100
AcDbMText
 10
20.92000926066083
 20
9.832668372133568
 30
0.0
 40
0.18
 41
0.0
 71
     5
 72
     1
  1
\A1;{\H0.700000x;\S5/8;}"
 73
     1
 44
1.0
  0
POINT
  5
4071
330
4030
100
AcDbEntity
  8
Defpoints
 62
     0
100
AcDbPoint
 10
20.49118405518976
 20
10.7034306666611
 30
0.0
  0
POINT
  5
4072
330
4030
100
AcDbEntity
  8
Defpoints
 62
     0
100
AcDbPoint
 10
20.04924405518976
 20
10.2614876666611
 30
0.0
  0
POINT
  5
4073
330
4030
100
AcDbEntity
  8
Defpoints
 62
     0
100
AcDbPoint
 10
20.69903926066083
 20
9.611696872133572
 30
0.0
  0
ENDBLK
  5
403E
330
4030
100
AcDbEntity
  8
0
100
AcDbBlockEnd
  0
BLOCK
  5
40CF
330
40C3
100
AcDbEntity
  8
0
100
AcDbBlockBegin
  2
*D22
 70
     1
 10
0.0
 20
0.0
 30
0.0
  3
*D22
  1

  0
LINE
  5
40C4
330
40C3
100
AcDbEntity
  8
0
370
    -2
100
AcDbLine
 10
16.11496468559073
 20
9.890834992358708
 30
0.0
 11
15.75579886863563
 21
10.25000063092052
 31
0.0
  0
LINE
  5
40C5
330
40C3
100
AcDbEntity
  8
0
370
    -2
100
AcDbLine
 10
15.72279405518976
 20
9.061087666661105
 30
0.0
 11
15.26333516731711
 21
9.061087666661105
 31
0.0
  0
ARC
  5
40C6
330
40C3
100
AcDbEntity
  8
0
370
    -2
100
AcDbCircle
 10
16.94471242341394
 20
9.061087666661105
 30
0.0
 40
1.556377256096835
100
AcDbArc
 50
140.1556510985025
 51
174.8443631305593
  0
SOLID
  5
40C7
330
40C3
100
AcDbEntity
  8
0
100
AcDbTrace
 10
15.73252037653259
 20
10.07400547648191
 30
0.0
 11
15.76696944864871
 21
10.04252470126724
 31
0.0
 12
15.84418723823466
 22
10.16161230522292
 32
0.0
 13
15.84418723823466
 23
10.16161230522292
 33
0.0
  0
SOLID
  5
40C8
330
40C3
100
AcDbEntity
  8
0
100
AcDbTrace
 10
15.41794156251262
 20
9.199896548970457
 30
0.0
 11
15.37132211986118
 21
9.201995440260388
 31
0.0
 12
15.38833516731711
 22
9.061087666661105
 32
0.0
 13
15.38833516731711
 23
9.061087666661105
 33
0.0
  0
MTEXT
  5
40C9
330
40C3
100
AcDbEntity
  8
0
 62
     2
100
AcDbMText
 10
15.39594170807962
 20
9.702609276649075
 30
0.0
 40
0.12
 41
0.0
 71
     5
 72
     1
  1
\A1;45
 11
0.3826833176451268
 21
0.9238795800298431
 31
0.0
 73
     1
 44
1.0
  0
POINT
  5
40CA
330
40C3
100
AcDbEntity
  8
Defpoints
 62
     0
100
AcDbPoint
 10
15.59685005292281
 20
9.839276071553864
 30
0.0
  0
POINT
  5
40CB
330
40C3
100
AcDbEntity
  8
Defpoints
 62
     0
100
AcDbPoint
 10
16.94471205518977
 20
9.061087666661105
 30
0.0
  0
POINT
  5
40CC
330
40C3
100
AcDbEntity
  8
Defpoints
 62
     0
100
AcDbPoint
 10
18.21669005518976
 20
7.789110666661105
 30
0.0
  0
POINT
  5
40CD
330
40C3
100
AcDbEntity
  8
Defpoints
 62
     0
100
AcDbPoint
 10
16.20335305518976
 20
9.802446666661106
 30
0.0
  0
POINT
  5
40CE
330
40C3
100
AcDbEntity
  8
Defpoints
 62
     0
100
AcDbPoint
 10
15.84779405518976
 20
9.061087666661105
 30
0.0
  0
ENDBLK
  5
40D0
330
40C3
100
AcDbEntity
  8
0
100
AcDbBlockEnd
  0
ENDSEC
  0
SECTION
  2
ENTITIES
  0
INSERT
  5
6DC
330
2
100
AcDbEntity
  8
0
100
AcDbBlockReference
  2
MEDCLUMP_NTE_1212_
 10
1.621813055189765
 20
0.0254936666611059
 30
0.0
  0
INSERT
  5
6DD
330
2
100
AcDbEntity
  8
0
100
AcDbBlockReference
  2
MEDCLUMP_DMS_1222_
 10
1.621813055189765
 20
0.0254936666611059
 30
0.0
  0
DIMENSION
  5
6E2
330
2
100
AcDbEntity
  8
4
100
AcDbDimension
  2
*D15
 10
17.18264005518976
 20
11.3136826666611
 30
0.0
 11
10.31322655518976
 21
11.3136826666611
 31
0.0
 70
    32
  1
L (METERS)
 71
     5
 42
13.738827
  3
MEDDIM1198
100
AcDbAlignedDimension
 13
3.443813055189764
 23
9.420088666661104
 33
0.0
 14
17.18264005518976
 24
8.572883666661105
 34
0.0
100
AcDbRotatedDimension
  0
TEXT
  5
939
330
2
100
AcDbEntity
  8
800
 62
     1
100
AcDbText
 10
1.177886055189764
 20
15.4544826666611
 30
0.0
 40
0.13
  1
M.1302.1151
 41
1.236559139784945
  7
T1
 72
     5
 11
2.672886055189763
 21
15.4544826666611
 31
0.0
100
AcDbText
  0
TEXT
  5
93A
330
2
100
AcDbEntity
  8
800
 62
     1
100
AcDbText
 10
1.177885055189763
 20
15.1544816666611
 30
0.0
 40
0.13
  1
M.1302.1152
 41
1.197916666666666
  7
T1
 72
     5
 11
2.672885055189764
 21
15.1544816666611
 31
0.0
100
AcDbText
  0
TEXT
  5
93B
330
2
100
AcDbEntity
  8
800
 62
     1
100
AcDbText
 10
1.177885055189763
 20
14.8544806666611
 30
0.0
 40
0.13
  1
M.1302.1153
 41
1.197916666666666
  7
T1
 72
     5
 11
2.672885055189764
 21
14.8544806666611
 31
0.0
100
AcDbText
  0
TEXT
  5
93C
330
2
100
AcDbEntity
  8
800
 62
     1
100
AcDbText
 10
1.306325055189764
 20
15.7512986666611
 30
0.0
 40
0.13
  1
PART NUMBER
 41
1.010416666666665
  7
T1
 72
     5
 11
2.567325055189764
 21
15.7512986666611
 31
0.0
100
AcDbText
  0
TEXT
  5
93D
330
2
100
AcDbEntity
  8
800
 62
     1
100
AcDbText
 10
1.177885055189763
 20
14.5544806666611
 30
0.0
 40
0.13
  1
M.1302.1154
 41
1.197916666666666
  7
T1
 72
     5
 11
2.672885055189764
 21
14.5544806666611
 31
0.0
100
AcDbText
  0
TEXT
  5
93E
330
2
100
AcDbEntity
  8
800
 62
     1
100
AcDbText
 10
1.177885055189763
 20
14.2544816666611
 30
0.0
 40
0.13
  1
M.1302.1155
 41
1.197916666666666
  7
T1
 72
     5
 11
2.672885055189764
 21
14.2544816666611
 31
0.0
100
AcDbText
  0
LWPOLYLINE
  5
93F
330
2
100
AcDbEntity
  8
800
  6
L5
 62
     2
100
AcDbPolyline
 90
        2
 70
     0
 43
0.0
 10
4.675918055189764
 20
15.66964233332758
 10
1.050917055189763
 20
15.6696426666611
  0
LWPOLYLINE
  5
940
330
2
100
AcDbEntity
  8
800
  6
L0
 62
     1
100
AcDbPolyline
 90
        2
 70
     0
 43
0.0
 10
4.675918055189764
 20
15.3696426666611
 10
1.050917055189763
 20
15.3696426666611
  0
LWPOLYLINE
  5
941
330
2
100
AcDbEntity
  8
800
  6
L0
 62
     1
100
AcDbPolyline
 90
        2
 70
     0
 43
0.0
 10
4.675918055189764
 20
15.0696416666611
 10
1.050917055189763
 20
15.0696416666611
  0
LWPOLYLINE
  5
942
330
2
100
AcDbEntity
  8
800
  6
L0
 62
     1
100
AcDbPolyline
 90
        2
 70
     0
 43
0.0
 10
4.675918055189764
 20
14.7696426666611
 10
1.050917055189763
 20
14.7696426666611
  0
LWPOLYLINE
  5
943
330
2
100
AcDbEntity
  8
800
  6
L0
 62
     1
100
AcDbPolyline
 90
        2
 70
     0
 43
0.0
 10
4.675918055189764
 20
14.4696426666611
 10
1.050917055189763
 20
14.4696426666611
  0
LWPOLYLINE
  5
944
330
2
100
AcDbEntity
  8
800
  6
L0
 62
     1
100
AcDbPolyline
 90
        2
 70
     0
 43
0.0
 10
4.675918055189764
 20
14.1696426666611
 10
1.050917055189763
 20
14.1696426666611
  0
LWPOLYLINE
  5
945
330
2
100
AcDbEntity
  8
800
  6
L5
 62
     2
100
AcDbPolyline
 90
        2
 70
     0
 43
0.0
 10
4.675918055189764
 20
15.9926256666611
 10
4.675918055189764
 20
14.1696426666611
  0
LWPOLYLINE
  5
946
330
2
100
AcDbEntity
  8
800
  6
L5
 62
     2
100
AcDbPolyline
 90
        2
 70
     0
 43
0.0
 10
2.800918055189764
 20
15.9926256666611
 10
2.800918055189764
 20
14.1696426666611
  0
TEXT
  5
947
330
2
100
AcDbEntity
  8
800
 62
     1
100
AcDbText
 10
2.981859055189763
 20
15.4512986666611
 30
0.0
 40
0.13
  1
1 M +10/-0 CM
 41
1.00877192982456
  7
T1
 72
     5
 11
4.476859055189763
 21
15.4512986666611
 31
0.0
100
AcDbText
  0
TEXT
  5
948
330
2
100
AcDbEntity
  8
800
 62
     1
100
AcDbText
 10
2.981859055189763
 20
15.1512976666611
 30
0.0
 40
0.13
  1
3 M +15/-0 CM
 41
1.00877192982456
  7
T1
 72
     5
 11
4.476859055189763
 21
15.1512976666611
 31
0.0
100
AcDbText
  0
TEXT
  5
949
330
2
100
AcDbEntity
  8
800
 62
     1
100
AcDbText
 10
2.981859055189763
 20
14.8512966666611
 30
0.0
 40
0.13
  1
9 M +30/-0 CM
 41
1.00877192982456
  7
T1
 72
     5
 11
4.476859055189763
 21
14.8512966666611
 31
0.0
100
AcDbText
  0
TEXT
  5
94A
330
2
100
AcDbEntity
  8
800
 62
     1
100
AcDbText
 10
3.177758055189764
 20
15.7512966666611
 30
0.0
 40
0.13
  1
LENGTH "L"
 41
1.023255813953488
  7
T1
 72
     5
 11
4.321758055189764
 21
15.7512966666611
 31
0.0
100
AcDbText
  0
TEXT
  5
94B
330
2
100
AcDbEntity
  8
800
 62
     1
100
AcDbText
 10
2.923359055189763
 20
14.2512966666611
 30
0.0
 40
0.13
  1
30 M +60/-0 CM
 41
1.008130081300814
  7
T1
 72
     5
 11
4.535359055189765
 21
14.2512966666611
 31
0.0
100
AcDbText
  0
TEXT
  5
94C
330
2
100
AcDbEntity
  8
800
 62
     1
100
AcDbText
 10
2.923359055189763
 20
14.5512976666611
 30
0.0
 40
0.13
  1
15 M +45/-0 CM
 41
1.008130081300814
  7
T1
 72
     5
 11
4.535359055189765
 21
14.5512976666611
 31
0.0
100
AcDbText
  0
LWPOLYLINE
  5
94D
330
2
100
AcDbEntity
  8
800
  6
L0
 62
     1
100
AcDbPolyline
 90
        2
 70
     0
 43
0.0
 10
17.88546405518976
 20
7.882748666661106
 10
17.83031005518976
 20
7.937901666661105
  0
LWPOLYLINE
  5
94E
330
2
100
AcDbEntity
  8
800
  6
L5
 62
     2
100
AcDbPolyline
 90
        2
 70
     0
 43
0.0
 10
17.43291605518976
 20
7.645160666661105
 10
16.95986105518976
 20
8.118214666661106
  0
LWPOLYLINE
  5
94F
330
2
100
AcDbEntity
  8
800
  6
L5
 62
     2
100
AcDbPolyline
 90
        2
 70
     0
 43
0.0
 10
17.52095105518976
 20
7.953812666661105
 10
17.32260705518976
 20
7.755469666661106
  0
LWPOLYLINE
  5
950
330
2
100
AcDbEntity
  8
800
  6
L5
 62
     2
100
AcDbPolyline
 90
        2
 70
     0
 43
0.0
 10
18.31185605518976
 20
8.198832666661106
 10
17.80696705518976
 20
7.693942666661106
  0
LWPOLYLINE
  5
951
330
2
100
AcDbEntity
  8
800
  6
L5
 62
     2
100
AcDbPolyline
 90
        2
 70
     0
 43
0.0
 10
18.36064005518976
 20
8.572883666661105
 10
17.43291605518976
 20
7.645160666661105
  0
TEXT
  5
955
330
2
100
AcDbEntity
  8
800
 62
     1
100
AcDbText
 10
15.07592205518976
 20
6.432577666661105
 30
0.0
 40
0.13
  1
4-40 RETRACTABLE
 41
1.014285714285714
  7
T1
 72
     5
 11
16.92192205518976
 21
6.432577666661105
 31
0.0
100
AcDbText
  0
TEXT
  5
956
330
2
100
AcDbEntity
  8
800
 62
     1
100
AcDbText
 10
14.72492205518976
 20
6.252577666661105
 30
0.0
 40
0.13
  1
MACHINED THUMBSCREW
 41
1.00595238095238
  7
T1
 72
     5
 11
16.92192205518976
 21
6.252577666661105
 31
0.0
100
AcDbText
  0
LWPOLYLINE
  5
95C
330
2
100
AcDbEntity
  8
800
  6
L5
 62
     2
100
AcDbPolyline
 90
        2
 70
     0
 43
0.0
 10
19.55488605518976
 20
7.208429666661105
 42
0.414213
 10
19.55488605518976
 20
7.296818666661106
  0
LWPOLYLINE
  5
95D
330
2
100
AcDbEntity
  8
800
  6
L5
 62
     2
100
AcDbPolyline
 90
        2
 70
     0
 43
0.0
 10
19.61785705518976
 20
7.183012666661106
 42
0.4142149999999999
 10
19.61785705518976
 20
7.315665666661105
  0
LWPOLYLINE
  5
95E
330
2
100
AcDbEntity
  8
800
  6
L5
 62
     2
100
AcDbPolyline
 90
        2
 70
     0
 43
0.0
 10
19.30856905518976
 20
7.624954666661105
 42
0.414212
 10
19.17591705518976
 20
7.624954666661105
  0
LWPOLYLINE
  5
95F
330
2
100
AcDbEntity
  8
800
  6
L5
 62
     2
100
AcDbPolyline
 90
        2
 70
     0
 43
0.0
 10
19.28972105518976
 20
7.561983666661106
 42
0.4142100000000001
 10
19.20133305518976
 20
7.561983666661106
  0
CIRCLE
  5
960
330
2
100
AcDbEntity
  8
800
  6
L0
 62
     1
100
AcDbCircle
 10
19.14723405518976
 20
7.151430666661106
 30
0.0
 40
0.023502
  0
CIRCLE
  5
961
330
2
100
AcDbEntity
  8
800
  6
L0
 62
     1
100
AcDbCircle
 10
19.11557905518976
 20
7.263546666661106
 30
0.0
 40
0.023502
  0
CIRCLE
  5
962
330
2
100
AcDbEntity
  8
800
  6
L0
 62
     1
100
AcDbCircle
 10
19.25746605518976
 20
7.121658666661105
 30
0.0
 40
0.023502
  0
LWPOLYLINE
  5
963
330
2
100
AcDbEntity
  8
800
  6
L5
 62
     2
100
AcDbPolyline
 90
        2
 70
     0
 43
0.0
 10
19.22129805518976
 20
7.286741666661104
 10
19.29430805518976
 20
7.182474666661105
  0
CIRCLE
  5
964
330
2
100
AcDbEntity
  8
800
  6
L0
 62
     1
100
AcDbCircle
 10
19.34048505518976
 20
7.347581666661106
 30
0.0
 40
0.060266
  0
CIRCLE
  5
965
330
2
100
AcDbEntity
  8
800
  6
L0
 62
     1
100
AcDbCircle
 10
19.34048505518976
 20
7.347581666661106
 30
0.0
 40
0.047266
  0
LWPOLYLINE
  5
966
330
2
100
AcDbEntity
  8
800
  6
L5
 62
     2
100
AcDbPolyline
 90
        2
 70
     0
 43
0.0
 10
19.55488705518976
 20
7.296818666661106
 10
19.28972205518976
 20
7.561982666661105
  0
LWPOLYLINE
  5
967
330
2
100
AcDbEntity
  8
800
  6
L5
 62
     2
100
AcDbPolyline
 90
        2
 70
     0
 43
0.0
 10
19.61785805518976
 20
7.315666666661105
 10
19.30857005518976
 20
7.624954666661105
  0
CIRCLE
  5
968
330
2
100
AcDbEntity
  8
800
  6
L0
 62
     1
100
AcDbCircle
 10
18.95930805518976
 20
7.107276666661107
 30
0.0
 40
0.023502
  0
CIRCLE
  5
969
330
2
100
AcDbEntity
  8
800
  6
L0
 62
     1
100
AcDbCircle
 10
19.06909905518976
 20
7.073295666661106
 30
0.0
 40
0.023501
  0
CIRCLE
  5
96A
330
2
100
AcDbEntity
  8
800
  6
L0
 62
     1
100
AcDbCircle
 10
19.03744305518976
 20
7.185411666661105
 30
0.0
 40
0.023501
  0
LWPOLYLINE
  5
96B
330
2
100
AcDbEntity
  8
800
  6
L5
 62
     2
100
AcDbPolyline
 90
        2
 70
     0
 43
0.0
 10
19.22129905518976
 20
7.286740666661106
 42
0.4663060000000001
 10
19.03303005518976
 20
7.303212666661107
  0
CIRCLE
  5
96C
330
2
100
AcDbEntity
  8
800
  6
L0
 62
     1
100
AcDbCircle
 10
19.10119605518976
 20
6.965388666661105
 30
0.0
 40
0.023502
  0
CIRCLE
  5
96D
330
2
100
AcDbEntity
  8
800
  6
L0
 62
     1
100
AcDbCircle
 10
18.99096305518976
 20
6.995159666661106
 30
0.0
 40
0.023502
  0
CIRCLE
  5
96E
330
2
100
AcDbEntity
  8
800
  6
L0
 62
     1
100
AcDbCircle
 10
19.02306105518976
 20
6.887252666661105
 30
0.0
 40
0.023502
  0
CIRCLE
  5
96F
330
2
100
AcDbEntity
  8
800
  6
L0
 62
     1
100
AcDbCircle
 10
18.91282905518976
 20
6.917024666661106
 30
0.0
 40
0.023501
  0
CIRCLE
  5
970
330
2
100
AcDbEntity
  8
800
  6
L0
 62
     1
100
AcDbCircle
 10
18.94492505518976
 20
6.809117666661105
 30
0.0
 40
0.023502
  0
CIRCLE
  5
971
330
2
100
AcDbEntity
  8
800
  6
L0
 62
     1
100
AcDbCircle
 10
18.80303805518976
 20
6.951005666661105
 30
0.0
 40
0.023502
  0
LWPOLYLINE
  5
972
330
2
100
AcDbEntity
  8
800
  6
L5
 62
     2
100
AcDbPolyline
 90
        2
 70
     0
 43
0.0
 10
18.70258705518976
 20
6.972770666661105
 42
0.4663050000000001
 10
18.71905805518976
 20
6.784500666661106
  0
LWPOLYLINE
  5
973
330
2
100
AcDbEntity
  8
800
  6
L5
 62
     2
100
AcDbPolyline
 90
        2
 70
     0
 43
0.0
 10
18.71905905518976
 20
6.784501666661107
 10
18.82332605518976
 20
6.711492666661106
  0
CIRCLE
  5
974
330
2
100
AcDbEntity
  8
800
  6
L0
 62
     1
100
AcDbCircle
 10
18.83469205518976
 20
6.838889666661106
 30
0.0
 40
0.023502
  0
LWPOLYLINE
  5
975
330
2
100
AcDbEntity
  8
800
  6
L5
 62
     2
100
AcDbPolyline
 90
        2
 70
     0
 43
0.0
 10
18.70898205518976
 20
6.450913666661105
 42
0.4142140000000001
 10
18.79737005518976
 20
6.450912666661106
  0
LWPOLYLINE
  5
976
330
2
100
AcDbEntity
  8
800
  6
L5
 62
     2
100
AcDbPolyline
 90
        2
 70
     0
 43
0.0
 10
18.82332505518976
 20
6.711492666661106
 42
0.3639699999999999
 10
18.98130205518976
 20
6.725313666661104
  0
LWPOLYLINE
  5
977
330
2
100
AcDbEntity
  8
800
  6
L5
 62
     2
100
AcDbPolyline
 90
        2
 70
     0
 43
0.0
 10
18.44381605518976
 20
6.804467666661107
 42
0.414213
 10
18.44381605518976
 20
6.716079666661105
  0
LWPOLYLINE
  5
978
330
2
100
AcDbEntity
  8
800
  6
L5
 62
     2
100
AcDbPolyline
 90
        2
 70
     0
 43
0.0
 10
18.44710105518976
 20
6.630974666661106
 10
18.26412905518976
 20
6.448002666661105
  0
LWPOLYLINE
  5
979
330
2
100
AcDbEntity
  8
800
  6
L5
 62
     2
100
AcDbPolyline
 90
        2
 70
     0
 43
0.0
 10
18.38084505518976
 20
6.829883666661105
 42
0.414216
 10
18.38084505518976
 20
6.697230666661106
  0
LWPOLYLINE
  5
97A
330
2
100
AcDbEntity
  8
800
  6
L5
 62
     2
100
AcDbPolyline
 90
        2
 70
     0
 43
0.0
 10
18.70898205518976
 20
6.450913666661105
 10
18.44381705518976
 20
6.716078666661106
  0
LWPOLYLINE
  5
97B
330
2
100
AcDbEntity
  8
800
  6
L5
 62
     2
100
AcDbPolyline
 90
        2
 70
     0
 43
0.0
 10
18.69013405518976
 20
6.387942666661105
 10
18.38084505518976
 20
6.697230666661106
  0
CIRCLE
  5
97C
330
2
100
AcDbEntity
  8
800
  6
L0
 62
     1
100
AcDbCircle
 10
18.65821905518976
 20
6.665315666661106
 30
0.0
 40
0.060266
  0
CIRCLE
  5
97D
330
2
100
AcDbEntity
  8
800
  6
L0
 62
     1
100
AcDbCircle
 10
18.65821905518976
 20
6.665315666661106
 30
0.0
 40
0.047266
  0
LWPOLYLINE
  5
97E
330
2
100
AcDbEntity
  8
800
  6
L5
 62
     2
100
AcDbPolyline
 90
        2
 70
     0
 43
0.0
 10
18.40383505518976
 20
6.367070666661105
 10
18.32866305518976
 20
6.370856666661105
  0
LWPOLYLINE
  5
97F
330
2
100
AcDbEntity
  8
800
  6
L5
 62
     2
100
AcDbPolyline
 90
        2
 70
     0
 43
0.0
 10
18.32866305518976
 20
6.370856666661105
 10
18.49493805518976
 20
6.253185666661106
  0
LWPOLYLINE
  5
980
330
2
100
AcDbEntity
  8
800
  6
L5
 62
     2
100
AcDbPolyline
 90
        2
 70
     0
 43
0.0
 10
18.69013405518976
 20
6.387941666661106
 42
0.4142140000000001
 10
18.82278705518976
 20
6.387941666661106
  0
LWPOLYLINE
  5
981
330
2
100
AcDbEntity
  8
800
  6
L5
 62
     2
100
AcDbPolyline
 90
        2
 70
     0
 43
0.0
 10
18.62387805518976
 20
6.454198666661105
 10
18.45273305518976
 20
6.283053666661105
  0
LWPOLYLINE
  5
982
330
2
100
AcDbEntity
  8
800
  6
L5
 62
     2
100
AcDbPolyline
 90
        2
 70
     0
 43
0.0
 10
19.28048705518976
 20
7.024497666661105
 10
18.98130205518976
 20
6.725313666661104
  0
CIRCLE
  5
983
330
2
100
AcDbEntity
  8
800
  6
L0
 62
     1
100
AcDbCircle
 10
18.88117305518976
 20
7.029140666661106
 30
0.0
 40
0.023501
  0
CIRCLE
  5
984
330
2
100
AcDbEntity
  8
800
  6
L0
 62
     1
100
AcDbCircle
 10
19.17933205518976
 20
7.043523666661105
 30
0.0
 40
0.023502
  0
LWPOLYLINE
  5
985
330
2
100
AcDbEntity
  8
800
  6
L5
 62
     2
100
AcDbPolyline
 90
        2
 70
     0
 43
0.0
 10
19.03303005518976
 20
7.303212666661107
 10
18.70258805518976
 20
6.972770666661105
  0
LWPOLYLINE
  5
986
330
2
100
AcDbEntity
  8
800
  6
L5
 62
     2
100
AcDbPolyline
 90
        2
 70
     0
 43
0.0
 10
19.28048605518976
 20
7.024496666661105
 42
0.363971
 10
19.29430805518976
 20
7.182474666661105
  0
LWPOLYLINE
  5
987
330
2
100
AcDbEntity
  8
800
  6
L5
 62
     2
100
AcDbPolyline
 90
        2
 70
     0
 43
0.0
 10
18.44381705518976
 20
6.804467666661107
 10
19.20133305518976
 20
7.561982666661105
  0
LWPOLYLINE
  5
988
330
2
100
AcDbEntity
  8
800
  6
L5
 62
     2
100
AcDbPolyline
 90
        2
 70
     0
 43
0.0
 10
18.38084505518976
 20
6.829884666661106
 10
19.17591605518976
 20
7.624954666661105
  0
LWPOLYLINE
  5
989
330
2
100
AcDbEntity
  8
800
  6
L5
 62
     2
100
AcDbPolyline
 90
        2
 70
     0
 43
0.0
 10
18.82278705518976
 20
6.387942666661105
 10
19.61785805518976
 20
7.183013666661105
  0
LWPOLYLINE
  5
98A
330
2
100
AcDbEntity
  8
800
  6
L5
 62
     2
100
AcDbPolyline
 90
        2
 70
     0
 43
0.0
 10
18.79737005518976
 20
6.450913666661105
 10
19.55488705518976
 20
7.208430666661104
  0
LWPOLYLINE
  5
98B
330
2
100
AcDbEntity
  8
800
  6
L0
 62
     1
100
AcDbPolyline
 90
        2
 70
     0
 43
0.0
 10
17.66095805518976
 20
7.721881666661106
 10
17.66095805518976
 20
7.696425666661106
  0
LWPOLYLINE
  5
98C
330
2
100
AcDbEntity
  8
800
  6
L0
 62
     1
100
AcDbPolyline
 90
        2
 70
     0
 43
0.0
 10
17.62913805518976
 20
7.728245666661106
 10
17.58459005518976
 20
7.683697666661105
  0
LWPOLYLINE
  5
98D
330
2
100
AcDbEntity
  8
800
  6
L0
 62
     1
100
AcDbPolyline
 90
        2
 70
     0
 43
0.0
 10
17.61004605518976
 20
7.747337666661106
 10
17.56549805518976
 20
7.702789666661107
  0
LWPOLYLINE
  5
98E
330
2
100
AcDbEntity
  8
800
  6
L0
 62
     1
100
AcDbPolyline
 90
        2
 70
     0
 43
0.0
 10
17.59095405518976
 20
7.766429666661107
 10
17.54640605518976
 20
7.721881666661106
  0
LWPOLYLINE
  5
98F
330
2
100
AcDbEntity
  8
800
  6
L0
 62
     1
100
AcDbPolyline
 90
        2
 70
     0
 43
0.0
 10
17.66095805518976
 20
7.721881666661106
 10
17.58529705518976
 20
7.797542666661106
  0
LWPOLYLINE
  5
990
330
2
100
AcDbEntity
  8
800
  6
L5
 62
     2
100
AcDbPolyline
 90
        2
 70
     0
 43
0.0
 10
17.80696705518976
 20
7.693942666661106
 10
17.64433305518976
 20
7.856577666661106
  0
LWPOLYLINE
  5
991
330
2
100
AcDbEntity
  8
800
  6
L0
 62
     1
100
AcDbPolyline
 90
        2
 70
     0
 43
0.0
 10
17.59095405518976
 20
7.651877666661105
 10
17.61641005518976
 20
7.651877666661105
  0
LWPOLYLINE
  5
992
330
2
100
AcDbEntity
  8
800
  6
L0
 62
     1
100
AcDbPolyline
 90
        2
 70
     0
 43
0.0
 10
17.66095805518976
 20
7.721881666661106
 10
17.59095405518976
 20
7.651877666661105
  0
LWPOLYLINE
  5
993
330
2
100
AcDbEntity
  8
800
  6
L0
 62
     1
100
AcDbPolyline
 90
        2
 70
     0
 43
0.0
 10
17.66095805518976
 20
7.696425666661106
 10
17.61641005518976
 20
7.651877666661105
  0
LWPOLYLINE
  5
994
330
2
100
AcDbEntity
  8
800
  6
L0
 62
     1
100
AcDbPolyline
 90
        2
 70
     0
 43
0.0
 10
17.59095405518976
 20
7.651877666661105
 10
17.51529405518976
 20
7.727537666661106
  0
LWPOLYLINE
  5
995
330
2
100
AcDbEntity
  8
800
  6
L5
 62
     2
100
AcDbPolyline
 90
        2
 70
     0
 43
0.0
 10
18.22692805518976
 20
6.469553666661105
 10
18.40383505518976
 20
6.367070666661105
  0
LWPOLYLINE
  5
997
330
2
100
AcDbEntity
  8
800
  6
L5
 62
     2
100
AcDbPolyline
 90
        2
 70
     0
 43
0.0
 10
16.29798805518976
 20
9.253539666661106
 10
14.98081605518976
 20
9.253539666661106
  0
LWPOLYLINE
  5
998
330
2
100
AcDbEntity
  8
800
  6
L5
 62
     2
100
AcDbPolyline
 90
        2
 70
     0
 43
0.0
 10
16.29798805518976
 20
8.867497666661105
 10
14.98081605518976
 20
8.867497666661105
  0
LWPOLYLINE
  5
999
330
2
100
AcDbEntity
  8
800
  6
L5
 62
     2
100
AcDbPolyline
 90
        2
 70
     0
 43
0.0
 10
14.79626105518976
 20
8.867497666661105
 10
10.09715005518976
 20
8.867497666661105
  0
LWPOLYLINE
  5
99A
330
2
100
AcDbEntity
  8
800
  6
L5
 62
     2
100
AcDbPolyline
 90
        2
 70
     0
 43
0.0
 10
14.79626127960914
 20
9.253539666661106
 10
10.09715005518976
 20
9.253539666661106
  0
LWPOLYLINE
  5
99E
330
2
100
AcDbEntity
  8
800
  6
L5
 62
     2
100
AcDbPolyline
 90
        2
 70
     0
 43
0.0
 10
10.07920705518976
 20
9.066610666661105
 42
0.165109
 10
10.09715005518976
 20
9.060519666661106
  0
LWPOLYLINE
  5
99F
330
2
100
AcDbEntity
  8
800
  6
L5
 62
     2
100
AcDbPolyline
 90
        2
 70
     0
 43
0.0
 10
10.06031405518976
 20
9.088786666661105
 42
0.105717
 10
10.07920605518976
 20
9.066610666661105
  0
LWPOLYLINE
  5
9A0
330
2
100
AcDbEntity
  8
800
  6
L5
 62
     2
100
AcDbPolyline
 90
        2
 70
     0
 43
0.0
 10
10.07920605518976
 20
9.247448666661105
 42
0.105717
 10
10.06031405518976
 20
9.225272666661105
  0
LWPOLYLINE
  5
9A1
330
2
100
AcDbEntity
  8
800
  6
L5
 62
     2
100
AcDbPolyline
 90
        2
 70
     0
 43
0.0
 10
10.09715005518976
 20
9.253539666661106
 42
0.165109
 10
10.07920705518976
 20
9.247448666661105
  0
LWPOLYLINE
  5
9A2
330
2
100
AcDbEntity
  8
800
  6
L5
 62
     2
100
AcDbPolyline
 90
        2
 70
     0
 43
0.0
 10
10.07920605518976
 20
9.054427666661105
 42
0.105717
 10
10.06031405518976
 20
9.032251666661105
  0
LWPOLYLINE
  5
9A3
330
2
100
AcDbEntity
  8
800
  6
L5
 62
     2
100
AcDbPolyline
 90
        2
 70
     0
 43
0.0
 10
10.09715005518976
 20
9.060519666661106
 42
0.165109
 10
10.07920705518976
 20
9.054427666661105
  0
LWPOLYLINE
  5
9A4
330
2
100
AcDbEntity
  8
800
  6
L5
 62
     2
100
AcDbPolyline
 90
        2
 70
     0
 43
0.0
 10
10.11509305518976
 20
9.054427666661105
 42
0.165109
 10
10.09715005518976
 20
9.060519666661106
  0
LWPOLYLINE
  5
9A5
330
2
100
AcDbEntity
  8
800
  6
L5
 62
     2
100
AcDbPolyline
 90
        2
 70
     0
 43
0.0
 10
10.13398505518976
 20
9.032251666661105
 42
0.105717
 10
10.11509305518976
 20
9.054427666661105
  0
LWPOLYLINE
  5
9A6
330
2
100
AcDbEntity
  8
800
  6
L5
 62
     2
100
AcDbPolyline
 90
        2
 70
     0
 43
0.0
 10
10.14494805518976
 20
9.002899666661106
 42
0.068857
 10
10.13398505518976
 20
9.032251666661105
  0
LWPOLYLINE
  5
9A7
330
2
100
AcDbEntity
  8
800
  6
L5
 62
     2
100
AcDbPolyline
 90
        2
 70
     0
 43
0.0
 10
10.04505605518976
 20
9.157030666661105
 42
0.055046
 10
10.04935005518976
 20
9.118139666661106
  0
LWPOLYLINE
  5
9A8
330
2
100
AcDbEntity
  8
800
  6
L5
 62
     2
100
AcDbPolyline
 90
        2
 70
     0
 43
0.0
 10
10.04935105518976
 20
9.195921666661105
 42
0.055046
 10
10.04505605518976
 20
9.157030666661105
  0
LWPOLYLINE
  5
9A9
330
2
100
AcDbEntity
  8
800
  6
L5
 62
     2
100
AcDbPolyline
 90
        2
 70
     0
 43
0.0
 10
9.930539055189765
 20
9.247448666661105
 42
0.165112
 10
9.912595055189765
 20
9.253539666661106
  0
LWPOLYLINE
  5
9AA
330
2
100
AcDbEntity
  8
800
  6
L5
 62
     2
100
AcDbPolyline
 90
        2
 70
     0
 43
0.0
 10
9.949430055189765
 20
9.225272666661105
 42
0.105717
 10
9.930538055189765
 20
9.247448666661105
  0
LWPOLYLINE
  5
9AB
330
2
100
AcDbEntity
  8
800
  6
L5
 62
     2
100
AcDbPolyline
 90
        2
 70
     0
 43
0.0
 10
9.960394055189764
 20
9.195920666661105
 42
0.068857
 10
9.949431055189764
 20
9.225272666661105
  0
LWPOLYLINE
  5
9AC
330
2
100
AcDbEntity
  8
800
  6
L5
 62
     2
100
AcDbPolyline
 90
        2
 70
     0
 43
0.0
 10
9.964689055189763
 20
9.157029666661106
 42
0.055046
 10
9.960395055189765
 20
9.195920666661105
  0
LWPOLYLINE
  5
9AD
330
2
100
AcDbEntity
  8
800
  6
L5
 62
     2
100
AcDbPolyline
 90
        2
 70
     0
 43
0.0
 10
9.960394055189764
 20
9.118138666661105
 42
0.055046
 10
9.964689055189763
 20
9.157029666661106
  0
LWPOLYLINE
  5
9AE
330
2
100
AcDbEntity
  8
800
  6
L5
 62
     2
100
AcDbPolyline
 90
        2
 70
     0
 43
0.0
 10
9.949431055189764
 20
9.088785666661106
 42
0.068857
 10
9.960394055189764
 20
9.118137666661105
  0
LWPOLYLINE
  5
9AF
330
2
100
AcDbEntity
  8
800
  6
L5
 62
     2
100
AcDbPolyline
 90
        2
 70
     0
 43
0.0
 10
9.930538055189765
 20
9.066610666661105
 42
0.105716
 10
9.949430055189765
 20
9.088786666661105
  0
LWPOLYLINE
  5
9B0
330
2
100
AcDbEntity
  8
800
  6
L5
 62
     2
100
AcDbPolyline
 90
        2
 70
     0
 43
0.0
 10
9.912595055189765
 20
9.060519666661106
 42
0.165109
 10
9.930538055189765
 20
9.066610666661105
  0
LWPOLYLINE
  5
9B1
330
2
100
AcDbEntity
  8
800
  6
L5
 62
     2
100
AcDbPolyline
 90
        2
 70
     0
 43
0.0
 10
9.894652055189764
 20
9.066610666661105
 42
0.165109
 10
9.912595055189765
 20
9.060519666661106
  0
LWPOLYLINE
  5
9B2
330
2
100
AcDbEntity
  8
800
  6
L5
 62
     2
100
AcDbPolyline
 90
        2
 70
     0
 43
0.0
 10
9.875759055189766
 20
9.088786666661105
 42
0.105717
 10
9.894651055189765
 20
9.066610666661105
  0
LWPOLYLINE
  5
9B3
330
2
100
AcDbEntity
  8
800
  6
L5
 62
     2
100
AcDbPolyline
 90
        2
 70
     0
 43
0.0
 10
9.864796055189765
 20
9.118138666661105
 42
0.068857
 10
9.875759055189766
 20
9.088786666661105
  0
LWPOLYLINE
  5
9B4
330
2
100
AcDbEntity
  8
800
  6
L5
 62
     2
100
AcDbPolyline
 90
        2
 70
     0
 43
0.0
 10
9.860501055189764
 20
9.157030666661105
 42
0.055046
 10
9.864795055189766
 20
9.118139666661106
  0
LWPOLYLINE
  5
9B5
330
2
100
AcDbEntity
  8
800
  6
L5
 62
     2
100
AcDbPolyline
 90
        2
 70
     0
 43
0.0
 10
9.864796055189765
 20
9.195921666661105
 42
0.055046
 10
9.860501055189764
 20
9.157030666661105
  0
LWPOLYLINE
  5
9B6
330
2
100
AcDbEntity
  8
800
  6
L5
 62
     2
100
AcDbPolyline
 90
        2
 70
     0
 43
0.0
 10
9.875759055189766
 20
9.225273666661106
 42
0.068857
 10
9.864796055189765
 20
9.195920666661105
  0
LWPOLYLINE
  5
9B7
330
2
100
AcDbEntity
  8
800
  6
L5
 62
     2
100
AcDbPolyline
 90
        2
 70
     0
 43
0.0
 10
9.894651055189765
 20
9.247448666661105
 42
0.105717
 10
9.875759055189766
 20
9.225272666661105
  0
LWPOLYLINE
  5
9B8
330
2
100
AcDbEntity
  8
800
  6
L5
 62
     2
100
AcDbPolyline
 90
        2
 70
     0
 43
0.0
 10
9.912595055189765
 20
9.253539666661106
 42
0.165109
 10
9.894652055189764
 20
9.247448666661105
  0
LWPOLYLINE
  5
9B9
330
2
100
AcDbEntity
  8
800
  6
L5
 62
     2
100
AcDbPolyline
 90
        2
 70
     0
 43
0.0
 10
9.930539055189765
 20
9.054427666661105
 42
0.165112
 10
9.912595055189765
 20
9.060519666661106
  0
LWPOLYLINE
  5
9BA
330
2
100
AcDbEntity
  8
800
  6
L5
 62
     2
100
AcDbPolyline
 90
        2
 70
     0
 43
0.0
 10
9.949430055189765
 20
9.032251666661105
 42
0.105715
 10
9.930538055189765
 20
9.054427666661105
  0
LWPOLYLINE
  5
9BB
330
2
100
AcDbEntity
  8
800
  6
L5
 62
     2
100
AcDbPolyline
 90
        2
 70
     0
 43
0.0
 10
9.960394055189764
 20
9.002899666661106
 42
0.068857
 10
9.949431055189764
 20
9.032251666661105
  0
LWPOLYLINE
  5
9BC
330
2
100
AcDbEntity
  8
800
  6
L5
 62
     2
100
AcDbPolyline
 90
        2
 70
     0
 43
0.0
 10
10.04935105518976
 20
9.118138666661105
 42
0.068857
 10
10.06031405518976
 20
9.088786666661105
  0
LWPOLYLINE
  5
9BD
330
2
100
AcDbEntity
  8
800
  6
L5
 62
     2
100
AcDbPolyline
 90
        2
 70
     0
 43
0.0
 10
10.06031405518976
 20
9.225273666661106
 42
0.068857
 10
10.04935105518976
 20
9.195920666661105
  0
LWPOLYLINE
  5
9BE
330
2
100
AcDbEntity
  8
800
  6
L5
 62
     2
100
AcDbPolyline
 90
        2
 70
     0
 43
0.0
 10
10.06031405518976
 20
9.032252666661104
 42
0.068857
 10
10.04935105518976
 20
9.002900666661107
  0
LWPOLYLINE
  5
9BF
330
2
100
AcDbEntity
  8
800
  6
L5
 62
     2
100
AcDbPolyline
 90
        2
 70
     0
 43
0.0
 10
10.07920705518976
 20
8.873590666661106
 42
0.165109
 10
10.09715005518976
 20
8.867498666661106
  0
LWPOLYLINE
  5
9C0
330
2
100
AcDbEntity
  8
800
  6
L5
 62
     2
100
AcDbPolyline
 90
        2
 70
     0
 43
0.0
 10
10.06031405518976
 20
8.895765666661105
 42
0.105717
 10
10.07920605518976
 20
8.873589666661105
  0
LWPOLYLINE
  5
9C1
330
2
100
AcDbEntity
  8
800
  6
L5
 62
     2
100
AcDbPolyline
 90
        2
 70
     0
 43
0.0
 10
10.14494805518976
 20
8.925117666661106
 42
0.055046
 10
10.14924305518976
 20
8.964008666661104
  0
LWPOLYLINE
  5
9C2
330
2
100
AcDbEntity
  8
800
  6
L5
 62
     2
100
AcDbPolyline
 90
        2
 70
     0
 43
0.0
 10
10.13398505518976
 20
8.895765666661105
 42
0.068857
 10
10.14494805518976
 20
8.925117666661106
  0
LWPOLYLINE
  5
9C3
330
2
100
AcDbEntity
  8
800
  6
L5
 62
     2
100
AcDbPolyline
 90
        2
 70
     0
 43
0.0
 10
10.11509305518976
 20
8.873589666661105
 42
0.105717
 10
10.13398505518976
 20
8.895765666661105
  0
LWPOLYLINE
  5
9C4
330
2
100
AcDbEntity
  8
800
  6
L5
 62
     2
100
AcDbPolyline
 90
        2
 70
     0
 43
0.0
 10
10.09715005518976
 20
8.867498666661106
 42
0.165109
 10
10.11509305518976
 20
8.873590666661106
  0
LWPOLYLINE
  5
9C5
330
2
100
AcDbEntity
  8
800
  6
L5
 62
     2
100
AcDbPolyline
 90
        2
 70
     0
 43
0.0
 10
10.04505605518976
 20
8.964009666661105
 42
0.055046
 10
10.04935005518976
 20
8.925118666661106
  0
LWPOLYLINE
  5
9C6
330
2
100
AcDbEntity
  8
800
  6
L5
 62
     2
100
AcDbPolyline
 90
        2
 70
     0
 43
0.0
 10
9.960395055189765
 20
8.925118666661106
 42
0.055046
 10
9.964689055189763
 20
8.964009666661105
  0
LWPOLYLINE
  5
9C7
330
2
100
AcDbEntity
  8
800
  6
L5
 62
     2
100
AcDbPolyline
 90
        2
 70
     0
 43
0.0
 10
9.949431055189764
 20
8.895765666661105
 42
0.068857
 10
9.960394055189764
 20
8.925117666661106
  0
LWPOLYLINE
  5
9C8
330
2
100
AcDbEntity
  8
800
  6
L5
 62
     2
100
AcDbPolyline
 90
        2
 70
     0
 43
0.0
 10
9.930538055189765
 20
8.873589666661105
 42
0.105717
 10
9.949430055189765
 20
8.895765666661105
  0
LWPOLYLINE
  5
9C9
330
2
100
AcDbEntity
  8
800
  6
L5
 62
     2
100
AcDbPolyline
 90
        2
 70
     0
 43
0.0
 10
9.912595055189765
 20
8.867498666661106
 42
0.165109
 10
9.930538055189765
 20
8.873590666661106
  0
LWPOLYLINE
  5
9CA
330
2
100
AcDbEntity
  8
800
  6
L5
 62
     2
100
AcDbPolyline
 90
        2
 70
     0
 43
0.0
 10
10.04935105518976
 20
8.925118666661106
 42
0.068857
 10
10.06031405518976
 20
8.895766666661105
  0
LWPOLYLINE
  5
9CB
330
2
100
AcDbEntity
  8
800
  6
L5
 62
     2
100
AcDbPolyline
 90
        2
 70
     0
 43
0.0
 10
10.04935105518976
 20
9.002900666661107
 42
0.055046
 10
10.04505605518976
 20
8.964009666661105
  0
LWPOLYLINE
  5
9CC
330
2
100
AcDbEntity
  8
800
  6
L5
 62
     2
100
AcDbPolyline
 90
        2
 70
     0
 43
0.0
 10
10.14924305518976
 20
8.964009666661105
 42
0.055046
 10
10.14494905518976
 20
9.002900666661107
  0
LWPOLYLINE
  5
9CD
330
2
100
AcDbEntity
  8
800
  6
L5
 62
     2
100
AcDbPolyline
 90
        2
 70
     0
 43
0.0
 10
9.964689055189763
 20
8.964009666661105
 42
0.055046
 10
9.960395055189765
 20
9.002900666661107
  0
LWPOLYLINE
  5
A10
330
2
100
AcDbEntity
  8
800
  6
L5
 62
     2
100
AcDbPolyline
 90
        2
 70
     0
 43
0.0
 10
9.912595055189765
 20
8.867497666661105
 10
8.150813055189765
 20
8.867497666661105
  0
LWPOLYLINE
  5
A11
330
2
100
AcDbEntity
  8
800
  6
L5
 62
     2
100
AcDbPolyline
 90
        2
 70
     0
 43
0.0
 10
9.912595055189765
 20
9.253539666661106
 10
8.150813055189765
 20
9.253539666661106
  0
LWPOLYLINE
  5
A15
330
2
100
AcDbEntity
  8
800
  6
L5
 62
     2
100
AcDbPolyline
 90
        2
 70
     0
 43
0.0
 10
14.96287305518976
 20
9.066610666661105
 42
0.165109
 10
14.98081605518976
 20
9.060519666661106
  0
LWPOLYLINE
  5
A16
330
2
100
AcDbEntity
  8
800
  6
L5
 62
     2
100
AcDbPolyline
 90
        2
 70
     0
 43
0.0
 10
14.94398005518976
 20
9.088786666661105
 42
0.105717
 10
14.96287205518976
 20
9.066610666661105
  0
LWPOLYLINE
  5
A17
330
2
100
AcDbEntity
  8
800
  6
L5
 62
     2
100
AcDbPolyline
 90
        2
 70
     0
 43
0.0
 10
14.93301705518976
 20
9.118138666661105
 42
0.068857
 10
14.94398005518976
 20
9.088786666661105
  0
LWPOLYLINE
  5
A18
330
2
100
AcDbEntity
  8
800
  6
L5
 62
     2
100
AcDbPolyline
 90
        2
 70
     0
 43
0.0
 10
14.92872205518976
 20
9.157030666661105
 42
0.055046
 10
14.93301605518976
 20
9.118139666661106
  0
LWPOLYLINE
  5
A19
330
2
100
AcDbEntity
  8
800
  6
L5
 62
     2
100
AcDbPolyline
 90
        2
 70
     0
 43
0.0
 10
14.93301705518976
 20
9.195921666661105
 42
0.055046
 10
14.92872205518976
 20
9.157030666661105
  0
LWPOLYLINE
  5
A1A
330
2
100
AcDbEntity
  8
800
  6
L5
 62
     2
100
AcDbPolyline
 90
        2
 70
     0
 43
0.0
 10
14.94398005518976
 20
9.225273666661106
 42
0.068857
 10
14.93301705518976
 20
9.195920666661105
  0
LWPOLYLINE
  5
A1B
330
2
100
AcDbEntity
  8
800
  6
L5
 62
     2
100
AcDbPolyline
 90
        2
 70
     0
 43
0.0
 10
14.96287205518976
 20
9.247448666661105
 42
0.105717
 10
14.94398005518976
 20
9.225272666661105
  0
LWPOLYLINE
  5
A1C
330
2
100
AcDbEntity
  8
800
  6
L5
 62
     2
100
AcDbPolyline
 90
        2
 70
     0
 43
0.0
 10
14.98081605518976
 20
9.253539666661106
 42
0.165109
 10
14.96287305518976
 20
9.247448666661105
  0
LWPOLYLINE
  5
A1D
330
2
100
AcDbEntity
  8
800
  6
L5
 62
     2
100
AcDbPolyline
 90
        2
 70
     0
 43
0.0
 10
14.94398005518976
 20
9.032252666661104
 42
0.068857
 10
14.93301705518976
 20
9.002900666661107
  0
LWPOLYLINE
  5
A1E
330
2
100
AcDbEntity
  8
800
  6
L5
 62
     2
100
AcDbPolyline
 90
        2
 70
     0
 43
0.0
 10
14.96287205518976
 20
9.054427666661105
 42
0.105717
 10
14.94398005518976
 20
9.032251666661105
  0
LWPOLYLINE
  5
A1F
330
2
100
AcDbEntity
  8
800
  6
L5
 62
     2
100
AcDbPolyline
 90
        2
 70
     0
 43
0.0
 10
14.98081605518976
 20
9.060519666661106
 42
0.165109
 10
14.96287305518976
 20
9.054427666661105
  0
LWPOLYLINE
  5
A20
330
2
100
AcDbEntity
  8
800
  6
L5
 62
     2
100
AcDbPolyline
 90
        2
 70
     0
 43
0.0
 10
14.99875905518976
 20
9.054427666661105
 42
0.165109
 10
14.98081605518976
 20
9.060519666661106
  0
LWPOLYLINE
  5
A21
330
2
100
AcDbEntity
  8
800
  6
L5
 62
     2
100
AcDbPolyline
 90
        2
 70
     0
 43
0.0
 10
15.01765105518976
 20
9.032251666661105
 42
0.105717
 10
14.99875905518976
 20
9.054427666661105
  0
LWPOLYLINE
  5
A22
330
2
100
AcDbEntity
  8
800
  6
L5
 62
     2
100
AcDbPolyline
 90
        2
 70
     0
 43
0.0
 10
15.02861505518976
 20
9.002899666661106
 42
0.068857
 10
15.01765205518976
 20
9.032251666661105
  0
LWPOLYLINE
  5
A23
330
2
100
AcDbEntity
  8
800
  6
L5
 62
     2
100
AcDbPolyline
 90
        2
 70
     0
 43
0.0
 10
14.81420405518976
 20
9.247448666661105
 42
0.165109
 10
14.79626105518976
 20
9.253539666661106
  0
LWPOLYLINE
  5
A24
330
2
100
AcDbEntity
  8
800
  6
L5
 62
     2
100
AcDbPolyline
 90
        2
 70
     0
 43
0.0
 10
14.83309705518976
 20
9.225272666661105
 42
0.105717
 10
14.81420505518976
 20
9.247448666661105
  0
LWPOLYLINE
  5
A25
330
2
100
AcDbEntity
  8
800
  6
L5
 62
     2
100
AcDbPolyline
 90
        2
 70
     0
 43
0.0
 10
14.84406005518976
 20
9.195920666661105
 42
0.068857
 10
14.83309705518976
 20
9.225272666661105
  0
LWPOLYLINE
  5
A26
330
2
100
AcDbEntity
  8
800
  6
L5
 62
     2
100
AcDbPolyline
 90
        2
 70
     0
 43
0.0
 10
14.84835505518976
 20
9.157029666661106
 42
0.055046
 10
14.84406105518976
 20
9.195920666661105
  0
LWPOLYLINE
  5
A27
330
2
100
AcDbEntity
  8
800
  6
L5
 62
     2
100
AcDbPolyline
 90
        2
 70
     0
 43
0.0
 10
14.84406005518976
 20
9.118138666661105
 42
0.055046
 10
14.84835505518976
 20
9.157029666661106
  0
LWPOLYLINE
  5
A28
330
2
100
AcDbEntity
  8
800
  6
L5
 62
     2
100
AcDbPolyline
 90
        2
 70
     0
 43
0.0
 10
14.83309705518976
 20
9.088785666661106
 42
0.068857
 10
14.84406005518976
 20
9.118137666661105
  0
LWPOLYLINE
  5
A29
330
2
100
AcDbEntity
  8
800
  6
L5
 62
     2
100
AcDbPolyline
 90
        2
 70
     0
 43
0.0
 10
14.81420505518976
 20
9.066610666661105
 42
0.105716
 10
14.83309705518976
 20
9.088786666661105
  0
LWPOLYLINE
  5
A2A
330
2
100
AcDbEntity
  8
800
  6
L5
 62
     2
100
AcDbPolyline
 90
        2
 70
     0
 43
0.0
 10
14.79626105518976
 20
9.060519666661106
 42
0.165109
 10
14.81420405518976
 20
9.066610666661105
  0
LWPOLYLINE
  5
A2B
330
2
100
AcDbEntity
  8
800
  6
L5
 62
     2
100
AcDbPolyline
 90
        2
 70
     0
 43
0.0
 10
14.77831805518976
 20
9.066610666661105
 42
0.165109
 10
14.79626105518976
 20
9.060519666661106
  0
LWPOLYLINE
  5
A2C
330
2
100
AcDbEntity
  8
800
  6
L5
 62
     2
100
AcDbPolyline
 90
        2
 70
     0
 43
0.0
 10
14.75942605518976
 20
9.088786666661105
 42
0.105717
 10
14.77831805518976
 20
9.066610666661105
  0
LWPOLYLINE
  5
A2D
330
2
100
AcDbEntity
  8
800
  6
L5
 62
     2
100
AcDbPolyline
 90
        2
 70
     0
 43
0.0
 10
14.74846305518976
 20
9.118138666661105
 42
0.068857
 10
14.75942605518976
 20
9.088786666661105
  0
LWPOLYLINE
  5
A2E
330
2
100
AcDbEntity
  8
800
  6
L5
 62
     2
100
AcDbPolyline
 90
        2
 70
     0
 43
0.0
 10
14.74416705518976
 20
9.157030666661105
 42
0.055046
 10
14.74846105518976
 20
9.118139666661106
  0
LWPOLYLINE
  5
A2F
330
2
100
AcDbEntity
  8
800
  6
L5
 62
     2
100
AcDbPolyline
 90
        2
 70
     0
 43
0.0
 10
14.74846205518976
 20
9.195921666661105
 42
0.055046
 10
14.74416705518976
 20
9.157030666661105
  0
LWPOLYLINE
  5
A30
330
2
100
AcDbEntity
  8
800
  6
L5
 62
     2
100
AcDbPolyline
 90
        2
 70
     0
 43
0.0
 10
14.75942605518976
 20
9.225273666661106
 42
0.068857
 10
14.74846305518976
 20
9.195920666661105
  0
LWPOLYLINE
  5
A31
330
2
100
AcDbEntity
  8
800
  6
L5
 62
     2
100
AcDbPolyline
 90
        2
 70
     0
 43
0.0
 10
14.77831805518976
 20
9.247448666661105
 42
0.105717
 10
14.75942605518976
 20
9.225272666661105
  0
LWPOLYLINE
  5
A32
330
2
100
AcDbEntity
  8
800
  6
L5
 62
     2
100
AcDbPolyline
 90
        2
 70
     0
 43
0.0
 10
14.79626105518976
 20
9.253539666661106
 42
0.165109
 10
14.77831805518976
 20
9.247448666661105
  0
LWPOLYLINE
  5
A33
330
2
100
AcDbEntity
  8
800
  6
L5
 62
     2
100
AcDbPolyline
 90
        2
 70
     0
 43
0.0
 10
14.81420405518976
 20
9.054427666661105
 42
0.165109
 10
14.79626105518976
 20
9.060519666661106
  0
LWPOLYLINE
  5
A34
330
2
100
AcDbEntity
  8
800
  6
L5
 62
     2
100
AcDbPolyline
 90
        2
 70
     0
 43
0.0
 10
14.83309705518976
 20
9.032251666661105
 42
0.105715
 10
14.81420505518976
 20
9.054427666661105
  0
LWPOLYLINE
  5
A35
330
2
100
AcDbEntity
  8
800
  6
L5
 62
     2
100
AcDbPolyline
 90
        2
 70
     0
 43
0.0
 10
14.84406005518976
 20
9.002899666661106
 42
0.068857
 10
14.83309705518976
 20
9.032251666661105
  0
LWPOLYLINE
  5
A36
330
2
100
AcDbEntity
  8
800
  6
L5
 62
     2
100
AcDbPolyline
 90
        2
 70
     0
 43
0.0
 10
14.96287305518976
 20
8.873590666661106
 42
0.165109
 10
14.98081605518976
 20
8.867498666661106
  0
LWPOLYLINE
  5
A37
330
2
100
AcDbEntity
  8
800
  6
L5
 62
     2
100
AcDbPolyline
 90
        2
 70
     0
 43
0.0
 10
14.94398005518976
 20
8.895765666661105
 42
0.105717
 10
14.96287205518976
 20
8.873589666661105
  0
LWPOLYLINE
  5
A38
330
2
100
AcDbEntity
  8
800
  6
L5
 62
     2
100
AcDbPolyline
 90
        2
 70
     0
 43
0.0
 10
14.93301705518976
 20
8.925118666661106
 42
0.068857
 10
14.94398005518976
 20
8.895766666661105
  0
LWPOLYLINE
  5
A39
330
2
100
AcDbEntity
  8
800
  6
L5
 62
     2
100
AcDbPolyline
 90
        2
 70
     0
 43
0.0
 10
14.92872205518976
 20
8.964009666661105
 42
0.055046
 10
14.93301605518976
 20
8.925118666661106
  0
LWPOLYLINE
  5
A3A
330
2
100
AcDbEntity
  8
800
  6
L5
 62
     2
100
AcDbPolyline
 90
        2
 70
     0
 43
0.0
 10
15.02861505518976
 20
8.925117666661106
 42
0.055046
 10
15.03291005518976
 20
8.964008666661104
  0
LWPOLYLINE
  5
A3B
330
2
100
AcDbEntity
  8
800
  6
L5
 62
     2
100
AcDbPolyline
 90
        2
 70
     0
 43
0.0
 10
15.01765205518976
 20
8.895765666661105
 42
0.068857
 10
15.02861505518976
 20
8.925117666661106
  0
LWPOLYLINE
  5
A3C
330
2
100
AcDbEntity
  8
800
  6
L5
 62
     2
100
AcDbPolyline
 90
        2
 70
     0
 43
0.0
 10
14.99875905518976
 20
8.873589666661105
 42
0.105717
 10
15.01765105518976
 20
8.895765666661105
  0
LWPOLYLINE
  5
A3D
330
2
100
AcDbEntity
  8
800
  6
L5
 62
     2
100
AcDbPolyline
 90
        2
 70
     0
 43
0.0
 10
14.98081605518976
 20
8.867498666661106
 42
0.165109
 10
14.99875905518976
 20
8.873590666661106
  0
LWPOLYLINE
  5
A3E
330
2
100
AcDbEntity
  8
800
  6
L5
 62
     2
100
AcDbPolyline
 90
        2
 70
     0
 43
0.0
 10
14.84406105518976
 20
8.925118666661106
 42
0.055046
 10
14.84835505518976
 20
8.964009666661105
  0
LWPOLYLINE
  5
A3F
330
2
100
AcDbEntity
  8
800
  6
L5
 62
     2
100
AcDbPolyline
 90
        2
 70
     0
 43
0.0
 10
14.83309705518976
 20
8.895765666661105
 42
0.068857
 10
14.84406005518976
 20
8.925117666661106
  0
LWPOLYLINE
  5
A40
330
2
100
AcDbEntity
  8
800
  6
L5
 62
     2
100
AcDbPolyline
 90
        2
 70
     0
 43
0.0
 10
14.81420505518976
 20
8.873589666661105
 42
0.105717
 10
14.83309705518976
 20
8.895765666661105
  0
LWPOLYLINE
  5
A41
330
2
100
AcDbEntity
  8
800
  6
L5
 62
     2
100
AcDbPolyline
 90
        2
 70
     0
 43
0.0
 10
14.79626105518976
 20
8.867498666661106
 42
0.165109
 10
14.81420405518976
 20
8.873590666661106
  0
LWPOLYLINE
  5
A42
330
2
100
AcDbEntity
  8
800
  6
L5
 62
     2
100
AcDbPolyline
 90
        2
 70
     0
 43
0.0
 10
14.93301705518976
 20
9.002900666661107
 42
0.055046
 10
14.92872205518976
 20
8.964009666661105
  0
LWPOLYLINE
  5
A43
330
2
100
AcDbEntity
  8
800
  6
L5
 62
     2
100
AcDbPolyline
 90
        2
 70
     0
 43
0.0
 10
15.03291005518976
 20
8.964009666661105
 42
0.055046
 10
15.02861605518976
 20
9.002900666661107
  0
LWPOLYLINE
  5
A44
330
2
100
AcDbEntity
  8
800
  6
L5
 62
     2
100
AcDbPolyline
 90
        2
 70
     0
 43
0.0
 10
14.84835505518976
 20
8.964009666661105
 42
0.055046
 10
14.84406105518976
 20
9.002900666661107
  0
INSERT
  5
A5A
330
2
100
AcDbEntity
  8
0
100
AcDbBlockReference
  2
MEDCLUMP_DMS_1216_
 10
1.621813055189765
 20
0.0254936666611059
 30
0.0
  0
TEXT
  5
A5B
330
2
100
AcDbEntity
  8
6
 62
     1
100
AcDbText
 10
19.38553705518976
 20
8.546933666661105
 30
0.0
 40
0.13
  1
PROTRUSION
 41
1.011494252873561
  7
T1
 72
     5
 11
20.52953705518976
 21
8.546933666661105
 31
0.0
100
AcDbText
  0
LWPOLYLINE
  5
A80
330
2
100
AcDbEntity
  8
800
  6
L0
 62
     1
100
AcDbPolyline
 90
        2
 70
     0
 43
0.0
 10
18.35392205518976
 20
8.414845666661106
 10
18.27826205518976
 20
8.490506666661106
  0
LWPOLYLINE
  5
A81
330
2
100
AcDbEntity
  8
800
  6
L0
 62
     1
100
AcDbPolyline
 90
        2
 70
     0
 43
0.0
 10
18.30937505518976
 20
8.344841666661105
 10
18.35392205518976
 20
8.389389666661106
  0
LWPOLYLINE
  5
A82
330
2
100
AcDbEntity
  8
800
  6
L0
 62
     1
100
AcDbPolyline
 90
        2
 70
     0
 43
0.0
 10
18.28391905518976
 20
8.344841666661105
 10
18.30937505518976
 20
8.344841666661105
  0
LWPOLYLINE
  5
A83
330
2
100
AcDbEntity
  8
800
  6
L0
 62
     1
100
AcDbPolyline
 90
        2
 70
     0
 43
0.0
 10
18.28391905518976
 20
8.344841666661105
 10
18.35392205518976
 20
8.414845666661106
  0
LWPOLYLINE
  5
A84
330
2
100
AcDbEntity
  8
800
  6
L0
 62
     1
100
AcDbPolyline
 90
        2
 70
     0
 43
0.0
 10
18.35392205518976
 20
8.414845666661106
 10
18.35392205518976
 20
8.389389666661106
  0
LWPOLYLINE
  5
A85
330
2
100
AcDbEntity
  8
800
  6
L0
 62
     1
100
AcDbPolyline
 90
        2
 70
     0
 43
0.0
 10
18.27755505518976
 20
8.376662666661106
 10
18.32210205518976
 20
8.421210666661105
  0
LWPOLYLINE
  5
A86
330
2
100
AcDbEntity
  8
800
  6
L0
 62
     1
100
AcDbPolyline
 90
        2
 70
     0
 43
0.0
 10
18.25846305518976
 20
8.395754666661105
 10
18.30301105518976
 20
8.440301666661106
  0
LWPOLYLINE
  5
A87
330
2
100
AcDbEntity
  8
800
  6
L0
 62
     1
100
AcDbPolyline
 90
        2
 70
     0
 43
0.0
 10
17.51140505518976
 20
9.399491666661106
 42
0.4142070000000001
 10
17.49019205518976
 20
9.399491666661106
  0
LWPOLYLINE
  5
A88
330
2
100
AcDbEntity
  8
800
  6
L0
 62
     1
100
AcDbPolyline
 90
        2
 70
     0
 43
0.0
 10
17.81192505518976
 20
9.014119666661105
 10
17.45837205518976
 20
9.367671666661106
  0
LWPOLYLINE
  5
A89
330
2
100
AcDbEntity
  8
800
  6
L0
 62
     1
100
AcDbPolyline
 90
        2
 70
     0
 43
0.0
 10
17.84728005518976
 20
9.049474666661105
 10
17.49433305518976
 20
9.402420666661106
  0
LWPOLYLINE
  5
A8A
330
2
100
AcDbEntity
  8
800
  6
L0
 62
     1
100
AcDbPolyline
 90
        2
 70
     0
 43
0.0
 10
17.84020905518976
 20
9.042403666661106
 10
17.48665605518976
 20
9.395955666661105
  0
LWPOLYLINE
  5
A8B
330
2
100
AcDbEntity
  8
800
  6
L0
 62
     1
100
AcDbPolyline
 90
        2
 70
     0
 43
0.0
 10
17.83313805518976
 20
9.035332666661105
 10
17.47958505518976
 20
9.388884666661105
  0
LWPOLYLINE
  5
A8C
330
2
100
AcDbEntity
  8
800
  6
L0
 62
     1
100
AcDbPolyline
 90
        2
 70
     0
 43
0.0
 10
17.82253205518976
 20
9.024724666661105
 10
17.46897805518976
 20
9.378279666661105
  0
LWPOLYLINE
  5
A8D
330
2
100
AcDbEntity
  8
800
  6
L5
 62
     2
100
AcDbPolyline
 90
        2
 70
     0
 43
0.0
 10
17.88758505518976
 20
9.045938666661106
 42
0.4142140000000001
 10
17.84374405518976
 20
9.045938666661106
  0
LWPOLYLINE
  5
A8E
330
2
100
AcDbEntity
  8
800
  6
L0
 62
     1
100
AcDbPolyline
 90
        2
 70
     0
 43
0.0
 10
17.85435105518976
 20
9.056545666661106
 10
17.51140505518976
 20
9.399492666661107
  0
LWPOLYLINE
  5
A8F
330
2
100
AcDbEntity
  8
800
  6
L0
 62
     1
100
AcDbPolyline
 90
        2
 70
     0
 43
0.0
 10
17.94721005518976
 20
8.380071666661105
 42
0.414212
 10
17.94721005518976
 20
8.468459666661106
  0
LWPOLYLINE
  5
A90
330
2
100
AcDbEntity
  8
800
  6
L5
 62
     2
100
AcDbPolyline
 90
        2
 70
     0
 43
0.0
 10
18.05198805518976
 20
8.484848666661106
 10
18.25033105518976
 20
8.683193666661106
  0
LWPOLYLINE
  5
A91
330
2
100
AcDbEntity
  8
800
  6
L5
 62
     2
100
AcDbPolyline
 90
        2
 70
     0
 43
0.0
 10
17.75571005518976
 20
8.869515666661106
 42
0.4142140000000001
 10
17.66732105518976
 20
8.869515666661106
  0
LWPOLYLINE
  5
A92
330
2
100
AcDbEntity
  8
800
  6
L0
 62
     1
100
AcDbPolyline
 90
        2
 70
     0
 43
0.0
 10
17.46479405518976
 20
8.648602666661105
 42
0.4142140000000001
 10
17.46479405518976
 20
8.736991666661104
  0
LWPOLYLINE
  5
A93
330
2
100
AcDbEntity
  8
800
  6
L0
 62
     1
100
AcDbPolyline
 90
        2
 70
     0
 43
0.0
 10
17.77043205518976
 20
8.645234666661107
 42
0.414212
 10
17.68204405518976
 20
8.645235666661106
  0
LWPOLYLINE
  5
A94
330
2
100
AcDbEntity
  8
800
  6
L5
 62
     2
100
AcDbPolyline
 90
        2
 70
     0
 43
0.0
 10
18.09618205518976
 20
8.529044666661105
 10
17.75571005518976
 20
8.869514666661107
  0
LWPOLYLINE
  5
A95
330
2
100
AcDbEntity
  8
800
  6
L0
 62
     1
100
AcDbPolyline
 90
        2
 70
     0
 43
0.0
 10
17.77043205518976
 20
8.645235666661106
 10
17.94720905518976
 20
8.468459666661106
  0
LWPOLYLINE
  5
A96
330
2
100
AcDbEntity
  8
800
  6
L5
 62
     2
100
AcDbPolyline
 90
        2
 70
     0
 43
0.0
 10
17.84374405518976
 20
9.045938666661106
 10
17.61010405518976
 20
8.812298666661106
  0
LWPOLYLINE
  5
A97
330
2
100
AcDbEntity
  8
800
  6
L0
 62
     1
100
AcDbPolyline
 90
        2
 70
     0
 43
0.0
 10
17.29927305518976
 20
9.208573666661106
 42
0.4142140000000001
 10
17.29927205518976
 20
9.187360666661104
  0
LWPOLYLINE
  5
A98
330
2
100
AcDbEntity
  8
800
  6
L5
 62
     2
100
AcDbPolyline
 90
        2
 70
     0
 43
0.0
 10
17.02853805518976
 20
9.342088666661105
 10
16.80892405518976
 20
9.342088666661105
  0
LWPOLYLINE
  5
A99
330
2
100
AcDbEntity
  8
800
  6
L5
 62
     2
100
AcDbPolyline
 90
        2
 70
     0
 43
0.0
 10
17.02853805518976
 20
9.342088666661105
 10
16.70398805518976
 20
9.342088666661105
  0
LWPOLYLINE
  5
A9A
330
2
100
AcDbEntity
  8
800
  6
L5
 62
     2
100
AcDbPolyline
 90
        2
 70
     0
 43
0.0
 10
16.70398805518976
 20
9.178088666661105
 10
16.70398805518976
 20
9.342088666661105
  0
LWPOLYLINE
  5
A9B
330
2
100
AcDbEntity
  8
800
  6
L5
 62
     2
100
AcDbPolyline
 90
        2
 70
     0
 43
0.0
 10
17.11692605518976
 20
9.305476666661105
 42
0.198912
 10
17.02853805518976
 20
9.342088666661105
  0
LWPOLYLINE
  5
A9C
330
2
100
AcDbEntity
  8
800
  6
L0
 62
     1
100
AcDbPolyline
 90
        2
 70
     0
 43
0.0
 10
17.27041205518976
 20
8.779489666661106
 10
17.34635305518976
 20
8.855431666661106
  0
LWPOLYLINE
  5
A9D
330
2
100
AcDbEntity
  8
800
  6
L0
 62
     1
100
AcDbPolyline
 90
        2
 70
     0
 43
0.0
 10
17.15027605518976
 20
8.659354666661105
 10
17.22621705518976
 20
8.735296666661104
  0
CIRCLE
  5
A9E
330
2
100
AcDbEntity
  8
800
  6
L0
 62
     1
100
AcDbCircle
 10
17.24831505518976
 20
8.757392666661106
 30
0.0
 40
0.03125
  0
LWPOLYLINE
  5
A9F
330
2
100
AcDbEntity
  8
800
  6
L0
 62
     1
100
AcDbPolyline
 90
        2
 70
     0
 43
0.0
 10
17.11774905518976
 20
8.691881666661107
 10
17.31382605518976
 20
8.887958666661106
  0
LWPOLYLINE
  5
AA0
330
2
100
AcDbEntity
  8
800
  6
L0
 62
     1
100
AcDbPolyline
 90
        2
 70
     0
 43
0.0
 10
17.08522205518976
 20
8.724408666661105
 10
17.28130005518976
 20
8.920484666661106
  0
LWPOLYLINE
  5
AA1
330
2
100
AcDbEntity
  8
800
  6
L0
 62
     1
100
AcDbPolyline
 90
        2
 70
     0
 43
0.0
 10
17.26871605518976
 20
8.540913666661104
 42
0.414212
 10
17.35710405518976
 20
8.540913666661104
  0
LWPOLYLINE
  5
AA2
330
2
100
AcDbEntity
  8
800
  6
L0
 62
     1
100
AcDbPolyline
 90
        2
 70
     0
 43
0.0
 10
17.18280305518976
 20
8.626827666661105
 10
17.37888005518976
 20
8.822904666661106
  0
LWPOLYLINE
  5
AA3
330
2
100
AcDbEntity
  8
800
  6
L0
 62
     1
100
AcDbPolyline
 90
        2
 70
     0
 43
0.0
 10
17.24785605518976
 20
8.561773666661105
 10
17.44393405518976
 20
8.757851666661105
  0
LWPOLYLINE
  5
AA4
330
2
100
AcDbEntity
  8
800
  6
L0
 62
     1
100
AcDbPolyline
 90
        2
 70
     0
 43
0.0
 10
17.21532905518976
 20
8.594300666661107
 10
17.41140705518976
 20
8.790377666661106
  0
LWPOLYLINE
  5
AA5
330
2
100
AcDbEntity
  8
800
  6
L0
 62
     1
100
AcDbPolyline
 90
        2
 70
     0
 43
0.0
 10
17.03183505518976
 20
8.866182666661105
 42
0.4142149999999999
 10
17.03183505518976
 20
8.777793666661105
  0
LWPOLYLINE
  5
AA6
330
2
100
AcDbEntity
  8
800
  6
L5
 62
     2
100
AcDbPolyline
 90
        2
 70
     0
 43
0.0
 10
16.70398805518976
 20
8.780087666661106
 10
16.70398805518976
 20
8.944087666661106
  0
LWPOLYLINE
  5
AA7
330
2
100
AcDbEntity
  8
800
  6
L5
 62
     2
100
AcDbPolyline
 90
        2
 70
     0
 43
0.0
 10
16.70398805518976
 20
8.780087666661106
 10
16.70398805518976
 20
8.944087666661106
  0
LWPOLYLINE
  5
AA8
330
2
100
AcDbEntity
  8
800
  6
L0
 62
     1
100
AcDbPolyline
 90
        2
 70
     0
 43
0.0
 10
16.81844005518976
 20
8.706527666661106
 42
0.4142070000000001
 10
16.79722705518976
 20
8.706527666661106
  0
LWPOLYLINE
  5
AA9
330
2
100
AcDbEntity
  8
800
  6
L5
 62
     2
100
AcDbPolyline
 90
        2
 70
     0
 43
0.0
 10
16.80892405518976
 20
8.780087666661106
 10
16.70398805518976
 20
8.780087666661106
  0
LWPOLYLINE
  5
AAA
330
2
100
AcDbEntity
  8
800
  6
L0
 62
     1
100
AcDbPolyline
 90
        2
 70
     0
 43
0.0
 10
17.16138705518976
 20
8.363581666661106
 10
16.81844005518976
 20
8.706527666661106
  0
LWPOLYLINE
  5
AAB
330
2
100
AcDbEntity
  8
800
  6
L0
 62
     1
100
AcDbPolyline
 90
        2
 70
     0
 43
0.0
 10
17.03183505518976
 20
8.866183666661104
 10
17.13952505518976
 20
8.973872666661105
  0
LWPOLYLINE
  5
AAC
330
2
100
AcDbEntity
  8
800
  6
L0
 62
     1
100
AcDbPolyline
 90
        2
 70
     0
 43
0.0
 10
17.14017405518976
 20
8.342367666661106
 10
16.78662005518976
 20
8.695920666661105
  0
LWPOLYLINE
  5
AAD
330
2
100
AcDbEntity
  8
800
  6
L0
 62
     1
100
AcDbPolyline
 90
        2
 70
     0
 43
0.0
 10
17.12956705518976
 20
8.331760666661105
 10
16.77601405518976
 20
8.685314666661106
  0
LWPOLYLINE
  5
AAE
330
2
100
AcDbEntity
  8
800
  6
L0
 62
     1
100
AcDbPolyline
 90
        2
 70
     0
 43
0.0
 10
17.15431605518976
 20
8.356509666661105
 10
16.80136905518976
 20
8.709455666661105
  0
LWPOLYLINE
  5
AAF
330
2
100
AcDbEntity
  8
800
  6
L0
 62
     1
100
AcDbPolyline
 90
        2
 70
     0
 43
0.0
 10
17.14724505518976
 20
8.349438666661106
 10
16.79369105518976
 20
8.702991666661105
  0
LWPOLYLINE
  5
AB0
330
2
100
AcDbEntity
  8
800
  6
L0
 62
     1
100
AcDbPolyline
 90
        2
 70
     0
 43
0.0
 10
17.26871605518976
 20
8.540912666661105
 10
17.03183505518976
 20
8.777793666661105
  0
LWPOLYLINE
  5
AB1
330
2
100
AcDbEntity
  8
800
  6
L5
 62
     2
100
AcDbPolyline
 90
        2
 70
     0
 43
0.0
 10
17.19340905518976
 20
8.395603666661106
 10
16.80892405518976
 20
8.780087666661106
  0
LWPOLYLINE
  5
AB2
330
2
100
AcDbEntity
  8
800
  6
L0
 62
     1
100
AcDbPolyline
 90
        2
 70
     0
 43
0.0
 10
17.05269505518976
 20
8.756934666661106
 10
17.24877305518976
 20
8.953011666661105
  0
LWPOLYLINE
  5
AB3
330
2
100
AcDbEntity
  8
800
  6
L0
 62
     1
100
AcDbPolyline
 90
        2
 70
     0
 43
0.0
 10
17.22791305518976
 20
8.973872666661105
 42
0.414212
 10
17.13952505518976
 20
8.973872666661105
  0
LWPOLYLINE
  5
AB4
330
2
100
AcDbEntity
  8
800
  6
L0
 62
     1
100
AcDbPolyline
 90
        2
 70
     0
 43
0.0
 10
17.02173605518976
 20
8.791028666661105
 10
17.21467805518976
 20
8.983970666661106
  0
LWPOLYLINE
  5
AB5
330
2
100
AcDbEntity
  8
800
  6
L0
 62
     1
100
AcDbPolyline
 90
        2
 70
     0
 43
0.0
 10
17.64221905518976
 20
8.844413666661106
 10
17.29927305518976
 20
9.187360666661104
  0
LWPOLYLINE
  5
AB6
330
2
100
AcDbEntity
  8
800
  6
L0
 62
     1
100
AcDbPolyline
 90
        2
 70
     0
 43
0.0
 10
17.29927305518976
 20
9.208573666661106
 10
17.49019105518976
 20
9.399492666661107
  0
LWPOLYLINE
  5
AB7
330
2
100
AcDbEntity
  8
800
  6
L0
 62
     1
100
AcDbPolyline
 90
        2
 70
     0
 43
0.0
 10
17.74828505518976
 20
8.950478666661107
 10
17.39473205518976
 20
9.304033666661105
  0
LWPOLYLINE
  5
AB8
330
2
100
AcDbEntity
  8
800
  6
L0
 62
     1
100
AcDbPolyline
 90
        2
 70
     0
 43
0.0
 10
17.74828505518976
 20
8.950478666661107
 10
17.39473205518976
 20
9.304033666661105
  0
LWPOLYLINE
  5
AB9
330
2
100
AcDbEntity
  8
800
  6
L0
 62
     1
100
AcDbPolyline
 90
        2
 70
     0
 43
0.0
 10
17.65636105518976
 20
8.858555666661105
 10
17.30280805518976
 20
9.212108666661105
  0
LWPOLYLINE
  5
ABA
330
2
100
AcDbEntity
  8
800
  6
L0
 62
     1
100
AcDbPolyline
 90
        2
 70
     0
 43
0.0
 10
17.73060805518976
 20
8.932802666661105
 10
17.37705405518976
 20
9.286354666661106
  0
LWPOLYLINE
  5
ABB
330
2
100
AcDbEntity
  8
800
  6
L0
 62
     1
100
AcDbPolyline
 90
        2
 70
     0
 43
0.0
 10
17.71293005518976
 20
8.915123666661106
 10
17.35937705518976
 20
9.268677666661105
  0
LWPOLYLINE
  5
ABC
330
2
100
AcDbEntity
  8
800
  6
L0
 62
     1
100
AcDbPolyline
 90
        2
 70
     0
 43
0.0
 10
17.69878805518976
 20
8.900981666661106
 10
17.34523405518976
 20
9.254535666661105
  0
LWPOLYLINE
  5
ABD
330
2
100
AcDbEntity
  8
800
  6
L0
 62
     1
100
AcDbPolyline
 90
        2
 70
     0
 43
0.0
 10
17.68464605518976
 20
8.886840666661106
 10
17.33109205518976
 20
9.240393666661105
  0
LWPOLYLINE
  5
ABE
330
2
100
AcDbEntity
  8
800
  6
L0
 62
     1
100
AcDbPolyline
 90
        2
 70
     0
 43
0.0
 10
17.67403905518976
 20
8.876232666661106
 10
17.32048605518976
 20
9.229785666661106
  0
LWPOLYLINE
  5
ABF
330
2
100
AcDbEntity
  8
800
  6
L0
 62
     1
100
AcDbPolyline
 90
        2
 70
     0
 43
0.0
 10
17.66343305518976
 20
8.865626666661105
 10
17.30987905518976
 20
9.219179666661105
  0
LWPOLYLINE
  5
AC0
330
2
100
AcDbEntity
  8
800
  6
L0
 62
     1
100
AcDbPolyline
 90
        2
 70
     0
 43
0.0
 10
17.79778305518976
 20
8.999976666661105
 10
17.44422905518976
 20
9.353529666661106
  0
LWPOLYLINE
  5
AC1
330
2
100
AcDbEntity
  8
800
  6
L0
 62
     1
100
AcDbPolyline
 90
        2
 70
     0
 43
0.0
 10
17.78364105518976
 20
8.985834666661105
 10
17.43008705518976
 20
9.339387666661105
  0
LWPOLYLINE
  5
AC2
330
2
100
AcDbEntity
  8
800
  6
L0
 62
     1
100
AcDbPolyline
 90
        2
 70
     0
 43
0.0
 10
17.76596305518976
 20
8.968157666661106
 10
17.41241005518976
 20
9.321709666661107
  0
LWPOLYLINE
  5
AC3
330
2
100
AcDbEntity
  8
800
  6
L0
 62
     1
100
AcDbPolyline
 90
        2
 70
     0
 43
0.0
 10
17.64929005518976
 20
8.851484666661106
 10
17.29634405518976
 20
9.204430666661105
  0
LWPOLYLINE
  5
AC4
330
2
100
AcDbEntity
  8
800
  6
L0
 62
     1
100
AcDbPolyline
 90
        2
 70
     0
 43
0.0
 10
17.35710405518976
 20
8.540912666661105
 10
17.46479405518976
 20
8.648602666661105
  0
LWPOLYLINE
  5
AC5
330
2
100
AcDbEntity
  8
800
  6
L0
 62
     1
100
AcDbPolyline
 90
        2
 70
     0
 43
0.0
 10
17.28195105518976
 20
8.530814666661106
 10
17.47489305518976
 20
8.723756666661106
  0
LWPOLYLINE
  5
AC6
330
2
100
AcDbEntity
  8
800
  6
L0
 62
     1
100
AcDbPolyline
 90
        2
 70
     0
 43
0.0
 10
17.46479405518976
 20
8.736990666661105
 10
17.22791305518976
 20
8.973872666661105
  0
LWPOLYLINE
  5
AC7
330
2
100
AcDbEntity
  8
800
  6
L5
 62
     2
100
AcDbPolyline
 90
        2
 70
     0
 43
0.0
 10
17.61010405518976
 20
8.812298666661106
 10
17.11692605518976
 20
9.305476666661105
  0
LWPOLYLINE
  5
AC8
330
2
100
AcDbEntity
  8
800
  6
L5
 62
     2
100
AcDbPolyline
 90
        2
 70
     0
 43
0.0
 10
16.62598805518976
 20
9.342088666661105
 10
16.53198805518976
 20
9.342088666661105
  0
LWPOLYLINE
  5
AC9
330
2
100
AcDbEntity
  8
800
  6
L5
 62
     2
100
AcDbPolyline
 90
        2
 70
     0
 43
0.0
 10
16.45398805518976
 20
9.342088666661105
 10
16.29798805518976
 20
9.342088666661105
  0
LWPOLYLINE
  5
ACA
330
2
100
AcDbEntity
  8
800
  6
L5
 62
     2
100
AcDbPolyline
 90
        2
 70
     0
 43
0.0
 10
16.45398805518976
 20
9.162587666661105
 42
1.0
 10
16.53198805518976
 20
9.162587666661105
  0
LWPOLYLINE
  5
ACB
330
2
100
AcDbEntity
  8
800
  6
L5
 62
     2
100
AcDbPolyline
 90
        2
 70
     0
 43
0.0
 10
16.53198805518976
 20
9.261087666661106
 10
16.45398805518976
 20
9.261087666661106
  0
LWPOLYLINE
  5
ACC
330
2
100
AcDbEntity
  8
800
  6
L5
 62
     2
100
AcDbPolyline
 90
        2
 70
     0
 43
0.0
 10
16.62598805518976
 20
9.178088666661105
 10
16.62598805518976
 20
9.342088666661105
  0
LWPOLYLINE
  5
ACD
330
2
100
AcDbEntity
  8
800
  6
L5
 62
     2
100
AcDbPolyline
 90
        2
 70
     0
 43
0.0
 10
16.45398805518976
 20
9.162587666661105
 10
16.45398805518976
 20
9.342088666661105
  0
LWPOLYLINE
  5
ACE
330
2
100
AcDbEntity
  8
800
  6
L5
 62
     2
100
AcDbPolyline
 90
        2
 70
     0
 43
0.0
 10
16.53198805518976
 20
9.162587666661105
 10
16.53198805518976
 20
9.342088666661105
  0
LWPOLYLINE
  5
ACF
330
2
100
AcDbEntity
  8
800
  6
L5
 62
     2
100
AcDbPolyline
 90
        2
 70
     0
 43
0.0
 10
16.53198805518976
 20
8.780087666661106
 10
16.53198805518976
 20
8.959587666661105
  0
LWPOLYLINE
  5
AD0
330
2
100
AcDbEntity
  8
800
  6
L5
 62
     2
100
AcDbPolyline
 90
        2
 70
     0
 43
0.0
 10
16.62598805518976
 20
8.780087666661106
 10
16.62598805518976
 20
8.944087666661106
  0
LWPOLYLINE
  5
AD1
330
2
100
AcDbEntity
  8
800
  6
L5
 62
     2
100
AcDbPolyline
 90
        2
 70
     0
 43
0.0
 10
16.62598805518976
 20
8.780087666661106
 10
16.53198805518976
 20
8.780087666661106
  0
LWPOLYLINE
  5
AD2
330
2
100
AcDbEntity
  8
800
  6
L5
 62
     2
100
AcDbPolyline
 90
        2
 70
     0
 43
0.0
 10
16.45398805518976
 20
8.780087666661106
 10
16.45398805518976
 20
8.959587666661105
  0
LWPOLYLINE
  5
AD3
330
2
100
AcDbEntity
  8
800
  6
L5
 62
     2
100
AcDbPolyline
 90
        2
 70
     0
 43
0.0
 10
16.45398805518976
 20
8.780087666661106
 10
16.29798805518976
 20
8.780087666661106
  0
LWPOLYLINE
  5
AD4
330
2
100
AcDbEntity
  8
800
  6
L5
 62
     2
100
AcDbPolyline
 90
        2
 70
     0
 43
0.0
 10
16.53198805518976
 20
8.861088666661105
 10
16.45398805518976
 20
8.861088666661105
  0
LWPOLYLINE
  5
AD5
330
2
100
AcDbEntity
  8
800
  6
L0
 62
     1
100
AcDbPolyline
 90
        2
 70
     0
 43
0.0
 10
16.60630805518976
 20
8.515608666661105
 42
0.41422
 10
16.60630805518976
 20
8.494395666661105
  0
LWPOLYLINE
  5
AD6
330
2
100
AcDbEntity
  8
800
  6
L5
 62
     2
100
AcDbPolyline
 90
        2
 70
     0
 43
0.0
 10
16.53198805518976
 20
8.959587666661105
 42
1.0
 10
16.45398805518976
 20
8.959587666661105
  0
LWPOLYLINE
  5
AD7
330
2
100
AcDbEntity
  8
800
  6
L5
 62
     2
100
AcDbPolyline
 90
        2
 70
     0
 43
0.0
 10
16.29798805518976
 20
8.780087666661106
 10
16.29798805518976
 20
9.342088666661105
  0
LWPOLYLINE
  5
AD8
330
2
100
AcDbEntity
  8
800
  6
L5
 62
     2
100
AcDbPolyline
 90
        2
 70
     0
 43
0.0
 10
16.70398805518976
 20
8.944087666661106
 42
1.0
 10
16.62598805518976
 20
8.944087666661106
  0
LWPOLYLINE
  5
AD9
330
2
100
AcDbEntity
  8
800
  6
L0
 62
     1
100
AcDbPolyline
 90
        2
 70
     0
 43
0.0
 10
16.79722705518976
 20
8.706527666661106
 10
16.60630805518976
 20
8.515609666661106
  0
LWPOLYLINE
  5
ADB
330
2
100
AcDbEntity
  8
800
  6
L5
 62
     2
100
AcDbPolyline
 90
        2
 70
     0
 43
0.0
 10
16.62598805518976
 20
9.178088666661105
 42
0.999994
 10
16.70398805518976
 20
9.178087666661106
  0
LWPOLYLINE
  5
ADC
330
2
100
AcDbEntity
  8
800
  6
L5
 62
     2
100
AcDbPolyline
 90
        2
 70
     0
 43
0.0
 10
16.70398805518976
 20
9.261087666661106
 10
16.62598805518976
 20
9.261087666661106
  0
LWPOLYLINE
  5
ADD
330
2
100
AcDbEntity
  8
800
  6
L5
 62
     2
100
AcDbPolyline
 90
        2
 70
     0
 43
0.0
 10
16.70398805518976
 20
8.861088666661105
 10
16.62598805518976
 20
8.861088666661105
  0
LWPOLYLINE
  5
ADE
330
2
100
AcDbEntity
  8
800
  6
L0
 62
     1
100
AcDbPolyline
 90
        2
 70
     0
 43
0.0
 10
18.28391905518976
 20
8.344841666661105
 10
18.20825805518976
 20
8.420503666661106
  0
LWPOLYLINE
  5
ADF
330
2
100
AcDbEntity
  8
800
  6
L0
 62
     1
100
AcDbPolyline
 90
        2
 70
     0
 43
0.0
 10
18.22138905518976
 20
8.433632666661106
 10
18.26593605518976
 20
8.478180666661105
  0
LWPOLYLINE
  5
AE0
330
2
100
AcDbEntity
  8
800
  6
L0
 62
     1
100
AcDbPolyline
 90
        2
 70
     0
 43
0.0
 10
18.23937105518976
 20
8.414845666661106
 10
18.28391905518976
 20
8.459393666661105
  0
LWPOLYLINE
  5
AE1
330
2
100
AcDbEntity
  8
800
  6
L5
 62
     2
100
AcDbPolyline
 90
        2
 70
     0
 43
0.0
 10
18.36064005518976
 20
8.572883666661105
 10
17.88758505518976
 20
9.045938666661106
  0
LWPOLYLINE
  5
AE2
330
2
100
AcDbEntity
  8
800
  6
L0
 62
     1
100
AcDbPolyline
 90
        2
 70
     0
 43
0.0
 10
18.12305205518976
 20
8.120335666661105
 10
18.06789805518976
 20
8.175489666661105
  0
LWPOLYLINE
  5
AE3
330
2
100
AcDbEntity
  8
800
  6
L0
 62
     1
100
AcDbPolyline
 90
        2
 70
     0
 43
0.0
 10
18.02688505518976
 20
8.024168666661106
 10
17.97173005518976
 20
8.079324666661106
  0
LWPOLYLINE
  5
AE4
330
2
100
AcDbEntity
  8
800
  6
L0
 62
     1
100
AcDbPolyline
 90
        2
 70
     0
 43
0.0
 10
17.97173005518976
 20
8.079324666661106
 10
17.92647605518976
 20
8.034068666661106
  0
LWPOLYLINE
  5
AE5
330
2
100
AcDbEntity
  8
800
  6
L0
 62
     1
100
AcDbPolyline
 90
        2
 70
     0
 43
0.0
 10
18.06789805518976
 20
8.175489666661105
 10
18.02264305518976
 20
8.130235666661105
  0
LWPOLYLINE
  5
AE6
330
2
100
AcDbEntity
  8
800
  6
L0
 62
     1
100
AcDbPolyline
 90
        2
 70
     0
 43
0.0
 10
18.07779705518976
 20
8.075080666661104
 10
18.02264305518976
 20
8.130235666661105
  0
LWPOLYLINE
  5
AE7
330
2
100
AcDbEntity
  8
800
  6
L0
 62
     1
100
AcDbPolyline
 90
        2
 70
     0
 43
0.0
 10
17.93071905518976
 20
7.928003666661105
 10
17.87556505518976
 20
7.983157666661107
  0
LWPOLYLINE
  5
AE8
330
2
100
AcDbEntity
  8
800
  6
L0
 62
     1
100
AcDbPolyline
 90
        2
 70
     0
 43
0.0
 10
17.98163105518976
 20
7.978914666661106
 10
17.92647605518976
 20
8.034068666661106
  0
LWPOLYLINE
  5
AE9
330
2
100
AcDbEntity
  8
800
  6
L0
 62
     1
100
AcDbPolyline
 90
        2
 70
     0
 43
0.0
 10
17.53734105518976
 20
8.058590666661105
 42
0.414212
 10
17.62572905518976
 20
8.058590666661105
  0
LWPOLYLINE
  5
AEA
330
2
100
AcDbEntity
  8
800
  6
L0
 62
     1
100
AcDbPolyline
 90
        2
 70
     0
 43
0.0
 10
17.87556505518976
 20
7.983157666661107
 10
17.83031005518976
 20
7.937901666661105
  0
LWPOLYLINE
  5
AEB
330
2
100
AcDbEntity
  8
800
  6
L0
 62
     1
100
AcDbPolyline
 90
        2
 70
     0
 43
0.0
 10
17.36056405518976
 20
8.323756666661106
 42
0.414212
 10
17.36056405518976
 20
8.235368666661106
  0
LWPOLYLINE
  5
AEC
330
2
100
AcDbEntity
  8
800
  6
L5
 62
     2
100
AcDbPolyline
 90
        2
 70
     0
 43
0.0
 10
16.95986205518976
 20
8.162055666661105
 42
0.4142140000000001
 10
16.95986205518976
 20
8.118214666661106
  0
LWPOLYLINE
  5
AED
330
2
100
AcDbEntity
  8
800
  6
L5
 62
     2
100
AcDbPolyline
 90
        2
 70
     0
 43
0.0
 10
17.47675605518976
 20
7.909617666661105
 10
17.13628405518976
 20
8.250090666661105
  0
LWPOLYLINE
  5
AEE
330
2
100
AcDbEntity
  8
800
  6
L0
 62
     1
100
AcDbPolyline
 90
        2
 70
     0
 43
0.0
 10
17.36056405518976
 20
8.235368666661106
 10
17.53734105518976
 20
8.058590666661105
  0
LWPOLYLINE
  5
AEF
330
2
100
AcDbEntity
  8
800
  6
L0
 62
     1
100
AcDbPolyline
 90
        2
 70
     0
 43
0.0
 10
16.94925505518976
 20
8.151449666661106
 10
16.60630805518976
 20
8.494395666661105
  0
LWPOLYLINE
  5
AF0
330
2
100
AcDbEntity
  8
800
  6
L5
 62
     2
100
AcDbPolyline
 90
        2
 70
     0
 43
0.0
 10
17.13628505518976
 20
8.338478666661107
 42
0.4142140000000001
 10
17.13628505518976
 20
8.250090666661105
  0
LWPOLYLINE
  5
AF1
330
2
100
AcDbEntity
  8
800
  6
L0
 62
     1
100
AcDbPolyline
 90
        2
 70
     0
 43
0.0
 10
17.36056405518976
 20
8.323756666661106
 10
17.68204405518976
 20
8.645235666661106
  0
LWPOLYLINE
  5
AF2
330
2
100
AcDbEntity
  8
800
  6
L0
 62
     1
100
AcDbPolyline
 90
        2
 70
     0
 43
0.0
 10
17.07299805518976
 20
8.275192666661105
 10
16.71944505518976
 20
8.628745666661107
  0
LWPOLYLINE
  5
AF3
330
2
100
AcDbEntity
  8
800
  6
L0
 62
     1
100
AcDbPolyline
 90
        2
 70
     0
 43
0.0
 10
16.99168105518976
 20
8.193875666661107
 10
16.63812805518976
 20
8.547428666661106
  0
LWPOLYLINE
  5
AF4
330
2
100
AcDbEntity
  8
800
  6
L0
 62
     1
100
AcDbPolyline
 90
        2
 70
     0
 43
0.0
 10
16.98107405518976
 20
8.183267666661105
 10
16.62752105518976
 20
8.536822666661105
  0
LWPOLYLINE
  5
AF5
330
2
100
AcDbEntity
  8
800
  6
L0
 62
     1
100
AcDbPolyline
 90
        2
 70
     0
 43
0.0
 10
16.97046805518976
 20
8.172662666661105
 10
16.61691405518976
 20
8.526214666661106
  0
LWPOLYLINE
  5
AF6
330
2
100
AcDbEntity
  8
800
  6
L0
 62
     1
100
AcDbPolyline
 90
        2
 70
     0
 43
0.0
 10
16.96339705518976
 20
8.165591666661105
 10
16.60984305518976
 20
8.519143666661106
  0
LWPOLYLINE
  5
AF7
330
2
100
AcDbEntity
  8
800
  6
L0
 62
     1
100
AcDbPolyline
 90
        2
 70
     0
 43
0.0
 10
16.95632605518976
 20
8.158520666661106
 10
16.60337905518976
 20
8.511465666661106
  0
LWPOLYLINE
  5
AF8
330
2
100
AcDbEntity
  8
800
  6
L0
 62
     1
100
AcDbPolyline
 90
        2
 70
     0
 43
0.0
 10
17.05532105518976
 20
8.257514666661107
 10
16.70176705518976
 20
8.611068666661106
  0
LWPOLYLINE
  5
AF9
330
2
100
AcDbEntity
  8
800
  6
L0
 62
     1
100
AcDbPolyline
 90
        2
 70
     0
 43
0.0
 10
17.03764305518976
 20
8.239837666661106
 10
16.68409005518976
 20
8.593389666661106
  0
LWPOLYLINE
  5
AFA
330
2
100
AcDbEntity
  8
800
  6
L0
 62
     1
100
AcDbPolyline
 90
        2
 70
     0
 43
0.0
 10
17.01996505518976
 20
8.222158666661105
 10
16.66641205518976
 20
8.575713666661105
  0
LWPOLYLINE
  5
AFB
330
2
100
AcDbEntity
  8
800
  6
L0
 62
     1
100
AcDbPolyline
 90
        2
 70
     0
 43
0.0
 10
17.00582305518976
 20
8.208016666661105
 10
16.65227005518976
 20
8.561570666661106
  0
LWPOLYLINE
  5
AFC
330
2
100
AcDbEntity
  8
800
  6
L0
 62
     1
100
AcDbPolyline
 90
        2
 70
     0
 43
0.0
 10
17.05532105518976
 20
8.257514666661107
 10
16.70176705518976
 20
8.611068666661106
  0
LWPOLYLINE
  5
AFD
330
2
100
AcDbEntity
  8
800
  6
L0
 62
     1
100
AcDbPolyline
 90
        2
 70
     0
 43
0.0
 10
17.11896005518976
 20
8.321153666661105
 10
16.76540705518976
 20
8.674707666661106
  0
LWPOLYLINE
  5
AFE
330
2
100
AcDbEntity
  8
800
  6
L0
 62
     1
100
AcDbPolyline
 90
        2
 70
     0
 43
0.0
 10
17.10481805518976
 20
8.307011666661106
 10
16.75126505518976
 20
8.660564666661105
  0
LWPOLYLINE
  5
AFF
330
2
100
AcDbEntity
  8
800
  6
L0
 62
     1
100
AcDbPolyline
 90
        2
 70
     0
 43
0.0
 10
17.09067605518976
 20
8.292869666661104
 10
16.73712305518976
 20
8.646423666661105
  0
LWPOLYLINE
  5
B00
330
2
100
AcDbEntity
  8
800
  6
L5
 62
     2
100
AcDbPolyline
 90
        2
 70
     0
 43
0.0
 10
16.95986105518976
 20
8.162054666661106
 10
17.19350205518976
 20
8.395696666661105
  0
LWPOLYLINE
  5
B01
330
2
100
AcDbEntity
  8
800
  6
L0
 62
     1
100
AcDbPolyline
 90
        2
 70
     0
 43
0.0
 10
17.62572905518976
 20
8.058590666661105
 10
17.94720905518976
 20
8.380071666661105
  0
LWPOLYLINE
  5
B02
330
2
100
AcDbEntity
  8
800
  6
L5
 62
     2
100
AcDbPolyline
 90
        2
 70
     0
 43
0.0
 10
18.31185605518976
 20
8.198832666661106
 10
18.14922305518976
 20
8.361466666661105
  0
MTEXT
  5
CC9
330
2
100
AcDbEntity
  8
0
100
AcDbMText
 10
19.45825407846923
 20
9.878845870824349
 30
0.0
 40
0.125
 41
0.0
 71
     3
 72
     1
  1
LABEL CONNECTOR\PAS SHOWN 
 73
     1
 44
1.0
  0
TEXT
  5
CE7
330
2
100
AcDbEntity
  8
0
100
AcDbText
 10
17.7826376937998
 20
8.439886141953925
 30
0.0
 40
0.125
  1
DSA
 50
225.0
 72
     1
 11
17.70750759829873
 21
8.276367698804536
 31
0.0
100
AcDbText
 73
     2
  0
TEXT
  5
CE8
330
2
100
AcDbEntity
  8
0
100
AcDbText
 10
17.72239964272797
 20
8.623923884901296
 30
0.0
 40
0.125
  1
 J2
 50
225.0
 72
     1
 11
17.60307537340274
 21
8.416211267927748
 31
0.0
100
AcDbText
 73
     2
  0
MTEXT
  5
CF2
330
2
100
AcDbEntity
  8
0
100
AcDbMText
 10
3.915263052369617
 20
5.520908981179447
 30
0.0
 40
0.125
 41
5.652499999999999
 71
     1
 72
     5
  3
SPECIFICATIONS:\P\P1. LABEL CABLE AND CONNECTORS AS SHOWN.\P\P2. INSPECT FOR SHORTS. CONNECTIVITY MUST CONFORM TO WIRING DIAGRAM.\P\P3. PACKAGE PER MD.1000.5034 PACKAGING SPECIFICATION.\P\P4. WIRING DIAGRAM SHOWING PIN ORIENTATION AND COLOR CODE MUST
  1
 BE INCLUDED IN BOX.\P\P5. CHANGES TO THESE SPECIFICATIONS MUST BE APPROVED, IN WRITING, BY THE G&L Motion Control ENGINEERING DEPARTMENT.
 73
     1
 44
1.0
  0
LINE
  5
D3B
330
2
100
AcDbEntity
  8
0
100
AcDbLine
 10
6.250813055189765
 20
8.804
 30
0.0
 11
6.250813055189765
 21
8.127169984802488
 31
0.0
  0
LINE
  5
D3C
330
2
100
AcDbEntity
  8
0
100
AcDbLine
 10
5.812813047506335
 20
8.548018666661107
 30
0.0
 11
5.812813047506335
 21
8.127169984802488
 31
0.0
  0
SOLID
  5
D3E
330
2
100
AcDbEntity
  8
0
100
AcDbTrace
 10
5.632813047506335
 20
8.282169984802488
 30
0.0
 11
5.632813047506335
 21
8.222169984802489
 31
0.0
 12
5.812813047506335
 22
8.252169984802488
 32
0.0
 13
5.812813047506335
 23
8.252169984802488
 33
0.0
  0
LINE
  5
D3F
330
2
100
AcDbEntity
  8
0
100
AcDbLine
 10
5.632813047506335
 20
8.252169984802488
 30
0.0
 11
5.452813047506335
 21
8.252169984802488
 31
0.0
  0
SOLID
  5
D40
330
2
100
AcDbEntity
  8
0
100
AcDbTrace
 10
6.430813055189765
 20
8.282169984802488
 30
0.0
 11
6.430813055189765
 21
8.222169984802489
 31
0.0
 12
6.250813055189765
 22
8.252169984802488
 32
0.0
 13
6.250813055189765
 23
8.252169984802488
 33
0.0
  0
LINE
  5
D41
330
2
100
AcDbEntity
  8
0
100
AcDbLine
 10
6.430813055189765
 20
8.252169984802488
 30
0.0
 11
6.610813055189766
 21
8.252169984802488
 31
0.0
  0
MTEXT
  5
D42
330
2
100
AcDbEntity
  8
0
100
AcDbMText
 10
6.882360674237385
 20
8.252169984802488
 30
0.0
 40
0.125
 41
0.0
 71
     5
 72
     1
  1
\A1;12.0
 73
     1
 44
1.0
  0
TEXT
  5
D63
330
2
100
AcDbEntity
  8
0
100
AcDbText
 10
6.815813055189765
 20
8.949922570672574
 30
0.0
 40
0.1
  1
MM/DD/YY
 72
     4
 11
7.200813055189764
 21
8.999922570672575
 31
0.0
100
AcDbText
  0
TEXT
  5
D64
330
2
100
AcDbEntity
  8
0
100
AcDbText
 10
6.669313055189764
 20
9.107673486963657
 30
0.0
 40
0.1
  1
M.xxxx.xxxx
 72
     4
 11
7.200813055189764
 21
9.157673486963657
 31
0.0
100
AcDbText
  0
LINE
  5
D65
330
2
100
AcDbEntity
  8
0
 62
     2
100
AcDbLine
 10
6.250813055189766
 20
8.831279764119793
 30
0.0
 11
6.250813055189766
 21
9.284118816536894
 31
0.0
  0
LINE
  5
D66
330
2
100
AcDbEntity
  8
0
 62
     2
100
AcDbLine
 10
8.150813055189765
 20
8.831279764119793
 30
0.0
 11
8.150813055189765
 21
9.284118816536894
 31
0.0
  0
LINE
  5
D67
330
2
100
AcDbEntity
  8
0
100
AcDbLine
 10
6.250813055189766
 20
9.284118816536896
 30
0.0
 11
8.150813055189765
 21
9.284118816536896
 31
0.0
  0
LINE
  5
D68
330
2
100
AcDbEntity
  8
0
100
AcDbLine
 10
8.150813055189765
 20
8.831279764119789
 30
0.0
 11
6.250813055189766
 21
8.831279764119793
 31
0.0
  0
LINE
  5
D6C
330
2
100
AcDbEntity
  8
0
100
AcDbLine
 10
6.250813055189767
 20
9.253539666661106
 30
0.0
 11
5.828000000000001
 21
9.253539666661106
 31
0.0
  0
LINE
  5
D6D
330
2
100
AcDbEntity
  8
0
100
AcDbLine
 10
6.250813055189767
 20
8.867497666661106
 30
0.0
 11
5.828000000000001
 21
8.867497666661105
 31
0.0
  0
LINE
  5
D86
330
2
100
AcDbEntity
  8
0
100
AcDbLine
 10
5.828000000000001
 20
9.253539666661106
 30
0.0
 11
5.828000000000001
 21
8.867497666661105
 31
0.0
  0
LINE
  5
F0D
330
2
100
AcDbEntity
  8
0
100
AcDbLine
 10
5.828000000000001
 20
8.610518666661103
 30
0.0
 11
5.828000000000001
 21
9.510518666661109
 31
0.0
  0
LINE
  5
F0E
330
2
100
AcDbEntity
  8
0
100
AcDbLine
 10
5.362999999999997
 20
8.498018666661103
 30
0.0
 11
5.362999999999997
 21
9.060518666661106
 31
0.0
  0
LINE
  5
F0F
330
2
100
AcDbEntity
  8
0
100
AcDbLine
 10
5.342999999999987
 20
8.498018666661103
 30
0.0
 11
5.342999999999987
 21
9.060518666661106
 31
0.0
  0
LINE
  5
F10
330
2
100
AcDbEntity
  8
AM_VIS
 62
     7
100
AcDbLine
 10
4.807195633749158
 20
8.764560315894126
 30
0.0
 11
4.807195633749158
 21
8.970707754183774
 31
0.0
  0
LINE
  5
F11
330
2
100
AcDbEntity
  8
AM_VIS
 62
     7
100
AcDbLine
 10
4.832195633749163
 20
8.951129453298854
 30
0.0
 11
4.832195633749163
 21
8.764560315894122
 31
0.0
  0
ARC
  5
F12
330
2
100
AcDbEntity
  8
AM_VIS
 62
     7
100
AcDbCircle
 10
4.897695633749149
 20
9.060518666661078
 30
0.0
 40
0.22025
100
AcDbArc
 50
292.0943577646795
 51
67.9056422353203
  0
ARC
  5
F13
330
2
100
AcDbEntity
  8
AM_VIS
 62
     7
100
AcDbCircle
 10
4.897695633749149
 20
9.060518666661081
 30
0.0
 40
0.22025
100
AcDbArc
 50
288.5423813363903
 51
71.45761866360628
  0
ARC
  5
F14
330
2
100
AcDbEntity
  8
5
100
AcDbCircle
 10
-4.897695633749149
 20
9.060518666661081
 30
0.0
 40
0.2152500000000001
210
0.0
220
0.0
230
-1.0
100
AcDbArc
 50
108.5423813363937
 51
251.4576186636095
  0
LINE
  5
F15
330
2
100
AcDbEntity
  8
0
100
AcDbLine
 10
5.165499999999978
 20
8.560518666661074
 30
0.0
 11
5.165500000000006
 21
9.560518666661081
 31
0.0
  0
LINE
  5
F16
330
2
100
AcDbEntity
  8
0
100
AcDbLine
 10
5.139695633749139
 20
8.560518666661078
 30
0.0
 11
5.139695633749139
 21
9.560518666661078
 31
0.0
  0
LINE
  5
F17
330
2
100
AcDbEntity
  8
AM_VIS
 62
     7
100
AcDbLine
 10
5.120945633749157
 20
8.498115348530514
 30
0.0
 11
5.120945633749157
 21
9.622922112031108
 31
0.0
  0
LINE
  5
F18
330
2
100
AcDbEntity
  8
0
100
AcDbLine
 10
5.263000000000003
 20
8.498018666661103
 30
0.0
 11
5.263000000000003
 21
9.060518666661106
 31
0.0
  0
LINE
  5
F19
330
2
100
AcDbEntity
  8
0
100
AcDbLine
 10
5.242999999999993
 20
8.498018666661103
 30
0.0
 11
5.242999999999993
 21
9.060518666661106
 31
0.0
  0
LINE
  5
F1A
330
2
100
AcDbEntity
  8
0
100
AcDbLine
 10
5.165500000000006
 20
9.060518666661106
 30
0.0
 11
5.165500000000006
 21
8.523018666661105
 31
0.0
  0
LINE
  5
F1B
330
2
100
AcDbEntity
  8
AM_VIS
 62
     7
100
AcDbLine
 10
4.100945633749146
 20
8.910108355263943
 30
0.0
 11
4.100945633749146
 21
8.829005488115686
 31
0.0
  0
LINE
  5
F1C
330
2
100
AcDbEntity
  8
AM_VIS
 62
     7
100
AcDbLine
 10
4.100945633749146
 20
9.264594756642186
 30
0.0
 11
4.100945633749146
 21
8.856442576679963
 31
0.0
  0
LINE
  5
F1D
330
2
100
AcDbEntity
  8
AM_VIS
 62
     7
100
AcDbLine
 10
3.450945633749141
 20
8.826573392296275
 30
0.0
 11
3.450945633749141
 21
8.912085420787793
 31
0.0
  0
LINE
  5
F1E
330
2
100
AcDbEntity
  8
AM_VIS
 62
     7
100
AcDbLine
 10
3.480945633749142
 20
8.488018666661062
 30
0.0
 11
4.088445633749158
 21
8.488018666661062
 31
0.0
  0
LINE
  5
F1F
330
2
100
AcDbEntity
  8
AM_VIS
 62
     7
100
AcDbLine
 10
3.480945633749142
 20
8.732231135200851
 30
0.0
 11
4.088445633749158
 21
8.732231135200851
 31
0.0
  0
LINE
  5
F20
330
2
100
AcDbEntity
  8
AM_VIS
 62
     7
100
AcDbLine
 10
4.088445633749158
 20
8.655626690888954
 30
0.0
 11
3.480945633749113
 21
8.655626690888958
 31
0.0
  0
LINE
  5
F21
330
2
100
AcDbEntity
  8
AM_VIS
 62
     7
100
AcDbLine
 10
3.469131708465281
 20
8.591613627711264
 30
0.0
 11
4.088445633749158
 21
8.591613627711268
 31
0.0
  0
LINE
  5
F22
330
2
100
AcDbEntity
  8
AM_VIS
 62
     7
100
AcDbLine
 10
3.467879857204023
 20
8.507552988220371
 30
0.0
 11
4.088445633749158
 21
8.507552988220371
 31
0.0
  0
LINE
  5
F23
330
2
100
AcDbEntity
  8
AM_VIS
 62
     7
100
AcDbLine
 10
4.088445633749158
 20
8.490188170453677
 30
0.0
 11
3.480945633749142
 21
8.490188170453677
 31
0.0
  0
LINE
  5
F24
330
2
100
AcDbEntity
  8
AM_VIS
 62
     7
100
AcDbLine
 10
4.088445633749158
 20
8.818475701913907
 30
0.0
 11
3.480945633749142
 21
8.818475701913907
 31
0.0
  0
LWPOLYLINE
  5
F25
330
2
100
AcDbEntity
  8
AM_VIS
 62
     7
100
AcDbPolyline
 90
        6
 70
     0
 43
0.0
 10
4.088445633749129
 20
8.541613627711267
 10
3.468393793942935
 20
8.541613627711267
 10
3.457058374430145
 20
8.546915980122879
 10
3.455651222952125
 20
8.547670825952241
 10
3.453907633701247
 20
8.548759270609949
 10
3.450945633749141
 20
8.551143356759261
  0
LINE
  5
F26
330
2
100
AcDbEntity
  8
AM_VIS
 62
     7
100
AcDbLine
 10
3.450945633749141
 20
8.82370128737919
 30
0.0
 11
3.450945633749141
 21
8.826573392296275
 31
0.0
  0
LWPOLYLINE
  5
F27
330
2
100
AcDbEntity
  8
AM_VIS
 62
     7
100
AcDbPolyline
 90
        4
 70
     0
 43
0.0
 10
3.480945633749142
 20
8.818475701913904
 10
3.471204297820774
 20
8.818804656008243
 10
3.461838834561488
 20
8.819778575694957
 10
3.458558403973965
 20
8.820292654642781
  0
LWPOLYLINE
  5
F28
330
2
100
AcDbEntity
  8
AM_VIS
 62
     7
100
AcDbPolyline
 90
        5
 70
     0
 43
0.0
 10
3.458558403973965
 20
8.820292654642781
 10
3.457616149666561
 20
8.820476081678304
 10
3.455507688911778
 20
8.821065058065268
 10
3.453462908768498
 20
8.821944654929005
 10
3.450945633749141
 20
8.82370128737919
  0
LINE
  5
F29
330
2
100
AcDbEntity
  8
AM_VIS
 62
     7
100
AcDbLine
 10
3.450945633749141
 20
8.663477829754416
 30
0.0
 11
3.450945633749141
 21
8.666345370684396
 31
0.0
  0
LINE
  5
F2A
330
2
100
AcDbEntity
  8
AM_VIS
 62
     7
100
AcDbLine
 10
3.450945633749141
 20
8.666345370684393
 30
0.0
 11
3.450945633749141
 21
8.736055415008216
 31
0.0
  0
LINE
  5
F2B
330
2
100
AcDbEntity
  8
AM_VIS
 62
     7
100
AcDbLine
 10
3.450945633749141
 20
8.736055415008213
 30
0.0
 11
3.450945633749141
 21
8.737064442999074
 31
0.0
  0
LWPOLYLINE
  5
F2C
330
2
100
AcDbEntity
  8
AM_VIS
 62
     7
100
AcDbPolyline
 90
        4
 70
     0
 43
0.0
 10
3.458558403973993
 20
8.735645889344123
 10
3.461838834561488
 20
8.734679736956593
 10
3.471204297820774
 20
8.732849366670901
 10
3.480945633749142
 20
8.732231135200851
  0
LWPOLYLINE
  5
F2D
330
2
100
AcDbEntity
  8
AM_VIS
 62
     7
100
AcDbPolyline
 90
        4
 70
     0
 43
0.0
 10
3.480945633749142
 20
8.655626690888954
 10
3.471204297820774
 20
8.656244922359004
 10
3.461838834561488
 20
8.658075292644692
 10
3.458558403973965
 20
8.659041445032237
  0
LWPOLYLINE
  5
F2E
330
2
100
AcDbEntity
  8
AM_VIS
 62
     7
100
AcDbPolyline
 90
        6
 70
     0
 43
0.0
 10
3.450945633749141
 20
8.737064442999074
 10
3.452463570073431
 20
8.737078315160225
 10
3.454700200574732
 20
8.736726806225703
 10
3.456344191422514
 20
8.736315245499579
 10
3.458021007810456
 20
8.735817226382845
 10
3.458558403973993
 20
8.735645889344123
  0
LWPOLYLINE
  5
F2F
330
2
100
AcDbEntity
  8
AM_VIS
 62
     7
100
AcDbPolyline
 90
        5
 70
     0
 43
0.0
 10
3.458558403973965
 20
8.659041445032237
 10
3.457425177959747
 20
8.659438858674501
 10
3.45550767707226
 20
8.660271494090068
 10
3.453538746744355
 20
8.661389525494659
 10
3.450945633749141
 20
8.663477829754416
  0
LINE
  5
F30
330
2
100
AcDbEntity
  8
AM_VIS
 62
     7
100
AcDbLine
 10
3.450945633749141
 20
8.49801866666106
 30
0.0
 11
3.450945633749141
 21
8.5002470637172
 31
0.0
  0
LINE
  5
F31
330
2
100
AcDbEntity
  8
AM_VIS
 62
     7
100
AcDbLine
 10
3.450945633749141
 20
8.5002470637172
 30
0.0
 11
3.450945633749141
 21
8.502110140643413
 31
0.0
  0
LINE
  5
F32
330
2
100
AcDbEntity
  8
AM_VIS
 62
     7
100
AcDbLine
 10
3.450945633749141
 20
8.516927794718377
 30
0.0
 11
3.450945633749141
 21
8.551143356759261
 31
0.0
  0
LINE
  5
F33
330
2
100
AcDbEntity
  8
AM_VIS
 62
     7
100
AcDbLine
 10
3.450945633749141
 20
8.551143356759261
 30
0.0
 11
3.450945633749141
 21
8.553660465945583
 31
0.0
  0
LINE
  5
F34
330
2
100
AcDbEntity
  8
AM_VIS
 62
     7
100
AcDbLine
 10
3.450945633749141
 20
8.599160465945569
 30
0.0
 11
3.450945633749141
 21
8.599173607422688
 31
0.0
  0
LINE
  5
F35
330
2
100
AcDbEntity
  8
AM_VIS
 62
     7
100
AcDbLine
 10
3.450945633749141
 20
8.553660465945579
 30
0.0
 11
3.450945633749141
 21
8.599160465945576
 31
0.0
  0
LINE
  5
F36
330
2
100
AcDbEntity
  8
AM_VIS
 62
     7
100
AcDbLine
 10
3.450945633749141
 20
8.502110140643406
 30
0.0
 11
3.450945633749141
 21
8.516927794718377
 31
0.0
  0
LWPOLYLINE
  5
F37
330
2
100
AcDbEntity
  8
AM_VIS
 62
     7
100
AcDbPolyline
 90
        4
 70
     0
 43
0.0
 10
3.480945633749142
 20
8.490188170453677
 10
3.471204297820774
 20
8.491135356018066
 10
3.461838834561488
 20
8.493939645990469
 10
3.458558403973965
 20
8.49541987732584
  0
LWPOLYLINE
  5
F38
330
2
100
AcDbEntity
  8
AM_VIS
 62
     7
100
AcDbPolyline
 90
        6
 70
     0
 43
0.0
 10
3.450945633749141
 20
8.516927794718373
 10
3.45240366951401
 20
8.516106579271536
 10
3.453873401761027
 20
8.515274361666936
 10
3.455777748787538
 20
8.514224547556334
 10
3.457694622300634
 20
8.513218634248048
 10
3.468972427366393
 20
8.507552988220371
  0
LWPOLYLINE
  5
F39
330
2
100
AcDbEntity
  8
AM_VIS
 62
     7
100
AcDbPolyline
 90
        6
 70
     0
 43
0.0
 10
3.458558403973965
 20
8.49541987732584
 10
3.458328395225434
 20
8.495534573124444
 10
3.457003994518769
 20
8.496228000027006
 10
3.455754344737242
 20
8.496936431723828
 10
3.454094277831044
 20
8.497965984018811
 10
3.450945633749141
 20
8.500247063717196
  0
LWPOLYLINE
  5
F3A
330
2
100
AcDbEntity
  8
AM_VIS
 62
     7
100
AcDbPolyline
 90
        5
 70
     0
 43
0.0
 10
3.450945633749141
 20
8.599173607422684
 10
3.452992884615808
 20
8.598537665587951
 10
3.4551017215349
 20
8.597702515974528
 10
3.45714943854716
 20
8.596827386498645
 10
3.469131708465281
 20
8.591613627711264
  0
ARC
  5
F3B
330
2
100
AcDbEntity
  8
AM_VIS
 62
     7
100
AcDbCircle
 10
3.480945633749142
 20
8.538018666661063
 30
0.0
 40
0.05
100
AcDbArc
 50
233.1301023541563
 51
270.0
  0
LINE
  5
F3C
330
2
100
AcDbEntity
  8
AM_VIS
 62
     7
100
AcDbLine
 10
3.450945633749141
 20
8.599173607422688
 30
0.0
 11
3.450945633749141
 21
8.663477829754416
 31
0.0
  0
LINE
  5
F3D
330
2
100
AcDbEntity
  8
AM_VIS
 62
     7
100
AcDbLine
 10
3.450945633749141
 20
8.737064442999074
 30
0.0
 11
3.450945633749141
 21
8.82370128737919
 31
0.0
  0
ARC
  5
F3E
330
2
100
AcDbEntity
  8
0
100
AcDbCircle
 10
5.715499999999989
 20
8.610518666661103
 30
0.0
 40
0.1125
100
AcDbArc
 50
326.251011404113
 51
0.0
1001
GENIUS_GENODEF_13
1002
{
1000
HIER
1070
     0
1002
}
1002
{
1000
MANEDIT
1070
     0
1002
}
1002
{
1000
NOSEL
1070
     0
1002
}
1002
{
1000
BEHIND
1070
     0
1002
}
1002
{
1000
REACTOR
1002
}
1001
GENIUS_GENOBJ-N-FIL_13
1002
{
1000
OWNER
1000
GEN
1002
}
  0
ARC
  5
F3F
330
2
100
AcDbEntity
  8
0
100
AcDbCircle
 10
5.353000000000006
 20
8.490518666661102
 30
0.0
 40
0.0125
100
AcDbArc
 50
36.86989764584565
 51
143.1301023541543
  0
LINE
  5
F40
330
2
100
AcDbEntity
  8
0
100
AcDbLine
 10
5.415500000000006
 20
8.498018666661103
 30
0.0
 11
5.362999999999997
 21
8.498018666661103
 31
0.0
  0
LINE
  5
F41
330
2
100
AcDbEntity
  8
0
100
AcDbLine
 10
5.465499999999989
 20
8.548018666661107
 30
0.0
 11
5.415500000000006
 21
8.498018666661103
 31
0.0
  0
ARC
  5
F42
330
2
100
AcDbEntity
  8
0
100
AcDbCircle
 10
5.252999999999984
 20
8.490518666661102
 30
0.0
 40
0.0125
100
AcDbArc
 50
36.86989764584565
 51
143.1301023541543
  0
LINE
  5
F43
330
2
100
AcDbEntity
  8
0
100
AcDbLine
 10
5.242999999999993
 20
8.498018666661103
 30
0.0
 11
5.190499999999984
 21
8.498018666661103
 31
0.0
  0
ARC
  5
F44
330
2
100
AcDbEntity
  8
8
100
AcDbCircle
 10
5.139695633749139
 20
8.560518666661078
 30
0.0
 40
0.01875
100
AcDbArc
 50
90.0
 51
180.0
  0
ARC
  5
F45
330
2
100
AcDbEntity
  8
AM_VIS
 62
     7
100
AcDbCircle
 10
5.12844563374915
 20
8.553018666661078
 30
0.0
 40
0.0075
100
AcDbArc
 50
90.0
 51
180.0
1001
GENIUS_GENODEF_13
1002
{
1000
HIER
1070
     0
1002
}
1002
{
1000
MANEDIT
1070
     0
1002
}
1002
{
1000
NOSEL
1070
     0
1002
}
1002
{
1000
BEHIND
1070
     0
1002
}
1002
{
1000
REACTOR
1002
}
1001
GENIUS_GENOBJ-N-FIL_13
1002
{
1000
OWNER
1000
GEN
1002
}
  0
LINE
  5
F46
330
2
100
AcDbEntity
  8
8
100
AcDbLine
 10
5.139695633749139
 20
8.579268666661079
 30
0.0
 11
5.165499999999978
 21
8.579268666661079
 31
0.0
  0
LINE
  5
F47
330
2
100
AcDbEntity
  8
AM_VIS
 62
     7
100
AcDbLine
 10
5.12844563374915
 20
8.560518666661074
 30
0.0
 11
5.165499999999978
 21
8.560518666661074
 31
0.0
  0
ARC
  5
F48
330
2
100
AcDbEntity
  8
0
100
AcDbCircle
 10
5.190499999999984
 20
8.523018666661105
 30
0.0
 40
0.025
100
AcDbArc
 50
180.0
 51
270.0
1001
GENIUS_GENODEF_13
1002
{
1000
HIER
1070
     0
1002
}
1002
{
1000
MANEDIT
1070
     0
1002
}
1002
{
1000
NOSEL
1070
     0
1002
}
1002
{
1000
BEHIND
1070
     0
1002
}
1002
{
1000
REACTOR
1002
}
1001
GENIUS_GENOBJ-N-FIL_13
1002
{
1000
OWNER
1000
GEN
1002
}
  0
LWPOLYLINE
  5
F49
330
2
100
AcDbEntity
  8
AM_VIS
 62
     7
100
AcDbPolyline
 90
        4
 70
     0
 43
0.0
 10
4.954747377517206
 20
8.847786062124249
 10
4.963455026323769
 20
8.850314563969856
 10
4.980127690300177
 20
8.856276118320227
 10
4.980538931595246
 20
8.856442576679963
  0
LWPOLYLINE
  5
F4A
330
2
100
AcDbEntity
  8
5
100
AcDbPolyline
 90
        6
 70
     0
 43
0.0
 10
4.966146433583899
 20
8.856442576679967
 10
4.963450834025676
 20
8.855236531161349
 10
4.960285437938749
 20
8.853888316110325
 10
4.957097286140081
 20
8.852603666524011
 10
4.953893735605019
 20
8.85138585931612
 10
4.953452218748365
 20
8.851223707781741
  0
LINE
  5
F4B
330
2
100
AcDbEntity
  8
5
100
AcDbLine
 10
4.967736463777525
 20
8.851702133242543
 30
0.0
 11
4.966146433583928
 21
8.85644257667997
 31
0.0
  0
LWPOLYLINE
  5
F4C
330
2
100
AcDbEntity
  8
AM_VIS
 62
     7
100
AcDbPolyline
 90
        6
 70
     0
 43
0.0
 10
4.954747377517206
 20
8.847786062124253
 10
4.955199150282281
 20
8.847907735412654
 10
4.958477115463891
 20
8.848821538715139
 10
4.961739324214958
 20
8.849785498385365
 10
4.964978248666254
 20
8.850797155532831
 10
4.967736463777525
 20
8.851702133242543
  0
ELLIPSE
  5
F4D
330
2
100
AcDbEntity
  8
5
100
AcDbEllipse
 10
4.953452218748365
 20
8.852615406154605
 30
0.0
 11
-0.0012951587688554
 21
0.0048293440303479
 31
0.0
210
0.0
220
0.0
230
1.0
 40
0.0748545888324277
 41
1.842984411825575
 42
3.141592653589794
  0
ELLIPSE
  5
F4E
330
2
100
AcDbEntity
  8
AM_VIS
 62
     7
100
AcDbEllipse
 10
4.923701537576446
 20
8.844636712701184
 30
0.0
 11
-0.0012951587688554
 21
0.0048293440303479
 31
0.0
210
0.0
220
0.0
230
1.0
 40
0.3980084322149759
 41
2.548655471123494
 42
3.141592653589796
  0
LWPOLYLINE
  5
F4F
330
2
100
AcDbEntity
  8
AM_VIS
 62
     7
100
AcDbPolyline
 90
        3
 70
     0
 43
0.0
 10
4.912194178227847
 20
8.836373922327179
 10
4.918636715253937
 20
8.83810171564043
 10
4.924996696345287
 20
8.839807368670836
  0
LWPOLYLINE
  5
F50
330
2
100
AcDbEntity
  8
AM_VIS
 62
     7
100
AcDbPolyline
 90
        3
 70
     0
 43
0.0
 10
4.900187668548566
 20
8.833153953694427
 10
4.913769276426448
 20
8.83679634040941
 10
4.926996443204499
 20
8.840343671254352
  0
LWPOLYLINE
  5
F51
330
2
100
AcDbEntity
  8
AM_VIS
 62
     7
100
AcDbPolyline
 90
        3
 70
     0
 43
0.0
 10
4.912194178227847
 20
8.836373922327179
 10
4.89665528709156
 20
8.833167006486984
 10
4.896571121952829
 20
8.833153953694431
  0
LWPOLYLINE
  5
F52
330
2
100
AcDbEntity
  8
5
100
AcDbPolyline
 90
        3
 70
     0
 43
0.0
 10
4.923701537576446
 20
8.840343671254352
 10
4.910315676535928
 20
8.83679634040941
 10
4.896571121952829
 20
8.833153953694427
  0
LINE
  5
F53
330
2
100
AcDbEntity
  8
AM_VIS
 62
     7
100
AcDbLine
 10
4.827195633749139
 20
8.764560315894119
 30
0.0
 11
4.812195633749153
 21
8.764560315894119
 31
0.0
  0
LINE
  5
F54
330
2
100
AcDbEntity
  8
AM_VIS
 62
     7
100
AcDbLine
 10
4.832195633749163
 20
8.764560315894122
 30
0.0
 11
4.807195633749158
 21
8.764560315894126
 31
0.0
  0
LINE
  5
F55
330
2
100
AcDbEntity
  8
5
100
AcDbLine
 10
4.827195633749139
 20
8.851748358800175
 30
0.0
 11
4.812195633749153
 21
8.851748358800175
 31
0.0
  0
LINE
  5
F56
330
2
100
AcDbEntity
  8
5
100
AcDbLine
 10
4.827195633749139
 20
8.851748358800175
 30
0.0
 11
4.812195633749153
 21
8.851748358800175
 31
0.0
  0
LINE
  5
F57
330
2
100
AcDbEntity
  8
AM_VIS
 62
     7
100
AcDbLine
 10
4.832195633749163
 20
8.851748358800179
 30
0.0
 11
4.807195633749158
 21
8.851748358800179
 31
0.0
  0
LINE
  5
F58
330
2
100
AcDbEntity
  8
5
100
AcDbLine
 10
4.897695633749149
 20
8.856442576679963
 30
0.0
 11
4.832195633749163
 21
8.856442576679963
 31
0.0
  0
LINE
  5
F59
330
2
100
AcDbEntity
  8
5
100
AcDbLine
 10
4.832195633749163
 20
8.840343671254348
 30
0.0
 11
4.897695633749149
 21
8.840343671254348
 31
0.0
  0
LINE
  5
F5A
330
2
100
AcDbEntity
  8
5
100
AcDbLine
 10
4.832195633749163
 20
8.840343671254352
 30
0.0
 11
4.926996443204499
 21
8.840343671254352
 31
0.0
  0
LINE
  5
F5B
330
2
100
AcDbEntity
  8
5
100
AcDbLine
 10
4.832195633749163
 20
8.840343671254355
 30
0.0
 11
4.923701537576446
 21
8.840343671254352
 31
0.0
  0
LINE
  5
F5C
330
2
100
AcDbEntity
  8
5
100
AcDbLine
 10
4.980538931595274
 20
8.856442576679963
 30
0.0
 11
4.832195633749163
 21
8.856442576679963
 31
0.0
  0
LINE
  5
F5D
330
2
100
AcDbEntity
  8
5
100
AcDbLine
 10
4.966146433583928
 20
8.85644257667997
 30
0.0
 11
4.832195633749163
 21
8.85644257667997
 31
0.0
  0
LWPOLYLINE
  5
F5E
330
2
100
AcDbEntity
  8
AM_VIS
 62
     7
100
AcDbPolyline
 90
        3
 70
     0
 43
0.0
 10
4.926996443204499
 20
8.840343671254352
 10
4.939051949875276
 20
8.843576780156833
 10
4.954747377517206
 20
8.847786062124249
  0
LWPOLYLINE
  5
F5F
330
2
100
AcDbEntity
  8
5
100
AcDbPolyline
 90
        9
 70
     0
 43
0.0
 10
4.953452218748365
 20
8.851223707781738
 10
4.948902094162233
 20
8.849559694732249
 10
4.944517478264172
 20
8.847956209391735
 10
4.940336929140327
 20
8.846427352727609
 10
4.936397210324143
 20
8.844986569426549
 10
4.932732967499786
 20
8.843646529662624
 10
4.929376423829692
 20
8.842419017676423
 10
4.926357096585887
 20
8.841314828145062
 10
4.923701537576446
 20
8.840343671254352
  0
LWPOLYLINE
  5
F60
330
2
100
AcDbEntity
  8
AM_VIS
 62
     7
100
AcDbPolyline
 90
        9
 70
     0
 43
0.0
 10
4.924996696345287
 20
8.839807368670836
 10
4.927652255354756
 20
8.840519550390691
 10
4.930671582598561
 20
8.84132928938035
 10
4.934028126268627
 20
8.842229464836901
 10
4.937692369093012
 20
8.843212160663778
 10
4.941632087909168
 20
8.844268735084558
 10
4.945812637033013
 20
8.845389896638248
 10
4.950197252931074
 20
8.846565785887957
 10
4.954747377517206
 20
8.847786062124249
  0
LWPOLYLINE
  5
F61
330
2
100
AcDbEntity
  8
AM_VIS
 62
     7
100
AcDbPolyline
 90
        2
 70
     0
 43
0.0
 10
4.897695633749149
 20
8.740580038910895
 10
4.898016948260247
 20
8.740579865132701
  0
LINE
  5
F62
330
2
100
AcDbEntity
  8
AM_VIS
 62
     7
100
AcDbLine
 10
4.808445633749157
 20
8.498115348530514
 30
0.0
 11
5.120945633749157
 21
8.498115348530514
 31
0.0
  0
LINE
  5
F63
330
2
100
AcDbEntity
  8
AM_VIS
 62
     7
100
AcDbLine
 10
5.120945633749157
 20
8.542612694368731
 30
0.0
 11
4.808445633749157
 21
8.542612694368731
 31
0.0
  0
LINE
  5
F64
330
2
100
AcDbEntity
  8
AM_VIS
 62
     7
100
AcDbLine
 10
4.808445633749157
 20
8.559653443313244
 30
0.0
 11
5.120945633749157
 21
8.559653443313244
 31
0.0
  0
LINE
  5
F65
330
2
100
AcDbEntity
  8
5
100
AcDbLine
 10
5.120945633749157
 20
8.843670908914386
 30
0.0
 11
4.939402933989581
 21
8.843670908914386
 31
0.0
  0
LINE
  5
F66
330
2
100
AcDbEntity
  8
5
100
AcDbLine
 10
4.900187668548566
 20
8.833153953694427
 30
0.0
 11
5.120945633749157
 21
8.833153953694427
 31
0.0
  0
LINE
  5
F67
330
2
100
AcDbEntity
  8
AM_VIS
 62
     7
100
AcDbLine
 10
4.808445633749157
 20
8.717184241691544
 30
0.0
 11
5.120945633749157
 21
8.717184241691544
 31
0.0
  0
LINE
  5
F68
330
2
100
AcDbEntity
  8
5
100
AcDbLine
 10
5.120945633749157
 20
8.833153953694434
 30
0.0
 11
4.896571121952858
 21
8.833153953694434
 31
0.0
  0
LINE
  5
F69
330
2
100
AcDbEntity
  8
5
100
AcDbLine
 10
5.120945633749157
 20
8.843670908914386
 30
0.0
 11
4.939402933989581
 21
8.843670908914386
 31
0.0
  0
LINE
  5
F6A
330
2
100
AcDbEntity
  8
0
100
AcDbLine
 10
5.342999999999987
 20
8.498018666661103
 30
0.0
 11
5.263000000000003
 21
8.498018666661103
 31
0.0
  0
LWPOLYLINE
  5
F6B
330
2
100
AcDbEntity
  8
AM_VIS
 62
     7
100
AcDbPolyline
 90
        7
 70
     0
 43
0.0
 10
4.100916789667364
 20
8.826573392296275
 10
4.100820651613899
 20
8.824724515428723
 10
4.100532731992243
 20
8.822928254312039
 10
4.099978603668487
 20
8.821531578969509
 10
4.099417090340976
 20
8.820818972591375
 10
4.098725244672804
 20
8.820326342222298
 10
4.098658060452974
 20
8.820292654642781
  0
LWPOLYLINE
  5
F6C
330
2
100
AcDbEntity
  8
AM_VIS
 62
     7
100
AcDbPolyline
 90
        2
 70
     0
 43
0.0
 10
4.100945633749146
 20
8.829005488115686
 10
4.100916789667364
 20
8.826573392296268
  0
LWPOLYLINE
  5
F6D
330
2
100
AcDbEntity
  8
AM_VIS
 62
     7
100
AcDbPolyline
 90
        6
 70
     0
 43
0.0
 10
4.098658060452974
 20
8.820292654642781
 10
4.097277672771808
 20
8.819730396864574
 10
4.095383995615234
 20
8.819197549151081
 10
4.093222589016532
 20
8.818801450356058
 10
4.09088110027835
 20
8.818557949079561
 10
4.088445633749129
 20
8.818475701913907
  0
LINE
  5
F6E
330
2
100
AcDbEntity
  8
AM_VIS
 62
     7
100
AcDbLine
 10
4.100945633749146
 20
8.840343671254348
 30
0.0
 11
4.100945633749146
 21
8.856442576679963
 31
0.0
  0
LINE
  5
F6F
330
2
100
AcDbEntity
  8
AM_VIS
 62
     7
100
AcDbLine
 10
4.127695633749139
 20
8.740571449187402
 30
0.0
 11
4.127695633749139
 21
8.74058003891087
 31
0.0
  0
LINE
  5
F70
330
2
100
AcDbEntity
  8
AM_VIS
 62
     7
100
AcDbLine
 10
4.100945633749146
 20
8.61255647844084
 30
0.0
 11
4.100945633749146
 21
8.641901326846809
 31
0.0
  0
LINE
  5
F71
330
2
100
AcDbEntity
  8
AM_VIS
 62
     7
100
AcDbLine
 10
4.100945633749146
 20
8.734685812989457
 30
0.0
 11
4.100945633749146
 21
8.668570149925109
 31
0.0
  0
LWPOLYLINE
  5
F72
330
2
100
AcDbEntity
  8
AM_VIS
 62
     7
100
AcDbPolyline
 90
        6
 70
     0
 43
0.0
 10
4.088445633749129
 20
8.732231135200851
 10
4.09088110027835
 20
8.73238570931015
 10
4.093222589016532
 20
8.732843342015502
 10
4.095383995615234
 20
8.733587764245068
 10
4.097277672771808
 20
8.734589190373817
 10
4.098658060452974
 20
8.735645889344123
  0
LWPOLYLINE
  5
F73
330
2
100
AcDbEntity
  8
AM_VIS
 62
     7
100
AcDbPolyline
 90
        7
 70
     0
 43
0.0
 10
4.098658060452974
 20
8.735645889344123
 10
4.098914576425981
 20
8.735880317042234
 10
4.099410579711301
 20
8.736328562552444
 10
4.099883875753986
 20
8.736732635574483
 10
4.100438924777192
 20
8.737085835329363
 10
4.100804107517573
 20
8.736894329570798
 10
4.100916789667364
 20
8.736055415008209
  0
LWPOLYLINE
  5
F74
330
2
100
AcDbEntity
  8
AM_VIS
 62
     7
100
AcDbPolyline
 90
        2
 70
     0
 43
0.0
 10
4.100916789667364
 20
8.73605541500822
 10
4.100945633749146
 20
8.734685812989457
  0
LWPOLYLINE
  5
F75
330
2
100
AcDbEntity
  8
AM_VIS
 62
     7
100
AcDbPolyline
 90
        2
 70
     0
 43
0.0
 10
4.100945633749146
 20
8.668570149925105
 10
4.100916789667364
 20
8.666345370684386
  0
LWPOLYLINE
  5
F76
330
2
100
AcDbEntity
  8
AM_VIS
 62
     7
100
AcDbPolyline
 90
        6
 70
     0
 43
0.0
 10
4.098658060452974
 20
8.659041445032237
 10
4.097277672771808
 20
8.65798474606192
 10
4.095383995615234
 20
8.656983319933171
 10
4.093222589016532
 20
8.656238897703605
 10
4.09088110027835
 20
8.65578126499825
 10
4.088445633749129
 20
8.655626690888954
  0
LWPOLYLINE
  5
F77
330
2
100
AcDbEntity
  8
AM_VIS
 62
     7
100
AcDbPolyline
 90
        8
 70
     0
 43
0.0
 10
4.100916789667364
 20
8.666345370684393
 10
4.10091218068865
 20
8.666183155091125
 10
4.100832406649486
 20
8.664692705103487
 10
4.100563324450147
 20
8.662756740509031
 10
4.099999363774854
 20
8.660955258145296
 10
4.099469403592904
 20
8.6599882706527
 10
4.098866561893457
 20
8.659243471327613
 10
4.098658060452974
 20
8.659041445032237
  0
LINE
  5
F78
330
2
100
AcDbEntity
  8
AM_VIS
 62
     7
100
AcDbLine
 10
4.100945633749146
 20
8.702975926502407
 30
0.0
 11
4.100945633749146
 21
8.74058003891087
 31
0.0
  0
LINE
  5
F79
330
2
100
AcDbEntity
  8
AM_VIS
 62
     7
100
AcDbLine
 10
4.100945633749146
 20
8.702975926502407
 30
0.0
 11
4.100945633749146
 21
8.678264878782286
 31
0.0
  0
LINE
  5
F7A
330
2
100
AcDbEntity
  8
AM_VIS
 62
     7
100
AcDbLine
 10
4.100945633749146
 20
8.641901326846809
 30
0.0
 11
4.100945633749146
 21
8.678264878782286
 31
0.0
  0
ARC
  5
F7B
330
2
100
AcDbEntity
  8
AM_VIS
 62
     7
100
AcDbCircle
 10
4.088445633749158
 20
8.500518666661061
 30
0.0
 40
0.0125
100
AcDbArc
 50
270.0
 51
0.0
  0
LINE
  5
F7C
330
2
100
AcDbEntity
  8
AM_VIS
 62
     7
100
AcDbLine
 10
4.100945633749146
 20
8.503172634444066
 30
0.0
 11
4.100945633749146
 21
8.500518666661061
 31
0.0
  0
LWPOLYLINE
  5
F7D
330
2
100
AcDbEntity
  8
AM_VIS
 62
     7
100
AcDbPolyline
 90
        2
 70
     0
 43
0.0
 10
4.100945633749146
 20
8.503172634444066
 10
4.100916789667364
 20
8.502110140643406
  0
LWPOLYLINE
  5
F7E
330
2
100
AcDbEntity
  8
AM_VIS
 62
     7
100
AcDbPolyline
 90
        6
 70
     0
 43
0.0
 10
4.098658060452974
 20
8.49541987732584
 10
4.097277672771808
 20
8.493800920577314
 10
4.095383995615234
 20
8.492266646735071
 10
4.093222589016532
 20
8.491126125710483
 10
4.09088110027835
 20
8.490424991728634
 10
4.088445633749129
 20
8.490188170453677
  0
LWPOLYLINE
  5
F7F
330
2
100
AcDbEntity
  8
AM_VIS
 62
     7
100
AcDbPolyline
 90
        8
 70
     0
 43
0.0
 10
4.100916789667364
 20
8.502110140643413
 10
4.1008716491186
 20
8.501507727310897
 10
4.100759714785906
 20
8.500628269764696
 10
4.100422001513264
 20
8.499102693747612
 10
4.099847983468974
 20
8.497512467077005
 10
4.099429899317696
 20
8.49665830736059
 10
4.099063402082974
 20
8.496027168992672
 10
4.098658060452974
 20
8.49541987732584
  0
LWPOLYLINE
  5
F80
330
2
100
AcDbEntity
  8
AM_VIS
 62
     7
100
AcDbPolyline
 90
        2
 70
     0
 43
0.0
 10
4.100916789667364
 20
8.502110140643402
 10
4.100945633749146
 20
8.503172634444066
  0
LINE
  5
F81
330
2
100
AcDbEntity
  8
AM_VIS
 62
     7
100
AcDbLine
 10
4.100945633749146
 20
8.555409587396923
 30
0.0
 11
4.100945633749146
 21
8.518159838527971
 31
0.0
  0
LWPOLYLINE
  5
F82
330
2
100
AcDbEntity
  8
AM_VIS
 62
     7
100
AcDbPolyline
 90
        2
 70
     0
 43
0.0
 10
4.100945633749146
 20
8.555409587396923
 10
4.100916789667364
 20
8.553660465945572
  0
LWPOLYLINE
  5
F83
330
2
100
AcDbEntity
  8
AM_VIS
 62
     7
100
AcDbPolyline
 90
        6
 70
     0
 43
0.0
 10
4.098658060452974
 20
8.546214313522874
 10
4.097277672771808
 20
8.544790626851479
 10
4.095383995615234
 20
8.543441409078081
 10
4.093222589016532
 20
8.542438451721356
 10
4.09088110027835
 20
8.541821884845351
 10
4.088445633749129
 20
8.541613627711267
  0
LWPOLYLINE
  5
F84
330
2
100
AcDbEntity
  8
AM_VIS
 62
     7
100
AcDbPolyline
 90
        8
 70
     0
 43
0.0
 10
4.100916789667364
 20
8.553660465945583
 10
4.100856303821755
 20
8.552549092643143
 10
4.100677947166898
 20
8.551049877883617
 10
4.100104721605474
 20
8.548813886729153
 10
4.099611406823326
 20
8.547681326135435
 10
4.099195715160957
 20
8.546958838354882
 10
4.098725286051715
 20
8.54629826709246
 10
4.098658060452974
 20
8.546214313522874
  0
LWPOLYLINE
  5
F85
330
2
100
AcDbEntity
  8
AM_VIS
 62
     7
100
AcDbPolyline
 90
        6
 70
     0
 43
0.0
 10
4.088445633749129
 20
8.507552988220371
 10
4.09088110027835
 20
8.507789809495328
 10
4.093222589016532
 20
8.508490943477177
 10
4.095383995615234
 20
8.509631464501762
 10
4.097277672771808
 20
8.511165738344008
 10
4.098658060452974
 20
8.512784695092516
  0
LWPOLYLINE
  5
F86
330
2
100
AcDbEntity
  8
AM_VIS
 62
     7
100
AcDbPolyline
 90
        7
 70
     0
 43
0.0
 10
4.098658060452974
 20
8.512784695092516
 10
4.09896900421492
 20
8.513237050917265
 10
4.09953919172298
 20
8.514172128100437
 10
4.100064620731386
 20
8.51521068534409
 10
4.100617329139508
 20
8.516667619692075
 10
4.100873796918589
 20
8.517692552878624
 10
4.100916789667364
 20
8.517912124811086
  0
LWPOLYLINE
  5
F87
330
2
100
AcDbEntity
  8
AM_VIS
 62
     7
100
AcDbPolyline
 90
        2
 70
     0
 43
0.0
 10
4.100916789667364
 20
8.517912124811086
 10
4.100945633749146
 20
8.518159838527971
  0
LWPOLYLINE
  5
F88
330
2
100
AcDbEntity
  8
AM_VIS
 62
     7
100
AcDbPolyline
 90
        6
 70
     0
 43
0.0
 10
4.088445633749129
 20
8.591613627711264
 10
4.09088110027835
 20
8.591821884845355
 10
4.093222589016532
 20
8.592438451721356
 10
4.095383995615234
 20
8.593441409078081
 10
4.097277672771808
 20
8.59479062685148
 10
4.098658060452974
 20
8.59621431352286
  0
LWPOLYLINE
  5
F89
330
2
100
AcDbEntity
  8
AM_VIS
 62
     7
100
AcDbPolyline
 90
        7
 70
     0
 43
0.0
 10
4.098658060452974
 20
8.59621431352286
 10
4.098957182640644
 20
8.596590928792107
 10
4.099590255220332
 20
8.597448771521147
 10
4.100143404300466
 20
8.59828118550692
 10
4.10067437404953
 20
8.599145088542268
 10
4.100892215606192
 20
8.599293539815462
 10
4.100916789667364
 20
8.599160465945566
  0
LWPOLYLINE
  5
F8A
330
2
100
AcDbEntity
  8
AM_VIS
 62
     7
100
AcDbPolyline
 90
        2
 70
     0
 43
0.0
 10
4.100916789667364
 20
8.599160465945576
 10
4.100945633749146
 20
8.598563521648543
  0
LINE
  5
F8B
330
2
100
AcDbEntity
  8
AM_VIS
 62
     7
100
AcDbLine
 10
4.100945633749146
 20
8.598563521648543
 30
0.0
 11
4.100945633749146
 21
8.555409587396923
 31
0.0
  0
LINE
  5
F8C
330
2
100
AcDbEntity
  8
AM_VIS
 62
     7
100
AcDbLine
 10
4.100945633749146
 20
8.518159838527971
 30
0.0
 11
4.100945633749146
 21
8.503172634444066
 31
0.0
  0
LINE
  5
F8D
330
2
100
AcDbEntity
  8
AM_VIS
 62
     7
100
AcDbLine
 10
4.100945633749146
 20
8.503153110741049
 30
0.0
 11
4.100945633749146
 21
8.516880942399186
 31
0.0
  0
LINE
  5
F8E
330
2
100
AcDbEntity
  8
AM_VIS
 62
     7
100
AcDbLine
 10
4.100945633749146
 20
8.499220564813455
 30
0.0
 11
4.100945633749146
 21
8.503153110741049
 31
0.0
  0
LINE
  5
F8F
330
2
100
AcDbEntity
  8
AM_VIS
 62
     7
100
AcDbLine
 10
4.100945633749146
 20
8.498115348530514
 30
0.0
 11
4.100945633749146
 21
8.499220564813455
 31
0.0
  0
LINE
  5
F90
330
2
100
AcDbEntity
  8
AM_VIS
 62
     7
100
AcDbLine
 10
4.100945633749146
 20
8.556008310087545
 30
0.0
 11
4.100945633749146
 21
8.574295832225647
 31
0.0
  0
LINE
  5
F91
330
2
100
AcDbEntity
  8
AM_VIS
 62
     7
100
AcDbLine
 10
4.100945633749146
 20
8.554900620721149
 30
0.0
 11
4.100945633749146
 21
8.556008310087545
 31
0.0
  0
LINE
  5
F92
330
2
100
AcDbEntity
  8
AM_VIS
 62
     7
100
AcDbLine
 10
4.100945633749146
 20
8.554900620721149
 30
0.0
 11
4.100945633749146
 21
8.554518666661074
 31
0.0
  0
LINE
  5
F93
330
2
100
AcDbEntity
  8
AM_VIS
 62
     7
100
AcDbLine
 10
4.100945633749146
 20
8.528515470571456
 30
0.0
 11
4.100945633749146
 21
8.554518666661074
 31
0.0
  0
LINE
  5
F94
330
2
100
AcDbEntity
  8
AM_VIS
 62
     7
100
AcDbLine
 10
4.100945633749146
 20
8.516880942399186
 30
0.0
 11
4.100945633749146
 21
8.528515470571456
 31
0.0
  0
LINE
  5
F95
330
2
100
AcDbEntity
  8
AM_VIS
 62
     7
100
AcDbLine
 10
4.100945633749146
 20
8.668570149925109
 30
0.0
 11
4.100945633749146
 21
8.598563521648543
 31
0.0
  0
LINE
  5
F96
330
2
100
AcDbEntity
  8
AM_VIS
 62
     7
100
AcDbLine
 10
4.100945633749146
 20
8.574295832225647
 30
0.0
 11
4.100945633749146
 21
8.61255647844084
 31
0.0
  0
LINE
  5
F97
330
2
100
AcDbEntity
  8
AM_VIS
 62
     7
100
AcDbLine
 10
4.100945633749146
 20
8.829005488115686
 30
0.0
 11
4.100945633749146
 21
8.734685812989457
 31
0.0
  0
LINE
  5
F98
330
2
100
AcDbEntity
  8
AM_VIS
 62
     7
100
AcDbLine
 10
4.100945633749146
 20
8.840343671254348
 30
0.0
 11
4.100945633749146
 21
8.74058003891087
 31
0.0
  0
LINE
  5
F99
330
2
100
AcDbEntity
  8
5
100
AcDbLine
 10
4.994478472487513
 20
8.83497514705192
 30
0.0
 11
4.741664396761732
 21
8.767174144470839
 31
0.0
  0
LINE
  5
F9A
330
2
100
AcDbEntity
  8
AM_VIS
 62
     7
100
AcDbLine
 10
4.100945633749146
 20
8.740580038910866
 30
0.0
 11
5.120945633749157
 21
8.740580038910866
 31
0.0
  0
LINE
  5
F9B
330
2
100
AcDbEntity
  8
AM_VIS
 62
     7
100
AcDbLine
 10
4.100945633749146
 20
8.498115348530514
 30
0.0
 11
4.808445633749157
 21
8.498115348530514
 31
0.0
  0
LINE
  5
F9C
330
2
100
AcDbEntity
  8
AM_VIS
 62
     7
100
AcDbLine
 10
4.100945633749146
 20
8.559629849094353
 30
0.0
 11
4.808445633749157
 21
8.559629849094353
 31
0.0
  0
LINE
  5
F9D
330
2
100
AcDbEntity
  8
AM_VIS
 62
     7
100
AcDbLine
 10
4.808445633749157
 20
8.542592728332682
 30
0.0
 11
4.100945633749146
 21
8.542592728332682
 31
0.0
  0
LINE
  5
F9E
330
2
100
AcDbEntity
  8
5
100
AcDbLine
 10
4.894695633749163
 20
8.856442576679963
 30
0.0
 11
4.17769563374915
 21
8.856442576679963
 31
0.0
  0
LINE
  5
F9F
330
2
100
AcDbEntity
  8
5
100
AcDbLine
 10
4.17769563374915
 20
8.840343671254348
 30
0.0
 11
4.894695633749163
 21
8.840343671254348
 31
0.0
  0
LINE
  5
FA0
330
2
100
AcDbEntity
  8
5
100
AcDbLine
 10
4.150945633749158
 20
8.840343671254348
 30
0.0
 11
4.808445633749157
 21
8.840343671254348
 31
0.0
  0
LINE
  5
FA1
330
2
100
AcDbEntity
  8
5
100
AcDbLine
 10
4.808445633749157
 20
8.856442576679963
 30
0.0
 11
4.150945633749158
 21
8.856442576679963
 31
0.0
  0
LINE
  5
FA2
330
2
100
AcDbEntity
  8
5
100
AcDbLine
 10
4.894695633749163
 20
8.856442576679963
 30
0.0
 11
4.100945633749146
 21
8.856442576679963
 31
0.0
  0
LINE
  5
FA3
330
2
100
AcDbEntity
  8
5
100
AcDbLine
 10
4.100945633749146
 20
8.840343671254352
 30
0.0
 11
4.894695633749163
 21
8.840343671254352
 31
0.0
  0
LINE
  5
FA4
330
2
100
AcDbEntity
  8
AM_VIS
 62
     7
100
AcDbLine
 10
4.100945633749146
 20
8.71708890677457
 30
0.0
 11
4.808445633749157
 21
8.71708890677457
 31
0.0
  0
LINE
  5
FA5
330
2
100
AcDbEntity
  8
0
100
AcDbLine
 10
5.465499999999989
 20
8.548018666661107
 30
0.0
 11
5.809041434669341
 21
8.548018666661107
 31
0.0
  0
LINE
  5
FA6
330
2
100
AcDbEntity
  8
AM_VIS
 62
     7
100
AcDbLine
 10
4.088445633749158
 20
9.630849162868472
 30
0.0
 11
3.480945633749142
 21
9.630849162868472
 31
0.0
  0
LINE
  5
FA7
330
2
100
AcDbEntity
  8
AM_VIS
 62
     7
100
AcDbLine
 10
3.480945633749142
 20
9.388806198121297
 30
0.0
 11
4.088445633749158
 21
9.388806198121297
 31
0.0
  0
LINE
  5
FA8
330
2
100
AcDbEntity
  8
AM_VIS
 62
     7
100
AcDbLine
 10
3.480945633749142
 20
9.63301866666109
 30
0.0
 11
4.088445633749158
 21
9.63301866666109
 31
0.0
  0
LINE
  5
FA9
330
2
100
AcDbEntity
  8
AM_VIS
 62
     7
100
AcDbLine
 10
4.088445633749158
 20
9.465410642433194
 30
0.0
 11
3.480945633749113
 21
9.465410642433194
 31
0.0
  0
LWPOLYLINE
  5
FAA
330
2
100
AcDbEntity
  8
AM_VIS
 62
     7
100
AcDbPolyline
 90
        6
 70
     0
 43
0.0
 10
4.088445633749129
 20
9.579423705610881
 10
3.468393793942935
 20
9.579423705610881
 10
3.457058374430145
 20
9.57412135319927
 10
3.455651222952125
 20
9.573366507369907
 10
3.453907633701247
 20
9.5722780627122
 10
3.450945633749141
 20
9.569893976562887
  0
LINE
  5
FAB
330
2
100
AcDbEntity
  8
AM_VIS
 62
     7
100
AcDbLine
 10
3.467879857204023
 20
9.613484345101777
 30
0.0
 11
4.088445633749158
 21
9.613484345101777
 31
0.0
  0
LINE
  5
FAC
330
2
100
AcDbEntity
  8
AM_VIS
 62
     7
100
AcDbLine
 10
3.469131708465281
 20
9.529423705610884
 30
0.0
 11
4.088445633749158
 21
9.529423705610884
 31
0.0
  0
LINE
  5
FAD
330
2
100
AcDbEntity
  8
AM_VIS
 62
     7
100
AcDbLine
 10
4.088445633749158
 20
9.302561631408241
 30
0.0
 11
3.480945633749142
 21
9.302561631408241
 31
0.0
  0
LINE
  5
FAE
330
2
100
AcDbEntity
  8
AM_VIS
 62
     7
100
AcDbLine
 10
3.480945633749142
 20
9.208592369329654
 30
0.0
 11
4.088445633749158
 21
9.208592369329654
 31
0.0
  0
LINE
  5
FAF
330
2
100
AcDbEntity
  8
AM_VIS
 62
     7
100
AcDbLine
 10
4.088445633749158
 20
9.110518666661072
 30
0.0
 11
3.480945633749142
 21
9.110518666661072
 31
0.0
  0
LINE
  5
FB0
330
2
100
AcDbEntity
  8
AM_VIS
 62
     7
100
AcDbLine
 10
4.088445633749158
 20
9.010518666661081
 30
0.0
 11
3.480945633749142
 21
9.010518666661081
 31
0.0
  0
LINE
  5
FB1
330
2
100
AcDbEntity
  8
AM_VIS
 62
     7
100
AcDbLine
 10
3.480945633749142
 20
8.912444963992498
 30
0.0
 11
4.088445633749158
 21
8.912444963992498
 31
0.0
  0
ARC
  5
FB2
330
2
100
AcDbEntity
  8
AM_VIS
 62
     7
100
AcDbCircle
 10
3.480945633749142
 20
9.583018666661089
 30
0.0
 40
0.05
100
AcDbArc
 50
90.0
 51
126.8698976458436
  0
LWPOLYLINE
  5
FB3
330
2
100
AcDbEntity
  8
AM_VIS
 62
     7
100
AcDbPolyline
 90
        6
 70
     0
 43
0.0
 10
3.458558403973965
 20
9.625617455996309
 10
3.458328395225434
 20
9.625502760197704
 10
3.457003994518769
 20
9.624809333295143
 10
3.455754344737242
 20
9.624100901598318
 10
3.454094277831044
 20
9.623071349303337
 10
3.450945633749141
 20
9.620790269604949
  0
LWPOLYLINE
  5
FB4
330
2
100
AcDbEntity
  8
AM_VIS
 62
     7
100
AcDbPolyline
 90
        4
 70
     0
 43
0.0
 10
3.480945633749142
 20
9.630849162868472
 10
3.471204297820774
 20
9.629901977304083
 10
3.461838834561488
 20
9.627097687331676
 10
3.458558403973965
 20
9.625617455996309
  0
LINE
  5
FB5
330
2
100
AcDbEntity
  8
AM_VIS
 62
     7
100
AcDbLine
 10
3.450945633749141
 20
9.618927192678743
 30
0.0
 11
3.450945633749141
 21
9.604109538603772
 31
0.0
  0
LINE
  5
FB6
330
2
100
AcDbEntity
  8
AM_VIS
 62
     7
100
AcDbLine
 10
3.450945633749141
 20
9.567376867376573
 30
0.0
 11
3.450945633749141
 21
9.521876867376573
 31
0.0
  0
LINE
  5
FB7
330
2
100
AcDbEntity
  8
AM_VIS
 62
     7
100
AcDbLine
 10
3.450945633749141
 20
9.52187686737658
 30
0.0
 11
3.450945633749141
 21
9.521863725899461
 31
0.0
  0
LINE
  5
FB8
330
2
100
AcDbEntity
  8
AM_VIS
 62
     7
100
AcDbLine
 10
3.450945633749141
 20
9.569893976562887
 30
0.0
 11
3.450945633749141
 21
9.567376867376566
 31
0.0
  0
LINE
  5
FB9
330
2
100
AcDbEntity
  8
AM_VIS
 62
     7
100
AcDbLine
 10
3.450945633749141
 20
9.604109538603772
 30
0.0
 11
3.450945633749141
 21
9.569893976562887
 31
0.0
  0
LINE
  5
FBA
330
2
100
AcDbEntity
  8
AM_VIS
 62
     7
100
AcDbLine
 10
3.450945633749141
 20
9.620790269604952
 30
0.0
 11
3.450945633749141
 21
9.618927192678736
 31
0.0
  0
LINE
  5
FBB
330
2
100
AcDbEntity
  8
AM_VIS
 62
     7
100
AcDbLine
 10
3.450945633749141
 20
9.623018666661089
 30
0.0
 11
3.450945633749141
 21
9.620790269604952
 31
0.0
  0
LWPOLYLINE
  5
FBC
330
2
100
AcDbEntity
  8
AM_VIS
 62
     7
100
AcDbPolyline
 90
        5
 70
     0
 43
0.0
 10
3.450945633749141
 20
9.521863725899464
 10
3.452992884615808
 20
9.522499667734194
 10
3.4551017215349
 20
9.523334817347617
 10
3.45714943854716
 20
9.524209946823503
 10
3.469131708465281
 20
9.529423705610884
  0
LWPOLYLINE
  5
FBD
330
2
100
AcDbEntity
  8
AM_VIS
 62
     7
100
AcDbPolyline
 90
        6
 70
     0
 43
0.0
 10
3.450945633749141
 20
9.604109538603776
 10
3.45240366951401
 20
9.604930754050609
 10
3.453873401761027
 20
9.605762971655209
 10
3.455777748787538
 20
9.606812785765811
 10
3.457694622300634
 20
9.607818699074101
 10
3.468972427366393
 20
9.613484345101777
  0
LWPOLYLINE
  5
FBE
330
2
100
AcDbEntity
  8
AM_VIS
 62
     7
100
AcDbPolyline
 90
        6
 70
     0
 43
0.0
 10
3.450945633749141
 20
9.383972890323075
 10
3.452463570073431
 20
9.383959018161924
 10
3.454700200574732
 20
9.384310527096442
 10
3.456344191422514
 20
9.38472208782257
 10
3.458021007810456
 20
9.385220106939303
 10
3.458558403973993
 20
9.385391443978022
  0
LINE
  5
FBF
330
2
100
AcDbEntity
  8
AM_VIS
 62
     7
100
AcDbLine
 10
3.450945633749141
 20
9.38498191831394
 30
0.0
 11
3.450945633749141
 21
9.383972890323075
 31
0.0
  0
LWPOLYLINE
  5
FC0
330
2
100
AcDbEntity
  8
AM_VIS
 62
     7
100
AcDbPolyline
 90
        5
 70
     0
 43
0.0
 10
3.458558403973965
 20
9.461995888289909
 10
3.457425177959747
 20
9.461598474647647
 10
3.45550767707226
 20
9.460765839232081
 10
3.453538746744355
 20
9.45964780782749
 10
3.450945633749141
 20
9.457559503567733
  0
LWPOLYLINE
  5
FC1
330
2
100
AcDbEntity
  8
AM_VIS
 62
     7
100
AcDbPolyline
 90
        4
 70
     0
 43
0.0
 10
3.480945633749142
 20
9.465410642433194
 10
3.471204297820774
 20
9.464792410963145
 10
3.461838834561488
 20
9.462962040677453
 10
3.458558403973965
 20
9.461995888289909
  0
LWPOLYLINE
  5
FC2
330
2
100
AcDbEntity
  8
AM_VIS
 62
     7
100
AcDbPolyline
 90
        4
 70
     0
 43
0.0
 10
3.458558403973993
 20
9.385391443978022
 10
3.461838834561488
 20
9.386357596365556
 10
3.471204297820774
 20
9.388187966651244
 10
3.480945633749142
 20
9.388806198121297
  0
LINE
  5
FC3
330
2
100
AcDbEntity
  8
AM_VIS
 62
     7
100
AcDbLine
 10
3.450945633749141
 20
9.45469196263776
 30
0.0
 11
3.450945633749141
 21
9.384981918313933
 31
0.0
  0
LINE
  5
FC4
330
2
100
AcDbEntity
  8
AM_VIS
 62
     7
100
AcDbLine
 10
3.450945633749141
 20
9.457559503567733
 30
0.0
 11
3.450945633749141
 21
9.454691962637756
 31
0.0
  0
LINE
  5
FC5
330
2
100
AcDbEntity
  8
AM_VIS
 62
     7
100
AcDbLine
 10
3.450945633749141
 20
9.521863725899461
 30
0.0
 11
3.450945633749141
 21
9.457559503567733
 31
0.0
  0
LINE
  5
FC6
330
2
100
AcDbEntity
  8
AM_VIS
 62
     7
100
AcDbLine
 10
3.450945633749141
 20
9.294463941025878
 30
0.0
 11
3.450945633749141
 21
9.208951912534359
 31
0.0
  0
LWPOLYLINE
  5
FC7
330
2
100
AcDbEntity
  8
AM_VIS
 62
     7
100
AcDbPolyline
 90
        5
 70
     0
 43
0.0
 10
3.458558403973965
 20
9.300744678679365
 10
3.457616149666561
 20
9.300561251643845
 10
3.455507688911778
 20
9.29997227525688
 10
3.453462908768498
 20
9.29909267839314
 10
3.450945633749141
 20
9.297336045942959
  0
LWPOLYLINE
  5
FC8
330
2
100
AcDbEntity
  8
AM_VIS
 62
     7
100
AcDbPolyline
 90
        4
 70
     0
 43
0.0
 10
3.480945633749142
 20
9.302561631408241
 10
3.471204297820774
 20
9.302232677313906
 10
3.461838834561488
 20
9.301258757627191
 10
3.458558403973965
 20
9.300744678679365
  0
LINE
  5
FC9
330
2
100
AcDbEntity
  8
AM_VIS
 62
     7
100
AcDbLine
 10
3.450945633749141
 20
9.297336045942959
 30
0.0
 11
3.450945633749141
 21
9.294463941025874
 31
0.0
  0
LWPOLYLINE
  5
FCA
330
2
100
AcDbEntity
  8
AM_VIS
 62
     7
100
AcDbPolyline
 90
        4
 70
     0
 43
0.0
 10
3.458558403973993
 20
9.20677541660078
 10
3.461819823897
 20
9.207286794806677
 10
3.471194204200001
 20
9.208262726500336
 10
3.480945633749142
 20
9.20859236932965
  0
LINE
  5
FCB
330
2
100
AcDbEntity
  8
AM_VIS
 62
     7
100
AcDbLine
 10
3.450945633749141
 20
9.208951912534363
 30
0.0
 11
3.450945633749141
 21
9.207068701697121
 31
0.0
  0
LINE
  5
FCC
330
2
100
AcDbEntity
  8
AM_VIS
 62
     7
100
AcDbLine
 10
3.450945633749141
 20
9.106018666661068
 30
0.0
 11
3.450945633749141
 21
9.060518666661074
 31
0.0
  0
LWPOLYLINE
  5
FCD
330
2
100
AcDbEntity
  8
AM_VIS
 62
     7
100
AcDbPolyline
 90
        5
 70
     0
 43
0.0
 10
3.458558403973965
 20
9.110518666661068
 10
3.45708866860073
 20
9.110471607458347
 10
3.455619036159587
 20
9.110314303174902
 10
3.453844888246633
 20
9.109929920190467
 10
3.450945633749141
 20
9.108548917324505
  0
LWPOLYLINE
  5
FCE
330
2
100
AcDbEntity
  8
AM_VIS
 62
     7
100
AcDbPolyline
 90
        4
 70
     0
 43
0.0
 10
3.480945633749142
 20
9.110518666661068
 10
3.471194204200001
 20
9.110518666661068
 10
3.461819823897
 20
9.110518666661068
 10
3.458558403973965
 20
9.110518666661068
  0
LINE
  5
FCF
330
2
100
AcDbEntity
  8
AM_VIS
 62
     7
100
AcDbLine
 10
3.450945633749141
 20
9.108548917324505
 30
0.0
 11
3.450945633749141
 21
9.106018666661068
 31
0.0
  0
LINE
  5
FD0
330
2
100
AcDbEntity
  8
AM_VIS
 62
     7
100
AcDbLine
 10
3.450945633749141
 20
9.207068701697121
 30
0.0
 11
3.450945633749141
 21
9.108548917324505
 31
0.0
  0
LWPOLYLINE
  5
FD1
330
2
100
AcDbEntity
  8
AM_VIS
 62
     7
100
AcDbPolyline
 90
        6
 70
     0
 43
0.0
 10
3.450945633749141
 20
9.207068701697114
 10
3.453649845233512
 20
9.206436330071287
 10
3.455478626227401
 20
9.206418079313458
 10
3.456815305136329
 20
9.20652598160883
 10
3.458191768356469
 20
9.206714415314504
 10
3.458558403973993
 20
9.20677541660078
  0
LINE
  5
FD2
330
2
100
AcDbEntity
  8
AM_VIS
 62
     7
100
AcDbLine
 10
3.450945633749141
 20
9.383972890323075
 30
0.0
 11
3.450945633749141
 21
9.297336045942959
 31
0.0
  0
LINE
  5
FD3
330
2
100
AcDbEntity
  8
AM_VIS
 62
     7
100
AcDbLine
 10
3.450945633749141
 20
8.913968631625028
 30
0.0
 11
3.450945633749141
 21
9.012488415997644
 31
0.0
  0
LWPOLYLINE
  5
FD4
330
2
100
AcDbEntity
  8
AM_VIS
 62
     7
100
AcDbPolyline
 90
        6
 70
     0
 43
0.0
 10
3.450945633749141
 20
8.913968631625031
 10
3.453649845233512
 20
8.914601003250862
 10
3.455478626227401
 20
8.914619254008691
 10
3.456815305136329
 20
8.914511351713318
 10
3.458191768356469
 20
8.914322918007641
 10
3.458558403973993
 20
8.914261916721368
  0
LINE
  5
FD5
330
2
100
AcDbEntity
  8
AM_VIS
 62
     7
100
AcDbLine
 10
3.450945633749141
 20
9.012488415997644
 30
0.0
 11
3.450945633749141
 21
9.015018666661081
 31
0.0
  0
LWPOLYLINE
  5
FD6
330
2
100
AcDbEntity
  8
AM_VIS
 62
     7
100
AcDbPolyline
 90
        4
 70
     0
 43
0.0
 10
3.480945633749142
 20
9.010518666661077
 10
3.471194204200001
 20
9.010518666661077
 10
3.461819823897
 20
9.010518666661077
 10
3.458558403973965
 20
9.010518666661077
  0
LWPOLYLINE
  5
FD7
330
2
100
AcDbEntity
  8
AM_VIS
 62
     7
100
AcDbPolyline
 90
        5
 70
     0
 43
0.0
 10
3.458558403973965
 20
9.010518666661077
 10
3.45708866860073
 20
9.010565725863802
 10
3.455619036159587
 20
9.010723030147246
 10
3.453844888246633
 20
9.011107413131682
 10
3.450945633749141
 20
9.012488415997641
  0
LINE
  5
FD8
330
2
100
AcDbEntity
  8
AM_VIS
 62
     7
100
AcDbLine
 10
3.450945633749141
 20
8.912085420787786
 30
0.0
 11
3.450945633749141
 21
8.913968631625028
 31
0.0
  0
LWPOLYLINE
  5
FD9
330
2
100
AcDbEntity
  8
AM_VIS
 62
     7
100
AcDbPolyline
 90
        4
 70
     0
 43
0.0
 10
3.458558403973993
 20
8.914261916721368
 10
3.461819823897
 20
8.913750538515468
 10
3.471194204200001
 20
8.912774606821809
 10
3.480945633749142
 20
8.912444963992495
  0
LINE
  5
FDA
330
2
100
AcDbEntity
  8
AM_VIS
 62
     7
100
AcDbLine
 10
3.450945633749141
 20
9.015018666661081
 30
0.0
 11
3.450945633749141
 21
9.060518666661074
 31
0.0
  0
ARC
  5
FDB
330
2
100
AcDbEntity
  8
0
100
AcDbCircle
 10
5.715499999999989
 20
9.510518666661109
 30
0.0
 40
0.1125
100
AcDbArc
 50
0.0
 51
33.74898859588686
1001
GENIUS_GENODEF_13
1002
{
1000
HIER
1070
     0
1002
}
1002
{
1000
MANEDIT
1070
     0
1002
}
1002
{
1000
NOSEL
1070
     0
1002
}
1002
{
1000
BEHIND
1070
     0
1002
}
1002
{
1000
REACTOR
1002
}
1001
GENIUS_GENOBJ-N-FIL_13
1002
{
1000
OWNER
1000
GEN
1002
}
  0
ARC
  5
FDC
330
2
100
AcDbEntity
  8
0
100
AcDbCircle
 10
5.353000000000006
 20
9.63051866666111
 30
0.0
 40
0.0125
100
AcDbArc
 50
216.8698976458456
 51
323.1301023541543
  0
LINE
  5
FDD
330
2
100
AcDbEntity
  8
0
100
AcDbLine
 10
5.415500000000006
 20
9.62301866666111
 30
0.0
 11
5.362999999999997
 21
9.62301866666111
 31
0.0
  0
LINE
  5
FDE
330
2
100
AcDbEntity
  8
0
100
AcDbLine
 10
5.465499999999989
 20
9.573018666661106
 30
0.0
 11
5.415500000000006
 21
9.62301866666111
 31
0.0
  0
LINE
  5
FDF
330
2
100
AcDbEntity
  8
0
100
AcDbLine
 10
5.342999999999987
 20
9.62301866666111
 30
0.0
 11
5.342999999999987
 21
9.060518666661106
 31
0.0
  0
LINE
  5
FE0
330
2
100
AcDbEntity
  8
0
100
AcDbLine
 10
5.362999999999997
 20
9.62301866666111
 30
0.0
 11
5.362999999999997
 21
9.060518666661106
 31
0.0
  0
ARC
  5
FE1
330
2
100
AcDbEntity
  8
0
100
AcDbCircle
 10
5.252999999999984
 20
9.63051866666111
 30
0.0
 40
0.0125
100
AcDbArc
 50
216.8698976458456
 51
323.1301023541543
  0
LINE
  5
FE2
330
2
100
AcDbEntity
  8
0
100
AcDbLine
 10
5.242999999999993
 20
9.62301866666111
 30
0.0
 11
5.190499999999984
 21
9.62301866666111
 31
0.0
  0
ARC
  5
FE3
330
2
100
AcDbEntity
  8
AM_VIS
 62
     7
100
AcDbCircle
 10
5.12844563374915
 20
9.568018666661071
 30
0.0
 40
0.0075
100
AcDbArc
 50
180.0
 51
270.0
1001
GENIUS_GENODEF_13
1002
{
1000
HIER
1070
     0
1002
}
1002
{
1000
MANEDIT
1070
     0
1002
}
1002
{
1000
NOSEL
1070
     0
1002
}
1002
{
1000
BEHIND
1070
     0
1002
}
1002
{
1000
REACTOR
1002
}
1001
GENIUS_GENOBJ-N-FIL_13
1002
{
1000
OWNER
1000
GEN
1002
}
  0
ARC
  5
FE4
330
2
100
AcDbEntity
  8
8
100
AcDbCircle
 10
5.139695633749139
 20
9.560518666661071
 30
0.0
 40
0.01875
100
AcDbArc
 50
180.0
 51
270.0
  0
LINE
  5
FE5
330
2
100
AcDbEntity
  8
8
100
AcDbLine
 10
5.139695633749168
 20
9.541768666661077
 30
0.0
 11
5.165499999999978
 21
9.541768666661077
 31
0.0
  0
LINE
  5
FE6
330
2
100
AcDbEntity
  8
AM_VIS
 62
     7
100
AcDbLine
 10
5.12844563374915
 20
9.560518666661081
 30
0.0
 11
5.165499999999978
 21
9.560518666661081
 31
0.0
  0
ARC
  5
FE7
330
2
100
AcDbEntity
  8
0
100
AcDbCircle
 10
5.190499999999984
 20
9.598018666661108
 30
0.0
 40
0.025
100
AcDbArc
 50
90.0
 51
180.0
1001
GENIUS_GENODEF_13
1002
{
1000
HIER
1070
     0
1002
}
1002
{
1000
MANEDIT
1070
     0
1002
}
1002
{
1000
NOSEL
1070
     0
1002
}
1002
{
1000
BEHIND
1070
     0
1002
}
1002
{
1000
REACTOR
1002
}
1001
GENIUS_GENOBJ-N-FIL_13
1002
{
1000
OWNER
1000
GEN
1002
}
  0
LINE
  5
FE8
330
2
100
AcDbEntity
  8
0
100
AcDbLine
 10
5.165500000000006
 20
9.060518666661106
 30
0.0
 11
5.165500000000006
 21
9.598018666661108
 31
0.0
  0
LINE
  5
FE9
330
2
100
AcDbEntity
  8
0
100
AcDbLine
 10
5.242999999999993
 20
9.62301866666111
 30
0.0
 11
5.242999999999993
 21
9.060518666661106
 31
0.0
  0
LINE
  5
FEA
330
2
100
AcDbEntity
  8
0
100
AcDbLine
 10
5.263000000000003
 20
9.62301866666111
 30
0.0
 11
5.263000000000003
 21
9.060518666661106
 31
0.0
  0
LINE
  5
FEB
330
2
100
AcDbEntity
  8
0
100
AcDbLine
 10
5.165500000000006
 20
9.060518666661106
 30
0.0
 11
5.165500000000006
 21
9.598018666661111
 31
0.0
  0
LWPOLYLINE
  5
FEC
330
2
100
AcDbEntity
  8
AM_VIS
 62
     7
100
AcDbPolyline
 90
        4
 70
     0
 43
0.0
 10
4.980538931595274
 20
9.264594756642186
 10
4.980132792345157
 20
9.264759155748361
 10
4.963462718937448
 20
9.270720362671927
 10
4.954653676584198
 20
9.273276378287231
  0
LWPOLYLINE
  5
FED
330
2
100
AcDbEntity
  8
AM_VIS
 62
     7
100
AcDbPolyline
 90
        6
 70
     0
 43
0.0
 10
4.967736463777525
 20
9.269335200079616
 10
4.964920758639634
 20
9.270258612983798
 10
4.961669779760113
 20
9.271272957583391
 10
4.958395526278705
 20
9.272239203092709
 10
4.955105604810766
 20
9.273154876471874
 10
4.954653676584198
 20
9.273276378287238
  0
LINE
  5
FEE
330
2
100
AcDbEntity
  8
5
100
AcDbLine
 10
4.966146433583928
 20
9.264594756642193
 30
0.0
 11
4.967736463777553
 21
9.269335200079616
 31
0.0
  0
LWPOLYLINE
  5
FEF
330
2
100
AcDbEntity
  8
5
100
AcDbPolyline
 90
        6
 70
     0
 43
0.0
 10
4.953360644964787
 20
9.26984708525136
 10
4.953802313753753
 20
9.269685162235635
 10
4.95701754914978
 20
9.268464862814322
 10
4.960217472245686
 20
9.267177166936409
 10
4.963394649107497
 20
9.265825370372205
 10
4.966146433583928
 20
9.264594756642193
  0
ELLIPSE
  5
FF0
330
2
100
AcDbEntity
  8
5
100
AcDbEllipse
 10
4.953360644964787
 20
9.26844646428891
 30
0.0
 11
-0.001293031619411
 21
-0.0048299139983237
 31
0.0
210
0.0
220
0.0
230
1.0
 40
0.0752491915902437
 41
-3.141592653589786
 42
-1.844807519926495
  0
LINE
  5
FF1
330
2
100
AcDbEntity
  8
AM_VIS
 62
     7
100
AcDbLine
 10
4.896470904079704
 20
9.287883379627729
 30
0.0
 11
4.900091545860673
 21
9.287883379627729
 31
0.0
  0
ELLIPSE
  5
FF2
330
2
100
AcDbEntity
  8
5
100
AcDbEllipse
 10
4.923649158844623
 20
9.276400620620972
 30
0.0
 11
-0.0012930316194108
 21
-0.0048299139983238
 31
0.0
210
0.0
220
0.0
230
1.0
 40
0.3974580848405704
 41
-3.141592653590262
 42
-2.548830647757883
  0
LWPOLYLINE
  5
FF3
330
2
100
AcDbEntity
  8
AM_VIS
 62
     7
100
AcDbPolyline
 90
        3
 70
     0
 43
0.0
 10
4.924942190464035
 20
9.281230534619293
 10
4.918570152970117
 20
9.282936413018486
 10
4.912115392307155
 20
9.284664437500047
  0
LWPOLYLINE
  5
FF4
330
2
100
AcDbEntity
  8
AM_VIS
 62
     7
100
AcDbPolyline
 90
        3
 70
     0
 43
0.0
 10
4.926947592507444
 20
9.2806936620678
 10
4.9136971022275
 20
9.284240992912739
 10
4.900091545860673
 20
9.287883379627722
  0
LWPOLYLINE
  5
FF5
330
2
100
AcDbEntity
  8
AM_VIS
 62
     7
100
AcDbPolyline
 90
        3
 70
     0
 43
0.0
 10
4.896470904079704
 20
9.287883379627725
 10
4.896555200230237
 20
9.287870327661842
 10
4.912115392307155
 20
9.284664437500047
  0
LWPOLYLINE
  5
FF6
330
2
100
AcDbEntity
  8
5
100
AcDbPolyline
 90
        3
 70
     0
 43
0.0
 10
4.896470904079704
 20
9.287883379627725
 10
4.91023969447613
 20
9.284240992912742
 10
4.923649158844623
 20
9.2806936620678
  0
LINE
  5
FF7
330
2
100
AcDbEntity
  8
5
100
AcDbLine
 10
4.827195633749139
 20
9.269288974521977
 30
0.0
 11
4.812195633749153
 21
9.269288974521977
 31
0.0
  0
LINE
  5
FF8
330
2
100
AcDbEntity
  8
5
100
AcDbLine
 10
4.827195633749139
 20
9.269288974521977
 30
0.0
 11
4.812195633749153
 21
9.269288974521977
 31
0.0
  0
LINE
  5
FF9
330
2
100
AcDbEntity
  8
AM_VIS
 62
     7
100
AcDbLine
 10
4.832195633749163
 20
9.269288974521984
 30
0.0
 11
4.807195633749158
 21
9.26928897452198
 31
0.0
  0
LINE
  5
FFA
330
2
100
AcDbEntity
  8
AM_VIS
 62
     7
100
AcDbLine
 10
4.812195633749153
 20
9.356477017427998
 30
0.0
 11
4.827195633749139
 21
9.356477017427998
 31
0.0
  0
LINE
  5
FFB
330
2
100
AcDbEntity
  8
AM_VIS
 62
     7
100
AcDbLine
 10
4.807195633749158
 20
9.356477017428002
 30
0.0
 11
4.832195633749163
 21
9.356477017428005
 31
0.0
  0
LINE
  5
FFC
330
2
100
AcDbEntity
  8
5
100
AcDbLine
 10
4.897695633749149
 20
9.280693662067797
 30
0.0
 11
4.832195633749163
 21
9.280693662067797
 31
0.0
  0
LINE
  5
FFD
330
2
100
AcDbEntity
  8
5
100
AcDbLine
 10
4.832195633749163
 20
9.264594756642186
 30
0.0
 11
4.897695633749149
 21
9.264594756642186
 31
0.0
  0
LINE
  5
FFE
330
2
100
AcDbEntity
  8
5
100
AcDbLine
 10
4.926947592507472
 20
9.2806936620678
 30
0.0
 11
4.832195633749163
 21
9.2806936620678
 31
0.0
  0
LINE
  5
FFF
330
2
100
AcDbEntity
  8
5
100
AcDbLine
 10
4.923649158844623
 20
9.280693662067804
 30
0.0
 11
4.832195633749163
 21
9.280693662067804
 31
0.0
  0
LINE
  5
1000
330
2
100
AcDbEntity
  8
AM_VIS
 62
     7
100
AcDbLine
 10
4.832195633749163
 20
9.356477017428005
 30
0.0
 11
4.832195633749163
 21
9.169907880023302
 31
0.0
  0
LINE
  5
1001
330
2
100
AcDbEntity
  8
AM_VIS
 62
     7
100
AcDbLine
 10
4.807195633749158
 20
9.150329579138382
 30
0.0
 11
4.807195633749158
 21
9.356477017428002
 31
0.0
  0
LINE
  5
1002
330
2
100
AcDbEntity
  8
5
100
AcDbLine
 10
4.832195633749163
 20
9.264594756642186
 30
0.0
 11
4.980538931595274
 21
9.264594756642186
 31
0.0
  0
LINE
  5
1003
330
2
100
AcDbEntity
  8
5
100
AcDbLine
 10
4.832195633749163
 20
9.264594756642193
 30
0.0
 11
4.966146433583928
 21
9.264594756642193
 31
0.0
  0
LWPOLYLINE
  5
1004
330
2
100
AcDbEntity
  8
AM_VIS
 62
     7
100
AcDbPolyline
 90
        3
 70
     0
 43
0.0
 10
4.954653676584198
 20
9.273276378287231
 10
4.938985900947129
 20
9.277470848273988
 10
4.926947592507444
 20
9.2806936620678
  0
LWPOLYLINE
  5
1005
330
2
100
AcDbEntity
  8
AM_VIS
 62
     7
100
AcDbPolyline
 90
        9
 70
     0
 43
0.0
 10
4.954653676584198
 20
9.273276378287238
 10
4.950109519204429
 20
9.274492909094544
 10
4.945731022416365
 20
9.275665090378602
 10
4.941556500172081
 20
9.2767826649896
 10
4.937622481548258
 20
9.277835853612362
 10
4.933963391099323
 20
9.278815440340078
 10
4.930611247625959
 20
9.279712853317892
 10
4.92759538399528
 20
9.280520239750792
 10
4.924942190464035
 20
9.281230534619293
  0
LWPOLYLINE
  5
1006
330
2
100
AcDbEntity
  8
5
100
AcDbPolyline
 90
        9
 70
     0
 43
0.0
 10
4.923649158844623
 20
9.2806936620678
 10
4.926302352375868
 20
9.279725078156207
 10
4.929318216006548
 20
9.278624096656802
 10
4.932670359479912
 20
9.277400351687049
 10
4.936329449928846
 20
9.276064551603798
 10
4.94026346855267
 20
9.274628385300029
 10
4.944437990796954
 20
9.273104419921402
 10
4.948816487585018
 20
9.271505990897686
 10
4.953360644964787
 20
9.26984708525136
  0
LINE
  5
1007
330
2
100
AcDbEntity
  8
AM_VIS
 62
     7
100
AcDbLine
 10
5.120945633749157
 20
9.622921984791634
 30
0.0
 11
4.808445633749157
 21
9.622921984791634
 31
0.0
  0
LINE
  5
1008
330
2
100
AcDbEntity
  8
5
100
AcDbLine
 10
4.939375959694073
 20
9.277366424407766
 30
0.0
 11
5.120945633749157
 21
9.277366424407766
 31
0.0
  0
LINE
  5
1009
330
2
100
AcDbEntity
  8
5
100
AcDbLine
 10
5.120945633749157
 20
9.287883379627722
 30
0.0
 11
4.900091545860673
 21
9.287883379627722
 31
0.0
  0
LINE
  5
100A
330
2
100
AcDbEntity
  8
AM_VIS
 62
     7
100
AcDbLine
 10
4.808445633749157
 20
9.578444604989464
 30
0.0
 11
5.120945633749157
 21
9.578444604989464
 31
0.0
  0
LINE
  5
100B
330
2
100
AcDbEntity
  8
AM_VIS
 62
     7
100
AcDbLine
 10
5.120945633749157
 20
9.561407484227792
 30
0.0
 11
4.808445633749157
 21
9.561407484227792
 31
0.0
  0
LINE
  5
100C
330
2
100
AcDbEntity
  8
5
100
AcDbLine
 10
5.120945633749157
 20
9.287883379627729
 30
0.0
 11
4.900091545860673
 21
9.287883379627729
 31
0.0
  0
LINE
  5
100D
330
2
100
AcDbEntity
  8
5
100
AcDbLine
 10
4.939375959694073
 20
9.27736642440777
 30
0.0
 11
5.120945633749157
 21
9.27736642440777
 31
0.0
  0
LINE
  5
100E
330
2
100
AcDbEntity
  8
AM_VIS
 62
     7
100
AcDbLine
 10
5.120945633749157
 20
9.403948426547582
 30
0.0
 11
4.808445633749157
 21
9.403948426547582
 31
0.0
  0
LINE
  5
100F
330
2
100
AcDbEntity
  8
0
100
AcDbLine
 10
5.342999999999987
 20
9.62301866666111
 30
0.0
 11
5.263000000000003
 21
9.62301866666111
 31
0.0
  0
LINE
  5
1010
330
2
100
AcDbEntity
  8
AM_VIS
 62
     7
100
AcDbLine
 10
4.100945633749146
 20
9.508295083964984
 30
0.0
 11
4.100945633749146
 21
9.546863721830742
 31
0.0
  0
LINE
  5
1011
330
2
100
AcDbEntity
  8
AM_VIS
 62
     7
100
AcDbLine
 10
4.100945633749146
 20
9.602877494794178
 30
0.0
 11
4.100945633749146
 21
9.617864698878083
 31
0.0
  0
LINE
  5
1012
330
2
100
AcDbEntity
  8
AM_VIS
 62
     7
100
AcDbLine
 10
4.100945633749146
 20
9.522473811673606
 30
0.0
 11
4.100945633749146
 21
9.56562774592523
 31
0.0
  0
LWPOLYLINE
  5
1013
330
2
100
AcDbEntity
  8
AM_VIS
 62
     7
100
AcDbPolyline
 90
        2
 70
     0
 43
0.0
 10
4.100916789667364
 20
9.521876867376573
 10
4.100945633749146
 20
9.522473811673606
  0
LWPOLYLINE
  5
1014
330
2
100
AcDbEntity
  8
AM_VIS
 62
     7
100
AcDbPolyline
 90
        7
 70
     0
 43
0.0
 10
4.098658060452974
 20
9.524823019799288
 10
4.098957182640644
 20
9.524446404530038
 10
4.099590255220332
 20
9.523588561801002
 10
4.100143404300466
 20
9.522756147815226
 10
4.10067437404953
 20
9.521892244779877
 10
4.100892215606192
 20
9.521743793506683
 10
4.100916789667364
 20
9.52187686737658
  0
LWPOLYLINE
  5
1015
330
2
100
AcDbEntity
  8
AM_VIS
 62
     7
100
AcDbPolyline
 90
        6
 70
     0
 43
0.0
 10
4.088445633749129
 20
9.529423705610881
 10
4.09088110027835
 20
9.529215448476794
 10
4.093222589016532
 20
9.528598881600792
 10
4.095383995615234
 20
9.527595924244067
 10
4.097277672771808
 20
9.526246706470669
 10
4.098658060452974
 20
9.524823019799288
  0
LWPOLYLINE
  5
1016
330
2
100
AcDbEntity
  8
AM_VIS
 62
     7
100
AcDbPolyline
 90
        2
 70
     0
 43
0.0
 10
4.100916789667364
 20
9.603125208511059
 10
4.100945633749146
 20
9.602877494794178
  0
LWPOLYLINE
  5
1017
330
2
100
AcDbEntity
  8
AM_VIS
 62
     7
100
AcDbPolyline
 90
        7
 70
     0
 43
0.0
 10
4.098658060452974
 20
9.608252638229632
 10
4.09896900421492
 20
9.607800282404884
 10
4.09953919172298
 20
9.606865205221708
 10
4.100064620731386
 20
9.605826647978055
 10
4.100617329139508
 20
9.604369713630074
 10
4.100873796918589
 20
9.603344780443521
 10
4.100916789667364
 20
9.603125208511059
  0
LWPOLYLINE
  5
1018
330
2
100
AcDbEntity
  8
AM_VIS
 62
     7
100
AcDbPolyline
 90
        6
 70
     0
 43
0.0
 10
4.088445633749129
 20
9.613484345101777
 10
4.09088110027835
 20
9.613247523826821
 10
4.093222589016532
 20
9.612546389844972
 10
4.095383995615234
 20
9.611405868820384
 10
4.097277672771808
 20
9.609871594978141
 10
4.098658060452974
 20
9.608252638229632
  0
LWPOLYLINE
  5
1019
330
2
100
AcDbEntity
  8
AM_VIS
 62
     7
100
AcDbPolyline
 90
        8
 70
     0
 43
0.0
 10
4.100916789667364
 20
9.567376867376566
 10
4.100856303821755
 20
9.568488240679002
 10
4.100677947166898
 20
9.569987455438532
 10
4.100104721605474
 20
9.572223446592996
 10
4.099611406823326
 20
9.57335600718671
 10
4.099195715160957
 20
9.574078494967263
 10
4.098725286051715
 20
9.574739066229689
 10
4.098658060452974
 20
9.574823019799271
  0
LWPOLYLINE
  5
101A
330
2
100
AcDbEntity
  8
AM_VIS
 62
     7
100
AcDbPolyline
 90
        6
 70
     0
 43
0.0
 10
4.098658060452974
 20
9.574823019799271
 10
4.097277672771808
 20
9.576246706470669
 10
4.095383995615234
 20
9.577595924244068
 10
4.093222589016532
 20
9.578598881600793
 10
4.09088110027835
 20
9.579215448476794
 10
4.088445633749129
 20
9.579423705610881
  0
LWPOLYLINE
  5
101B
330
2
100
AcDbEntity
  8
AM_VIS
 62
     7
100
AcDbPolyline
 90
        2
 70
     0
 43
0.0
 10
4.100945633749146
 20
9.565627745925226
 10
4.100916789667364
 20
9.567376867376577
  0
LINE
  5
101C
330
2
100
AcDbEntity
  8
AM_VIS
 62
     7
100
AcDbLine
 10
4.100945633749146
 20
9.565627745925226
 30
0.0
 11
4.100945633749146
 21
9.602877494794178
 31
0.0
  0
LWPOLYLINE
  5
101D
330
2
100
AcDbEntity
  8
AM_VIS
 62
     7
100
AcDbPolyline
 90
        2
 70
     0
 43
0.0
 10
4.100916789667364
 20
9.618927192678746
 10
4.100945633749146
 20
9.617864698878083
  0
LWPOLYLINE
  5
101E
330
2
100
AcDbEntity
  8
AM_VIS
 62
     7
100
AcDbPolyline
 90
        8
 70
     0
 43
0.0
 10
4.100916789667364
 20
9.618927192678736
 10
4.1008716491186
 20
9.619529606011251
 10
4.100759714785906
 20
9.620409063557449
 10
4.100422001513264
 20
9.621934639574536
 10
4.099847983468974
 20
9.623524866245141
 10
4.099429899317696
 20
9.624379025961555
 10
4.099063402082974
 20
9.625010164329474
 10
4.098658060452974
 20
9.625617455996309
  0
LWPOLYLINE
  5
101F
330
2
100
AcDbEntity
  8
AM_VIS
 62
     7
100
AcDbPolyline
 90
        6
 70
     0
 43
0.0
 10
4.098658060452974
 20
9.625617455996309
 10
4.097277672771808
 20
9.627236412744835
 10
4.095383995615234
 20
9.628770686587078
 10
4.093222589016532
 20
9.629911207611666
 10
4.09088110027835
 20
9.630612341593515
 10
4.088445633749129
 20
9.630849162868472
  0
LWPOLYLINE
  5
1020
330
2
100
AcDbEntity
  8
AM_VIS
 62
     7
100
AcDbPolyline
 90
        2
 70
     0
 43
0.0
 10
4.100945633749146
 20
9.617864698878083
 10
4.100916789667364
 20
9.618927192678743
  0
LINE
  5
1021
330
2
100
AcDbEntity
  8
AM_VIS
 62
     7
100
AcDbLine
 10
4.100945633749146
 20
9.617864698878083
 30
0.0
 11
4.100945633749146
 21
9.620518666661087
 31
0.0
  0
ARC
  5
1022
330
2
100
AcDbEntity
  8
AM_VIS
 62
     7
100
AcDbCircle
 10
4.088445633749158
 20
9.620518666661087
 30
0.0
 40
0.0125
100
AcDbArc
 50
0.0
 51
90.0
  0
LINE
  5
1023
330
2
100
AcDbEntity
  8
AM_VIS
 62
     7
100
AcDbLine
 10
4.100945633749146
 20
9.592576668721648
 30
0.0
 11
4.100945633749146
 21
9.604199673359328
 31
0.0
  0
LINE
  5
1024
330
2
100
AcDbEntity
  8
AM_VIS
 62
     7
100
AcDbLine
 10
4.100945633749146
 20
9.566518666661071
 30
0.0
 11
4.100945633749146
 21
9.592576668721644
 31
0.0
  0
LINE
  5
1025
330
2
100
AcDbEntity
  8
AM_VIS
 62
     7
100
AcDbLine
 10
4.100945633749146
 20
9.566518666661075
 30
0.0
 11
4.100945633749146
 21
9.566136712601
 31
0.0
  0
LINE
  5
1026
330
2
100
AcDbEntity
  8
AM_VIS
 62
     7
100
AcDbLine
 10
4.100945633749146
 20
9.565123406561397
 30
0.0
 11
4.100945633749146
 21
9.566136712601
 31
0.0
  0
LINE
  5
1027
330
2
100
AcDbEntity
  8
AM_VIS
 62
     7
100
AcDbLine
 10
4.100945633749146
 20
9.546863721830742
 30
0.0
 11
4.100945633749146
 21
9.565123406561397
 31
0.0
  0
LINE
  5
1028
330
2
100
AcDbEntity
  8
AM_VIS
 62
     7
100
AcDbLine
 10
4.100945633749146
 20
9.621827336671703
 30
0.0
 11
4.100945633749146
 21
9.622921984791634
 31
0.0
  0
LINE
  5
1029
330
2
100
AcDbEntity
  8
AM_VIS
 62
     7
100
AcDbLine
 10
4.100945633749146
 20
9.617906774820017
 30
0.0
 11
4.100945633749146
 21
9.621827336671703
 31
0.0
  0
LINE
  5
102A
330
2
100
AcDbEntity
  8
AM_VIS
 62
     7
100
AcDbLine
 10
4.100945633749146
 20
9.604199673359325
 30
0.0
 11
4.100945633749146
 21
9.617906774820017
 31
0.0
  0
LWPOLYLINE
  5
102B
330
2
100
AcDbEntity
  8
AM_VIS
 62
     7
100
AcDbPolyline
 90
        7
 70
     0
 43
0.0
 10
4.098658060452974
 20
9.385391443978022
 10
4.098914576425981
 20
9.385157016279915
 10
4.099410579711301
 20
9.384708770769702
 10
4.099883875753986
 20
9.384304697747666
 10
4.100438924777192
 20
9.383951497992786
 10
4.100804107517573
 20
9.384143003751351
 10
4.100916789667364
 20
9.384981918313936
  0
LWPOLYLINE
  5
102C
330
2
100
AcDbEntity
  8
AM_VIS
 62
     7
100
AcDbPolyline
 90
        8
 70
     0
 43
0.0
 10
4.100916789667364
 20
9.454691962637753
 10
4.10091218068865
 20
9.454854178231023
 10
4.100832406649486
 20
9.456344628218662
 10
4.100563324450147
 20
9.458280592813117
 10
4.099999363774854
 20
9.460082075176853
 10
4.099469403592904
 20
9.461049062669445
 10
4.098866561893457
 20
9.461793861994532
 10
4.098658060452974
 20
9.461995888289909
  0
LWPOLYLINE
  5
102D
330
2
100
AcDbEntity
  8
AM_VIS
 62
     7
100
AcDbPolyline
 90
        6
 70
     0
 43
0.0
 10
4.098658060452974
 20
9.461995888289909
 10
4.097277672771808
 20
9.463052587260229
 10
4.095383995615234
 20
9.464054013388977
 10
4.093222589016532
 20
9.464798435618543
 10
4.09088110027835
 20
9.465256068323895
 10
4.088445633749129
 20
9.465410642433194
  0
LWPOLYLINE
  5
102E
330
2
100
AcDbEntity
  8
AM_VIS
 62
     7
100
AcDbPolyline
 90
        2
 70
     0
 43
0.0
 10
4.100945633749146
 20
9.45246718339704
 10
4.100916789667364
 20
9.454691962637763
  0
LWPOLYLINE
  5
102F
330
2
100
AcDbEntity
  8
AM_VIS
 62
     7
100
AcDbPolyline
 90
        2
 70
     0
 43
0.0
 10
4.100916789667364
 20
9.384981918313929
 10
4.100945633749146
 20
9.386351520332691
  0
LWPOLYLINE
  5
1030
330
2
100
AcDbEntity
  8
AM_VIS
 62
     7
100
AcDbPolyline
 90
        6
 70
     0
 43
0.0
 10
4.088445633749129
 20
9.388806198121297
 10
4.09088110027835
 20
9.388651624011998
 10
4.093222589016532
 20
9.388193991306646
 10
4.095383995615234
 20
9.38744956907708
 10
4.097277672771808
 20
9.386448142948331
 10
4.098658060452974
 20
9.385391443978022
  0
LINE
  5
1031
330
2
100
AcDbEntity
  8
AM_VIS
 62
     7
100
AcDbLine
 10
4.100945633749146
 20
9.386351520332691
 30
0.0
 11
4.100945633749146
 21
9.452467183397043
 31
0.0
  0
LINE
  5
1032
330
2
100
AcDbEntity
  8
AM_VIS
 62
     7
100
AcDbLine
 10
4.100945633749146
 20
9.442772454539863
 30
0.0
 11
4.100945633749146
 21
9.418152776922156
 31
0.0
  0
LINE
  5
1033
330
2
100
AcDbEntity
  8
AM_VIS
 62
     7
100
AcDbLine
 10
4.100945633749146
 20
9.380514920386499
 30
0.0
 11
4.100945633749146
 21
9.418152776922156
 31
0.0
  0
LINE
  5
1034
330
2
100
AcDbEntity
  8
AM_VIS
 62
     7
100
AcDbLine
 10
4.100945633749146
 20
9.442772454539863
 30
0.0
 11
4.100945633749146
 21
9.479069773931122
 31
0.0
  0
LINE
  5
1035
330
2
100
AcDbEntity
  8
AM_VIS
 62
     7
100
AcDbLine
 10
4.100945633749146
 20
9.452467183397043
 30
0.0
 11
4.100945633749146
 21
9.522473811673606
 31
0.0
  0
LINE
  5
1036
330
2
100
AcDbEntity
  8
AM_VIS
 62
     7
100
AcDbLine
 10
4.100945633749146
 20
9.479069773931122
 30
0.0
 11
4.100945633749146
 21
9.508295083964984
 31
0.0
  0
LINE
  5
1037
330
2
100
AcDbEntity
  8
AM_VIS
 62
     7
100
AcDbLine
 10
4.100945633749146
 20
9.210928978058209
 30
0.0
 11
4.100945633749146
 21
9.292031845206462
 31
0.0
  0
LWPOLYLINE
  5
1038
330
2
100
AcDbEntity
  8
AM_VIS
 62
     7
100
AcDbPolyline
 90
        6
 70
     0
 43
0.0
 10
4.098658060452974
 20
9.300744678679365
 10
4.097277672771808
 20
9.301306936457571
 10
4.095383995615234
 20
9.301839784171068
 10
4.093222589016532
 20
9.302235882966087
 10
4.09088110027835
 20
9.302479384242584
 10
4.088445633749129
 20
9.302561631408241
  0
LWPOLYLINE
  5
1039
330
2
100
AcDbEntity
  8
AM_VIS
 62
     7
100
AcDbPolyline
 90
        2
 70
     0
 43
0.0
 10
4.100945633749146
 20
9.292031845206462
 10
4.100916789667364
 20
9.294463941025878
  0
LWPOLYLINE
  5
103A
330
2
100
AcDbEntity
  8
AM_VIS
 62
     7
100
AcDbPolyline
 90
        7
 70
     0
 43
0.0
 10
4.100916789667364
 20
9.294463941025874
 10
4.100820651613899
 20
9.296312817893426
 10
4.100532731992243
 20
9.298109079010107
 10
4.099978603668487
 20
9.29950575435264
 10
4.099417090340976
 20
9.300218360730774
 10
4.098725244672804
 20
9.300710991099848
 10
4.098658060452974
 20
9.300744678679365
  0
LINE
  5
103B
330
2
100
AcDbEntity
  8
AM_VIS
 62
     7
100
AcDbLine
 10
4.100945633749146
 20
9.264594756642186
 30
0.0
 11
4.100945633749146
 21
9.280693662067797
 31
0.0
  0
LWPOLYLINE
  5
103C
330
2
100
AcDbEntity
  8
AM_VIS
 62
     7
100
AcDbPolyline
 90
        6
 70
     0
 43
0.0
 10
4.088445633749129
 20
9.20859236932965
 10
4.09088110027835
 20
9.208510122163993
 10
4.093222589016532
 20
9.208266620887496
 10
4.095383995615234
 20
9.207870522092473
 10
4.097277672771808
 20
9.20733767437898
 10
4.098658060452974
 20
9.20677541660078
  0
LWPOLYLINE
  5
103D
330
2
100
AcDbEntity
  8
AM_VIS
 62
     7
100
AcDbPolyline
 90
        2
 70
     0
 43
0.0
 10
4.100916789667364
 20
9.208951912534356
 10
4.100945633749146
 20
9.210928978058205
  0
LINE
  5
103E
330
2
100
AcDbEntity
  8
AM_VIS
 62
     7
100
AcDbLine
 10
4.100945633749146
 20
9.060518666661074
 30
0.0
 11
4.100945633749146
 21
9.103672600912691
 31
0.0
  0
LWPOLYLINE
  5
103F
330
2
100
AcDbEntity
  8
AM_VIS
 62
     7
100
AcDbPolyline
 90
        8
 70
     0
 43
0.0
 10
4.100916789667364
 20
9.106018666661068
 10
4.100881055662766
 20
9.106933375162849
 10
4.100728671588937
 20
9.108365010934694
 10
4.100217581185317
 20
9.109778242318622
 10
4.099694924942069
 20
9.110270725906044
 10
4.099259998242755
 20
9.110448095636208
 10
4.09877998239733
 20
9.110516177242462
 10
4.098658060452974
 20
9.110518666661068
  0
LWPOLYLINE
  5
1040
330
2
100
AcDbEntity
  8
AM_VIS
 62
     7
100
AcDbPolyline
 90
        6
 70
     0
 43
0.0
 10
4.098658060452974
 20
9.110518666661068
 10
4.097277672771808
 20
9.110518666661068
 10
4.095383995615234
 20
9.110518666661068
 10
4.093222589016532
 20
9.110518666661068
 10
4.09088110027835
 20
9.110518666661068
 10
4.088445633749129
 20
9.110518666661068
  0
LWPOLYLINE
  5
1041
330
2
100
AcDbEntity
  8
AM_VIS
 62
     7
100
AcDbPolyline
 90
        2
 70
     0
 43
0.0
 10
4.100945633749146
 20
9.103672600912691
 10
4.100916789667364
 20
9.106018666661068
  0
LINE
  5
1042
330
2
100
AcDbEntity
  8
AM_VIS
 62
     7
100
AcDbLine
 10
4.100945633749146
 20
9.103672600912691
 30
0.0
 11
4.100945633749146
 21
9.210928978058209
 31
0.0
  0
LWPOLYLINE
  5
1043
330
2
100
AcDbEntity
  8
AM_VIS
 62
     7
100
AcDbPolyline
 90
        7
 70
     0
 43
0.0
 10
4.098658060452974
 20
9.20677541660078
 10
4.098992022561899
 20
9.206623686051898
 10
4.099383940647326
 20
9.206481866569916
 10
4.099800075094121
 20
9.20640130997252
 10
4.100366442535657
 20
9.206550642304602
 10
4.100766868128344
 20
9.207338402820553
 10
4.100916789667364
 20
9.208951912534363
  0
LINE
  5
1044
330
2
100
AcDbEntity
  8
AM_VIS
 62
     7
100
AcDbLine
 10
4.100945633749146
 20
9.292031845206462
 30
0.0
 11
4.100945633749146
 21
9.386351520332691
 31
0.0
  0
LINE
  5
1045
330
2
100
AcDbEntity
  8
AM_VIS
 62
     7
100
AcDbLine
 10
4.100945633749146
 20
9.380514920386499
 30
0.0
 11
4.100945633749146
 21
9.280693662067797
 31
0.0
  0
LINE
  5
1046
330
2
100
AcDbEntity
  8
AM_VIS
 62
     7
100
AcDbLine
 10
4.100945633749146
 20
9.017364732409458
 30
0.0
 11
4.100945633749146
 21
8.910108355263943
 31
0.0
  0
LWPOLYLINE
  5
1047
330
2
100
AcDbEntity
  8
AM_VIS
 62
     7
100
AcDbPolyline
 90
        7
 70
     0
 43
0.0
 10
4.098658060452974
 20
8.914261916721368
 10
4.098992022561899
 20
8.914413647270247
 10
4.099383940647326
 20
8.914555466752229
 10
4.099800075094121
 20
8.914636023349626
 10
4.100366442535657
 20
8.914486691017547
 10
4.100766868128344
 20
8.913698930501592
 10
4.100916789667364
 20
8.912085420787786
  0
LWPOLYLINE
  5
1048
330
2
100
AcDbEntity
  8
AM_VIS
 62
     7
100
AcDbPolyline
 90
        2
 70
     0
 43
0.0
 10
4.100945633749146
 20
9.017364732409458
 10
4.100916789667364
 20
9.015018666661077
  0
LWPOLYLINE
  5
1049
330
2
100
AcDbEntity
  8
AM_VIS
 62
     7
100
AcDbPolyline
 90
        6
 70
     0
 43
0.0
 10
4.098658060452974
 20
9.010518666661077
 10
4.097277672771808
 20
9.010518666661077
 10
4.095383995615234
 20
9.010518666661077
 10
4.093222589016532
 20
9.010518666661077
 10
4.09088110027835
 20
9.010518666661077
 10
4.088445633749129
 20
9.010518666661077
  0
LWPOLYLINE
  5
104A
330
2
100
AcDbEntity
  8
AM_VIS
 62
     7
100
AcDbPolyline
 90
        8
 70
     0
 43
0.0
 10
4.100916789667364
 20
9.015018666661077
 10
4.100881055662766
 20
9.014103958159296
 10
4.100728671588937
 20
9.012672322387455
 10
4.100217581185317
 20
9.011259091003523
 10
4.099694924942069
 20
9.010766607416101
 10
4.099259998242755
 20
9.010589237685941
 10
4.09877998239733
 20
9.010521156079683
 10
4.098658060452974
 20
9.010518666661077
  0
LWPOLYLINE
  5
104B
330
2
100
AcDbEntity
  8
AM_VIS
 62
     7
100
AcDbPolyline
 90
        2
 70
     0
 43
0.0
 10
4.100916789667364
 20
8.912085420787793
 10
4.100945633749146
 20
8.91010835526394
  0
LWPOLYLINE
  5
104C
330
2
100
AcDbEntity
  8
AM_VIS
 62
     7
100
AcDbPolyline
 90
        6
 70
     0
 43
0.0
 10
4.088445633749129
 20
8.912444963992495
 10
4.09088110027835
 20
8.912527211158153
 10
4.093222589016532
 20
8.91277071243465
 10
4.095383995615234
 20
8.913166811229672
 10
4.097277672771808
 20
8.913699658943169
 10
4.098658060452974
 20
8.914261916721368
  0
LINE
  5
104D
330
2
100
AcDbEntity
  8
AM_VIS
 62
     7
100
AcDbLine
 10
4.100945633749146
 20
9.060518666661074
 30
0.0
 11
4.100945633749146
 21
9.017364732409458
 31
0.0
  0
ARC
  5
104E
330
2
100
AcDbEntity
  8
AM_VIS
 62
     7
100
AcDbCircle
 10
-4.897695633749149
 20
9.060518666661078
 30
0.0
 40
0.1275
210
0.0
220
0.0
230
-1.0
100
AcDbArc
 50
59.08769703076656
 51
300.9123029692334
  0
LINE
  5
104F
330
2
100
AcDbEntity
  8
AM_VIS
 62
     7
100
AcDbLine
 10
5.120945633749157
 20
9.403948426547575
 30
0.0
 11
4.720945633749151
 21
9.403948426547575
 31
0.0
  0
LINE
  5
1050
330
2
100
AcDbEntity
  8
AM_VIS
 62
     7
100
AcDbLine
 10
5.120945633749157
 20
9.380473854918303
 30
0.0
 11
4.100945633749146
 21
9.380473854918303
 31
0.0
  0
LINE
  5
1051
330
2
100
AcDbEntity
  8
5
100
AcDbLine
 10
4.17769563374915
 20
9.264594756642186
 30
0.0
 11
4.894695633749163
 21
9.264594756642186
 31
0.0
  0
LINE
  5
1052
330
2
100
AcDbEntity
  8
5
100
AcDbLine
 10
4.894695633749163
 20
9.280693662067797
 30
0.0
 11
4.17769563374915
 21
9.280693662067797
 31
0.0
  0
LINE
  5
1053
330
2
100
AcDbEntity
  8
5
100
AcDbLine
 10
4.150945633749158
 20
9.264594756642186
 30
0.0
 11
4.808445633749157
 21
9.264594756642186
 31
0.0
  0
LINE
  5
1054
330
2
100
AcDbEntity
  8
5
100
AcDbLine
 10
4.808445633749157
 20
9.280693662067797
 30
0.0
 11
4.150945633749158
 21
9.280693662067797
 31
0.0
  0
LINE
  5
1055
330
2
100
AcDbEntity
  8
AM_VIS
 62
     7
100
AcDbLine
 10
4.808445633749157
 20
9.622921984791634
 30
0.0
 11
4.100945633749146
 21
9.622921984791634
 31
0.0
  0
LINE
  5
1056
330
2
100
AcDbEntity
  8
5
100
AcDbLine
 10
4.100945633749146
 20
9.264594756642186
 30
0.0
 11
4.894695633749163
 21
9.264594756642186
 31
0.0
  0
LINE
  5
1057
330
2
100
AcDbEntity
  8
5
100
AcDbLine
 10
4.894695633749163
 20
9.2806936620678
 30
0.0
 11
4.100945633749146
 21
9.2806936620678
 31
0.0
  0
LINE
  5
1058
330
2
100
AcDbEntity
  8
AM_VIS
 62
     7
100
AcDbLine
 10
4.808445633749157
 20
9.403948426547575
 30
0.0
 11
4.100945633749146
 21
9.403948426547575
 31
0.0
  0
LINE
  5
1059
330
2
100
AcDbEntity
  8
AM_VIS
 62
     7
100
AcDbLine
 10
4.100945633749146
 20
9.578424638953414
 30
0.0
 11
4.808445633749157
 21
9.578424638953414
 31
0.0
  0
LINE
  5
105A
330
2
100
AcDbEntity
  8
AM_VIS
 62
     7
100
AcDbLine
 10
4.808445633749157
 20
9.561383890008901
 30
0.0
 11
4.100945633749146
 21
9.561383890008901
 31
0.0
  0
ARC
  5
105B
330
2
100
AcDbEntity
  8
AM_VIS
 62
     7
100
AcDbCircle
 10
-4.897695633749149
 20
9.060518666661078
 30
0.0
 40
0.1275
210
0.0
220
0.0
230
-1.0
100
AcDbArc
 50
315.2189640882671
 51
44.7810359117328
  0
LINE
  5
105C
330
2
100
AcDbEntity
  8
5
100
AcDbLine
 10
4.987591545860679
 20
9.287883379627722
 30
0.0
 11
4.619557767044879
 21
9.386410871666964
 31
0.0
  0
LINE
  5
105D
330
2
100
AcDbEntity
  8
0
100
AcDbLine
 10
5.465499999999989
 20
9.573018666661106
 30
0.0
 11
5.809041434669351
 21
9.573018666661106
 31
0.0
  0
CIRCLE
  5
3ECA
330
2
100
AcDbEntity
  8
0
  6
Continuous
100
AcDbCircle
 10
1.812665777957491
 20
9.254145284459518
 30
0.0
 40
0.0375
  0
CIRCLE
  5
3ECB
330
2
100
AcDbEntity
  8
0
  6
Continuous
100
AcDbCircle
 10
1.812665777957491
 20
9.004145284459518
 30
0.0
 40
0.75
  0
CIRCLE
  5
3ECC
330
2
100
AcDbEntity
  8
0
  6
Continuous
100
AcDbCircle
 10
1.812665777957491
 20
9.004145284459518
 30
0.0
 40
0.8125
  0
CIRCLE
  5
3ECD
330
2
100
AcDbEntity
  8
0
  6
Continuous
100
AcDbCircle
 10
1.812665777957491
 20
9.004145284459518
 30
0.0
 40
0.6875
  0
CIRCLE
  5
3ECE
330
2
100
AcDbEntity
  8
0
  6
Continuous
100
AcDbCircle
 10
1.812665777957491
 20
9.004145284459518
 30
0.0
 40
0.625
  0
CIRCLE
  5
3ECF
330
2
100
AcDbEntity
  8
0
  6
Continuous
100
AcDbCircle
 10
2.307576498897959
 20
9.075302703596161
 30
0.0
 40
0.0375
  0
CIRCLE
  5
3ED0
330
2
100
AcDbEntity
  8
0
  6
Continuous
100
AcDbCircle
 10
2.050429907031279
 20
9.081399533053252
 30
0.0
 40
0.0375
  0
TEXT
  5
3ED1
330
2
100
AcDbEntity
  8
0
  6
Continuous
100
AcDbText
 10
2.093915777957491
 20
8.947895284459518
 30
0.0
 40
0.075
  1
16
 11
2.093915777957491
 21
8.947895284459518
 31
0.0
100
AcDbText
 73
     1
  0
CIRCLE
  5
3ED2
330
2
100
AcDbEntity
  8
0
  6
Continuous
100
AcDbCircle
 10
2.267481775634752
 20
8.796437777958573
 30
0.0
 40
0.0375
  0
CIRCLE
  5
3ED3
330
2
100
AcDbEntity
  8
0
  6
Continuous
100
AcDbCircle
 10
2.082986186685291
 20
8.583518518043923
 30
0.0
 40
0.0375
  0
TEXT
  5
3ED4
330
2
100
AcDbEntity
  8
0
  6
Continuous
100
AcDbText
 10
2.156415777957491
 20
8.566645284459518
 30
0.0
 40
0.075
  1
7
 11
2.156415777957491
 21
8.566645284459518
 31
0.0
100
AcDbText
 73
     1
  0
TEXT
  5
3ED5
330
2
100
AcDbEntity
  8
0
  6
Continuous
100
AcDbText
 10
2.312665777957491
 20
8.816645284459518
 30
0.0
 40
0.075
  1
8
 11
2.312665777957491
 21
8.816645284459518
 31
0.0
100
AcDbText
 73
     1
  0
TEXT
  5
3ED6
330
2
100
AcDbEntity
  8
0
  6
Continuous
100
AcDbText
 10
2.312665777957491
 20
9.129145284459518
 30
0.0
 40
0.075
  1
9
 11
2.312665777957491
 21
9.129145284459518
 31
0.0
100
AcDbText
 73
     1
  0
LINE
  5
3ED7
330
2
100
AcDbEntity
  8
0
  6
Continuous
100
AcDbLine
 10
2.103215832904222
 20
8.38105868087182
 30
0.0
 11
2.129629474263015
 21
8.32441444418203
 31
0.0
  0
TEXT
  5
3ED8
330
2
100
AcDbEntity
  8
0
  6
Continuous
100
AcDbText
 10
1.312665777957491
 20
9.191645284459518
 30
0.0
 40
0.075
  1
2
 11
1.312665777957491
 21
9.191645284459518
 31
0.0
100
AcDbText
 73
     1
  0
TEXT
  5
3ED9
330
2
100
AcDbEntity
  8
0
  6
Continuous
100
AcDbText
 10
1.843915777957491
 20
9.035395284459518
 30
0.0
 40
0.075
  1
P
 11
1.843915777957491
 21
9.035395284459518
 31
0.0
100
AcDbText
 73
     1
  0
TEXT
  5
3EDA
330
2
100
AcDbEntity
  8
0
  6
Continuous
100
AcDbText
 10
1.65709905724482
 20
8.882962956327855
 30
0.0
 40
0.075
  1
17
 11
1.65709905724482
 21
8.882962956327855
 31
0.0
100
AcDbText
 73
     1
  0
CIRCLE
  5
3EDB
330
2
100
AcDbEntity
  8
0
  6
Continuous
100
AcDbCircle
 10
1.812665777957491
 20
9.004145284459518
 30
0.0
 40
0.0375
  0
CIRCLE
  5
3EDC
330
2
100
AcDbEntity
  8
0
  6
Continuous
100
AcDbCircle
 10
1.812665777957491
 20
9.004145284459518
 30
0.0
 40
0.0375
  0
CIRCLE
  5
3EDD
330
2
100
AcDbEntity
  8
0
  6
Continuous
100
AcDbCircle
 10
1.812665777957493
 20
9.004145284459522
 30
0.0
 40
0.0375
  0
CIRCLE
  5
3EDE
330
2
100
AcDbEntity
  8
0
  6
Continuous
100
AcDbCircle
 10
1.812665777957489
 20
9.004145284459518
 30
0.0
 40
0.0375
  0
CIRCLE
  5
3EDF
330
2
100
AcDbEntity
  8
0
  6
Continuous
100
AcDbCircle
 10
1.81266577795749
 20
9.004145284459514
 30
0.0
 40
0.0375
  0
TEXT
  5
3EE0
330
2
100
AcDbEntity
  8
0
  6
Continuous
100
AcDbText
 10
1.809528178469996
 20
8.710025038480264
 30
0.0
 40
0.075
  1
15
 11
1.809528178469996
 21
8.710025038480264
 31
0.0
100
AcDbText
 73
     1
  0
CIRCLE
  5
3EE1
330
2
100
AcDbEntity
  8
0
  6
Continuous
100
AcDbCircle
 10
1.959612091030606
 20
8.801891035865782
 30
0.0
 40
0.0375
  0
CIRCLE
  5
3EE2
330
2
100
AcDbEntity
  8
0
  6
Continuous
100
AcDbCircle
 10
1.665719464884374
 20
8.801891035865784
 30
0.0
 40
0.0375
  0
TEXT
  5
3EE3
330
2
100
AcDbEntity
  8
0
  6
Continuous
100
AcDbText
 10
1.660919901632325
 20
8.648233643801216
 30
0.0
 40
0.075
  1
14
 11
1.660919901632325
 21
8.648233643801216
 31
0.0
100
AcDbText
 73
     1
  0
CIRCLE
  5
3EE4
330
2
100
AcDbEntity
  8
0
  6
Continuous
100
AcDbCircle
 10
1.317755057017022
 20
9.075302703596161
 30
0.0
 40
0.0375
  0
TEXT
  5
3EE5
330
2
100
AcDbEntity
  8
0
  6
Continuous
100
AcDbText
 10
1.250165777957491
 20
8.910395284459518
 30
0.0
 40
0.075
  1
3
 11
1.250165777957491
 21
8.910395284459518
 31
0.0
100
AcDbText
 73
     1
  0
TEXT
  5
3EE6
330
2
100
AcDbEntity
  8
0
  6
Continuous
100
AcDbText
 10
1.375165777957491
 20
8.629145284459518
 30
0.0
 40
0.075
  1
4
 11
1.375165777957491
 21
8.629145284459518
 31
0.0
100
AcDbText
 73
     1
  0
CIRCLE
  5
3EE7
330
2
100
AcDbEntity
  8
0
  6
Continuous
100
AcDbCircle
 10
1.35784978028023
 20
8.796437777958576
 30
0.0
 40
0.0375
  0
CIRCLE
  5
3EE8
330
2
100
AcDbEntity
  8
0
  6
Continuous
100
AcDbCircle
 10
1.542345369229689
 20
8.583518518043927
 30
0.0
 40
0.0375
  0
CIRCLE
  5
3EE9
330
2
100
AcDbEntity
  8
0
  6
Continuous
100
AcDbCircle
 10
1.574901648883702
 20
9.081399533053255
 30
0.0
 40
0.0375
  0
TEXT
  5
3EEA
330
2
100
AcDbEntity
  8
0
  6
Continuous
100
AcDbText
 10
1.500165777957491
 20
9.129145284459518
 30
0.0
 40
0.075
  1
13
 11
1.500165777957491
 21
9.129145284459518
 31
0.0
100
AcDbText
 73
     1
  0
TEXT
  5
3EEB
330
2
100
AcDbEntity
  8
0
  6
Continuous
100
AcDbText
 10
1.906415777957491
 20
8.410395284459518
 30
0.0
 40
0.075
  1
6
 11
1.906415777957491
 21
8.410395284459518
 31
0.0
100
AcDbText
 73
     1
  0
LINE
  5
3EEC
330
2
100
AcDbEntity
  8
0
  6
Continuous
100
AcDbLine
 10
1.64024703646453
 20
8.338616902208254
 30
0.0
 11
1.613423832055465
 21
8.281094354722771
 31
0.0
  0
LINE
  5
3EED
330
2
100
AcDbEntity
  8
0
  6
Continuous
100
AcDbLine
 10
1.52211572301076
 20
8.38105868087182
 30
0.0
 11
1.495702081651966
 21
8.32441444418203
 31
0.0
  0
TEXT
  5
3EEE
330
2
100
AcDbEntity
  8
0
  6
Continuous
100
AcDbText
 10
1.593915777957491
 20
8.441645284459518
 30
0.0
 40
0.075
  1
5
 11
1.593915777957491
 21
8.441645284459518
 31
0.0
100
AcDbText
 73
     1
  0
CIRCLE
  5
3EEF
330
2
100
AcDbEntity
  8
0
  6
Continuous
100
AcDbCircle
 10
1.81266577795749
 20
8.504145284459514
 30
0.0
 40
0.0375
  0
LINE
  5
3EF0
330
2
100
AcDbEntity
  8
0
  6
Continuous
100
AcDbLine
 10
1.985084519450451
 20
8.338616902208254
 30
0.0
 11
2.011907723859517
 21
8.281094354722771
 31
0.0
  0
LINE
  5
3EF1
330
2
100
AcDbEntity
  8
0
  6
Continuous
100
AcDbLine
 10
2.129629474263015
 20
9.683876124737004
 30
0.0
 11
2.103215832904222
 21
9.627231888047216
 31
0.0
  0
LINE
  5
3EF2
330
2
100
AcDbEntity
  8
0
  6
Continuous
100
AcDbLine
 10
2.238484670618679
 20
9.621541648761091
 30
0.0
 11
2.211661466209614
 21
9.564019101275608
 31
0.0
  0
TEXT
  5
3EF3
330
2
100
AcDbEntity
  8
0
  6
Continuous
100
AcDbText
 10
2.093915777957491
 20
9.379145284459518
 30
0.0
 40
0.075
  1
10
 11
2.093915777957491
 21
9.379145284459518
 31
0.0
100
AcDbText
 73
     1
  0
CIRCLE
  5
3EF4
330
2
100
AcDbEntity
  8
0
  6
Continuous
100
AcDbCircle
 10
2.190540565134623
 20
9.33157565143216
 30
0.0
 40
0.0375
  0
LINE
  5
3EF5
330
2
100
AcDbEntity
  8
0
  6
Continuous
100
AcDbLine
 10
1.843915777957491
 20
9.722895284459518
 30
0.0
 11
1.843915777957491
 21
9.691645284459518
 31
0.0
  0
LINE
  5
3EF6
330
2
100
AcDbEntity
  8
0
  6
Continuous
100
AcDbLine
 10
1.781415777957491
 20
9.722895284459518
 30
0.0
 11
1.781415777957491
 21
9.691645284459518
 31
0.0
  0
ARC
  5
3EF7
330
2
100
AcDbEntity
  8
0
  6
Continuous
100
AcDbCircle
 10
1.812665777957491
 20
9.722895284459518
 30
0.0
 40
0.03125
100
AcDbArc
 50
0.0
 51
180.0
  0
CIRCLE
  5
3EF8
330
2
100
AcDbEntity
  8
0
  6
Continuous
100
AcDbCircle
 10
1.953532056378207
 20
9.483891771266771
 30
0.0
 40
0.0375
  0
CIRCLE
  5
3EF9
330
2
100
AcDbEntity
  8
0
  6
Continuous
100
AcDbCircle
 10
1.671799499536775
 20
9.483891771266771
 30
0.0
 40
0.0375
  0
TEXT
  5
3EFA
330
2
100
AcDbEntity
  8
0
  6
Continuous
100
AcDbText
 10
1.750165777957491
 20
9.285395284459518
 30
0.0
 40
0.075
  1
12
 11
1.750165777957491
 21
9.285395284459518
 31
0.0
100
AcDbText
 73
     1
  0
TEXT
  5
3EFB
330
2
100
AcDbEntity
  8
0
  6
Continuous
100
AcDbText
 10
1.812665777957491
 20
9.472895284459518
 30
0.0
 40
0.075
  1
11
 11
1.812665777957491
 21
9.472895284459518
 31
0.0
100
AcDbText
 73
     1
  0
LINE
  5
3EFC
330
2
100
AcDbEntity
  8
0
  6
Continuous
100
AcDbLine
 10
1.386846885296303
 20
9.621541648761091
 30
0.0
 11
1.413670089705369
 21
9.564019101275608
 31
0.0
  0
LINE
  5
3EFD
330
2
100
AcDbEntity
  8
0
  6
Continuous
100
AcDbLine
 10
1.495702081651966
 20
9.683876124737006
 30
0.0
 11
1.52211572301076
 21
9.627231888047216
 31
0.0
  0
CIRCLE
  5
3EFE
330
2
100
AcDbEntity
  8
0
  6
Continuous
100
AcDbCircle
 10
1.43479099078036
 20
9.331575651432164
 30
0.0
 40
0.0375
  0
TEXT
  5
3EFF
330
2
100
AcDbEntity
  8
0
  6
Continuous
100
AcDbText
 10
1.531415777957491
 20
9.410395284459518
 30
0.0
 40
0.075
  1
1
 11
1.531415777957491
 21
9.410395284459518
 31
0.0
100
AcDbText
 73
     1
  0
DIMENSION
  5
3FAE
330
2
100
AcDbEntity
  8
4
100
AcDbDimension
  2
*D18
 10
21.1493207177296
 20
11.40446398347187
 30
0.0
 11
20.4328627177296
 21
12.07708148347188
 31
0.0
 70
    33
 71
     5
 42
1.965427553556986
  3
MEDDIM1166
100
AcDbAlignedDimension
 13
19.05826805518976
 23
12.0486656666611
 33
0.0
 14
20.49118405518976
 24
10.7034306666611
 34
0.0
  0
LWPOLYLINE
  5
3FAF
330
2
100
AcDbEntity
  8
800
  6
L0
 62
     1
100
AcDbPolyline
 90
        2
 70
     0
 43
0.0
 10
19.87423505518976
 20
11.0764286666611
 10
19.52128805518976
 20
11.4293756666611
  0
LWPOLYLINE
  5
3FB0
330
2
100
AcDbEntity
  8
800
  6
L0
 62
     1
100
AcDbPolyline
 90
        2
 70
     0
 43
0.0
 10
19.32622605518976
 20
11.2355276666611
 10
19.51714605518976
 20
11.4264456666611
  0
LWPOLYLINE
  5
3FB1
330
2
100
AcDbEntity
  8
800
  6
L0
 62
     1
100
AcDbPolyline
 90
        2
 70
     0
 43
0.0
 10
19.12886305518976
 20
11.3154016666611
 10
19.43928205518976
 20
11.6258216666611
  0
LWPOLYLINE
  5
3FB2
330
2
100
AcDbEntity
  8
800
  6
L0
 62
     1
100
AcDbPolyline
 90
        2
 70
     0
 43
0.0
 10
19.88130605518976
 20
11.0834996666611
 10
19.53835905518976
 20
11.4264456666611
  0
LWPOLYLINE
  5
3FB3
330
2
100
AcDbEntity
  8
800
  6
L0
 62
     1
100
AcDbPolyline
 90
        2
 70
     0
 43
0.0
 10
19.77524005518977
 20
10.9774346666611
 10
19.42168505518976
 20
11.3309866666611
  0
LWPOLYLINE
  5
3FB4
330
2
100
AcDbEntity
  8
800
  6
L0
 62
     1
100
AcDbPolyline
 90
        2
 70
     0
 43
0.0
 10
19.77524005518977
 20
10.9774346666611
 10
19.42168505518976
 20
11.3309866666611
  0
LWPOLYLINE
  5
3FB5
330
2
100
AcDbEntity
  8
800
  6
L0
 62
     1
100
AcDbPolyline
 90
        2
 70
     0
 43
0.0
 10
19.79291605518976
 20
10.9951106666611
 10
19.43936405518977
 20
11.3486656666611
  0
LWPOLYLINE
  5
3FB6
330
2
100
AcDbEntity
  8
800
  6
L0
 62
     1
100
AcDbPolyline
 90
        2
 70
     0
 43
0.0
 10
19.81059505518976
 20
11.0127896666611
 10
19.45704205518976
 20
11.3663416666611
  0
LWPOLYLINE
  5
3FB7
330
2
100
AcDbEntity
  8
800
  6
L0
 62
     1
100
AcDbPolyline
 90
        2
 70
     0
 43
0.0
 10
19.82473705518976
 20
11.0269316666611
 10
19.47118405518976
 20
11.3804846666611
  0
LWPOLYLINE
  5
3FB8
330
2
100
AcDbEntity
  8
800
  6
L0
 62
     1
100
AcDbPolyline
 90
        2
 70
     0
 43
0.0
 10
19.83887905518976
 20
11.0410736666611
 10
19.48532605518976
 20
11.3946266666611
  0
LWPOLYLINE
  5
3FB9
330
2
100
AcDbEntity
  8
800
  6
L0
 62
     1
100
AcDbPolyline
 90
        2
 70
     0
 43
0.0
 10
19.84948605518976
 20
11.0516796666611
 10
19.49593305518976
 20
11.4052326666611
  0
LWPOLYLINE
  5
3FBA
330
2
100
AcDbEntity
  8
800
  6
L0
 62
     1
100
AcDbPolyline
 90
        2
 70
     0
 43
0.0
 10
19.86009305518976
 20
11.0622856666611
 10
19.50653905518977
 20
11.4158406666611
  0
LWPOLYLINE
  5
3FBB
330
2
100
AcDbEntity
  8
800
  6
L0
 62
     1
100
AcDbPolyline
 90
        2
 70
     0
 43
0.0
 10
19.86716405518976
 20
11.0693576666611
 10
19.51361005518976
 20
11.4229116666611
  0
LWPOLYLINE
  5
3FBC
330
2
100
AcDbEntity
  8
800
  6
L5
 62
     2
100
AcDbPolyline
 90
        2
 70
     0
 43
0.0
 10
20.49118405518976
 20
10.7034306666611
 10
19.14594905518976
 20
12.0486656666611
  0
LWPOLYLINE
  5
3FBD
330
2
100
AcDbEntity
  8
800
  6
L5
 62
     2
100
AcDbPolyline
 90
        2
 70
     0
 43
0.0
 10
20.04924405518976
 20
10.2614876666611
 10
18.70400705518976
 20
11.6067256666611
  0
DIMENSION
  5
3FBE
330
2
100
AcDbEntity
  8
4
100
AcDbDimension
  2
*D19
 10
15.62042482542699
 20
8.604480888124978
 30
0.0
 11
15.86452682542699
 21
7.896516888124979
 31
0.0
 70
    33
 71
     5
 42
1.497730031347436
  3
MEDDIM1227
100
AcDbAlignedDimension
 13
17.43291605518976
 23
7.645159666661106
 33
0.0
 14
16.94471205518977
 24
9.061087666661105
 34
0.0
  0
LWPOLYLINE
  5
3FC0
330
2
100
AcDbEntity
  8
800
  6
L2
 62
     3
100
AcDbPolyline
 90
        2
 70
     0
 43
0.0
 10
18.21669005518976
 20
7.789110666661105
 10
16.20335305518976
 20
9.802446666661106
  0
LWPOLYLINE
  5
3FC1
330
2
100
AcDbEntity
  8
800
  6
L2
 62
     3
100
AcDbPolyline
 90
        2
 70
     0
 43
0.0
 10
16.94471205518977
 20
9.061087666661105
 10
15.84779405518976
 20
9.061087666661105
  0
LWPOLYLINE
  5
3FC2
330
2
100
AcDbEntity
  8
800
  6
L5
 62
     2
100
AcDbPolyline
 90
        2
 70
     0
 43
0.0
 10
16.29798805518976
 20
8.867497666661105
 10
14.98081605518976
 20
8.867497666661105
  0
DIMENSION
  5
3FC3
330
2
100
AcDbEntity
  8
4
100
AcDbDimension
  2
*D20
 10
19.3348724026735
 20
5.743204014145216
 30
0.0
 11
19.7987339026735
 21
6.207066014145217
 31
0.0
 70
    33
 71
     5
 42
1.311999155832424
  3
MEDDIM1152
100
AcDbAlignedDimension
 13
19.61785705518976
 23
7.315665666661105
 33
0.0
 14
18.69013405518976
 24
6.387941666661106
 34
0.0
  0
LWPOLYLINE
  5
3FC4
330
2
100
AcDbEntity
  8
800
  6
L0
 62
     1
100
AcDbPolyline
 90
        2
 70
     0
 43
0.0
 10
19.73988405518976
 20
10.9420776666611
 10
19.38633105518976
 20
11.2956316666611
  0
LWPOLYLINE
  5
3FC5
330
2
100
AcDbEntity
  8
800
  6
L0
 62
     1
100
AcDbPolyline
 90
        2
 70
     0
 43
0.0
 10
19.75756205518976
 20
10.9597556666611
 10
19.40400905518976
 20
11.3133096666611
  0
LWPOLYLINE
  5
3FC6
330
2
100
AcDbEntity
  8
800
  6
L0
 62
     1
100
AcDbPolyline
 90
        2
 70
     0
 43
0.0
 10
19.69038705518976
 20
10.8925806666611
 10
19.33683405518976
 20
11.2461346666611
  0
LWPOLYLINE
  5
3FC7
330
2
100
AcDbEntity
  8
800
  6
L0
 62
     1
100
AcDbPolyline
 90
        2
 70
     0
 43
0.0
 10
19.70099405518976
 20
10.9031876666611
 10
19.34744005518976
 20
11.2567406666611
  0
LWPOLYLINE
  5
3FC8
330
2
100
AcDbEntity
  8
800
  6
L0
 62
     1
100
AcDbPolyline
 90
        2
 70
     0
 43
0.0
 10
19.71160005518976
 20
10.9137936666611
 10
19.35804705518976
 20
11.2673476666611
  0
LWPOLYLINE
  5
3FC9
330
2
100
AcDbEntity
  8
800
  6
L0
 62
     1
100
AcDbPolyline
 90
        2
 70
     0
 43
0.0
 10
19.72574205518976
 20
10.9279356666611
 10
19.37218905518976
 20
11.2814906666611
  0
LWPOLYLINE
  5
3FCA
330
2
100
AcDbEntity
  8
800
  6
L0
 62
     1
100
AcDbPolyline
 90
        2
 70
     0
 43
0.0
 10
19.67624505518976
 20
10.8784386666611
 10
19.32329805518976
 20
11.2313866666611
  0
LWPOLYLINE
  5
3FCB
330
2
100
AcDbEntity
  8
800
  6
L0
 62
     1
100
AcDbPolyline
 90
        2
 70
     0
 43
0.0
 10
19.68331505518976
 20
10.8855096666611
 10
19.32976305518976
 20
11.2390636666611
  0
LWPOLYLINE
  5
3FCC
330
2
100
AcDbEntity
  8
800
  6
L0
 62
     1
100
AcDbPolyline
 90
        2
 70
     0
 43
0.0
 10
19.66917305518976
 20
10.8713676666611
 10
19.32622605518976
 20
11.2143136666611
  0
LWPOLYLINE
  5
3FCD
330
2
100
AcDbEntity
  8
800
  6
L5
 62
     2
100
AcDbPolyline
 90
        2
 70
     0
 43
0.0
 10
19.59846305518976
 20
10.8006576666611
 10
19.95201705518977
 20
11.1542096666611
  0
LWPOLYLINE
  5
3FCE
330
2
100
AcDbEntity
  8
800
  6
L5
 62
     2
100
AcDbPolyline
 90
        2
 70
     0
 43
0.0
 10
19.59846305518976
 20
10.8006576666611
 42
0.4142149999999999
 10
19.59846205518976
 20
10.7122696666611
  0
LWPOLYLINE
  5
3FCF
330
2
100
AcDbEntity
  8
800
  6
L0
 62
     1
100
AcDbPolyline
 90
        2
 70
     0
 43
0.0
 10
19.32622705518976
 20
11.2355276666611
 42
0.4142070000000001
 10
19.32622705518976
 20
11.2143146666611
  0
DIMENSION
  5
3FD0
330
2
100
AcDbEntity
  8
4
100
AcDbDimension
  2
*D21
 10
20.69903926066083
 20
9.611696872133572
 30
0.0
 11
20.92000926066083
 21
9.832668372133568
 31
0.0
 70
    33
 71
     5
 42
0.6249996630791053
  3
MEDDIM1159
100
AcDbAlignedDimension
 13
20.49118405518976
 23
10.7034306666611
 33
0.0
 14
20.04924405518976
 24
10.2614876666611
 34
0.0
  0
LWPOLYLINE
  5
3FD1
330
2
100
AcDbEntity
  8
800
  6
L5
 62
     2
100
AcDbPolyline
 90
        2
 70
     0
 43
0.0
 10
20.29849905518976
 20
10.1854736666611
 10
20.56719905518976
 20
10.4541746666611
  0
LWPOLYLINE
  5
3FD2
330
2
100
AcDbEntity
  8
800
  6
L5
 62
     2
100
AcDbPolyline
 90
        2
 70
     0
 43
0.0
 10
20.56719905518976
 20
10.4541746666611
 10
20.40456505518976
 20
10.6168086666611
  0
LWPOLYLINE
  5
3FD3
330
2
100
AcDbEntity
  8
800
  6
L5
 62
     2
100
AcDbPolyline
 90
        2
 70
     0
 43
0.0
 10
20.04924405518976
 20
10.2614876666611
 10
20.49118405518976
 20
10.7034306666611
  0
LWPOLYLINE
  5
3FD4
330
2
100
AcDbEntity
  8
800
  6
L5
 62
     2
100
AcDbPolyline
 90
        2
 70
     0
 43
0.0
 10
20.04959705518976
 20
10.4824586666611
 10
19.68685105518977
 20
10.8452056666611
  0
LWPOLYLINE
  5
3FD5
330
2
100
AcDbEntity
  8
800
  6
L5
 62
     2
100
AcDbPolyline
 90
        2
 70
     0
 43
0.0
 10
20.04959705518976
 20
10.4824586666611
 10
19.93893505518976
 20
10.3717966666611
  0
LWPOLYLINE
  5
3FD6
330
2
100
AcDbEntity
  8
800
  6
L5
 62
     2
100
AcDbPolyline
 90
        2
 70
     0
 43
0.0
 10
20.29849905518976
 20
10.1854736666611
 10
20.13586305518976
 20
10.3481096666611
  0
LWPOLYLINE
  5
3FD7
330
2
100
AcDbEntity
  8
800
  6
L0
 62
     1
100
AcDbPolyline
 90
        2
 70
     0
 43
0.0
 10
20.31087305518976
 20
10.3717966666611
 10
20.23521305518976
 20
10.4474576666611
  0
LWPOLYLINE
  5
3FD8
330
2
100
AcDbEntity
  8
800
  6
L0
 62
     1
100
AcDbPolyline
 90
        2
 70
     0
 43
0.0
 10
20.26632505518976
 20
10.4417996666611
 10
20.31087305518976
 20
10.4863486666611
  0
LWPOLYLINE
  5
3FD9
330
2
100
AcDbEntity
  8
800
  6
L0
 62
     1
100
AcDbPolyline
 90
        2
 70
     0
 43
0.0
 10
20.28541705518976
 20
10.4227076666611
 10
20.32996505518976
 20
10.4672556666611
  0
LWPOLYLINE
  5
3FDA
330
2
100
AcDbEntity
  8
800
  6
L0
 62
     1
100
AcDbPolyline
 90
        2
 70
     0
 43
0.0
 10
20.30450805518977
 20
10.4036166666611
 10
20.34905605518976
 20
10.4481636666611
  0
LWPOLYLINE
  5
3FDB
330
2
100
AcDbEntity
  8
800
  6
L0
 62
     1
100
AcDbPolyline
 90
        2
 70
     0
 43
0.0
 10
20.31087305518976
 20
10.3717966666611
 10
20.38087705518976
 20
10.4417996666611
  0
LWPOLYLINE
  5
3FDC
330
2
100
AcDbEntity
  8
800
  6
L0
 62
     1
100
AcDbPolyline
 90
        2
 70
     0
 43
0.0
 10
20.33632905518976
 20
10.3717966666611
 10
20.38087705518976
 20
10.4163446666611
  0
LWPOLYLINE
  5
3FDD
330
2
100
AcDbEntity
  8
800
  6
L0
 62
     1
100
AcDbPolyline
 90
        2
 70
     0
 43
0.0
 10
20.31087305518976
 20
10.3717966666611
 10
20.33632905518976
 20
10.3717966666611
  0
LWPOLYLINE
  5
3FDE
330
2
100
AcDbEntity
  8
800
  6
L0
 62
     1
100
AcDbPolyline
 90
        2
 70
     0
 43
0.0
 10
20.38087705518976
 20
10.4417996666611
 10
20.38087705518976
 20
10.4163446666611
  0
LWPOLYLINE
  5
3FDF
330
2
100
AcDbEntity
  8
800
  6
L0
 62
     1
100
AcDbPolyline
 90
        2
 70
     0
 43
0.0
 10
20.38087705518976
 20
10.4417996666611
 10
20.30521605518976
 20
10.5174616666611
  0
LWPOLYLINE
  5
3FE0
330
2
100
AcDbEntity
  8
800
  6
L5
 62
     2
100
AcDbPolyline
 90
        2
 70
     0
 43
0.0
 10
20.27021505518976
 20
10.7030756666611
 10
19.90746905518976
 20
11.0658226666611
  0
LWPOLYLINE
  5
3FE1
330
2
100
AcDbEntity
  8
800
  6
L5
 62
     2
100
AcDbPolyline
 90
        2
 70
     0
 43
0.0
 10
19.68685205518976
 20
10.8890456666611
 42
0.4142140000000001
 10
19.68685205518976
 20
10.8452046666611
  0
LWPOLYLINE
  5
3FE2
330
2
100
AcDbEntity
  8
800
  6
L5
 62
     2
100
AcDbPolyline
 90
        2
 70
     0
 43
0.0
 10
19.90746805518976
 20
11.0658226666611
 42
0.4142070000000001
 10
19.86362805518976
 20
11.0658226666611
  0
LWPOLYLINE
  5
3FE3
330
2
100
AcDbEntity
  8
800
  6
L5
 62
     2
100
AcDbPolyline
 90
        2
 70
     0
 43
0.0
 10
20.04040505518976
 20
11.1542096666611
 42
0.414212
 10
19.95201705518977
 20
11.1542106666611
  0
LWPOLYLINE
  5
3FE4
330
2
100
AcDbEntity
  8
800
  6
L5
 62
     2
100
AcDbPolyline
 90
        2
 70
     0
 43
0.0
 10
20.38087705518976
 20
10.8137376666611
 10
20.27021505518976
 20
10.7030756666611
  0
LWPOLYLINE
  5
3FE5
330
2
100
AcDbEntity
  8
800
  6
L5
 62
     2
100
AcDbPolyline
 90
        2
 70
     0
 43
0.0
 10
18.70400705518976
 20
11.6944056666611
 10
19.05826805518976
 20
12.0486656666611
  0
LWPOLYLINE
  5
3FE6
330
2
100
AcDbEntity
  8
800
  6
L0
 62
     1
100
AcDbPolyline
 90
        2
 70
     0
 43
0.0
 10
18.79629405518977
 20
11.6470896666611
 10
19.10558405518976
 20
11.9563776666611
  0
LWPOLYLINE
  5
3FE7
330
2
100
AcDbEntity
  8
800
  6
L0
 62
     1
100
AcDbPolyline
 90
        2
 70
     0
 43
0.0
 10
18.83119605518976
 20
11.6121896666611
 10
19.14048405518976
 20
11.9214786666611
  0
LWPOLYLINE
  5
3FE8
330
2
100
AcDbEntity
  8
800
  6
L5
 62
     2
100
AcDbPolyline
 90
        2
 70
     0
 43
0.0
 10
18.96952605518976
 20
11.9599246666611
 10
18.78655405518976
 20
12.1428976666611
  0
LWPOLYLINE
  5
3FE9
330
2
100
AcDbEntity
  8
800
  6
L0
 62
     1
100
AcDbPolyline
 90
        2
 70
     0
 43
0.0
 10
18.87325705518976
 20
11.5701286666611
 42
0.4142140000000001
 10
18.87325605518976
 20
11.4374756666611
  0
LWPOLYLINE
  5
3FEA
330
2
100
AcDbEntity
  8
800
  6
L5
 62
     2
100
AcDbPolyline
 90
        2
 70
     0
 43
0.0
 10
18.70940705518976
 20
12.0783626666611
 10
18.59173705518976
 20
11.9120876666611
  0
LWPOLYLINE
  5
3FEB
330
2
100
AcDbEntity
  8
800
  6
L5
 62
     2
100
AcDbPolyline
 90
        2
 70
     0
 43
0.0
 10
18.70400705518976
 20
11.6944056666611
 42
0.4142149999999999
 10
18.70400705518976
 20
11.6067246666611
  0
LWPOLYLINE
  5
3FEC
330
2
100
AcDbEntity
  8
800
  6
L0
 62
     1
100
AcDbPolyline
 90
        2
 70
     0
 43
0.0
 10
18.79629505518976
 20
11.6470896666611
 42
0.414216
 10
18.79629505518976
 20
11.5144366666611
  0
LWPOLYLINE
  5
3FED
330
2
100
AcDbEntity
  8
800
  6
L0
 62
     1
100
AcDbPolyline
 90
        2
 70
     0
 43
0.0
 10
18.83119605518976
 20
11.6121886666611
 42
0.414211
 10
18.83119605518976
 20
11.4795356666611
  0
LWPOLYLINE
  5
3FEE
330
2
100
AcDbEntity
  8
800
  6
L5
 62
     2
100
AcDbPolyline
 90
        2
 70
     0
 43
0.0
 10
18.79274905518976
 20
11.7831486666611
 10
18.62160405518977
 20
11.9542936666611
  0
LWPOLYLINE
  5
3FEF
330
2
100
AcDbEntity
  8
800
  6
L5
 62
     2
100
AcDbPolyline
 90
        2
 70
     0
 43
0.0
 10
18.70562205518976
 20
12.0031896666611
 10
18.70940705518976
 20
12.0783626666611
  0
LWPOLYLINE
  5
3FF0
330
2
100
AcDbEntity
  8
800
  6
L5
 62
     2
100
AcDbPolyline
 90
        2
 70
     0
 43
0.0
 10
18.80810405518976
 20
12.1800976666611
 10
18.70562205518976
 20
12.0031896666611
  0
LWPOLYLINE
  5
3FF1
330
2
100
AcDbEntity
  8
800
  6
L0
 62
     1
100
AcDbPolyline
 90
        2
 70
     0
 43
0.0
 10
19.23823705518976
 20
11.9563786666611
 42
0.4142149999999999
 10
19.10558305518977
 20
11.9563786666611
  0
LWPOLYLINE
  5
3FF2
330
2
100
AcDbEntity
  8
800
  6
L0
 62
     1
100
AcDbPolyline
 90
        2
 70
     0
 43
0.0
 10
18.95454505518976
 20
11.4877086666611
 10
19.26496505518977
 20
11.7981286666611
  0
LWPOLYLINE
  5
3FF3
330
2
100
AcDbEntity
  8
800
  6
L0
 62
     1
100
AcDbPolyline
 90
        2
 70
     0
 43
0.0
 10
19.27313705518976
 20
11.9214776666611
 42
0.4142140000000001
 10
19.14048405518976
 20
11.9214776666611
  0
LWPOLYLINE
  5
3FF4
330
2
100
AcDbEntity
  8
800
  6
L0
 62
     1
100
AcDbPolyline
 90
        2
 70
     0
 43
0.0
 10
19.31519705518976
 20
11.8794176666611
 42
0.4142140000000001
 10
19.18254405518976
 20
11.8794176666611
  0
LWPOLYLINE
  5
3FF5
330
2
100
AcDbEntity
  8
800
  6
L0
 62
     1
100
AcDbPolyline
 90
        2
 70
     0
 43
0.0
 10
19.35009905518976
 20
11.8445166666611
 42
0.4142140000000001
 10
19.21744605518976
 20
11.8445166666611
  0
LWPOLYLINE
  5
3FF6
330
2
100
AcDbEntity
  8
800
  6
L0
 62
     1
100
AcDbPolyline
 90
        2
 70
     0
 43
0.0
 10
18.90815705518976
 20
11.5352286666611
 10
19.21744605518976
 20
11.8445166666611
  0
LWPOLYLINE
  5
3FF7
330
2
100
AcDbEntity
  8
800
  6
L0
 62
     1
100
AcDbPolyline
 90
        2
 70
     0
 43
0.0
 10
18.87325605518976
 20
11.5701286666611
 10
19.18254505518977
 20
11.8794166666611
  0
LWPOLYLINE
  5
3FF8
330
2
100
AcDbEntity
  8
800
  6
L0
 62
     1
100
AcDbPolyline
 90
        2
 70
     0
 43
0.0
 10
18.90815805518976
 20
11.5352276666611
 42
0.4142140000000001
 10
18.90815705518976
 20
11.4025746666611
  0
LWPOLYLINE
  5
3FF9
330
2
100
AcDbEntity
  8
800
  6
L0
 62
     1
100
AcDbPolyline
 90
        2
 70
     0
 43
0.0
 10
19.53835905518976
 20
11.4264466666611
 42
0.4142140000000001
 10
19.51714505518976
 20
11.4264466666611
  0
LWPOLYLINE
  5
3FFA
330
2
100
AcDbEntity
  8
800
  6
L5
 62
     2
100
AcDbPolyline
 90
        2
 70
     0
 43
0.0
 10
19.14594905518976
 20
12.0486666666611
 42
0.414212
 10
19.05826805518976
 20
12.0486666666611
  0
DIMENSION
  5
40C2
330
2
100
AcDbEntity
  8
0
100
AcDbDimension
  2
*D22
 10
15.84779405518976
 20
9.061087666661105
 30
0.0
 11
15.39594170807962
 21
9.702609276649074
 31
0.0
 70
    34
  1
45
 71
     5
 42
0.7853979150534693
  3
GEN-ANSI
100
AcDb2LineAngularDimension
 13
18.21669005518976
 23
7.789110666661105
 33
0.0
 14
16.20335305518976
 24
9.802446666661106
 34
0.0
 15
16.94471205518977
 25
9.061087666661105
 35
0.0
 16
15.59685005292281
 26
9.839276071553864
 36
0.0
  0
TEXT
  5
413D
330
2
100
AcDbEntity
  8
0
100
AcDbText
 10
12.88909220203596
 20
1.303020410247953
 30
0.0
 40
0.1
  1
1
100
AcDbText
  0
TEXT
  5
413E
330
2
100
AcDbEntity
  8
0
100
AcDbText
 10
13.12028217517013
 20
1.297647820076704
 30
0.0
 40
0.1
  1
08.10.02
100
AcDbText
  0
TEXT
  5
413F
330
2
100
AcDbEntity
  8
0
100
AcDbText
 10
13.96977061462251
 20
1.303020410247953
 30
0.0
 40
0.1
  1
GENERAL REVISION
100
AcDbText
  0
INSERT
  5
421B
330
2
100
AcDbEntity
  8
0
100
AcDbBlockReference
 66
     1
  2
ASSEMBLY_C
 10
0.0
 20
0.0
 30
0.0
  0
ATTRIB
  5
421D
330
421B
100
AcDbEntity
  8
TITLE BLOCK
  6
Continuous
100
AcDbText
 10
17.42499999999999
 20
1.875
 30
0.0
 40
0.1010611419
  1
G. MUMM
100
AcDbAttribute
  2
GEN-TITLE-NAME{5}
 70
     0
  0
ATTRIB
  5
421E
330
421B
100
AcDbEntity
  8
TITLE BLOCK
  6
Continuous
100
AcDbText
 10
17.42499999999999
 20
1.625
 30
0.0
 40
0.1010611419
  1

100
AcDbAttribute
  2
GEN-TITLE-CHKM{5}
 70
     0
  0
ATTRIB
  5
421F
330
421B
100
AcDbEntity
  8
TITLE BLOCK
  6
Continuous
100
AcDbText
 10
17.42499999999999
 20
1.375
 30
0.0
 40
0.1010611419
  1

100
AcDbAttribute
  2
GEN-TITLE-APPM{5}
 70
     0
  0
ATTRIB
  5
4220
330
421B
100
AcDbEntity
  8
TITLE BLOCK
  6
Continuous
100
AcDbText
 10
15.7
 20
0.95
 30
0.0
 40
0.126326427375
  1
CABLE, FEEDBACK FLEXING
 41
0.8
100
AcDbAttribute
  2
GEN-TITLE-DES1{15.54}
 70
     0
  0
ATTRIB
  5
4221
330
421B
100
AcDbEntity
  8
TITLE BLOCK
  6
Continuous
100
AcDbText
 10
20.89999999999999
 20
1.375
 30
0.0
 40
0.11808994431015
  1
2
 41
0.8
100
AcDbAttribute
  2
GEN-TITLE-SHEET-OF{2.62}
 70
     0
  0
ATTRIB
  5
4222
330
421B
100
AcDbEntity
  8
TITLE BLOCK
  6
Continuous
100
AcDbText
 10
20.5
 20
1.375
 30
0.0
 40
0.11808994431015
  1
1
 41
0.8
100
AcDbAttribute
  2
GEN-TITLE-SHEET{2.62}
 70
     0
  0
ATTRIB
  5
4223
330
421B
100
AcDbEntity
  8
TITLE BLOCK
  6
Continuous
100
AcDbText
 10
18.94999999999999
 20
1.375
 30
0.0
 40
0.1010611419
  1

 41
0.8
100
AcDbAttribute
  2
GEN-TITLE-MAT{11.15}
 70
     0
  0
ATTRIB
  5
4224
330
421B
100
AcDbEntity
  8
TITLE BLOCK
  6
Continuous
100
AcDbText
 10
18.94999999999999
 20
1.625
 30
0.0
 40
0.1010611419
  1

100
AcDbAttribute
  2
GEN-TITLE-MACH{5}
 70
     0
  0
ATTRIB
  5
4225
330
421B
100
AcDbEntity
  8
TITLE BLOCK
  6
Continuous
100
AcDbText
 10
18.94999999999999
 20
1.875
 30
0.0
 40
0.1010611419
  1

100
AcDbAttribute
  2
GEN-TITLE-REF{5}
 70
     0
  0
ATTRIB
  5
4226
330
421B
100
AcDbEntity
  8
TITLE BLOCK
  6
Continuous
100
AcDbText
 10
20.42499999999999
 20
1.625
 30
0.0
 40
0.1010611419
  1
03.09.02
100
AcDbAttribute
  2
GEN-TITLE-PLOT{5}
 70
     0
  0
ATTRIB
  5
4227
330
421B
100
AcDbEntity
  8
TITLE BLOCK
  6
Continuous
100
AcDbText
 10
18.89999999999999
 20
0.85
 30
0.0
 40
0.196816573850279
  1
MD.1000.6556
 41
0.8
100
AcDbAttribute
  2
GEN-TITLE-NR{13.37}
 70
     0
  0
SEQEND
  5
421C
330
421B
100
AcDbEntity
  8
0
  0
ENDSEC
  0
SECTION
  2
OBJECTS
  0
DICTIONARY
  5
7
330
0
100
AcDbDictionary
281
     1
  3
ACAD_GROUP
350
1F
  3
ACAD_LAYOUT
350
B
  3
ACAD_MLINESTYLE
350
20
  3
ACAD_PLOTSETTINGS
350
21
  3
ACAD_PLOTSTYLENAME
350
6
  3
AcadDim
350
D6F
  3
AcDbVariableDictionary
350
178
  3
AcmDictionary
350
18B
  3
AMG
350
16F
  3
AMGSNAPSETTINGS
350
1C0
  3
ASE_INDEX_DICTIONARY
350
4228
  3
DWGPROPS
350
4167
  0
DICTIONARY
  5
164
330
2
100
AcDbDictionary
280
     1
281
     1
  3
ACAD_INDEX
360
4141
  3
ACAD_LAYOUTSELFREF
360
165
  0
DICTIONARY
  5
168
330
C
100
AcDbDictionary
280
     1
281
     1
  3
ACAD_LAYOUTSELFREF
360
169
  0
DICTIONARY
  5
1F
102
{ACAD_REACTORS
330
7
102
}
330
7
100
AcDbDictionary
281
     1
  0
DICTIONARY
  5
B
102
{ACAD_REACTORS
330
7
102
}
330
7
100
AcDbDictionary
281
     1
  3
Layout1
350
F
  3
Model
350
A
  0
DICTIONARY
  5
20
102
{ACAD_REACTORS
330
7
102
}
330
7
100
AcDbDictionary
281
     1
  3
STANDARD
350
23
  0
DICTIONARY
  5
21
102
{ACAD_REACTORS
330
7
102
}
330
7
100
AcDbDictionary
281
     1
  0
ACDBDICTIONARYWDFLT
  5
6
102
{ACAD_REACTORS
330
7
102
}
330
7
100
AcDbDictionary
281
     1
  3
Normal
350
5
100
AcDbDictionaryWithDefault
340
5
  0
XRECORD
  5
D6F
102
{ACAD_REACTORS
330
7
102
}
330
7
100
AcDbXrecord
280
     1
 90
   990106
  3

 60
     0
 61
     0
 62
     1
 63
     3
 64
     0
 65
     0
 66
     0
 67
     3
 68
     1
 69
     0
 70
     0
 71
     0
 72
     0
 40
0.0
170
     0
  0
DICTIONARY
  5
178
102
{ACAD_REACTORS
330
7
102
}
330
7
100
AcDbDictionary
281
     1
  3
INDEXCTL
350
179
  0
DICTIONARY
  5
18B
102
{ACAD_REACTORS
330
7
102
}
330
7
100
AcDbDictionary
281
     1
  3
AcmBOMDATA
350
18C
  3
AcmStdDictionary
350
191
  0
DICTIONARY
  5
16F
102
{ACAD_REACTORS
330
7
102
}
330
7
100
AcDbDictionary
281
     1
  3
AcMgSettings
350
170
  3
AMGLAYCFG
350
193
  0
DICTIONARY
  5
1C0
102
{ACAD_REACTORS
330
7
102
}
330
7
100
AcDbDictionary
281
     1
  3
DIMENSION
350
1C5
  3
FEA
350
1C4
  3
HATCH (1)
350
1C1
  3
HATCH (2)
350
1C2
  3
SIMPLE WELD
350
1C6
  3
SYMBOLS
350
1C3
  0
DICTIONARY
  5
4228
102
{ACAD_REACTORS
330
7
102
}
330
7
100
AcDbDictionary
281
     1
  3
ASEBlockHierarchyIndexRecord
350
4229
1001
DCO15
1040
1449999851.827
  0
XRECORD
  5
4167
102
{ACAD_REACTORS
330
7
102
}
330
7
100
AcDbXrecord
280
     1
  1
DWGPROPS COOKIE
  2

  3

  4

  6

  7

  8

  9

300
AmdtFileType=84
301
=
302
=
303
=
304
=
305
=
306
=
307
=
308
=
309
=
 40
0.5367621527777777
 41
2450932.12110206
 42
2452557.510800636
  1

 90
        1
  0
DICTIONARY
  5
4141
102
{ACAD_REACTORS
330
164
102
}
330
164
100
AcDbDictionary
281
     1
  3
*A1
350
4142
  0
XRECORD
  5
165
102
{ACAD_REACTORS
330
164
102
}
330
164
100
AcDbXrecord
280
     1
340
2
  0
XRECORD
  5
169
102
{ACAD_REACTORS
330
168
102
}
330
168
100
AcDbXrecord
280
     1
340
C
  0
LAYOUT
  5
F
102
{ACAD_REACTORS
330
B
102
}
330
B
100
AcDbPlotSettings
  1

  2
\\CONTROLSFS1\HP LaserJet 8000 Series PCL 6 (Davis)
  4

  6

 40
0.0
 41
0.0
 42
0.0
 43
0.0
 44
0.0
 45
0.0
 46
0.0
 47
0.0
 48
0.0
 49
0.0
140
0.0
141
0.0
142
1.0
143
1.0
 70
   688
 72
     0
 73
     0
 74
     5
  7
monochrome.ctb
 75
    16
147
1.0
148
0.0
149
0.0
100
AcDbLayout
  1
Layout1
 70
     1
 71
     1
 10
0.0
 20
0.0
 11
420.0
 21
297.0
 12
0.0
 22
0.0
 32
0.0
 14
1.000000000000000E+20
 24
1.000000000000000E+20
 34
1.000000000000000E+20
 15
-1.000000000000000E+20
 25
-1.000000000000000E+20
 35
-1.000000000000000E+20
146
0.0
 13
0.0
 23
0.0
 33
0.0
 16
1.0
 26
0.0
 36
0.0
 17
0.0
 27
1.0
 37
0.0
 76
     0
330
C
  0
LAYOUT
  5
A
102
{ACAD_REACTORS
330
B
102
}
330
B
100
AcDbPlotSettings
  1

  2
\\CONTROLSFS1\HP LaserJet 5Si MX
  4
Legal
  6

 40
7.143749713897705
 41
6.127765178680419
 42
7.14373779296875
 43
7.14373779296875
 44
215.8999938964843
 45
355.6000061035156
 46
0.0
 47
38.862
 48
0.0
 49
0.0
140
0.0
141
0.0
142
1.0
143
2.110785546200101
 70
 11956
 72
     0
 73
     1
 74
     1
  7
monochrome.ctb
 75
     0
147
0.4737572709838901
148
0.0
149
-6.239235579618923
100
AcDbLayout
  1
Model
 70
     1
 71
     0
 10
0.0
 20
0.0
 11
12.0
 21
9.0
 12
0.0
 22
0.0
 32
0.0
 14
0.0
 24
0.0
 34
0.0
 15
0.0
 25
0.0
 35
0.0
146
0.0
 13
0.0
 23
0.0
 33
0.0
 16
1.0
 26
0.0
 36
0.0
 17
0.0
 27
1.0
 37
0.0
 76
     0
330
2
  0
MLINESTYLE
  5
23
102
{ACAD_REACTORS
330
20
102
}
330
20
100
AcDbMlineStyle
  2
STANDARD
 70
     0
  3

 62
   256
 51
90.0
 52
90.0
 71
     2
 49
0.5
 62
   256
  6
BYLAYER
 49
-0.5
 62
   256
  6
BYLAYER
  0
ACDBPLACEHOLDER
  5
5
102
{ACAD_REACTORS
330
6
102
}
330
6
  0
DICTIONARYVAR
  5
179
102
{ACAD_REACTORS
330
178
102
}
330
178
100
DictionaryVariables
280
     0
  1
1
  0
ACMDATADICTIONARY
  5
18C
102
{ACAD_REACTORS
330
18B
102
}
330
18B
100
AcDbDictionary
281
     1
  3
*A1
350
18D
100
AcmDataDictionary
  0
DICTIONARY
  5
191
102
{ACAD_REACTORS
330
18B
102
}
330
18B
100
AcDbDictionary
281
     1
  3
ANSI
350
192
  3
ISO
350
EF9
  0
DICTIONARY
  5
170
102
{ACAD_REACTORS
330
16F
102
}
330
16F
100
AcDbDictionary
281
     1
  3
DWGSETTINGS
350
171
  3
TRANSSETTINGS
350
172
  0
ACAMGFILTERDAT
  5
1C5
102
{ACAD_REACTORS
330
1C0
102
}
330
1C0
100
AcAmgFilterDat
 70
    15
  1
DIMENSION,AMDT_*_DIM
  2
*
  3
*
  4
*
  5
*
290
     1
  0
ACAMGFILTERDAT
  5
1C4
102
{ACAD_REACTORS
330
1C0
102
}
330
1C0
100
AcAmgFilterDat
 70
    15
  1
*
  2
AM_FEA-AM_*
  3
*
  4
*
  5
*
290
     1
  0
ACAMGFILTERDAT
  5
1C1
102
{ACAD_REACTORS
330
1C0
102
}
330
1C0
100
AcAmgFilterDat
 70
    15
  1
HATCH
  2
*
  3
*
  4
*
  5
*
290
     1
  0
ACAMGFILTERDAT
  5
1C2
102
{ACAD_REACTORS
330
1C0
102
}
330
1C0
100
AcAmgFilterDat
 70
    15
  1
LINE
  2
8,8N,*-8,*-8N,AM_8,AM_8N,*-AM_8,*-AM_8N
  3
*
  4
*
  5
INSERT,STDPART2D
290
     1
  0
ACAMGFILTERDAT
  5
1C6
102
{ACAD_REACTORS
330
1C0
102
}
330
1C0
100
AcAmgFilterDat
 70
    15
  1
ARC
  2
AM_5
  3
*
  4
2
  5
INSERT
290
     0
  0
ACAMGFILTERDAT
  5
1C3
102
{ACAD_REACTORS
330
1C0
102
}
330
1C0
100
AcAmgFilterDat
 70
    15
  1
ACMFCFRAME,ACMDATUMTARGET,ACMDATUMID,ACMWELDSYM,ACMSURFSYM,ACMFEATID,ACMPARTREF,ACMBALLOON,AMDTEDGESYM
  2
*
  3
*
  4
*
  5
*
290
     1
  0
XRECORD
  5
4229
102
{ACAD_REACTORS
330
4228
102
}
330
4228
100
AcDbXrecord
280
     1
330
421B
330
6DC
330
6DD
330
A5A
330
1E0
330
1E1
330
1E9
330
1F1
330
1F6
330
1FC
330
1FD
330
204
330
209
330
20A
330
211
330
216
330
217
330
21E
  0
LAYER_INDEX
  5
4142
102
{ACAD_REACTORS
330
4141
102
}
330
4141
100
AcDbIndex
 40
2452585.617544293
100
AcDbLayerIndex
  8
0
360
4143
 90
      114
  8
BORDER
360
4144
 90
        0
  8
TITLE BLOCK
360
4145
 90
        0
  8
800
360
4146
 90
      389
  8
4
360
4147
 90
        5
  8
6
360
4148
 90
        1
  8
500
360
4149
 90
        0
  8
Defpoints
360
414A
 90
        0
  8
AM_VIS
360
414B
 90
      251
  8
7A
360
414C
 90
        0
  8
8
360
414D
 90
        4
  8
5
360
414E
 90
       50
  8
LAYER_1
360
414F
 90
        0
  0
ACMDATAENTRYBLOCK
  5
18D
102
{ACAD_REACTORS
330
18C
102
}
330
18C
100
AcmDataEntry
100
AcmDataEntryBlock
  0
IDBUFFER
  5
4143
330
0
100
AcDbIdBuffer
330
6DC
330
6DD
330
A5A
330
CC9
330
CE7
330
CE8
330
CF2
330
D3B
330
D3C
330
D3E
330
D3F
330
D40
330
D41
330
D42
330
D63
330
D64
330
D65
330
D66
330
D67
330
D68
330
D6C
330
D6D
330
D86
330
F0D
330
F0E
330
F0F
330
F15
330
F16
330
F18
330
F19
330
F1A
330
F3E
330
F3F
330
F40
330
F41
330
F42
330
F43
330
F48
330
F6A
330
FA5
330
FDB
330
FDC
330
FDD
330
FDE
330
FDF
330
FE0
330
FE1
330
FE2
330
FE7
330
FE8
330
FE9
330
FEA
330
FEB
330
100F
330
105D
330
3ECA
330
3ECB
330
3ECC
330
3ECD
330
3ECE
330
3ECF
330
3ED0
330
3ED1
330
3ED2
330
3ED3
330
3ED4
330
3ED5
330
3ED6
330
3ED7
330
3ED8
330
3ED9
330
3EDA
330
3EDB
330
3EDC
330
3EDD
330
3EDE
330
3EDF
330
3EE0
330
3EE1
330
3EE2
330
3EE3
330
3EE4
330
3EE5
330
3EE6
330
3EE7
330
3EE8
330
3EE9
330
3EEA
330
3EEB
330
3EEC
330
3EED
330
3EEE
330
3EEF
330
3EF0
330
3EF1
330
3EF2
330
3EF3
330
3EF4
330
3EF5
330
3EF6
330
3EF7
330
3EF8
330
3EF9
330
3EFA
330
3EFB
330
3EFC
330
3EFD
330
3EFE
330
3EFF
330
40C2
330
413D
330
413E
330
413F
330
421B
  0
IDBUFFER
  5
4144
330
0
100
AcDbIdBuffer
  0
IDBUFFER
  5
4145
330
0
100
AcDbIdBuffer
  0
IDBUFFER
  5
4146
330
0
100
AcDbIdBuffer
330
939
330
93A
330
93B
330
93C
330
93D
330
93E
330
93F
330
940
330
941
330
942
330
943
330
944
330
945
330
946
330
947
330
948
330
949
330
94A
330
94B
330
94C
330
94D
330
94E
330
94F
330
950
330
951
330
955
330
956
330
95C
330
95D
330
95E
330
95F
330
960
330
961
330
962
330
963
330
964
330
965
330
966
330
967
330
968
330
969
330
96A
330
96B
330
96C
330
96D
330
96E
330
96F
330
970
330
971
330
972
330
973
330
974
330
975
330
976
330
977
330
978
330
979
330
97A
330
97B
330
97C
330
97D
330
97E
330
97F
330
980
330
981
330
982
330
983
330
984
330
985
330
986
330
987
330
988
330
989
330
98A
330
98B
330
98C
330
98D
330
98E
330
98F
330
990
330
991
330
992
330
993
330
994
330
995
330
997
330
998
330
999
330
99A
330
99E
330
99F
330
9A0
330
9A1
330
9A2
330
9A3
330
9A4
330
9A5
330
9A6
330
9A7
330
9A8
330
9A9
330
9AA
330
9AB
330
9AC
330
9AD
330
9AE
330
9AF
330
9B0
330
9B1
330
9B2
330
9B3
330
9B4
330
9B5
330
9B6
330
9B7
330
9B8
330
9B9
330
9BA
330
9BB
330
9BC
330
9BD
330
9BE
330
9BF
330
9C0
330
9C1
330
9C2
330
9C3
330
9C4
330
9C5
330
9C6
330
9C7
330
9C8
330
9C9
330
9CA
330
9CB
330
9CC
330
9CD
330
A10
330
A11
330
A15
330
A16
330
A17
330
A18
330
A19
330
A1A
330
A1B
330
A1C
330
A1D
330
A1E
330
A1F
330
A20
330
A21
330
A22
330
A23
330
A24
330
A25
330
A26
330
A27
330
A28
330
A29
330
A2A
330
A2B
330
A2C
330
A2D
330
A2E
330
A2F
330
A30
330
A31
330
A32
330
A33
330
A34
330
A35
330
A36
330
A37
330
A38
330
A39
330
A3A
330
A3B
330
A3C
330
A3D
330
A3E
330
A3F
330
A40
330
A41
330
A42
330
A43
330
A44
330
A80
330
A81
330
A82
330
A83
330
A84
330
A85
330
A86
330
A87
330
A88
330
A89
330
A8A
330
A8B
330
A8C
330
A8D
330
A8E
330
A8F
330
A90
330
A91
330
A92
330
A93
330
A94
330
A95
330
A96
330
A97
330
A98
330
A99
330
A9A
330
A9B
330
A9C
330
A9D
330
A9E
330
A9F
330
AA0
330
AA1
330
AA2
330
AA3
330
AA4
330
AA5
330
AA6
330
AA7
330
AA8
330
AA9
330
AAA
330
AAB
330
AAC
330
AAD
330
AAE
330
AAF
330
AB0
330
AB1
330
AB2
330
AB3
330
AB4
330
AB5
330
AB6
330
AB7
330
AB8
330
AB9
330
ABA
330
ABB
330
ABC
330
ABD
330
ABE
330
ABF
330
AC0
330
AC1
330
AC2
330
AC3
330
AC4
330
AC5
330
AC6
330
AC7
330
AC8
330
AC9
330
ACA
330
ACB
330
ACC
330
ACD
330
ACE
330
ACF
330
AD0
330
AD1
330
AD2
330
AD3
330
AD4
330
AD5
330
AD6
330
AD7
330
AD8
330
AD9
330
ADB
330
ADC
330
ADD
330
ADE
330
ADF
330
AE0
330
AE1
330
AE2
330
AE3
330
AE4
330
AE5
330
AE6
330
AE7
330
AE8
330
AE9
330
AEA
330
AEB
330
AEC
330
AED
330
AEE
330
AEF
330
AF0
330
AF1
330
AF2
330
AF3
330
AF4
330
AF5
330
AF6
330
AF7
330
AF8
330
AF9
330
AFA
330
AFB
330
AFC
330
AFD
330
AFE
330
AFF
330
B00
330
B01
330
B02
330
3FAF
330
3FB0
330
3FB1
330
3FB2
330
3FB3
330
3FB4
330
3FB5
330
3FB6
330
3FB7
330
3FB8
330
3FB9
330
3FBA
330
3FBB
330
3FBC
330
3FBD
330
3FC0
330
3FC1
330
3FC2
330
3FC4
330
3FC5
330
3FC6
330
3FC7
330
3FC8
330
3FC9
330
3FCA
330
3FCB
330
3FCC
330
3FCD
330
3FCE
330
3FCF
330
3FD1
330
3FD2
330
3FD3
330
3FD4
330
3FD5
330
3FD6
330
3FD7
330
3FD8
330
3FD9
330
3FDA
330
3FDB
330
3FDC
330
3FDD
330
3FDE
330
3FDF
330
3FE0
330
3FE1
330
3FE2
330
3FE3
330
3FE4
330
3FE5
330
3FE6
330
3FE7
330
3FE8
330
3FE9
330
3FEA
330
3FEB
330
3FEC
330
3FED
330
3FEE
330
3FEF
330
3FF0
330
3FF1
330
3FF2
330
3FF3
330
3FF4
330
3FF5
330
3FF6
330
3FF7
330
3FF8
330
3FF9
330
3FFA
  0
IDBUFFER
  5
4147
330
0
100
AcDbIdBuffer
330
6E2
330
3FAE
330
3FBE
330
3FC3
330
3FD0
  0
IDBUFFER
  5
4148
330
0
100
AcDbIdBuffer
330
A5B
  0
IDBUFFER
  5
4149
330
0
100
AcDbIdBuffer
  0
IDBUFFER
  5
414A
330
0
100
AcDbIdBuffer
  0
IDBUFFER
  5
414B
330
0
100
AcDbIdBuffer
330
F10
330
F11
330
F12
330
F13
330
F17
330
F1B
330
F1C
330
F1D
330
F1E
330
F1F
330
F20
330
F21
330
F22
330
F23
330
F24
330
F25
330
F26
330
F27
330
F28
330
F29
330
F2A
330
F2B
330
F2C
330
F2D
330
F2E
330
F2F
330
F30
330
F31
330
F32
330
F33
330
F34
330
F35
330
F36
330
F37
330
F38
330
F39
330
F3A
330
F3B
330
F3C
330
F3D
330
F45
330
F47
330
F49
330
F4C
330
F4E
330
F4F
330
F50
330
F51
330
F53
330
F54
330
F57
330
F5E
330
F60
330
F61
330
F62
330
F63
330
F64
330
F67
330
F6B
330
F6C
330
F6D
330
F6E
330
F6F
330
F70
330
F71
330
F72
330
F73
330
F74
330
F75
330
F76
330
F77
330
F78
330
F79
330
F7A
330
F7B
330
F7C
330
F7D
330
F7E
330
F7F
330
F80
330
F81
330
F82
330
F83
330
F84
330
F85
330
F86
330
F87
330
F88
330
F89
330
F8A
330
F8B
330
F8C
330
F8D
330
F8E
330
F8F
330
F90
330
F91
330
F92
330
F93
330
F94
330
F95
330
F96
330
F97
330
F98
330
F9A
330
F9B
330
F9C
330
F9D
330
FA4
330
FA6
330
FA7
330
FA8
330
FA9
330
FAA
330
FAB
330
FAC
330
FAD
330
FAE
330
FAF
330
FB0
330
FB1
330
FB2
330
FB3
330
FB4
330
FB5
330
FB6
330
FB7
330
FB8
330
FB9
330
FBA
330
FBB
330
FBC
330
FBD
330
FBE
330
FBF
330
FC0
330
FC1
330
FC2
330
FC3
330
FC4
330
FC5
330
FC6
330
FC7
330
FC8
330
FC9
330
FCA
330
FCB
330
FCC
330
FCD
330
FCE
330
FCF
330
FD0
330
FD1
330
FD2
330
FD3
330
FD4
330
FD5
330
FD6
330
FD7
330
FD8
330
FD9
330
FDA
330
FE3
330
FE6
330
FEC
330
FED
330
FF1
330
FF3
330
FF4
330
FF5
330
FF9
330
FFA
330
FFB
330
1000
330
1001
330
1004
330
1005
330
1007
330
100A
330
100B
330
100E
330
1010
330
1011
330
1012
330
1013
330
1014
330
1015
330
1016
330
1017
330
1018
330
1019
330
101A
330
101B
330
101C
330
101D
330
101E
330
101F
330
1020
330
1021
330
1022
330
1023
330
1024
330
1025
330
1026
330
1027
330
1028
330
1029
330
102A
330
102B
330
102C
330
102D
330
102E
330
102F
330
1030
330
1031
330
1032
330
1033
330
1034
330
1035
330
1036
330
1037
330
1038
330
1039
330
103A
330
103B
330
103C
330
103D
330
103E
330
103F
330
1040
330
1041
330
1042
330
1043
330
1044
330
1045
330
1046
330
1047
330
1048
330
1049
330
104A
330
104B
330
104C
330
104D
330
104E
330
104F
330
1050
330
1055
330
1058
330
1059
330
105A
330
105B
  0
IDBUFFER
  5
414C
330
0
100
AcDbIdBuffer
  0
IDBUFFER
  5
414D
330
0
100
AcDbIdBuffer
330
F44
330
F46
330
FE4
330
FE5
  0
IDBUFFER
  5
414E
330
0
100
AcDbIdBuffer
330
F14
330
F4A
330
F4B
330
F4D
330
F52
330
F55
330
F56
330
F58
330
F59
330
F5A
330
F5B
330
F5C
330
F5D
330
F5F
330
F65
330
F66
330
F68
330
F69
330
F99
330
F9E
330
F9F
330
FA0
330
FA1
330
FA2
330
FA3
330
FEE
330
FEF
330
FF0
330
FF2
330
FF6
330
FF7
330
FF8
330
FFC
330
FFD
330
FFE
330
FFF
330
1002
330
1003
330
1006
330
1008
330
1009
330
100C
330
100D
330
1051
330
1052
330
1053
330
1054
330
1056
330
1057
330
105C
  0
IDBUFFER
  5
414F
330
0
100
AcDbIdBuffer
  0
ENDSEC
  0
EOF
