  0
SECTION
  2
HEADER
  9
$ACADVER
  1
AC1015
  9
$ACADMAINTVER
 70
    10
  9
$DWGCODEPAGE
  3
ANSI_1252
  9
$INSBASE
 10
0.0
 20
0.0
 30
0.0
  9
$EXTMIN
 10
-0.01922157577701
 20
0.2401892904194938
 30
-289.5633923970162
  9
$EXTMAX
 10
22.02701259709578
 20
17.00807226496761
 30
49.22910903953016
  9
$LIMMIN
 10
0.0
 20
0.0
  9
$LIMMAX
 10
420.0
 20
297.0
  9
$ORTHOMODE
 70
     0
  9
$REGENMODE
 70
     1
  9
$FILLMODE
 70
     1
  9
$QTEXTMODE
 70
     0
  9
$MIRRTEXT
 70
     0
  9
$LTSCALE
 40
1.0
  9
$ATTMODE
 70
     1
  9
$TEXTSIZE
 40
0.2
  9
$TRACEWID
 40
1.0
  9
$TEXTSTYLE
  7
STANDARD
  9
$CLAYER
  8
0
  9
$CELTYPE
  6
BYLAYER
  9
$CECOLOR
 62
   256
  9
$CELTSCALE
 40
1.0
  9
$DISPSILH
 70
     0
  9
$DIMSCALE
 40
1.0
  9
$DIMASZ
 40
0.14
  9
$DIMEXO
 40
0.125
  9
$DIMDLI
 40
0.5
  9
$DIMRND
 40
0.0
  9
$DIMDLE
 40
0.0
  9
$DIMEXE
 40
0.125
  9
$DIMTP
 40
0.1
  9
$DIMTM
 40
0.1
  9
$DIMTXT
 40
0.12
  9
$DIMCEN
 40
0.0
  9
$DIMTSZ
 40
0.0
  9
$DIMTOL
 70
     0
  9
$DIMLIM
 70
     0
  9
$DIMTIH
 70
     0
  9
$DIMTOH
 70
     0
  9
$DIMSE1
 70
     0
  9
$DIMSE2
 70
     0
  9
$DIMTAD
 70
     1
  9
$DIMZIN
 70
     7
  9
$DIMBLK
  1

  9
$DIMASO
 70
     1
  9
$DIMSHO
 70
     1
  9
$DIMPOST
  1
<>
  9
$DIMAPOST
  1
mm
  9
$DIMALT
 70
     0
  9
$DIMALTD
 70
     2
  9
$DIMALTF
 40
25.4
  9
$DIMLFAC
 40
1.0
  9
$DIMTOFL
 70
     0
  9
$DIMTVP
 40
0.0
  9
$DIMTIX
 70
     0
  9
$DIMSOXD
 70
     0
  9
$DIMSAH
 70
     0
  9
$DIMBLK1
  1

  9
$DIMBLK2
  1

  9
$DIMSTYLE
  2
GEN-ANSI
  9
$DIMCLRD
 70
   256
  9
$DIMCLRE
 70
   256
  9
$DIMCLRT
 70
     2
  9
$DIMTFAC
 40
0.71
  9
$DIMGAP
 40
0.06
  9
$DIMJUST
 70
     0
  9
$DIMSD1
 70
     0
  9
$DIMSD2
 70
     0
  9
$DIMTOLJ
 70
     1
  9
$DIMTZIN
 70
     0
  9
$DIMALTZ
 70
     0
  9
$DIMALTTZ
 70
     0
  9
$DIMUPT
 70
     0
  9
$DIMDEC
 70
     4
  9
$DIMTDEC
 70
     4
  9
$DIMALTU
 70
     2
  9
$DIMALTTD
 70
     4
  9
$DIMTXSTY
  7
STANDARD
  9
$DIMAUNIT
 70
     0
  9
$DIMADEC
 70
     0
  9
$DIMALTRND
 40
0.0
  9
$DIMAZIN
 70
     0
  9
$DIMDSEP
 70
    46
  9
$DIMATFIT
 70
     3
  9
$DIMFRAC
 70
     0
  9
$DIMLDRBLK
  1

  9
$DIMLUNIT
 70
     2
  9
$DIMLWD
 70
    -2
  9
$DIMLWE
 70
    -2
  9
$DIMTMOVE
 70
     0
  9
$LUNITS
 70
     2
  9
$LUPREC
 70
     3
  9
$SKETCHINC
 40
1.0
  9
$FILLETRAD
 40
0.0
  9
$AUNITS
 70
     0
  9
$AUPREC
 70
     0
  9
$MENU
  1
.
  9
$ELEVATION
 40
0.0
  9
$PELEVATION
 40
0.0
  9
$THICKNESS
 40
0.0
  9
$LIMCHECK
 70
     0
  9
$CHAMFERA
 40
2.5
  9
$CHAMFERB
 40
2.5
  9
$CHAMFERC
 40
20.0
  9
$CHAMFERD
 40
0.0
  9
$SKPOLY
 70
     0
  9
$TDCREATE
 40
2450932.121102060
  9
$TDUCREATE
 40
2450932.371102060
  9
$TDUPDATE
 40
2452585.631154942
  9
$TDUUPDATE
 40
2452585.881154942
  9
$TDINDWG
 40
0.6475100926
  9
$TDUSRTIMER
 40
0.6475100926
  9
$USRTIMER
 70
     1
  9
$ANGBASE
 50
0.0
  9
$ANGDIR
 70
     0
  9
$PDMODE
 70
     0
  9
$PDSIZE
 40
0.0
  9
$PLINEWID
 40
0.0
  9
$SPLFRAME
 70
     0
  9
$SPLINETYPE
 70
     6
  9
$SPLINESEGS
 70
     8
  9
$HANDSEED
  5
451C
  9
$SURFTAB1
 70
     6
  9
$SURFTAB2
 70
     6
  9
$SURFTYPE
 70
     6
  9
$SURFU
 70
     6
  9
$SURFV
 70
     6
  9
$UCSBASE
  2

  9
$UCSNAME
  2

  9
$UCSORG
 10
0.0
 20
0.0
 30
0.0
  9
$UCSXDIR
 10
1.0
 20
0.0
 30
0.0
  9
$UCSYDIR
 10
0.0
 20
1.0
 30
0.0
  9
$UCSORTHOREF
  2

  9
$UCSORTHOVIEW
 70
     0
  9
$UCSORGTOP
 10
0.0
 20
0.0
 30
0.0
  9
$UCSORGBOTTOM
 10
0.0
 20
0.0
 30
0.0
  9
$UCSORGLEFT
 10
0.0
 20
0.0
 30
0.0
  9
$UCSORGRIGHT
 10
0.0
 20
0.0
 30
0.0
  9
$UCSORGFRONT
 10
0.0
 20
0.0
 30
0.0
  9
$UCSORGBACK
 10
0.0
 20
0.0
 30
0.0
  9
$PUCSBASE
  2

  9
$PUCSNAME
  2

  9
$PUCSORG
 10
0.0
 20
0.0
 30
0.0
  9
$PUCSXDIR
 10
1.0
 20
0.0
 30
0.0
  9
$PUCSYDIR
 10
0.0
 20
1.0
 30
0.0
  9
$PUCSORTHOREF
  2

  9
$PUCSORTHOVIEW
 70
     0
  9
$PUCSORGTOP
 10
0.0
 20
0.0
 30
0.0
  9
$PUCSORGBOTTOM
 10
0.0
 20
0.0
 30
0.0
  9
$PUCSORGLEFT
 10
0.0
 20
0.0
 30
0.0
  9
$PUCSORGRIGHT
 10
0.0
 20
0.0
 30
0.0
  9
$PUCSORGFRONT
 10
0.0
 20
0.0
 30
0.0
  9
$PUCSORGBACK
 10
0.0
 20
0.0
 30
0.0
  9
$USERI1
 70
     0
  9
$USERI2
 70
     0
  9
$USERI3
 70
     0
  9
$USERI4
 70
     0
  9
$USERI5
 70
     0
  9
$USERR1
 40
0.0
  9
$USERR2
 40
0.0
  9
$USERR3
 40
0.0
  9
$USERR4
 40
0.0
  9
$USERR5
 40
0.0
  9
$WORLDVIEW
 70
     1
  9
$SHADEDGE
 70
     3
  9
$SHADEDIF
 70
    70
  9
$TILEMODE
 70
     1
  9
$MAXACTVP
 70
    48
  9
$PINSBASE
 10
0.0
 20
0.0
 30
0.0
  9
$PLIMCHECK
 70
     0
  9
$PEXTMIN
 10
1.000000000000000E+20
 20
1.000000000000000E+20
 30
1.000000000000000E+20
  9
$PEXTMAX
 10
-1.000000000000000E+20
 20
-1.000000000000000E+20
 30
-1.000000000000000E+20
  9
$PLIMMIN
 10
0.0
 20
0.0
  9
$PLIMMAX
 10
420.0
 20
297.0
  9
$UNITMODE
 70
     0
  9
$VISRETAIN
 70
     1
  9
$PLINEGEN
 70
     0
  9
$PSLTSCALE
 70
     1
  9
$TREEDEPTH
 70
  3020
  9
$CMLSTYLE
  2
STANDARD
  9
$CMLJUST
 70
     0
  9
$CMLSCALE
 40
20.0
  9
$PROXYGRAPHICS
 70
     1
  9
$MEASUREMENT
 70
     0
  9
$CELWEIGHT
370
    -1
  9
$ENDCAPS
280
     0
  9
$JOINSTYLE
280
     0
  9
$LWDISPLAY
290
     0
  9
$INSUNITS
 70
     0
  9
$HYPERLINKBASE
  1

  9
$STYLESHEET
  1
monochrome.ctb
  9
$XEDIT
290
     1
  9
$CEPSNTYPE
380
     0
  9
$PSTYLEMODE
290
     1
  9
$FINGERPRINTGUID
  2

  9
$VERSIONGUID
  2
{3F7EABA7-DC54-4937-A09F-6CAA1483F1F7}
  9
$EXTNAMES
290
     1
  9
$PSVPSCALE
 40
0.0
  9
$OLESTARTUP
290
     0
  0
ENDSEC
  0
SECTION
  2
CLASSES
  0
CLASS
  1
XRECORD
  2
AcDbXrecord
  3
AutoCAD 2000
 90
    32768
280
     0
281
     0
  0
CLASS
  1
LWPOLYLINE
  2
AcDbPolyline
  3
AutoCAD 2000
 90
    32768
280
     0
281
     1
  0
CLASS
  1
ACDBDICTIONARYWDFLT
  2
AcDbDictionaryWithDefault
  3
AutoCAD 2000
 90
        0
280
     0
281
     0
  0
CLASS
  1
ACDBPLACEHOLDER
  2
AcDbPlaceHolder
  3
AutoCAD 2000
 90
        0
280
     0
281
     0
  0
CLASS
  1
LAYOUT
  2
AcDbLayout
  3
AutoCAD 2000
 90
        0
280
     0
281
     0
  0
CLASS
  1
LONG_TRANSACTION
  2
AcDbLongTransaction
  3
AutoCAD 2000
 90
    32768
280
     0
281
     0
  0
CLASS
  1
LWPOLYLINE
  2
AcDbPolyline
  3
AutoCAD 2000
 90
    32768
280
     0
281
     1
  0
CLASS
  1
HATCH
  2
AcDbHatch
  3
AutoCAD 2000
 90
    32768
280
     0
281
     1
  0
CLASS
  1
XRECORD
  2
AcDbXrecord
  3
AutoCAD 2000
 90
    32768
280
     0
281
     0
  0
CLASS
  1
ACME_DOCUMENT
  2
AcMeDbDoc
  3
AcMeServices
 90
        0
280
     0
281
     0
  0
CLASS
  1
AMGSETTINGSOBJ
  2
AmgSettingsObj
  3
"AcadM|Product Description: AutoCAD Mechanical 2000|Company: Autodesk"
 90
        0
280
     0
281
     0
  0
CLASS
  1
ACMESCOPE
  2
AcMeScope
  3
AcMeServices
 90
        0
280
     0
281
     0
  0
CLASS
  1
ACMECOMMANDHISTORY
  2
AcMeCommandHistory
  3
AcMeServices
 90
        0
280
     0
281
     0
  0
CLASS
  1
DICTIONARYVAR
  2
AcDbDictionaryVar
  3
AutoCAD 2000
 90
        0
280
     0
281
     0
  0
CLASS
  1
ACIMSYSVARMAN
  2
AcImSysVarManager
  3
AcMeServices
 90
        0
280
     0
281
     0
  0
CLASS
  1
ACIMREALSYSVAR
  2
AcImRealSysVar
  3
AcMeServices
 90
        0
280
     0
281
     0
  0
CLASS
  1
ACIMINTSYSVAR
  2
AcImIntSysVar
  3
AcMeServices
 90
        0
280
     0
281
     0
  0
CLASS
  1
ACMEDRAWINGMAN
  2
AcMeDrawingMan
  3
AcMeServices
 90
        0
280
     0
281
     0
  0
CLASS
  1
ACMEVIEW
  2
AcMeView
  3
AcMeServices
 90
        0
280
     0
281
     0
  0
CLASS
  1
ACDBENTITYCACHE
  2
AcMeEntityCache
  3
AcMeServices
 90
        0
280
     0
281
     0
  0
CLASS
  1
GSMANAGER
  2
AcMeGSManager
  3
AcMeServices
 90
        0
280
     0
281
     0
  0
CLASS
  1
AmdtInternalReactor
  2
AmdtInternalReactor
  3
AcMeServices
 90
        0
280
     0
281
     0
  0
CLASS
  1
ACMESTATEMGR
  2
AcMeStateMgr
  3
AcMeServices
 90
        0
280
     0
281
     0
  0
CLASS
  1
ACGREFMASTER
  2
AcGrefMaster
  3
AcAttribServices
 90
        0
280
     0
281
     0
  0
CLASS
  1
ACME_DATABASE
  2
AcMeDbDatabase
  3
AcMeServices
 90
        0
280
     0
281
     0
  0
CLASS
  1
ACRFINSADJUSTERMGR
  2
AcRfInsAdjusterMgr
  3
AcMeServices
 90
        0
280
     0
281
     0
  0
CLASS
  1
ACGREFMASTER
  2
AcGrefacadMaster
  3
AcGrefServices
 90
        0
280
     0
281
     0
  0
CLASS
  1
AMIMASTER
  2
AmiMaster
  3
AmiServices
 90
        0
280
     0
281
     0
  0
CLASS
  1
ACMDATADICTIONARY
  2
AcmDataDictionary
  3
"AcmSymBB|Product Description: AutoCAD Mechanical 2000|Company: Autodesk"
 90
        0
280
     0
281
     0
  0
CLASS
  1
ACMDATAENTRYBLOCK
  2
AcmDataEntryBlock
  3
"AcmSymBB|Product Description: AutoCAD Mechanical 2000|Company: Autodesk"
 90
        0
280
     0
281
     0
  0
CLASS
  1
ACIMSTRSYSVAR
  2
AcImStrSysVar
  3
AcMeServices
 90
        0
280
     0
281
     0
  0
CLASS
  1
ACMSTANDARDANSI
  2
AcmStandardANSI
  3
"Amdt_StdImp|Product Description: AutoCAD Mechanical 2000|Company: Autodesk"
 90
        0
280
     0
281
     0
  0
CLASS
  1
AMGOBJPROPCFG
  2
AmgObjPropCfg
  3
"AmgLay|Product Description: AutoCAD Mechanical 2000|Company: Autodesk"
 90
        1
280
     0
281
     0
  0
CLASS
  1
ACMSURFSTANDARDANSI
  2
AcmSurfTextStdANSI
  3
"Amdt_StdImp|Product Description: AutoCAD Mechanical 2000|Company: Autodesk"
 90
        0
280
     0
281
     0
  0
CLASS
  1
ACMFCFSTANDARDANSI
  2
AcmFCFStdANSI
  3
"Amdt_StdImp|Product Description: AutoCAD Mechanical 2000|Company: Autodesk"
 90
        0
280
     0
281
     0
  0
CLASS
  1
ACMWELDSTANDARDANSI
  2
AcmWeldingStdANSI
  3
"Amdt_StdImp|Product Description: AutoCAD Mechanical 2000|Company: Autodesk"
 90
        0
280
     0
281
     0
  0
CLASS
  1
ACMIDSTANDARDANSI
  2
AcmIdStdANSI
  3
"Amdt_StdImp|Product Description: AutoCAD Mechanical 2000|Company: Autodesk"
 90
        0
280
     0
281
     0
  0
CLASS
  1
ACMDATUMSTANDARDANSI
  2
AcmDatumStdANSI
  3
"Amdt_StdImp|Product Description: AutoCAD Mechanical 2000|Company: Autodesk"
 90
        0
280
     0
281
     0
  0
CLASS
  1
ACMBOMSTANDARDANSI
  2
AcmBOMStdANSI
  3
"Amdt_StdImp|Product Description: AutoCAD Mechanical 2000|Company: Autodesk"
 90
        0
280
     0
281
     0
  0
CLASS
  1
ACMDETAILSTANDARDANSI
  2
AmdtDetailSymStdANSI
  3
"Amdt_StdImp|Product Description: AutoCAD Mechanical 2000|Company: Autodesk"
 90
        0
280
     0
281
     0
  0
CLASS
  1
ACMSECTIONSTANDARDANSI
  2
AmdtSectionSymStdANSI
  3
"Amdt_StdImp|Product Description: AutoCAD Mechanical 2000|Company: Autodesk"
 90
        0
280
     0
281
     0
  0
CLASS
  1
ACMCENTERLINESTANDARDANSI
  2
AmdtCenterLineStdANSI
  3
"Amdt_StdImp|Product Description: AutoCAD Mechanical 2000|Company: Autodesk"
 90
        0
280
     0
281
     0
  0
CLASS
  1
ACMThreadLineSTANDARDANSI
  2
AmdtThreadLineStdANSI
  3
"Amdt_StdImp|Product Description: AutoCAD Mechanical 2000|Company: Autodesk"
 90
        0
280
     0
281
     0
  0
CLASS
  1
"AcAmgLayStd"
  2
AcAmgLayStd
  3
"AcAmgLayStd|Product Description: AutoCAD Mechanical 2000|Company: Autodesk"
 90
        0
280
     0
281
     0
  0
CLASS
  1
"AcAmgDimStd"
  2
AcAmgDimStd
  3
"AcAmgDimStd|Product Description: AutoCAD Mechanical 2000|Company: Autodesk"
 90
        0
280
     0
281
     0
  0
CLASS
  1
AcAmgTitleStd
  2
AcAmgTitleStd
  3
"TITLEAPP"
 90
        0
280
     0
281
     0
  0
CLASS
  1
ACAMGFILTERDAT
  2
AcAmgFilterDat
  3
"AcadM|Product Description: AutoCAD Mechanical 2000|Company: Autodesk"
 90
        0
280
     0
281
     0
  0
CLASS
  1
AMDTFORMULAUPDATEDISPATCHER
  2
AmdtFormulaUpdateDispatcher
  3
AcMeServices
 90
        0
280
     0
281
     0
  0
CLASS
  1
LAYER_INDEX
  2
AcDbLayerIndex
  3
AutoCAD 2000
 90
        0
280
     0
281
     0
  0
CLASS
  1
IDBUFFER
  2
AcDbIdBuffer
  3
AutoCAD 2000
 90
        0
280
     0
281
     0
  0
CLASS
  1
ACMSTANDARDISO
  2
AcmStandardISO
  3
"Amdt_StdImp|Product Description: AutoCAD Mechanical 2000|Company: Autodesk"
 90
        0
280
     0
281
     0
  0
CLASS
  1
AMDTEDGESTANDARDISO
  2
AmdtEdgeStdISO
  3
"Amdt_StdImp|Product Description: AutoCAD Mechanical 2000|Company: Autodesk"
 90
        0
280
     0
281
     0
  0
CLASS
  1
ACMSURFSTANDARDISO
  2
AcmSurfTextStdISO
  3
"Amdt_StdImp|Product Description: AutoCAD Mechanical 2000|Company: Autodesk"
 90
        0
280
     0
281
     0
  0
CLASS
  1
ACMFCFSTANDARDISO
  2
AcmFCFStdISO
  3
"Amdt_StdImp|Product Description: AutoCAD Mechanical 2000|Company: Autodesk"
 90
        0
280
     0
281
     0
  0
CLASS
  1
ACMWELDSTANDARDISO
  2
AcmWeldingStdISO
  3
"Amdt_StdImp|Product Description: AutoCAD Mechanical 2000|Company: Autodesk"
 90
        0
280
     0
281
     0
  0
CLASS
  1
ACMIDSTANDARDISO
  2
AcmIdStdISO
  3
"Amdt_StdImp|Product Description: AutoCAD Mechanical 2000|Company: Autodesk"
 90
        0
280
     0
281
     0
  0
CLASS
  1
ACMDATUMSTANDARDISO
  2
AcmDatumStdISO
  3
"Amdt_StdImp|Product Description: AutoCAD Mechanical 2000|Company: Autodesk"
 90
        0
280
     0
281
     0
  0
CLASS
  1
ACMBOMSTANDARDISO
  2
AcmBOMStdISO
  3
"Amdt_StdImp|Product Description: AutoCAD Mechanical 2000|Company: Autodesk"
 90
        0
280
     0
281
     0
  0
CLASS
  1
ACMDETAILSTANDARDISO
  2
AmdtDetailSymStdISO
  3
"Amdt_StdImp|Product Description: AutoCAD Mechanical 2000|Company: Autodesk"
 90
        0
280
     0
281
     0
  0
CLASS
  1
ACMSECTIONSTANDARDISO
  2
AmdtSectionSymStdISO
  3
"Amdt_StdImp|Product Description: AutoCAD Mechanical 2000|Company: Autodesk"
 90
        0
280
     0
281
     0
  0
CLASS
  1
ACMCENTERLINESTANDARDISO
  2
AmdtCenterLineStdISO
  3
"Amdt_StdImp|Product Description: AutoCAD Mechanical 2000|Company: Autodesk"
 90
        0
280
     0
281
     0
  0
CLASS
  1
ACMThreadLineSTANDARDISO
  2
AmdtThreadLineStdISO
  3
"Amdt_StdImp|Product Description: AutoCAD Mechanical 2000|Company: Autodesk"
 90
        0
280
     0
281
     0
  0
ENDSEC
  0
SECTION
  2
TABLES
  0
TABLE
  2
VPORT
  5
19
330
0
100
AcDbSymbolTable
 70
     4
  0
VPORT
  5
451B
330
19
100
AcDbSymbolTableRecord
100
AcDbViewportTableRecord
  2
*Active
 70
     0
 10
0.0
 20
0.0
 11
1.0
 21
1.0
 12
11.00389551065939
 22
8.624130777693551
 13
0.0
 23
0.0
 14
0.062
 24
0.062
 15
10.0
 25
10.0
 16
0.0
 26
0.0
 36
1.0
 17
0.0
 27
0.0
 37
0.0
 40
16.95147293412345
 41
1.6636197440585
 42
50.0
 43
0.0
 44
0.0
 50
0.0
 51
0.0
 71
     0
 72
   100
 73
     1
 74
     1
 75
     0
 76
     0
 77
     0
 78
     0
281
     0
 65
     1
110
0.0
120
0.0
130
0.0
111
1.0
121
0.0
131
0.0
112
0.0
122
1.0
132
0.0
 79
     0
146
0.0
  0
ENDTAB
  0
TABLE
  2
LTYPE
  5
14
330
0
100
AcDbSymbolTable
 70
    33
  0
LTYPE
  5
15
330
14
100
AcDbSymbolTableRecord
100
AcDbLinetypeTableRecord
  2
BYBLOCK
 70
     0
  3

 72
    65
 73
     0
 40
0.0
  0
LTYPE
  5
16
330
14
100
AcDbSymbolTableRecord
100
AcDbLinetypeTableRecord
  2
BYLAYER
 70
     0
  3

 72
    65
 73
     0
 40
0.0
  0
LTYPE
  5
8
330
14
100
AcDbSymbolTableRecord
100
AcDbLinetypeTableRecord
  2
CONTINUOUS
 70
     0
  3
Solid line
 72
    65
 73
     0
 40
0.0
  0
LTYPE
  5
27
330
14
100
AcDbSymbolTableRecord
100
AcDbLinetypeTableRecord
  2
MS
 70
     0
  3
MEDIUM_SOLID
 72
    65
 73
     0
 40
0.0
  0
LTYPE
  5
4E
330
14
100
AcDbSymbolTableRecord
100
AcDbLinetypeTableRecord
  2
LS
 70
     0
  3
LIGHT_SOLID
 72
    65
 73
     0
 40
0.0
  0
LTYPE
  5
28
330
14
100
AcDbSymbolTableRecord
100
AcDbLinetypeTableRecord
  2
LP
 70
     0
  3
LIGHT_PHANTOM
 72
    65
 73
     6
 40
1.5
 49
0.75
 74
     0
 49
-0.14999998
 74
     0
 49
0.14999998
 74
     0
 49
-0.14999998
 74
     0
 49
0.14999998
 74
     0
 49
-0.14999998
 74
     0
  0
LTYPE
  5
194
330
14
100
AcDbSymbolTableRecord
100
AcDbLinetypeTableRecord
  2
AM_ISO02W050
 70
     0
  3
__ __ __ __ __ __ __ __ __ __ __ __ __ __ __
 72
    65
 73
     2
 40
7.5
 49
6.0
 74
     0
 49
-1.5
 74
     0
  0
LTYPE
  5
195
330
14
100
AcDbSymbolTableRecord
100
AcDbLinetypeTableRecord
  2
AM_ISO08W050
 70
     0
  3
____ . ____ . ____ . ____ . ____ . ____ . ____
 72
    65
 73
     4
 40
18.0
 49
12.0
 74
     0
 49
-1.5
 74
     0
 49
3.0
 74
     0
 49
-1.5
 74
     0
  0
LTYPE
  5
196
330
14
100
AcDbSymbolTableRecord
100
AcDbLinetypeTableRecord
  2
AM_ISO09W050
 70
     0
  3
_____ . . _____ . . _____ . . ____ .. ____
 72
    65
 73
     6
 40
22.5
 49
12.0
 74
     0
 49
-1.5
 74
     0
 49
3.0
 74
     0
 49
-1.5
 74
     0
 49
3.0
 74
     0
 49
-1.5
 74
     0
  0
LTYPE
  5
197
330
14
100
AcDbSymbolTableRecord
100
AcDbLinetypeTableRecord
  2
Amconstr
 70
     0
  3
_______________________
 72
    65
 73
     2
 40
9999.0
 49
9999.0
 74
     0
 49
0.0
 74
     0
  0
LTYPE
  5
198
330
14
100
AcDbSymbolTableRecord
100
AcDbLinetypeTableRecord
  2
AM_ISO08W050x2
 70
     0
  3
__ . __ . __ . __ . __ . __
 72
    65
 73
     4
 40
9.0
 49
6.0
 74
     0
 49
-0.75
 74
     0
 49
1.5
 74
     0
 49
-0.75
 74
     0
  0
LTYPE
  5
199
330
14
100
AcDbSymbolTableRecord
100
AcDbLinetypeTableRecord
  2
AM_ISO02W050x2
 70
     0
  3
 _ _ _ _ _ _ _ _ _ _ _ _
 72
    65
 73
     2
 40
3.75
 49
3.0
 74
     0
 49
-0.75
 74
     0
  0
LTYPE
  5
19C
330
14
100
AcDbSymbolTableRecord
100
AcDbLinetypeTableRecord
  2
Amzigzag
 70
     0
  3
/\/-/\/-/\/-/\/-/\/-/\/
 72
    65
 73
     2
 40
11.00009999999999
 49
0.0001
 74
     4
 75
   135
340
19B
 46
0.04
 50
0.0
 44
0.0
 45
0.0
 49
-11.0
 74
     0
  0
LTYPE
  5
19D
330
14
100
AcDbSymbolTableRecord
100
AcDbLinetypeTableRecord
  2
HIDDEN
 70
     0
  3
Hidden __ __ __ __ __ __ __ __ __ __ __ __ __ _
 72
    65
 73
     2
 40
0.375
 49
0.25
 74
     0
 49
-0.125
 74
     0
  0
LTYPE
  5
19E
330
14
100
AcDbSymbolTableRecord
100
AcDbLinetypeTableRecord
  2
CENTER
 70
     0
  3
Center ____ _ ____ _ ____ _ ____ _ ____ _ ____
 72
    65
 73
     4
 40
2.0
 49
1.25
 74
     0
 49
-0.25
 74
     0
 49
0.25
 74
     0
 49
-0.25
 74
     0
  0
LTYPE
  5
19F
330
14
100
AcDbSymbolTableRecord
100
AcDbLinetypeTableRecord
  2
PHANTOM2
 70
     0
  3
Phantom (.5x) ___ _ _ ___ _ _ ___ _ _ ___ _ _
 72
    65
 73
     6
 40
1.25
 49
0.625
 74
     0
 49
-0.125
 74
     0
 49
0.125
 74
     0
 49
-0.125
 74
     0
 49
0.125
 74
     0
 49
-0.125
 74
     0
  0
LTYPE
  5
1A0
330
14
100
AcDbSymbolTableRecord
100
AcDbLinetypeTableRecord
  2
CENTER2
 70
     0
  3
Center (.5x) ___ _ ___ _ ___ _ ___ _ ___ _ ___
 72
    65
 73
     4
 40
1.125
 49
0.75
 74
     0
 49
-0.125
 74
     0
 49
0.125
 74
     0
 49
-0.125
 74
     0
  0
LTYPE
  5
1A1
330
14
100
AcDbSymbolTableRecord
100
AcDbLinetypeTableRecord
  2
HIDDEN2
 70
     0
  3
Hidden (.5x) _ _ _ _ _ _ _ _ _ _ _ _ _ _ _ _ _
 72
    65
 73
     2
 40
0.1875
 49
0.125
 74
     0
 49
-0.0625
 74
     0
  0
LTYPE
  5
1A2
330
14
100
AcDbSymbolTableRecord
100
AcDbLinetypeTableRecord
  2
Amzigzag2
 70
     0
  3
/\/-/\/-/\/-/\/-/\/-/\/
 72
    65
 73
     2
 40
0.4401
 49
0.0001
 74
     4
 75
   135
340
19B
 46
0.0016
 50
0.0
 44
0.0
 45
0.0
 49
-0.4400000000000001
 74
     0
  0
LTYPE
  5
1AF
330
14
100
AcDbSymbolTableRecord
100
AcDbLinetypeTableRecord
  2
ACANSTGB
 70
     0
  3
__ . . __ . .
 72
    65
 73
     6
 40
0.35433070866
 49
0.15748031496
 74
     0
 49
-0.03937007874
 74
     0
 49
0.03937007874
 74
     0
 49
-0.03937007874
 74
     0
 49
0.03937007874
 74
     0
 49
-0.03937007874
 74
     0
  0
LTYPE
  5
1B0
330
14
100
AcDbSymbolTableRecord
100
AcDbLinetypeTableRecord
  2
ACANSTGL
 70
     0
  3
_ _ _ _ _
 72
    65
 73
     2
 40
0.11811023622
 49
0.07874015748
 74
     0
 49
-0.03937007874
 74
     0
  0
LTYPE
  5
27F
330
14
100
AcDbSymbolTableRecord
100
AcDbLinetypeTableRecord
  2
L5
 70
     0
  3
L5
 72
    65
 73
     0
 40
0.0
  0
LTYPE
  5
280
330
14
100
AcDbSymbolTableRecord
100
AcDbLinetypeTableRecord
  2
L0
 70
     0
  3
L0
 72
    65
 73
     0
 40
0.0
  0
LTYPE
  5
281
330
14
100
AcDbSymbolTableRecord
100
AcDbLinetypeTableRecord
  2
L2
 70
     0
  3
L2
 72
    65
 73
     4
 40
1.125
 49
0.75
 74
     0
 49
-0.125
 74
     0
 49
0.125
 74
     0
 49
-0.125
 74
     0
  0
LTYPE
  5
282
330
14
100
AcDbSymbolTableRecord
100
AcDbLinetypeTableRecord
  2
LDM
 70
     0
  3
LDM
 72
    65
 73
     0
 40
0.0
  0
LTYPE
  5
283
330
14
100
AcDbSymbolTableRecord
100
AcDbLinetypeTableRecord
  2
LEA
 70
     0
  3
LEA
 72
    65
 73
     0
 40
0.0
  0
LTYPE
  5
D89
330
14
100
AcDbSymbolTableRecord
100
AcDbLinetypeTableRecord
  2
GEN7A
 70
     0
  3
__ . __ . __
 72
    65
 73
     4
 40
6.875
 49
4.75
 74
     0
 49
-0.875
 74
     0
 49
0.375
 74
     0
 49
-0.875
 74
     0
  0
LTYPE
  5
D8A
330
14
100
AcDbSymbolTableRecord
100
AcDbLinetypeTableRecord
  2
GEN3
 70
     0
  3
-- -- -- -- -- -- -- -- -- -- -- -- -- -- --
 72
    65
 73
     2
 40
6.25
 49
4.75
 74
     0
 49
-1.5
 74
     0
  0
LTYPE
  5
D8B
330
14
100
AcDbSymbolTableRecord
100
AcDbLinetypeTableRecord
  2
GEN7
 70
     0
  3
____ . ____ . ____ . ____ . ____ . ____ . ____
 72
    65
 73
     4
 40
13.75
 49
9.75
 74
     0
 49
-1.5
 74
     0
 49
1.0
 74
     0
 49
-1.5
 74
     0
  0
LTYPE
  5
D8C
330
14
100
AcDbSymbolTableRecord
100
AcDbLinetypeTableRecord
  2
GEN3A
 70
     0
  3
 - - - - -
 72
    65
 73
     2
 40
3.125
 49
2.25
 74
     0
 49
-0.875
 74
     0
  0
LTYPE
  5
D8D
330
14
100
AcDbSymbolTableRecord
100
AcDbLinetypeTableRecord
  2
GEN4A
 70
     0
  3
_____ . . _____ . . _____ . . ____ .. ____
 72
    65
 73
     6
 40
16.25
 49
9.75
 74
     0
 49
-1.5
 74
     0
 49
1.0
 74
     0
 49
-1.5
 74
     0
 49
1.0
 74
     0
 49
-1.5
 74
     0
  0
LTYPE
  5
D8E
330
14
100
AcDbSymbolTableRecord
100
AcDbLinetypeTableRecord
  2
GENZIGZAG
 70
     0
  3
/\/-/\/-/\/-/\/-/\/-/\/
 72
    65
 73
     2
 40
12.0001
 49
0.0001
 74
     4
 75
   135
340
D96
 46
2.0
 50
0.0
 44
0.0
 45
0.0
 49
-12.0
 74
     0
  0
LTYPE
  5
D8F
330
14
100
AcDbSymbolTableRecord
100
AcDbLinetypeTableRecord
  2
ACISOWELD
 70
     0
  3
_ _ _ _ _
 72
    65
 73
     2
 40
2.0
 49
2.0
 74
     0
 49
-1.0
 74
     0
  0
LTYPE
  5
D90
330
14
100
AcDbSymbolTableRecord
100
AcDbLinetypeTableRecord
  2
ACISOTGB
 70
     0
  3
__ . . __ . .
 72
    65
 73
     6
 40
9.0
 49
4.0
 74
     0
 49
-1.0
 74
     0
 49
1.0
 74
     0
 49
-1.0
 74
     0
 49
1.0
 74
     0
 49
-1.0
 74
     0
  0
LTYPE
  5
D91
330
14
100
AcDbSymbolTableRecord
100
AcDbLinetypeTableRecord
  2
ACISOTGL
 70
     0
  3
_ _ _ _ _
 72
    65
 73
     2
 40
3.0
 49
2.0
 74
     0
 49
-1.0
 74
     0
  0
ENDTAB
  0
TABLE
  2
LAYER
  5
10
330
0
100
AcDbSymbolTable
 70
    14
  0
LAYER
  5
4
330
10
100
AcDbSymbolTableRecord
100
AcDbLayerTableRecord
  2
0
 70
     0
 62
     7
  6
CONTINUOUS
370
    -3
390
5
  0
LAYER
  5
22
330
10
100
AcDbSymbolTableRecord
100
AcDbLayerTableRecord
  2
BORDER
 70
     0
 62
    15
  6
CONTINUOUS
370
    -3
390
5
  0
LAYER
  5
104
330
10
100
AcDbSymbolTableRecord
100
AcDbLayerTableRecord
  2
TITLE BLOCK
 70
     0
 62
     2
  6
CONTINUOUS
370
    -3
390
5
  0
LAYER
  5
284
330
10
100
AcDbSymbolTableRecord
100
AcDbLayerTableRecord
  2
800
 70
     0
 62
     7
  6
CONTINUOUS
370
    -3
390
5
  0
LAYER
  5
285
330
10
100
AcDbSymbolTableRecord
100
AcDbLayerTableRecord
  2
4
 70
     0
 62
     7
  6
CONTINUOUS
370
    -3
390
5
  0
LAYER
  5
286
330
10
100
AcDbSymbolTableRecord
100
AcDbLayerTableRecord
  2
6
 70
     0
 62
     7
  6
CONTINUOUS
370
    -3
390
5
  0
LAYER
  5
287
330
10
100
AcDbSymbolTableRecord
100
AcDbLayerTableRecord
  2
500
 70
     0
 62
     7
  6
CONTINUOUS
370
    -3
390
5
  0
LAYER
  5
288
330
10
100
AcDbSymbolTableRecord
100
AcDbLayerTableRecord
  2
Defpoints
 70
     0
 62
     7
  6
CONTINUOUS
290
     0
370
    -3
390
5
  0
LAYER
  5
D92
330
10
100
AcDbSymbolTableRecord
100
AcDbLayerTableRecord
  2
AM_VIS
 70
     0
 62
     7
  6
CONTINUOUS
370
    30
390
5
  0
LAYER
  5
D93
330
10
100
AcDbSymbolTableRecord
100
AcDbLayerTableRecord
  2
7A
 70
     0
 62
     4
  6
GEN7A
370
    -3
390
5
  0
LAYER
  5
D94
330
10
100
AcDbSymbolTableRecord
100
AcDbLayerTableRecord
  2
8
 70
     0
 62
     1
  6
CONTINUOUS
370
    -3
390
5
  0
LAYER
  5
D95
330
10
100
AcDbSymbolTableRecord
100
AcDbLayerTableRecord
  2
5
 70
     0
 62
     3
  6
CONTINUOUS
370
    -3
390
5
  0
LAYER
  5
1091
330
10
100
AcDbSymbolTableRecord
100
AcDbLayerTableRecord
  2
LAYER_1
 70
     0
 62
     7
  6
CONTINUOUS
370
    -3
390
5
  0
LAYER
  5
41B7
330
10
100
AcDbSymbolTableRecord
100
AcDbLayerTableRecord
  2
1
 70
     0
 62
     7
  6
CONTINUOUS
370
    -3
390
5
  0
ENDTAB
  0
TABLE
  2
STYLE
  5
11
330
0
100
AcDbSymbolTable
 70
    13
  0
STYLE
  5
12
330
11
100
AcDbSymbolTableRecord
100
AcDbTextStyleTableRecord
  2
STANDARD
 70
     0
 40
0.0
 41
1.0
 50
0.0
 71
     0
 42
0.2
  3
migrator.shx
  4

  0
STYLE
  5
36
330
11
100
AcDbSymbolTableRecord
100
AcDbTextStyleTableRecord
  2
AE
 70
     0
 40
0.0
 41
1.0
 50
0.0
 71
     0
 42
0.16408998
  3
MIGRATOR
  4

  0
STYLE
  5
D1
330
11
100
AcDbSymbolTableRecord
100
AcDbTextStyleTableRecord
  2

 70
     1
 40
0.0
 41
1.0
 50
0.0
 71
     0
 42
1.0
  3
symtb128
  4

  0
STYLE
  5
19B
330
11
100
AcDbSymbolTableRecord
100
AcDbTextStyleTableRecord
  2

 70
     1
 40
0.0
 41
1.0
 50
0.0
 71
     0
 42
2.5
  3
ltypeshp.shx
  4

  0
STYLE
  5
1A3
330
11
100
AcDbSymbolTableRecord
100
AcDbTextStyleTableRecord
  2
ACANSTS
 70
     0
 40
1.0
 41
1.0
 50
0.0
 71
     0
 42
2.5
  3
romans.shx
  4

  0
STYLE
  5
1AE
330
11
100
AcDbSymbolTableRecord
100
AcDbTextStyleTableRecord
  2
ACANSGDT
 70
     0
 40
0.0
 41
1.0
 50
0.0
 71
     0
 42
2.5
  3
amgdtans.shx
  4

  0
STYLE
  5
289
330
11
100
AcDbSymbolTableRecord
100
AcDbTextStyleTableRecord
  2
T1
 70
     0
 40
4.0
 41
0.9
 50
0.0
 71
     0
 42
0.0
  3
medtext
  4

  0
STYLE
  5
28A
330
11
100
AcDbSymbolTableRecord
100
AcDbTextStyleTableRecord
  2
TDM
 70
     0
 40
4.0
 41
0.9
 50
0.0
 71
     0
 42
0.0
  3
medtext
  4

  0
STYLE
  5
28B
330
11
100
AcDbSymbolTableRecord
100
AcDbTextStyleTableRecord
  2
TR1
 70
     0
 40
4.0
 41
0.9
 50
0.0
 71
     0
 42
0.0
  3
medtext
  4

  0
STYLE
  5
D96
330
11
100
AcDbSymbolTableRecord
100
AcDbTextStyleTableRecord
  2

 70
     1
 40
0.0
 41
1.0
 50
0.0
 71
     0
 42
3.5
  3
genltshp.shx
  4

  0
STYLE
  5
D97
330
11
100
AcDbSymbolTableRecord
100
AcDbTextStyleTableRecord
  2
ACISOTS
 70
     0
 40
1.0
 41
1.0
 50
0.0
 71
     0
 42
3.5
  3
isocp.shx
  4

  0
STYLE
  5
D98
330
11
100
AcDbSymbolTableRecord
100
AcDbTextStyleTableRecord
  2
ACISOGDT
 70
     0
 40
0.0
 41
1.0
 50
0.0
 71
     0
 42
3.5
  3
amgdt.shx
  4

  0
STYLE
  5
41B8
330
11
100
AcDbSymbolTableRecord
100
AcDbTextStyleTableRecord
  2
ROMANS
 70
     0
 40
0.0
 41
1.0
 50
0.0
 71
     0
 42
0.09375
  3
romans
  4

  0
ENDTAB
  0
TABLE
  2
VIEW
  5
17
330
0
100
AcDbSymbolTable
 70
     0
  0
ENDTAB
  0
TABLE
  2
UCS
  5
18
330
0
100
AcDbSymbolTable
 70
     0
  0
ENDTAB
  0
TABLE
  2
APPID
  5
1B
330
0
100
AcDbSymbolTable
 70
    11
  0
APPID
  5
1C
330
1B
100
AcDbSymbolTableRecord
100
AcDbRegAppTableRecord
  2
ACAD
 70
     0
  0
APPID
  5
2C
330
1B
100
AcDbSymbolTableRecord
100
AcDbRegAppTableRecord
  2
GENIUS_GENBLLY_14
 70
     0
  0
APPID
  5
2F
330
1B
100
AcDbSymbolTableRecord
100
AcDbRegAppTableRecord
  2
GENIUS_GENTRA_14
 70
     0
  0
APPID
  5
174
330
1B
100
AcDbSymbolTableRecord
100
AcDbRegAppTableRecord
  2
MCAD_NO_VIS
 70
     0
  0
APPID
  5
175
330
1B
100
AcDbSymbolTableRecord
100
AcDbRegAppTableRecord
  2
ACAD_TEMP_GRAPHIC
 70
     0
  0
APPID
  5
188
330
1B
100
AcDbSymbolTableRecord
100
AcDbRegAppTableRecord
  2
ACATTRIBSERVICES
 70
     0
  0
APPID
  5
CF4
330
1B
100
AcDbSymbolTableRecord
100
AcDbRegAppTableRecord
  2
GENIUS_GENDTOL_13
 70
     0
  0
APPID
  5
DA0
330
1B
100
AcDbSymbolTableRecord
100
AcDbRegAppTableRecord
  2
GENIUS_GENODEF_13
 70
     0
  0
APPID
  5
DA1
330
1B
100
AcDbSymbolTableRecord
100
AcDbRegAppTableRecord
  2
GENIUS_GENOBJ-N-CEN_13
 70
     0
  0
APPID
  5
DA2
330
1B
100
AcDbSymbolTableRecord
100
AcDbRegAppTableRecord
  2
GENIUS_GENOBJ-N-FIL_13
 70
     0
  0
APPID
  5
3DB3
330
1B
100
AcDbSymbolTableRecord
100
AcDbRegAppTableRecord
  2
DCO15
 70
     0
  0
ENDTAB
  0
TABLE
  2
DIMSTYLE
  5
1D
330
0
100
AcDbSymbolTable
 70
    23
100
AcDbDimStyleTable
 71
     6
340
24
340
CC2
340
292
340
291
340
290
340
28F
  0
DIMSTYLE
105
24
102
{ACAD_REACTORS
330
43CB
102
}
330
1D
100
AcDbSymbolTableRecord
100
AcDbDimStyleTableRecord
  2
GEN-ANSI
 70
     0
  3
<>
  4
mm
 41
0.14
 42
0.125
 43
0.5
 44
0.125
 47
0.1
 48
0.1
 73
     0
 74
     0
 77
     1
 78
     7
140
0.12
141
0.0
146
0.71
147
0.06
176
   256
177
   256
178
     2
274
     4
340
12
  0
DIMSTYLE
105
1B4
330
1D
100
AcDbSymbolTableRecord
100
AcDbDimStyleTableRecord
  2
AM_ANSI
 70
     0
  4
mm
 41
0.1
 42
0.05
 43
0.5
 44
0.1
 47
0.1
 48
0.1
 78
     7
 79
     2
140
0.12
141
0.0
146
0.71
147
0.06
176
   256
177
   256
178
     2
275
     1
284
     7
340
12
371
    -1
372
    -1
  0
DIMSTYLE
105
1B5
330
1D
100
AcDbSymbolTableRecord
100
AcDbDimStyleTableRecord
  2
AM_ANSI$3
 70
     0
  4
mm
 41
0.1
 42
0.05
 43
0.5
 44
0.1
 47
0.1
 48
0.1
 78
     7
 79
     2
140
0.12
141
0.0
146
0.71
147
0.06
176
   256
177
   256
178
     2
275
     1
284
     7
288
     1
289
     0
340
12
371
    -1
372
    -1
  0
DIMSTYLE
105
1B6
330
1D
100
AcDbSymbolTableRecord
100
AcDbDimStyleTableRecord
  2
AM_ANSI$4
 70
     0
  4
mm
 41
0.1
 42
0.05
 43
0.5
 44
0.1
 47
0.1
 48
0.1
 78
     7
 79
     2
140
0.12
141
0.0
146
0.71
147
0.06
176
   256
177
   256
178
     2
275
     1
284
     7
288
     1
289
     0
340
12
371
    -1
372
    -1
  0
DIMSTYLE
105
1B7
330
1D
100
AcDbSymbolTableRecord
100
AcDbDimStyleTableRecord
  2
AM_ANSI$7
 70
     0
  4
mm
 41
0.1
 42
0.05
 43
0.5
 44
0.1
 47
0.1
 48
0.1
 78
     7
 79
     2
140
0.24
141
0.0
146
0.71
147
0.06
176
   256
177
   256
178
     2
275
     1
284
     7
340
12
371
    -1
372
    -1
  0
DIMSTYLE
105
1B8
330
1D
100
AcDbSymbolTableRecord
100
AcDbDimStyleTableRecord
  2
AM_ANSI$SF
 70
     0
  4
mm
 41
0.1
 42
0.05
 43
0.5
 44
0.1
 47
0.1
 48
0.1
 75
     1
 76
     1
 78
     7
 79
     2
140
0.12
141
0.0
146
0.71
147
0.06
176
   256
177
   256
178
     2
274
     4
284
     7
340
12
371
    -1
372
    -1
  0
DIMSTYLE
105
1BD
330
1D
100
AcDbSymbolTableRecord
100
AcDbDimStyleTableRecord
  2
AM_ANSI$SH
 70
     0
  4
mm
 41
0.1
 42
0.05
 43
0.5
 44
0.1
 47
0.1
 48
0.1
 75
     1
 76
     1
 78
     7
 79
     2
140
0.12
141
0.0
146
0.71
147
0.06
173
     1
176
   256
177
   256
178
     2
274
     4
284
     7
340
12
343
1B9
371
    -1
372
    -1
  0
DIMSTYLE
105
28C
330
1D
100
AcDbSymbolTableRecord
100
AcDbDimStyleTableRecord
  2
MEDDIM1152
 70
     0
 45
0.01
 78
    12
146
0.7
172
     1
176
     7
177
     7
178
     7
273
     4
277
     4
279
     2
340
12
  0
DIMSTYLE
105
28D
330
1D
100
AcDbSymbolTableRecord
100
AcDbDimStyleTableRecord
  2
MEDDIM1159
 70
     0
 45
0.01
 78
    12
146
0.7
172
     1
176
     7
177
     7
178
     7
273
     4
277
     4
279
     2
340
12
  0
DIMSTYLE
105
28E
330
1D
100
AcDbSymbolTableRecord
100
AcDbDimStyleTableRecord
  2
MEDDIM1166
 70
     0
 45
0.01
 78
    12
146
0.7
172
     1
176
     7
177
     7
178
     7
273
     4
277
     4
279
     2
340
12
  0
DIMSTYLE
105
28F
330
1D
100
AcDbSymbolTableRecord
100
AcDbDimStyleTableRecord
  2
MEDDIM1185
 70
     0
 45
0.01
 78
    12
146
0.7
172
     1
176
     7
177
     7
178
     7
273
     4
277
     4
279
     2
340
12
  0
DIMSTYLE
105
290
330
1D
100
AcDbSymbolTableRecord
100
AcDbDimStyleTableRecord
  2
MEDDIM1198
 70
     0
 45
0.01
 78
    12
146
0.7
172
     1
176
     7
177
     7
178
     7
273
     4
277
     4
279
     2
340
12
  0
DIMSTYLE
105
291
330
1D
100
AcDbSymbolTableRecord
100
AcDbDimStyleTableRecord
  2
MEDDIM1205
 70
     0
 45
0.01
 78
    12
146
0.7
172
     1
176
     7
177
     7
178
     7
273
     4
277
     4
279
     2
340
12
  0
DIMSTYLE
105
292
330
1D
100
AcDbSymbolTableRecord
100
AcDbDimStyleTableRecord
  2
MEDDIM1227
 70
     0
 45
0.01
 78
    12
146
0.7
172
     1
176
     7
177
     7
178
     7
273
     4
277
     4
279
     2
340
12
  0
DIMSTYLE
105
CC2
330
1D
100
AcDbSymbolTableRecord
100
AcDbDimStyleTableRecord
  2
STANDARD
 70
     0
340
12
  0
DIMSTYLE
105
D99
330
1D
100
AcDbSymbolTableRecord
100
AcDbDimStyleTableRecord
  2
GEN-ISO
 70
     0
  4
"
 41
2.5
 42
1.0
 43
7.0
 44
1.0
 47
0.1
 48
0.1
 73
     0
 74
     0
 77
     1
 78
     8
140
3.5
141
0.0
143
0.0393701
146
0.71
147
0.6
172
     1
176
   256
177
   256
178
     2
271
     2
272
     3
274
     4
283
     0
340
12
  0
DIMSTYLE
105
D9A
330
1D
100
AcDbSymbolTableRecord
100
AcDbDimStyleTableRecord
  2
GEN-ISO$4
 70
     0
  3
<>
  4
"
 40
0.06
 41
2.5
 42
1.0
 43
7.0
 44
1.0
 47
0.1
 48
0.1
 73
     0
 77
     1
 78
     8
140
3.5
141
0.0
143
0.0393701
146
0.71
147
0.6
176
   242
177
   242
178
   242
271
     2
272
     3
274
     4
283
     0
288
     1
340
12
  0
DIMSTYLE
105
D9B
330
1D
100
AcDbSymbolTableRecord
100
AcDbDimStyleTableRecord
  2
GEN-ISO$3
 70
     0
  3
<>
  4
"
 40
0.06
 41
2.5
 42
1.0
 43
7.0
 44
1.0
 47
0.1
 48
0.1
 73
     0
 77
     1
 78
     8
140
3.5
141
0.0
143
0.0393701
146
0.71
147
0.6
176
   242
177
   242
178
   242
271
     2
272
     3
274
     4
283
     0
288
     1
340
12
  0
DIMSTYLE
105
D9C
330
1D
100
AcDbSymbolTableRecord
100
AcDbDimStyleTableRecord
  2
GEN-ISO$6
 70
     0
  4
"
 41
2.5
 42
1.0
 43
7.0
 44
1.0
 47
0.1
 48
0.1
 73
     0
 74
     0
 78
     8
140
3.5
141
0.0
143
0.0393701
146
0.71
147
0.6
176
   256
177
   256
178
     2
271
     2
272
     3
274
     4
283
     0
340
12
  0
DIMSTYLE
105
D9D
330
1D
100
AcDbSymbolTableRecord
100
AcDbDimStyleTableRecord
  2
GEN-ISO-POS
 70
     0
  4
"
 41
2.5
 42
1.0
 43
7.0
 44
1.0
 47
0.1
 48
0.1
 73
     0
 74
     0
 78
     8
140
5.0
141
0.0
143
0.0393701
146
0.71
147
1.5
176
   256
177
   256
178
     2
271
     2
272
     3
274
     4
283
     0
340
12
  0
DIMSTYLE
105
D9E
330
1D
100
AcDbSymbolTableRecord
100
AcDbDimStyleTableRecord
  2
GEN-ISO-AXE-F
 70
     0
  4
"
 41
2.5
 42
1.0
 43
7.0
 44
1.0
 47
0.1
 48
0.1
 73
     0
 74
     0
 75
     1
 76
     1
 77
     1
 78
     8
140
3.5
141
0.0
143
0.0393701
146
0.71
147
0.6
172
     1
176
   256
177
   256
178
     2
271
     2
272
     3
274
     4
283
     0
340
12
  0
DIMSTYLE
105
D9F
330
1D
100
AcDbSymbolTableRecord
100
AcDbDimStyleTableRecord
  2
GEN-ISO-AXE-H
 70
     0
  4
"
 41
2.5
 42
1.0
 43
7.0
 44
1.0
 47
0.1
 48
0.1
 73
     0
 74
     0
 75
     1
 76
     1
 77
     1
 78
     8
140
3.5
141
0.0
143
0.0393701
144
2.0
146
0.71
147
0.6
172
     1
173
     1
176
   256
177
   256
178
     2
271
     2
272
     3
274
     4
283
     0
340
12
  0
DIMSTYLE
105
1092
330
1D
100
AcDbSymbolTableRecord
100
AcDbDimStyleTableRecord
  2
MEDDIM
 70
     0
 45
0.01
 78
    12
146
0.7
172
     1
176
     7
177
     7
178
     7
273
     4
277
     4
279
     2
340
12
  0
ENDTAB
  0
TABLE
  2
BLOCK_RECORD
  5
1
330
0
100
AcDbSymbolTable
 70
    18
  0
BLOCK_RECORD
  5
2
102
{ACAD_XDICTIONARY
360
164
102
}
330
1
100
AcDbSymbolTableRecord
100
AcDbBlockTableRecord
  2
*MODEL_SPACE
340
A
  0
BLOCK_RECORD
  5
C
102
{ACAD_XDICTIONARY
360
168
102
}
330
1
100
AcDbSymbolTableRecord
100
AcDbBlockTableRecord
  2
*PAPER_SPACE
340
F
  0
BLOCK_RECORD
  5
1B9
330
1
100
AcDbSymbolTableRecord
100
AcDbBlockTableRecord
  2
GENAXEH
340
0
  0
BLOCK_RECORD
  5
1C9
330
1
100
AcDbSymbolTableRecord
100
AcDbBlockTableRecord
  2
MEDFUNV_21
340
0
  0
BLOCK_RECORD
  5
1CD
330
1
100
AcDbSymbolTableRecord
100
AcDbBlockTableRecord
  2
MEDFUNV_6
340
0
102
{BLKREFS
331
216
331
209
331
1FC
331
1F6
331
1E1
102
}
  0
BLOCK_RECORD
  5
1D6
330
1
100
AcDbSymbolTableRecord
100
AcDbBlockTableRecord
  2
MEDFUNV_7
340
0
102
{BLKREFS
331
217
331
20A
331
1FD
331
1E0
102
}
  0
BLOCK_RECORD
  5
1DF
330
1
100
AcDbSymbolTableRecord
100
AcDbBlockTableRecord
  2
MEDCLUMP_DIM_1223_
340
0
102
{BLKREFS
331
1E9
102
}
  0
BLOCK_RECORD
  5
1E8
330
1
100
AcDbSymbolTableRecord
100
AcDbBlockTableRecord
  2
MEDCLUMP_DMS_1222_
340
0
  0
BLOCK_RECORD
  5
1EC
330
1
100
AcDbSymbolTableRecord
100
AcDbBlockTableRecord
  2
MEDCLUMP_DIM_1217_
340
0
102
{BLKREFS
331
1F1
102
}
  0
BLOCK_RECORD
  5
1F0
330
1
100
AcDbSymbolTableRecord
100
AcDbBlockTableRecord
  2
MEDCLUMP_DMS_1216_
340
0
  0
BLOCK_RECORD
  5
1F4
330
1
100
AcDbSymbolTableRecord
100
AcDbBlockTableRecord
  2
MEDCLUMP_NTE_1212_
340
0
  0
BLOCK_RECORD
  5
1FA
330
1
100
AcDbSymbolTableRecord
100
AcDbBlockTableRecord
  2
MEDCLUMP_DIM_1193_
340
0
102
{BLKREFS
331
204
102
}
  0
BLOCK_RECORD
  5
203
330
1
100
AcDbSymbolTableRecord
100
AcDbBlockTableRecord
  2
MEDCLUMP_DMS_1192_
340
0
  0
BLOCK_RECORD
  5
207
330
1
100
AcDbSymbolTableRecord
100
AcDbBlockTableRecord
  2
MEDCLUMP_DIM_1180_
340
0
102
{BLKREFS
331
211
102
}
  0
BLOCK_RECORD
  5
210
330
1
100
AcDbSymbolTableRecord
100
AcDbBlockTableRecord
  2
MEDCLUMP_DMS_1179_
340
0
  0
BLOCK_RECORD
  5
214
330
1
100
AcDbSymbolTableRecord
100
AcDbBlockTableRecord
  2
MEDCLUMP_DIM_1174_
340
0
102
{BLKREFS
331
21E
102
}
  0
BLOCK_RECORD
  5
21D
330
1
100
AcDbSymbolTableRecord
100
AcDbBlockTableRecord
  2
MEDCLUMP_DMS_1173_
340
0
  0
BLOCK_RECORD
  5
BCC
330
1
100
AcDbSymbolTableRecord
100
AcDbBlockTableRecord
  2
ASSEMBLY_C
340
0
102
{BLKREFS
331
3E80
331
450B
102
}
  0
BLOCK_RECORD
  5
CCC
330
1
100
AcDbSymbolTableRecord
100
AcDbBlockTableRecord
  2
A$C4F76053E
340
0
  0
BLOCK_RECORD
  5
43CC
330
1
100
AcDbSymbolTableRecord
100
AcDbBlockTableRecord
  2
*D17
340
0
  0
ENDTAB
  0
ENDSEC
  0
SECTION
  2
BLOCKS
  0
BLOCK
  5
3
330
2
100
AcDbEntity
  8
0
100
AcDbBlockBegin
  2
*MODEL_SPACE
 70
     2
 10
0.0
 20
0.0
 30
0.0
  3
*MODEL_SPACE
  1

  0
ENDBLK
  5
9
330
2
100
AcDbEntity
  8
0
100
AcDbBlockEnd
  0
BLOCK
  5
D
330
C
100
AcDbEntity
 67
     1
  8
0
100
AcDbBlockBegin
  2
*PAPER_SPACE
 70
     0
 10
0.0
 20
0.0
 30
0.0
  3
*PAPER_SPACE
  1

  0
ENDBLK
  5
E
330
C
100
AcDbEntity
 67
     1
  8
0
100
AcDbBlockEnd
  0
BLOCK
  5
1BB
330
1B9
100
AcDbEntity
  8
0
100
AcDbBlockBegin
  2
GENAXEH
 70
     0
 10
0.0
 20
0.0
 30
0.0
  3
GENAXEH
  1

  0
LINE
  5
1BA
330
1B9
100
AcDbEntity
  8
0
100
AcDbLine
 10
-1.0
 20
0.0
 30
0.0
 11
1.0
 21
0.0
 31
0.0
  0
ENDBLK
  5
1BC
330
1B9
100
AcDbEntity
  8
0
100
AcDbBlockEnd
  0
BLOCK
  5
1CB
330
1C9
100
AcDbEntity
  8
0
100
AcDbBlockBegin
  2
MEDFUNV_21
 70
     0
 10
0.0
 20
0.0
 30
0.0
  3
MEDFUNV_21
  1

  0
LWPOLYLINE
  5
1CA
330
1C9
100
AcDbEntity
  8
500
  6
L0
 62
     1
100
AcDbPolyline
 90
        6
 70
     0
 43
0.0
 10
0.0
 20
-2.500001999999999
 10
0.8333339999999999
 20
-1.666668
 10
0.8333339999999999
 20
-0.8333339999999999
 10
-0.8333339999999999
 20
0.8333339999999999
 10
-0.8333339999999999
 20
1.666668
 10
0.0
 20
2.500001999999999
  0
ENDBLK
  5
1CC
330
1C9
100
AcDbEntity
  8
0
100
AcDbBlockEnd
  0
BLOCK
  5
1D4
330
1CD
100
AcDbEntity
  8
0
100
AcDbBlockBegin
  2
MEDFUNV_6
 70
     0
 10
0.0
 20
0.0
 30
0.0
  3
MEDFUNV_6
  1

  0
LWPOLYLINE
  5
1CE
330
1CD
100
AcDbEntity
  8
4
  6
LDM
 62
     1
100
AcDbPolyline
 90
        4
 70
     0
 43
0.0
 10
3.500002999999999
 20
0.583334
 10
0.0
 20
0.0
 10
3.500002999999999
 20
-0.583334
 10
3.500002999999999
 20
0.583334
  0
LWPOLYLINE
  5
1CF
330
1CD
100
AcDbEntity
  8
4
  6
LDM
 62
     1
100
AcDbPolyline
 90
        3
 70
     0
 43
0.0
 38
7.978631459979119E+99
 10
3.500002999999999
 20
0.486111
 10
0.583334
 20
0.0
 10
3.500002999999999
 20
-0.486111
  0
LWPOLYLINE
  5
1D0
330
1CD
100
AcDbEntity
  8
4
  6
LDM
 62
     1
100
AcDbPolyline
 90
        3
 70
     0
 43
0.0
 38
7.978631459979119E+99
 10
3.500002999999999
 20
0.388889
 10
1.166668
 20
0.0
 10
3.500002999999999
 20
-0.388889
  0
LWPOLYLINE
  5
1D1
330
1CD
100
AcDbEntity
  8
4
  6
LDM
 62
     1
100
AcDbPolyline
 90
        3
 70
     0
 43
0.0
 38
7.978631459979119E+99
 10
3.500002999999999
 20
0.291667
 10
1.750000999999999
 20
0.0
 10
3.500002999999999
 20
-0.291667
  0
LWPOLYLINE
  5
1D2
330
1CD
100
AcDbEntity
  8
4
  6
LDM
 62
     1
100
AcDbPolyline
 90
        3
 70
     0
 43
0.0
 38
7.978631459979119E+99
 10
3.500002999999999
 20
0.194445
 10
2.333334999999999
 20
0.0
 10
3.500002999999999
 20
-0.194445
  0
LWPOLYLINE
  5
1D3
330
1CD
100
AcDbEntity
  8
4
  6
LDM
 62
     1
100
AcDbPolyline
 90
        3
 70
     0
 43
0.0
 38
7.978631459979119E+99
 10
3.500002999999999
 20
0.097222
 10
2.916668999999999
 20
0.0
 10
3.500002999999999
 20
-0.097222
  0
ENDBLK
  5
1D5
330
1CD
100
AcDbEntity
  8
0
100
AcDbBlockEnd
  0
BLOCK
  5
1DD
330
1D6
100
AcDbEntity
  8
0
100
AcDbBlockBegin
  2
MEDFUNV_7
 70
     0
 10
0.0
 20
0.0
 30
0.0
  3
MEDFUNV_7
  1

  0
LWPOLYLINE
  5
1D7
330
1D6
100
AcDbEntity
  8
4
  6
LDM
 62
     1
100
AcDbPolyline
 90
        4
 70
     0
 43
0.0
 10
-3.500002999999999
 20
0.583334
 10
0.0
 20
0.0
 10
-3.500002999999999
 20
-0.583334
 10
-3.500002999999999
 20
0.583334
  0
LWPOLYLINE
  5
1D8
330
1D6
100
AcDbEntity
  8
4
  6
LDM
 62
     1
100
AcDbPolyline
 90
        3
 70
     0
 43
0.0
 38
7.978631459979119E+99
 10
-3.500002999999999
 20
0.486111
 10
-0.583334
 20
0.0
 10
-3.500002999999999
 20
-0.486111
  0
LWPOLYLINE
  5
1D9
330
1D6
100
AcDbEntity
  8
4
  6
LDM
 62
     1
100
AcDbPolyline
 90
        3
 70
     0
 43
0.0
 38
7.978631459979119E+99
 10
-3.500002999999999
 20
0.388889
 10
-1.166668
 20
0.0
 10
-3.500002999999999
 20
-0.388889
  0
LWPOLYLINE
  5
1DA
330
1D6
100
AcDbEntity
  8
4
  6
LDM
 62
     1
100
AcDbPolyline
 90
        3
 70
     0
 43
0.0
 38
7.978631459979119E+99
 10
-3.500002999999999
 20
0.291667
 10
-1.750000999999999
 20
0.0
 10
-3.500002999999999
 20
-0.291667
  0
LWPOLYLINE
  5
1DB
330
1D6
100
AcDbEntity
  8
4
  6
LDM
 62
     1
100
AcDbPolyline
 90
        3
 70
     0
 43
0.0
 38
7.978631459979119E+99
 10
-3.500002999999999
 20
0.194445
 10
-2.333334999999999
 20
0.0
 10
-3.500002999999999
 20
-0.194445
  0
LWPOLYLINE
  5
1DC
330
1D6
100
AcDbEntity
  8
4
  6
LDM
 62
     1
100
AcDbPolyline
 90
        3
 70
     0
 43
0.0
 38
7.978631459979119E+99
 10
-3.500002999999999
 20
0.097222
 10
-2.916668999999999
 20
0.0
 10
-3.500002999999999
 20
-0.097222
  0
ENDBLK
  5
1DE
330
1D6
100
AcDbEntity
  8
0
100
AcDbBlockEnd
  0
BLOCK
  5
1E6
330
1DF
100
AcDbEntity
  8
0
100
AcDbBlockBegin
  2
MEDCLUMP_DIM_1223_
 70
     0
 10
0.0
 20
0.0
 30
0.0
  3
MEDCLUMP_DIM_1223_
  1

  0
INSERT
  5
1E0
330
1DF
100
AcDbEntity
  8
4
100
AcDbBlockReference
  2
MEDFUNV_7
 10
17.351948
 20
8.978225999999999
 30
0.0
 41
0.03937
 42
0.03937
 50
134.744277
  0
INSERT
  5
1E1
330
1DF
100
AcDbEntity
  8
4
100
AcDbBlockReference
  2
MEDFUNV_6
 10
17.263954
 20
9.067007999999999
 30
0.0
 41
0.03937
 42
0.03937
 50
134.744207
  0
LWPOLYLINE
  5
1E2
330
1DF
100
AcDbEntity
  8
4
  6
LDM
 62
     1
100
AcDbPolyline
 90
        3
 70
     0
 43
0.0
 10
17.6799
 20
8.781161
 10
17.545948
 20
8.782486
 10
17.351948
 20
8.978225999999999
  0
LWPOLYLINE
  5
1E3
330
1DF
100
AcDbEntity
  8
4
  6
LDM
 62
     1
100
AcDbPolyline
 90
        2
 70
     0
 43
0.0
 38
7.978631459979119E+99
 10
17.263954
 20
9.067007999999999
 10
17.069954
 20
9.262749000000001
  0
LWPOLYLINE
  5
1E4
330
1DF
100
AcDbEntity
  8
4
  6
LEA
 62
     1
100
AcDbPolyline
 90
        2
 70
     0
 43
0.0
 38
7.978631459979119E+99
 10
16.732109
 20
8.363896
 10
17.379911
 20
9.005939999999998
  0
LWPOLYLINE
  5
1E5
330
1DF
100
AcDbEntity
  8
4
  6
LEA
 62
     1
100
AcDbPolyline
 90
        2
 70
     0
 43
0.0
 38
7.978631459979119E+99
 10
16.765831
 20
8.573313
 10
17.291917
 20
9.094723
  0
ENDBLK
  5
1E7
330
1DF
100
AcDbEntity
  8
0
100
AcDbBlockEnd
  0
BLOCK
  5
1EA
330
1E8
100
AcDbEntity
  8
0
100
AcDbBlockBegin
  2
MEDCLUMP_DMS_1222_
 70
     0
 10
0.0
 20
0.0
 30
0.0
  3
MEDCLUMP_DMS_1222_
  1

  0
INSERT
  5
1E9
330
1E8
100
AcDbEntity
  8
0
100
AcDbBlockReference
  2
MEDCLUMP_DIM_1223_
 10
0.0
 20
0.0
 30
0.0
  0
ENDBLK
  5
1EB
330
1E8
100
AcDbEntity
  8
0
100
AcDbBlockEnd
  0
BLOCK
  5
1EE
330
1EC
100
AcDbEntity
  8
0
100
AcDbBlockBegin
  2
MEDCLUMP_DIM_1217_
 70
     0
 10
0.0
 20
0.0
 30
0.0
  3
MEDCLUMP_DIM_1217_
  1

  0
TEXT
  5
1ED
330
1EC
100
AcDbEntity
  8
4
 62
     1
100
AcDbText
 10
17.783625
 20
8.716160999999999
 30
0.0
 40
0.13
  1
0.12 THREAD
 41
1.010416666666666
  7
TDM
 72
     5
 11
19.044625
 21
8.716160999999999
 31
0.0
100
AcDbText
  0
ENDBLK
  5
1EF
330
1EC
100
AcDbEntity
  8
0
100
AcDbBlockEnd
  0
BLOCK
  5
1F2
330
1F0
100
AcDbEntity
  8
0
100
AcDbBlockBegin
  2
MEDCLUMP_DMS_1216_
 70
     0
 10
0.0
 20
0.0
 30
0.0
  3
MEDCLUMP_DMS_1216_
  1

  0
INSERT
  5
1F1
330
1F0
100
AcDbEntity
  8
0
100
AcDbBlockReference
  2
MEDCLUMP_DIM_1217_
 10
0.0
 20
0.0
 30
0.0
  0
ENDBLK
  5
1F3
330
1F0
100
AcDbEntity
  8
0
100
AcDbBlockEnd
  0
BLOCK
  5
1F8
330
1F4
100
AcDbEntity
  8
0
100
AcDbBlockBegin
  2
MEDCLUMP_NTE_1212_
 70
     0
 10
0.0
 20
0.0
 30
0.0
  3
MEDCLUMP_NTE_1212_
  1

  0
TEXT
  5
1F5
330
1F4
100
AcDbEntity
  8
4
 62
     1
100
AcDbText
 10
15.23742799999999
 20
6.398569999999999
 30
0.0
 40
0.15748
  1
 
 41
0.7777848333474422
  7
TDM
 72
     5
 11
15.34766499999999
 21
6.398569999999999
 31
0.0
100
AcDbText
  0
INSERT
  5
1F6
330
1F4
100
AcDbEntity
  8
4
100
AcDbBlockReference
  2
MEDFUNV_6
 10
15.969141
 20
7.626383999999999
 30
0.0
 41
0.03937
 42
0.03937
 50
248.191999
  0
LWPOLYLINE
  5
1F7
330
1F4
100
AcDbEntity
  8
4
  6
LDM
 62
     1
100
AcDbPolyline
 90
        3
 70
     0
 43
0.0
 10
15.969141
 20
7.626383999999999
 10
15.50935799999999
 20
6.47731
 10
15.384358
 20
6.47731
  0
ENDBLK
  5
1F9
330
1F4
100
AcDbEntity
  8
0
100
AcDbBlockEnd
  0
BLOCK
  5
201
330
1FA
100
AcDbEntity
  8
0
100
AcDbBlockBegin
  2
MEDCLUMP_DIM_1193_
 70
     0
 10
0.0
 20
0.0
 30
0.0
  3
MEDCLUMP_DIM_1193_
  1

  0
TEXT
  5
1FB
330
1FA
100
AcDbEntity
  8
4
 62
     1
100
AcDbText
 10
13.71340599999999
 20
10.707936
 30
0.0
 40
0.13
  1
12.0%%1281.0
  7
TDM
 72
     5
 11
14.623406
 21
10.707936
 31
0.0
100
AcDbText
  0
INSERT
  5
1FC
330
1FA
100
AcDbEntity
  8
4
100
AcDbBlockReference
  2
MEDFUNV_6
 10
16.738827
 20
10.77293599999999
 30
0.0
 41
0.03937
 42
0.03937
 50
180.0
  0
INSERT
  5
1FD
330
1FA
100
AcDbEntity
  8
4
100
AcDbBlockReference
  2
MEDFUNV_7
 10
12.113564
 20
10.77293599999999
 30
0.0
 41
0.03937
 42
0.03937
 50
180.0
  0
LWPOLYLINE
  5
1FE
330
1FA
100
AcDbEntity
  8
4
  6
LDM
 62
     1
100
AcDbPolyline
 90
        2
 70
     0
 43
0.0
 10
16.738827
 20
10.77293599999999
 10
14.683985
 20
10.77293599999999
  0
LWPOLYLINE
  5
1FF
330
1FA
100
AcDbEntity
  8
4
  6
LDM
 62
     1
100
AcDbPolyline
 90
        2
 70
     0
 43
0.0
 38
7.978631459979119E+99
 10
13.64470199999999
 20
10.77293599999999
 10
12.113564
 20
10.77293599999999
  0
LWPOLYLINE
  5
200
330
1FA
100
AcDbEntity
  8
4
  6
LEA
 62
     1
100
AcDbPolyline
 90
        2
 70
     0
 43
0.0
 38
7.978631459979119E+99
 10
12.113564
 20
9.327702
 10
12.113564
 20
10.812306
  0
ENDBLK
  5
202
330
1FA
100
AcDbEntity
  8
0
100
AcDbBlockEnd
  0
BLOCK
  5
205
330
203
100
AcDbEntity
  8
0
100
AcDbBlockBegin
  2
MEDCLUMP_DMS_1192_
 70
     0
 10
0.0
 20
0.0
 30
0.0
  3
MEDCLUMP_DMS_1192_
  1

  0
INSERT
  5
204
330
203
100
AcDbEntity
  8
0
100
AcDbBlockReference
  2
MEDCLUMP_DIM_1193_
 10
0.0
 20
0.0
 30
0.0
  0
ENDBLK
  5
206
330
203
100
AcDbEntity
  8
0
100
AcDbBlockEnd
  0
BLOCK
  5
20E
330
207
100
AcDbEntity
  8
0
100
AcDbBlockBegin
  2
MEDCLUMP_DIM_1180_
 70
     0
 10
0.0
 20
0.0
 30
0.0
  3
MEDCLUMP_DIM_1180_
  1

  0
TEXT
  5
208
330
207
100
AcDbEntity
  8
4
 62
     1
100
AcDbText
 10
4.215256
 20
10.72059499999999
 30
0.0
 40
0.13
  1
3.31 REF.
 41
1.053333333333332
  7
TDM
 72
     5
 11
5.242255999999999
 21
10.72059499999999
 31
0.0
100
AcDbText
  0
INSERT
  5
209
330
207
100
AcDbEntity
  8
4
100
AcDbBlockReference
  2
MEDFUNV_6
 10
6.342999999999999
 20
10.78559499999999
 30
0.0
 41
0.03937
 42
0.03937
 50
180.0
  0
INSERT
  5
20A
330
207
100
AcDbEntity
  8
4
100
AcDbBlockReference
  2
MEDFUNV_7
 10
3.0
 20
10.78559499999999
 30
0.0
 41
0.03937
 42
0.03937
 50
180.0
  0
LWPOLYLINE
  5
20B
330
207
100
AcDbEntity
  8
4
  6
LDM
 62
     1
100
AcDbPolyline
 90
        2
 70
     0
 43
0.0
 10
6.342999999999999
 20
10.78559499999999
 10
5.25733
 20
10.78559499999999
  0
LWPOLYLINE
  5
20C
330
207
100
AcDbEntity
  8
4
  6
LDM
 62
     1
100
AcDbPolyline
 90
        2
 70
     0
 43
0.0
 38
7.978631459979119E+99
 10
4.132595999999999
 20
10.78559499999999
 10
3.0
 20
10.78559499999999
  0
LWPOLYLINE
  5
20D
330
207
100
AcDbEntity
  8
4
  6
LEA
 62
     1
100
AcDbPolyline
 90
        2
 70
     0
 43
0.0
 38
7.978631459979119E+99
 10
6.342999999999999
 20
9.355594999999999
 10
6.342999999999999
 20
10.82496499999999
  0
ENDBLK
  5
20F
330
207
100
AcDbEntity
  8
0
100
AcDbBlockEnd
  0
BLOCK
  5
212
330
210
100
AcDbEntity
  8
0
100
AcDbBlockBegin
  2
MEDCLUMP_DMS_1179_
 70
     0
 10
0.0
 20
0.0
 30
0.0
  3
MEDCLUMP_DMS_1179_
  1

  0
INSERT
  5
211
330
210
100
AcDbEntity
  8
0
100
AcDbBlockReference
  2
MEDCLUMP_DIM_1180_
 10
0.0
 20
0.0
 30
0.0
  0
ENDBLK
  5
213
330
210
100
AcDbEntity
  8
0
100
AcDbBlockEnd
  0
BLOCK
  5
21B
330
214
100
AcDbEntity
  8
0
100
AcDbBlockBegin
  2
MEDCLUMP_DIM_1174_
 70
     0
 10
0.0
 20
0.0
 30
0.0
  3
MEDCLUMP_DIM_1174_
  1

  0
TEXT
  5
215
330
214
100
AcDbEntity
  8
4
 62
     1
100
AcDbText
 10
3.839255999999999
 20
10.22059499999999
 30
0.0
 40
0.13
  1
2.50 REF.
 41
1.053333333333333
  7
TDM
 72
     5
 11
4.866255999999999
 21
10.22059499999999
 31
0.0
100
AcDbText
  0
INSERT
  5
216
330
214
100
AcDbEntity
  8
4
100
AcDbBlockReference
  2
MEDFUNV_6
 10
5.591
 20
10.28559499999999
 30
0.0
 41
0.03937
 42
0.03937
 50
180.0
  0
INSERT
  5
217
330
214
100
AcDbEntity
  8
4
100
AcDbBlockReference
  2
MEDFUNV_7
 10
3.0
 20
10.28559499999999
 30
0.0
 41
0.03937
 42
0.03937
 50
180.0
  0
LWPOLYLINE
  5
218
330
214
100
AcDbEntity
  8
4
  6
LDM
 62
     1
100
AcDbPolyline
 90
        2
 70
     0
 43
0.0
 10
5.591
 20
10.28559499999999
 10
4.865241999999999
 20
10.28559499999999
  0
LWPOLYLINE
  5
219
330
214
100
AcDbEntity
  8
4
  6
LDM
 62
     1
100
AcDbPolyline
 90
        2
 70
     0
 43
0.0
 38
7.978631459979119E+99
 10
3.756596
 20
10.28559499999999
 10
3.0
 20
10.28559499999999
  0
LWPOLYLINE
  5
21A
330
214
100
AcDbEntity
  8
4
  6
LEA
 62
     1
100
AcDbPolyline
 90
        2
 70
     0
 43
0.0
 38
7.978631459979119E+99
 10
5.591
 20
9.395006
 10
5.591
 20
10.32496499999999
  0
ENDBLK
  5
21C
330
214
100
AcDbEntity
  8
0
100
AcDbBlockEnd
  0
BLOCK
  5
21F
330
21D
100
AcDbEntity
  8
0
100
AcDbBlockBegin
  2
MEDCLUMP_DMS_1173_
 70
     0
 10
0.0
 20
0.0
 30
0.0
  3
MEDCLUMP_DMS_1173_
  1

  0
INSERT
  5
21E
330
21D
100
AcDbEntity
  8
0
100
AcDbBlockReference
  2
MEDCLUMP_DIM_1174_
 10
0.0
 20
0.0
 30
0.0
  0
ENDBLK
  5
220
330
21D
100
AcDbEntity
  8
0
100
AcDbBlockEnd
  0
BLOCK
  5
C90
330
BCC
100
AcDbEntity
  8
0
100
AcDbBlockBegin
  2
ASSEMBLY_C
 70
     2
 10
0.0
 20
0.0
 30
0.0
  3
ASSEMBLY_C
  1

  0
LINE
  5
4458
330
BCC
100
AcDbEntity
  8
BORDER
  6
Continuous
100
AcDbLine
 10
0.0
 20
17.0
 30
0.0
 11
22.0
 21
17.0
 31
0.0
  0
LINE
  5
4459
330
BCC
100
AcDbEntity
  8
BORDER
100
AcDbLine
 10
0.5
 20
0.75
 30
0.0
 11
21.49999999999999
 21
0.75
 31
0.0
  0
LINE
  5
445A
330
BCC
100
AcDbEntity
  8
BORDER
100
AcDbLine
 10
0.5
 20
16.25
 30
0.0
 11
21.49999999999999
 21
16.25
 31
0.0
  0
ATTDEF
  5
445B
330
BCC
100
AcDbEntity
  8
TITLE BLOCK
  6
Continuous
100
AcDbText
 10
17.42499999999999
 20
1.875
 30
0.0
 40
0.1010611419
  1

100
AcDbAttributeDefinition
  3
Drawn by
  2
GEN-TITLE-NAME{5}
 70
     0
1001
GENIUS_GENBLLY_14
1000
BOR2
  0
ATTDEF
  5
445C
330
BCC
100
AcDbEntity
  8
TITLE BLOCK
  6
Continuous
100
AcDbText
 10
17.42499999999999
 20
1.625
 30
0.0
 40
0.1010611419
  1

100
AcDbAttributeDefinition
  3
Check by
  2
GEN-TITLE-CHKM{5}
 70
     0
1001
GENIUS_GENBLLY_14
1000
BOR2
  0
ATTDEF
  5
445D
330
BCC
100
AcDbEntity
  8
TITLE BLOCK
  6
Continuous
100
AcDbText
 10
17.42499999999999
 20
1.375
 30
0.0
 40
0.1010611419
  1

100
AcDbAttributeDefinition
  3
Approved by
  2
GEN-TITLE-APPM{5}
 70
     0
1001
GENIUS_GENBLLY_14
1000
BOR2
1001
GENIUS_GENTRA_14
1002
{
1070
     3
1000
GENTRAPR,%s,(GENMSG gentitus 73)
1000
Approved by
1000
gb
1070
     0
1002
}
  0
LINE
  5
445E
330
BCC
100
AcDbEntity
  8
TITLE BLOCK
  6
Continuous
100
AcDbLine
 10
15.59965639031853
 20
1.299999999999999
 30
0.0
 11
21.49999999999999
 21
1.299999999999999
 31
0.0
  0
LINE
  5
445F
330
BCC
100
AcDbEntity
  8
TITLE BLOCK
  6
Continuous
100
AcDbLine
 10
17.07518995515351
 20
1.549999999999999
 30
0.0
 11
21.49999999999999
 21
1.549999999999999
 31
0.0
  0
LINE
  5
4460
330
BCC
100
AcDbEntity
  8
TITLE BLOCK
  6
Continuous
100
AcDbLine
 10
17.07518995515351
 20
1.799999999999999
 30
0.0
 11
21.49999999999999
 21
1.799999999999999
 31
0.0
  0
LINE
  5
4461
330
BCC
100
AcDbEntity
  8
TITLE BLOCK
  6
Continuous
100
AcDbLine
 10
17.07518995515351
 20
2.049999999999999
 30
0.0
 11
21.49999999999999
 21
2.049999999999999
 31
0.0
  0
LINE
  5
4462
330
BCC
100
AcDbEntity
  8
TITLE BLOCK
  6
Continuous
100
AcDbLine
 10
12.75
 20
2.75
 30
0.0
 11
21.49999999999999
 21
2.75
 31
0.0
  0
TEXT
  5
4463
330
BCC
100
AcDbEntity
  8
TITLE BLOCK
  6
Continuous
100
AcDbText
 10
17.20669482722676
 20
2.346163262564664
 30
0.0
 40
0.1010611419
  1
  DRAWING
 50
0.09999996
  7
AE
100
AcDbText
  0
TEXT
  5
4464
330
BCC
100
AcDbEntity
  8
TITLE BLOCK
  6
Continuous
100
AcDbText
 10
17.20669482722676
 20
2.555546537751305
 30
0.0
 40
0.1010611419
  1
DO NOT SCALE
 50
0.09999996
  7
AE
100
AcDbText
  0
LINE
  5
4465
330
BCC
100
AcDbEntity
  8
BORDER
  6
Continuous
100
AcDbLine
 10
0.0
 20
0.2456391960479891
 30
0.0
 11
0.0
 21
17.0
 31
0.0
  0
LINE
  5
4466
330
BCC
100
AcDbEntity
  8
BORDER
100
AcDbLine
 10
0.5
 20
0.75
 30
0.0
 11
0.5
 21
16.25
 31
0.0
  0
TEXT
  5
4467
330
BCC
100
AcDbEntity
  8
BORDER
100
AcDbText
 10
0.1785739999999976
 20
2.0249996
 30
0.0
 40
0.19999999
  1
A
  7
AE
100
AcDbText
  0
LINE
  5
4468
330
BCC
100
AcDbEntity
  8
BORDER
100
AcDbLine
 10
0.1000060000000005
 20
8.4999991
 30
0.0
 11
0.3000030000000002
 21
8.4999991
 31
0.0
  0
LINE
  5
4469
330
BCC
100
AcDbEntity
  8
BORDER
100
AcDbLine
 10
0.3000179999999979
 20
8.399978599999998
 30
0.0
 11
0.5000149999999977
 21
8.499977099999998
 31
0.0
  0
TEXT
  5
446A
330
BCC
100
AcDbEntity
  8
BORDER
100
AcDbText
 10
0.1785739999999976
 20
6.2749996
 30
0.0
 40
0.19999999
  1
B
  7
AE
100
AcDbText
  0
LINE
  5
446B
330
BCC
100
AcDbEntity
  8
BORDER
100
AcDbLine
 10
0.1000060000000005
 20
4.25
 30
0.0
 11
0.5
 21
4.25
 31
0.0
  0
LINE
  5
446C
330
BCC
100
AcDbEntity
  8
BORDER
100
AcDbLine
 10
0.3000340000000001
 20
8.5999765
 30
0.0
 11
0.5000299999999989
 21
8.499978999999999
 31
0.0
  0
LINE
  5
446D
330
BCC
100
AcDbEntity
  8
BORDER
100
AcDbLine
 10
0.3000179999999979
 20
8.3999929
 30
0.0
 11
0.3000179999999979
 21
8.5999899
 31
0.0
  0
TEXT
  5
446E
330
BCC
100
AcDbEntity
  8
BORDER
100
AcDbText
 10
2.678573999999997
 20
0.27499998
 30
0.0
 40
0.19999999
  1
4
  7
AE
100
AcDbText
  0
LINE
  5
446F
330
BCC
100
AcDbEntity
  8
BORDER
100
AcDbLine
 10
5.5
 20
0.34999996
 30
0.0
 11
5.5
 21
0.75
 31
0.0
  0
TEXT
  5
4470
330
BCC
100
AcDbEntity
  8
BORDER
100
AcDbText
 10
8.178572
 20
0.27499998
 30
0.0
 40
0.19999999
  1
3
  7
AE
100
AcDbText
  0
TEXT
  5
4471
330
BCC
100
AcDbEntity
  8
BORDER
100
AcDbText
 10
13.5829811
 20
0.3329525
 30
0.0
 40
0.04
  1
FULL SIZE   50   02
 50
0.0999999600000013
 41
0.7749084200000001
  7
AE
100
AcDbText
  0
TEXT
  5
4472
330
BCC
100
AcDbEntity
  8
TITLE BLOCK
  6
Continuous
100
AcDbText
 10
13.87354307850001
 20
0.8400242034427522
 30
0.0
 40
0.075937067150492
  1
REVISION
 50
0.09999996
  7
AE
100
AcDbText
  0
LINE
  5
4473
330
BCC
100
AcDbEntity
  8
TITLE BLOCK
  6
Continuous
100
AcDbLine
 10
12.75
 20
1.0
 30
0.0
 11
15.59965639031853
 21
1.0
 31
0.0
  0
LINE
  5
4474
330
BCC
100
AcDbEntity
  8
TITLE BLOCK
  6
Continuous
100
AcDbLine
 10
12.75
 20
1.75
 30
0.0
 11
15.59965639031853
 21
1.75
 31
0.0
  0
LINE
  5
4475
330
BCC
100
AcDbEntity
  8
TITLE BLOCK
  6
Continuous
100
AcDbLine
 10
12.75
 20
2.0
 30
0.0
 11
15.59965639031853
 21
2.0
 31
0.0
  0
LINE
  5
4476
330
BCC
100
AcDbEntity
  8
TITLE BLOCK
  6
Continuous
100
AcDbLine
 10
12.75
 20
2.25
 30
0.0
 11
15.59965639031853
 21
2.25
 31
0.0
  0
LINE
  5
4477
330
BCC
100
AcDbEntity
  8
TITLE BLOCK
  6
Continuous
100
AcDbLine
 10
12.75
 20
2.5
 30
0.0
 11
15.59965639031853
 21
2.5
 31
0.0
  0
LINE
  5
4478
330
BCC
100
AcDbEntity
  8
TITLE BLOCK
  6
Continuous
100
AcDbLine
 10
12.75
 20
1.5
 30
0.0
 11
15.59965639031853
 21
1.5
 31
0.0
  0
LINE
  5
4479
330
BCC
100
AcDbEntity
  8
TITLE BLOCK
  6
Continuous
100
AcDbLine
 10
12.75
 20
1.25
 30
0.0
 11
15.59965639031853
 21
1.25
 31
0.0
  0
LINE
  5
447A
330
BCC
100
AcDbEntity
  8
BORDER
  6
LS
100
AcDbLine
 10
13.68000129999999
 20
0.55999994
 30
0.0
 11
13.68000129999999
 21
0.6999999900000001
 31
0.0
  0
LINE
  5
447B
330
BCC
100
AcDbEntity
  8
BORDER
  6
LS
100
AcDbLine
 10
13.7800016
 20
0.55999994
 30
0.0
 11
13.7800016
 21
0.6999999900000001
 31
0.0
  0
LINE
  5
447C
330
BCC
100
AcDbEntity
  8
BORDER
  6
LS
100
AcDbLine
 10
13.880002
 20
0.55999994
 30
0.0
 11
13.880002
 21
0.6999999900000001
 31
0.0
  0
LINE
  5
447D
330
BCC
100
AcDbEntity
  8
BORDER
  6
LS
100
AcDbLine
 10
13.7000017
 20
0.63999999
 30
0.0
 11
13.7000017
 21
0.6999999900000001
 31
0.0
  0
LINE
  5
447E
330
BCC
100
AcDbEntity
  8
BORDER
  6
LS
100
AcDbLine
 10
13.7200022
 20
0.59999996
 30
0.0
 11
13.7200022
 21
0.6999999900000001
 31
0.0
  0
LINE
  5
447F
330
BCC
100
AcDbEntity
  8
BORDER
  6
LS
100
AcDbLine
 10
13.7400026
 20
0.59999996
 30
0.0
 11
13.7400026
 21
0.6999999900000001
 31
0.0
  0
LINE
  5
4480
330
BCC
100
AcDbEntity
  8
BORDER
  6
LS
100
AcDbLine
 10
13.76000209999999
 20
0.63999999
 30
0.0
 11
13.76000209999999
 21
0.6999999900000001
 31
0.0
  0
LINE
  5
4481
330
BCC
100
AcDbEntity
  8
BORDER
  6
LS
100
AcDbLine
 10
13.80000209999999
 20
0.63999999
 30
0.0
 11
13.80000209999999
 21
0.6999999900000001
 31
0.0
  0
LINE
  5
4482
330
BCC
100
AcDbEntity
  8
BORDER
  6
LS
100
AcDbLine
 10
13.8200026
 20
0.59999996
 30
0.0
 11
13.8200026
 21
0.6999999900000001
 31
0.0
  0
LINE
  5
4483
330
BCC
100
AcDbEntity
  8
BORDER
  6
LS
100
AcDbLine
 10
13.840003
 20
0.59999996
 30
0.0
 11
13.840003
 21
0.6999999900000001
 31
0.0
  0
LINE
  5
4484
330
BCC
100
AcDbEntity
  8
BORDER
  6
LS
100
AcDbLine
 10
13.8600025
 20
0.63999999
 30
0.0
 11
13.8600025
 21
0.6999999900000001
 31
0.0
  0
LINE
  5
4485
330
BCC
100
AcDbEntity
  8
BORDER
  6
LS
100
AcDbLine
 10
13.90000249999999
 20
0.63999999
 30
0.0
 11
13.90000249999999
 21
0.6999999900000001
 31
0.0
  0
LINE
  5
4486
330
BCC
100
AcDbEntity
  8
BORDER
  6
LS
100
AcDbLine
 10
13.9200029
 20
0.59999996
 30
0.0
 11
13.9200029
 21
0.6999999900000001
 31
0.0
  0
LINE
  5
4487
330
BCC
100
AcDbEntity
  8
BORDER
  6
LS
100
AcDbLine
 10
13.4800005
 20
0.55999994
 30
0.0
 11
13.4800005
 21
0.6999999900000001
 31
0.0
  0
LINE
  5
4488
330
BCC
100
AcDbEntity
  8
BORDER
  6
LS
100
AcDbLine
 10
13.58000089999999
 20
0.55999994
 30
0.0
 11
13.58000089999999
 21
0.6999999900000001
 31
0.0
  0
LINE
  5
4489
330
BCC
100
AcDbEntity
  8
BORDER
  6
LS
100
AcDbLine
 10
13.4000006
 20
0.63999999
 30
0.0
 11
13.4000006
 21
0.6999999900000001
 31
0.0
  0
LINE
  5
448A
330
BCC
100
AcDbEntity
  8
BORDER
  6
LS
100
AcDbLine
 10
13.42000099999999
 20
0.59999996
 30
0.0
 11
13.42000099999999
 21
0.6999999900000001
 31
0.0
  0
LINE
  5
448B
330
BCC
100
AcDbEntity
  8
BORDER
  6
LS
100
AcDbLine
 10
13.4400015
 20
0.59999996
 30
0.0
 11
13.4400015
 21
0.6999999900000001
 31
0.0
  0
LINE
  5
448C
330
BCC
100
AcDbEntity
  8
BORDER
  6
LS
100
AcDbLine
 10
13.460001
 20
0.63999999
 30
0.0
 11
13.460001
 21
0.6999999900000001
 31
0.0
  0
LINE
  5
448D
330
BCC
100
AcDbEntity
  8
BORDER
  6
LS
100
AcDbLine
 10
13.50000089999999
 20
0.63999999
 30
0.0
 11
13.50000089999999
 21
0.6999999900000001
 31
0.0
  0
LINE
  5
448E
330
BCC
100
AcDbEntity
  8
BORDER
  6
LS
100
AcDbLine
 10
13.5200014
 20
0.59999996
 30
0.0
 11
13.5200014
 21
0.6999999900000001
 31
0.0
  0
LINE
  5
448F
330
BCC
100
AcDbEntity
  8
BORDER
  6
LS
100
AcDbLine
 10
13.5400019
 20
0.59999996
 30
0.0
 11
13.5400019
 21
0.6999999900000001
 31
0.0
  0
LINE
  5
4490
330
BCC
100
AcDbEntity
  8
BORDER
  6
LS
100
AcDbLine
 10
13.5600014
 20
0.63999999
 30
0.0
 11
13.5600014
 21
0.6999999900000001
 31
0.0
  0
LINE
  5
4491
330
BCC
100
AcDbEntity
  8
BORDER
  6
LS
100
AcDbLine
 10
13.6000013
 20
0.63999999
 30
0.0
 11
13.6000013
 21
0.6999999900000001
 31
0.0
  0
LINE
  5
4492
330
BCC
100
AcDbEntity
  8
BORDER
  6
LS
100
AcDbLine
 10
13.62000179999999
 20
0.59999996
 30
0.0
 11
13.62000179999999
 21
0.6999999900000001
 31
0.0
  0
LINE
  5
4493
330
BCC
100
AcDbEntity
  8
BORDER
  6
LS
100
AcDbLine
 10
13.6400022
 20
0.59999996
 30
0.0
 11
13.6400022
 21
0.6999999900000001
 31
0.0
  0
LINE
  5
4494
330
BCC
100
AcDbEntity
  8
BORDER
  6
LS
100
AcDbLine
 10
13.6600017
 20
0.63999999
 30
0.0
 11
13.6600017
 21
0.6999999900000001
 31
0.0
  0
TEXT
  5
4495
330
BCC
100
AcDbEntity
  8
BORDER
100
AcDbText
 10
13.7515001
 20
0.41995007
 30
0.0
 40
0.07999998
  1
4
 50
0.0999999600000013
  7
AE
100
AcDbText
  0
TEXT
  5
4496
330
BCC
100
AcDbEntity
  8
BORDER
100
AcDbText
 10
13.3514986
 20
0.35995007
 30
0.0
 40
0.07999998
  1
0
 50
0.0999999600000013
  7
AE
100
AcDbText
  0
TEXT
  5
4497
330
BCC
100
AcDbEntity
  8
BORDER
100
AcDbText
 10
13.5514994
 20
0.41995007
 30
0.0
 40
0.07999998
  1
2
 50
0.0999999600000013
  7
AE
100
AcDbText
  0
TEXT
  5
4498
330
BCC
100
AcDbEntity
  8
BORDER
100
AcDbText
 10
12.8087463
 20
0.27487546
 30
0.0
 40
0.19999999
  1
2
 50
0.0999999600000013
  7
AE
100
AcDbText
  0
LINE
  5
4499
330
BCC
100
AcDbEntity
  8
BORDER
  6
LS
100
AcDbLine
 10
13.3800001
 20
0.49999994
 30
0.0
 11
13.3800001
 21
0.6999999900000001
 31
0.0
  0
LINE
  5
449A
330
BCC
100
AcDbEntity
  8
BORDER
100
AcDbLine
 10
10.900002
 20
0.55000043
 30
0.0
 11
11.00000199999999
 21
0.75
 31
0.0
  0
LINE
  5
449B
330
BCC
100
AcDbEntity
  8
BORDER
100
AcDbLine
 10
11.000003
 20
0.7499994000000001
 30
0.0
 11
11.100003
 21
0.55000019
 31
0.0
  0
LINE
  5
449C
330
BCC
100
AcDbEntity
  8
BORDER
100
AcDbLine
 10
10.90000099999999
 20
0.5499999500000001
 30
0.0
 11
11.1
 21
0.5499999500000001
 31
0.0
  0
LINE
  5
449D
330
BCC
100
AcDbEntity
  8
BORDER
100
AcDbLine
 10
11.0
 20
0.3499999
 30
0.0
 11
11.0
 21
0.5499999500000001
 31
0.0
  0
LINE
  5
449E
330
BCC
100
AcDbEntity
  8
BORDER
100
AcDbLine
 10
11.0
 20
0.3499999
 30
0.0
 11
11.0
 21
0.5499999500000001
 31
0.0
  0
LINE
  5
449F
330
BCC
100
AcDbEntity
  8
TITLE BLOCK
  6
Continuous
100
AcDbLine
 10
13.9
 20
1.0
 30
0.0
 11
13.9
 21
2.75
 31
0.0
  0
TEXT
  5
44A0
330
BCC
100
AcDbEntity
  8
TITLE BLOCK
  6
Continuous
100
AcDbText
 10
12.83824213224503
 20
1.090349814097824
 30
0.0
 40
0.0771520776612738
  1
NO.
 50
0.09999996
  7
AE
100
AcDbText
  0
LINE
  5
44A1
330
BCC
100
AcDbEntity
  8
TITLE BLOCK
  6
Continuous
100
AcDbLine
 10
12.75
 20
0.7499656890232619
 30
0.0
 11
12.75
 21
2.75
 31
0.0
  0
LINE
  5
44A2
330
BCC
100
AcDbEntity
  8
TITLE BLOCK
  6
Continuous
100
AcDbLine
 10
13.1
 20
1.0
 30
0.0
 11
13.1
 21
2.75
 31
0.0
  0
TEXT
  5
44A3
330
BCC
100
AcDbEntity
  8
TITLE BLOCK
  6
Continuous
100
AcDbText
 10
13.40137402234739
 20
1.090958090874199
 30
0.0
 40
0.075937067150492
  1
DATE
 50
0.09999996
  7
AE
100
AcDbText
  0
LINE
  5
44A4
330
BCC
100
AcDbEntity
  8
BORDER
  6
LS
100
AcDbLine
 10
15.18000599999999
 20
0.55999994
 30
0.0
 11
15.18000599999999
 21
0.6999999900000001
 31
0.0
  0
LINE
  5
44A5
330
BCC
100
AcDbEntity
  8
BORDER
  6
LS
100
AcDbLine
 10
14.9800053
 20
0.55999994
 30
0.0
 11
14.9800053
 21
0.6999999900000001
 31
0.0
  0
LINE
  5
44A6
330
BCC
100
AcDbEntity
  8
BORDER
  6
LS
100
AcDbLine
 10
14.7800045
 20
0.55999994
 30
0.0
 11
14.7800045
 21
0.6999999900000001
 31
0.0
  0
LINE
  5
44A7
330
BCC
100
AcDbEntity
  8
BORDER
  6
LS
100
AcDbLine
 10
14.58000469999999
 20
0.55999994
 30
0.0
 11
14.58000469999999
 21
0.6999999900000001
 31
0.0
  0
LINE
  5
44A8
330
BCC
100
AcDbEntity
  8
BORDER
  6
LS
100
AcDbLine
 10
14.3600044
 20
0.63999999
 30
0.0
 11
14.3600044
 21
0.6999999900000001
 31
0.0
  0
LINE
  5
44A9
330
BCC
100
AcDbEntity
  8
BORDER
  6
LS
100
AcDbLine
 10
14.08000279999999
 20
0.55999994
 30
0.0
 11
14.08000279999999
 21
0.6999999900000001
 31
0.0
  0
LINE
  5
44AA
330
BCC
100
AcDbEntity
  8
BORDER
  6
LS
100
AcDbLine
 10
14.1800032
 20
0.55999994
 30
0.0
 11
14.1800032
 21
0.6999999900000001
 31
0.0
  0
LINE
  5
44AB
330
BCC
100
AcDbEntity
  8
BORDER
  6
LS
100
AcDbLine
 10
14.2800035
 20
0.55999994
 30
0.0
 11
14.2800035
 21
0.6999999900000001
 31
0.0
  0
LINE
  5
44AC
330
BCC
100
AcDbEntity
  8
BORDER
  6
LS
100
AcDbLine
 10
14.30000399999999
 20
0.63999999
 30
0.0
 11
14.30000399999999
 21
0.6999999900000001
 31
0.0
  0
LINE
  5
44AD
330
BCC
100
AcDbEntity
  8
BORDER
  6
LS
100
AcDbLine
 10
14.3200045
 20
0.59999996
 30
0.0
 11
14.3200045
 21
0.6999999900000001
 31
0.0
  0
LINE
  5
44AE
330
BCC
100
AcDbEntity
  8
BORDER
  6
LS
100
AcDbLine
 10
14.3400049
 20
0.59999996
 30
0.0
 11
14.3400049
 21
0.6999999900000001
 31
0.0
  0
LINE
  5
44AF
330
BCC
100
AcDbEntity
  8
BORDER
  6
LS
100
AcDbLine
 10
14.02000329999999
 20
0.59999996
 30
0.0
 11
14.02000329999999
 21
0.6999999900000001
 31
0.0
  0
LINE
  5
44B0
330
BCC
100
AcDbEntity
  8
BORDER
  6
LS
100
AcDbLine
 10
14.0400038
 20
0.59999996
 30
0.0
 11
14.0400038
 21
0.6999999900000001
 31
0.0
  0
LINE
  5
44B1
330
BCC
100
AcDbEntity
  8
BORDER
  6
LS
100
AcDbLine
 10
14.0600033
 20
0.63999999
 30
0.0
 11
14.0600033
 21
0.6999999900000001
 31
0.0
  0
LINE
  5
44B2
330
BCC
100
AcDbEntity
  8
BORDER
  6
LS
100
AcDbLine
 10
14.10000319999999
 20
0.63999999
 30
0.0
 11
14.10000319999999
 21
0.6999999900000001
 31
0.0
  0
LINE
  5
44B3
330
BCC
100
AcDbEntity
  8
BORDER
  6
LS
100
AcDbLine
 10
14.1200037
 20
0.59999996
 30
0.0
 11
14.1200037
 21
0.6999999900000001
 31
0.0
  0
LINE
  5
44B4
330
BCC
100
AcDbEntity
  8
BORDER
  6
LS
100
AcDbLine
 10
14.14000419999999
 20
0.59999996
 30
0.0
 11
14.14000419999999
 21
0.6999999900000001
 31
0.0
  0
LINE
  5
44B5
330
BCC
100
AcDbEntity
  8
BORDER
  6
LS
100
AcDbLine
 10
14.1600037
 20
0.63999999
 30
0.0
 11
14.1600037
 21
0.6999999900000001
 31
0.0
  0
LINE
  5
44B6
330
BCC
100
AcDbEntity
  8
BORDER
  6
LS
100
AcDbLine
 10
14.20000359999999
 20
0.63999999
 30
0.0
 11
14.20000359999999
 21
0.6999999900000001
 31
0.0
  0
LINE
  5
44B7
330
BCC
100
AcDbEntity
  8
BORDER
  6
LS
100
AcDbLine
 10
14.2200041
 20
0.59999996
 30
0.0
 11
14.2200041
 21
0.6999999900000001
 31
0.0
  0
LINE
  5
44B8
330
BCC
100
AcDbEntity
  8
BORDER
  6
LS
100
AcDbLine
 10
14.2400045
 20
0.59999996
 30
0.0
 11
14.2400045
 21
0.6999999900000001
 31
0.0
  0
LINE
  5
44B9
330
BCC
100
AcDbEntity
  8
BORDER
  6
LS
100
AcDbLine
 10
14.26000399999999
 20
0.63999999
 30
0.0
 11
14.26000399999999
 21
0.6999999900000001
 31
0.0
  0
LINE
  5
44BA
330
BCC
100
AcDbEntity
  8
BORDER
  6
LS
100
AcDbLine
 10
13.9800024
 20
0.55999994
 30
0.0
 11
13.9800024
 21
0.6999999900000001
 31
0.0
  0
LINE
  5
44BB
330
BCC
100
AcDbEntity
  8
BORDER
  6
LS
100
AcDbLine
 10
13.9400034
 20
0.59999996
 30
0.0
 11
13.9400034
 21
0.6999999900000001
 31
0.0
  0
LINE
  5
44BC
330
BCC
100
AcDbEntity
  8
BORDER
  6
LS
100
AcDbLine
 10
13.9600029
 20
0.63999999
 30
0.0
 11
13.9600029
 21
0.6999999900000001
 31
0.0
  0
LINE
  5
44BD
330
BCC
100
AcDbEntity
  8
BORDER
  6
LS
100
AcDbLine
 10
14.0000029
 20
0.63999999
 30
0.0
 11
14.0000029
 21
0.6999999900000001
 31
0.0
  0
TEXT
  5
44BE
330
BCC
100
AcDbEntity
  8
BORDER
100
AcDbText
 10
16.3514986
 20
0.35995007
 30
0.0
 40
0.07999998
  1
3
 50
0.0999999600000013
  7
AE
100
AcDbText
  0
TEXT
  5
44BF
330
BCC
100
AcDbEntity
  8
BORDER
100
AcDbText
 10
15.35149859999999
 20
0.35995007
 30
0.0
 40
0.07999998
  1
2
 50
0.0999999600000013
  7
AE
100
AcDbText
  0
TEXT
  5
44C0
330
BCC
100
AcDbEntity
  8
BORDER
100
AcDbText
 10
15.1515045
 20
0.41995007
 30
0.0
 40
0.07999998
  1
8
 50
0.0999999600000013
  7
AE
100
AcDbText
  0
TEXT
  5
44C1
330
BCC
100
AcDbEntity
  8
BORDER
100
AcDbText
 10
14.751503
 20
0.41995007
 30
0.0
 40
0.07999998
  1
4
 50
0.0999999600000013
  7
AE
100
AcDbText
  0
TEXT
  5
44C2
330
BCC
100
AcDbEntity
  8
BORDER
100
AcDbText
 10
14.3514986
 20
0.35995007
 30
0.0
 40
0.07999998
  1
1
 50
0.0999999600000013
  7
AE
100
AcDbText
  0
TEXT
  5
44C3
330
BCC
100
AcDbEntity
  8
BORDER
100
AcDbText
 10
14.5515032
 20
0.41995007
 30
0.0
 40
0.07999998
  1
2
 50
0.0999999600000013
  7
AE
100
AcDbText
  0
TEXT
  5
44C4
330
BCC
100
AcDbEntity
  8
BORDER
100
AcDbText
 10
14.9515037
 20
0.41995007
 30
0.0
 40
0.07999998
  1
6
 50
0.0999999600000013
  7
AE
100
AcDbText
  0
TEXT
  5
44C5
330
BCC
100
AcDbEntity
  8
BORDER
100
AcDbText
 10
14.1515017
 20
0.41995007
 30
0.0
 40
0.07999998
  1
8
 50
0.0999999600000013
  7
AE
100
AcDbText
  0
TEXT
  5
44C6
330
BCC
100
AcDbEntity
  8
BORDER
100
AcDbText
 10
13.9515009
 20
0.41995007
 30
0.0
 40
0.07999998
  1
6
 50
0.0999999600000013
  7
AE
100
AcDbText
  0
LINE
  5
44C7
330
BCC
100
AcDbEntity
  8
BORDER
  6
LS
100
AcDbLine
 10
16.3800001
 20
0.49999994
 30
0.0
 11
16.3800001
 21
0.6999999900000001
 31
0.0
  0
LINE
  5
44C8
330
BCC
100
AcDbEntity
  8
BORDER
  6
LS
100
AcDbLine
 10
14.3800001
 20
0.49999994
 30
0.0
 11
14.3800001
 21
0.6999999900000001
 31
0.0
  0
LINE
  5
44C9
330
BCC
100
AcDbEntity
  8
BORDER
  6
LS
100
AcDbLine
 10
15.3800001
 20
0.49999994
 30
0.0
 11
15.3800001
 21
0.6999999900000001
 31
0.0
  0
TEXT
  5
44CA
330
BCC
100
AcDbEntity
  8
TITLE BLOCK
  6
Continuous
100
AcDbText
 10
17.1
 20
1.949999999999999
 30
0.0
 40
0.075937067150492
  1
DR
 50
0.09999996
  7
AE
100
AcDbText
  0
TEXT
  5
44CB
330
BCC
100
AcDbEntity
  8
TITLE BLOCK
  6
Continuous
100
AcDbText
 10
17.1
 20
1.824999999999999
 30
0.0
 40
0.075937067150492
  1
BY
 50
0.09999996
  7
AE
100
AcDbText
  0
TEXT
  5
44CC
330
BCC
100
AcDbEntity
  8
TITLE BLOCK
  6
Continuous
100
AcDbText
 10
17.10620037256117
 20
1.574999999999999
 30
0.0
 40
0.075937067150492
  1
BY
 50
0.09999996
  7
AE
100
AcDbText
  0
TEXT
  5
44CD
330
BCC
100
AcDbEntity
  8
TITLE BLOCK
  6
Continuous
100
AcDbText
 10
17.1
 20
1.699999999999999
 30
0.0
 40
0.075937067150492
  1
CHK
 50
0.09999996
  7
AE
100
AcDbText
  0
TEXT
  5
44CE
330
BCC
100
AcDbEntity
  8
TITLE BLOCK
  6
Continuous
100
AcDbText
 10
17.11
 20
1.45
 30
0.0
 40
0.075937067150492
  1
APPD
 50
0.09999996
  7
AE
100
AcDbText
  0
TEXT
  5
44CF
330
BCC
100
AcDbEntity
  8
TITLE BLOCK
  6
Continuous
100
AcDbText
 10
17.1
 20
1.325
 30
0.0
 40
0.075937067150492
  1
BY
 50
0.09999996
  7
AE
100
AcDbText
  0
TEXT
  5
44D0
330
BCC
100
AcDbEntity
  8
TITLE BLOCK
  6
Continuous
100
AcDbText
 10
15.65
 20
1.149999999999999
 30
0.0
 40
0.075937067150492
  1
DRAWING NAME
 50
0.09999996
  7
AE
100
AcDbText
  0
TEXT
  5
44D1
330
BCC
100
AcDbEntity
  8
TITLE BLOCK
  6
Continuous
100
AcDbText
 10
15.615
 20
2.6
 30
0.0
 40
0.0645465051491158
  1
NOTICE: This drawing or material
 50
0.09999996
 41
0.7005041199999999
  7
AE
100
AcDbText
  0
LINE
  5
44D2
330
BCC
100
AcDbEntity
  8
TITLE BLOCK
  6
Continuous
100
AcDbLine
 10
17.07518995515351
 20
1.35
 30
0.0
 11
17.07518995515351
 21
2.75
 31
0.0
  0
LINE
  5
44D3
330
BCC
100
AcDbEntity
  8
TITLE BLOCK
  6
Continuous
100
AcDbLine
 10
15.59965639031853
 20
0.7499656890232619
 30
0.0
 11
15.59965639031853
 21
2.75
 31
0.0
  0
TEXT
  5
44D4
330
BCC
100
AcDbEntity
  8
TITLE BLOCK
  6
Continuous
100
AcDbText
 10
15.62129755351284
 20
1.956248812462206
 30
0.0
 40
0.0645465051491158
  1
reproduced, will be used only for
 50
0.09999996
 41
0.6799434399999999
  7
AE
100
AcDbText
  0
TEXT
  5
44D5
330
BCC
100
AcDbEntity
  8
TITLE BLOCK
  6
Continuous
100
AcDbText
 10
15.63514394391218
 20
1.445039114516279
 30
0.0
 40
0.0645465051491158
  1
consent of Giddings & Lewis.
 50
0.09999996
 41
0.79688752
  7
AE
100
AcDbText
  0
TEXT
  5
44D6
330
BCC
100
AcDbEntity
  8
TITLE BLOCK
  6
Continuous
100
AcDbText
 10
15.61887681003094
 20
1.585049725173559
 30
0.0
 40
0.0645465051491158
  1
as authorized by specific written
 50
0.09999996
 41
0.6799434399999999
  7
AE
100
AcDbText
  0
TEXT
  5
44D7
330
BCC
100
AcDbEntity
  8
TITLE BLOCK
  6
Continuous
100
AcDbText
 10
15.6189200152052
 20
1.70690037169105
 30
0.0
 40
0.0645465051491158
  1
used or disclosed to anyone except
 50
0.09999996
 41
0.6605569100000001
  7
AE
100
AcDbText
  0
TEXT
  5
44D8
330
BCC
100
AcDbEntity
  8
TITLE BLOCK
  6
Continuous
100
AcDbText
 10
15.61564857341434
 20
1.835205659079424
 30
0.0
 40
0.0645465051491158
  1
your information, and will not be
 50
0.09999996
 41
0.6799434399999999
  7
AE
100
AcDbText
  0
TEXT
  5
44D9
330
BCC
100
AcDbEntity
  8
TITLE BLOCK
  6
Continuous
100
AcDbText
 10
15.62032080796545
 20
2.087377673718703
 30
0.0
 40
0.0645465051491158
  1
will not be copied or otherwise
 50
0.09999996
 41
0.72234601
  7
AE
100
AcDbText
  0
TEXT
  5
44DA
330
BCC
100
AcDbEntity
  8
TITLE BLOCK
  6
Continuous
100
AcDbText
 10
15.61448145506772
 20
2.218510103259664
 30
0.0
 40
0.0645465051491158
  1
in confidence on condition that it
 50
0.09999996
 41
0.6605569100000001
  7
AE
100
AcDbText
  0
TEXT
  5
44DB
330
BCC
100
AcDbEntity
  8
TITLE BLOCK
  6
Continuous
100
AcDbText
 10
15.61275421249727
 20
2.477540457117108
 30
0.0
 40
0.0645465051491158
  1
contains proprietary information
 50
0.09999996
 41
0.7005041199999999
  7
AE
100
AcDbText
  0
TEXT
  5
44DC
330
BCC
100
AcDbEntity
  8
TITLE BLOCK
  6
Continuous
100
AcDbText
 10
15.6184730152435
 20
2.346006933112137
 30
0.0
 40
0.0645465051491158
  1
of Giddings & Lewis, is submitted
 50
0.09999996
 41
0.6799434399999999
  7
AE
100
AcDbText
  0
ATTDEF
  5
44DD
330
BCC
100
AcDbEntity
  8
TITLE BLOCK
  6
Continuous
100
AcDbText
 10
15.7
 20
0.95
 30
0.0
 40
0.126326427375
  1

 41
0.8
100
AcDbAttributeDefinition
  3
Drawing Name
  2
GEN-TITLE-DES1{15.54}
 70
     0
1001
GENIUS_GENBLLY_14
1000
BOR5
  0
TEXT
  5
44DE
330
BCC
100
AcDbEntity
  8
BORDER
100
AcDbText
 10
0.1785739999999976
 20
14.775
 30
0.0
 40
0.19999999
  1
D
  7
AE
100
AcDbText
  0
LINE
  5
44DF
330
BCC
100
AcDbEntity
  8
BORDER
100
AcDbLine
 10
0.1000060000000005
 20
12.75
 30
0.0
 11
0.5
 21
12.75
 31
0.0
  0
TEXT
  5
44E0
330
BCC
100
AcDbEntity
  8
BORDER
100
AcDbText
 10
0.1785739999999976
 20
10.52499999999999
 30
0.0
 40
0.19999999
  1
C
  7
AE
100
AcDbText
  0
TEXT
  5
44E1
330
BCC
100
AcDbEntity
  8
BORDER
100
AcDbText
 10
2.678573999999997
 20
16.52499399999999
 30
0.0
 40
0.19999999
  1
4
  7
AE
100
AcDbText
  0
LINE
  5
44E2
330
BCC
100
AcDbEntity
  8
BORDER
100
AcDbLine
 10
5.5
 20
16.25
 30
0.0
 11
5.5
 21
16.649994
 31
0.0
  0
TEXT
  5
44E3
330
BCC
100
AcDbEntity
  8
BORDER
100
AcDbText
 10
8.178572
 20
16.52499399999999
 30
0.0
 40
0.19999999
  1
3
  7
AE
100
AcDbText
  0
TEXT
  5
44E4
330
BCC
100
AcDbEntity
  8
BORDER
100
AcDbText
 10
13.6785717
 20
16.52499399999999
 30
0.0
 40
0.19999999
  1
2
  7
AE
100
AcDbText
  0
LINE
  5
44E5
330
BCC
100
AcDbEntity
  8
BORDER
100
AcDbLine
 10
10.900011
 20
16.449982
 30
0.0
 11
11.000015
 21
16.249985
 31
0.0
  0
LINE
  5
44E6
330
BCC
100
AcDbEntity
  8
BORDER
100
AcDbLine
 10
10.90000099999999
 20
16.449997
 30
0.0
 11
11.1
 21
16.449997
 31
0.0
  0
LINE
  5
44E7
330
BCC
100
AcDbEntity
  8
BORDER
100
AcDbLine
 10
11.000011
 20
16.25
 30
0.0
 11
11.10001
 21
16.449997
 31
0.0
  0
LINE
  5
44E8
330
BCC
100
AcDbEntity
  8
BORDER
100
AcDbLine
 10
10.90000099999999
 20
16.449997
 30
0.0
 11
11.1
 21
16.449997
 31
0.0
  0
LINE
  5
44E9
330
BCC
100
AcDbEntity
  8
BORDER
100
AcDbLine
 10
11.0
 20
16.449997
 30
0.0
 11
11.0
 21
16.649994
 31
0.0
  0
LINE
  5
44EA
330
BCC
100
AcDbEntity
  8
BORDER
100
AcDbLine
 10
16.5
 20
16.25
 30
0.0
 11
16.5
 21
16.649994
 31
0.0
  0
LINE
  5
44EB
330
BCC
100
AcDbEntity
  8
BORDER
  6
Continuous
100
AcDbLine
 10
22.0
 20
0.2456391960479891
 30
0.0
 11
22.0
 21
17.0
 31
0.0
  0
LINE
  5
44EC
330
BCC
100
AcDbEntity
  8
BORDER
100
AcDbLine
 10
21.49999999999999
 20
0.75
 30
0.0
 11
21.49999999999999
 21
16.25
 31
0.0
  0
ATTDEF
  5
44ED
330
BCC
100
AcDbEntity
  8
TITLE BLOCK
  6
Continuous
100
AcDbText
 10
20.89999999999999
 20
1.375
 30
0.0
 40
0.11808994431015
  1

 41
0.8
100
AcDbAttributeDefinition
  3
Sheet of
  2
GEN-TITLE-SHEET-OF{2.62}
 70
     0
1001
GENIUS_GENBLLY_14
1000
BOR3
  0
ATTDEF
  5
44EE
330
BCC
100
AcDbEntity
  8
TITLE BLOCK
  6
Continuous
100
AcDbText
 10
20.5
 20
1.375
 30
0.0
 40
0.11808994431015
  1

 41
0.8
100
AcDbAttributeDefinition
  3
Sheet
  2
GEN-TITLE-SHEET{2.62}
 70
     0
1001
GENIUS_GENBLLY_14
1000
BOR3
  0
TEXT
  5
44EF
330
BCC
100
AcDbEntity
  8
BORDER
100
AcDbText
 10
21.67857146
 20
2.0249996
 30
0.0
 40
0.19999999
  1
A
  7
AE
100
AcDbText
  0
TEXT
  5
44F0
330
BCC
100
AcDbEntity
  8
BORDER
100
AcDbText
 10
19.17857169999999
 20
0.27499998
 30
0.0
 40
0.19999999
  1
1
  7
AE
100
AcDbText
  0
TEXT
  5
44F1
330
BCC
100
AcDbEntity
  8
TITLE BLOCK
  6
Continuous
100
AcDbText
 10
20.07499999999999
 20
1.699999999999999
 30
0.0
 40
0.075937067150492
  1
DATE
 50
0.09999996
  7
AE
100
AcDbText
  0
TEXT
  5
44F2
330
BCC
100
AcDbEntity
  8
TITLE BLOCK
  6
Continuous
100
AcDbText
 10
20.07499999999999
 20
1.45
 30
0.0
 40
0.075937067150492
  1
SHEET   OF
 50
0.09999996
  7
AE
100
AcDbText
  0
ATTDEF
  5
44F3
330
BCC
100
AcDbEntity
  8
TITLE BLOCK
  6
Continuous
100
AcDbText
 10
18.94999999999999
 20
1.375
 30
0.0
 40
0.1010611419
  1

 41
0.8
100
AcDbAttributeDefinition
  3
Material
  2
GEN-TITLE-MAT{11.15}
 70
     0
1001
GENIUS_GENBLLY_14
1000
BOR3
  0
ATTDEF
  5
44F4
330
BCC
100
AcDbEntity
  8
TITLE BLOCK
  6
Continuous
100
AcDbText
 10
18.94999999999999
 20
1.625
 30
0.0
 40
0.1010611419
  1

100
AcDbAttributeDefinition
  3
Machine
  2
GEN-TITLE-MACH{5}
 70
     0
1001
GENIUS_GENBLLY_14
1000
BOR2
  0
ATTDEF
  5
44F5
330
BCC
100
AcDbEntity
  8
TITLE BLOCK
  6
Continuous
100
AcDbText
 10
18.94999999999999
 20
1.875
 30
0.0
 40
0.1010611419
  1

100
AcDbAttributeDefinition
  3
Ref. No.
  2
GEN-TITLE-REF{5}
 70
     0
1001
GENIUS_GENBLLY_14
1000
BOR2
  0
TEXT
  5
44F6
330
BCC
100
AcDbEntity
  8
TITLE BLOCK
  6
Continuous
100
AcDbText
 10
18.6
 20
1.45
 30
0.0
 40
0.075937067150492
  1
MATL
 50
0.09999996
  7
AE
100
AcDbText
  0
TEXT
  5
44F7
330
BCC
100
AcDbEntity
  8
TITLE BLOCK
  6
Continuous
100
AcDbText
 10
18.6
 20
1.699999999999999
 30
0.0
 40
0.075937067150492
  1
MACH
 50
0.09999996
  7
AE
100
AcDbText
  0
TEXT
  5
44F8
330
BCC
100
AcDbEntity
  8
TITLE BLOCK
  6
Continuous
100
AcDbText
 10
18.6
 20
1.949999999999999
 30
0.0
 40
0.075937067150492
  1
REF
 50
0.09999996
  7
AE
100
AcDbText
  0
TEXT
  5
44F9
330
BCC
100
AcDbEntity
  8
TITLE BLOCK
  6
Continuous
100
AcDbText
 10
18.6
 20
1.149999999999999
 30
0.0
 40
0.075937067150492
  1
DRAWING NUMBER
 50
0.09999996
  7
AE
100
AcDbText
  0
LINE
  5
44FA
330
BCC
100
AcDbEntity
  8
TITLE BLOCK
  6
Continuous
100
AcDbLine
 10
18.54999999999999
 20
0.7499656890232619
 30
0.0
 11
18.54999999999999
 21
2.75
 31
0.0
  0
LINE
  5
44FB
330
BCC
100
AcDbEntity
  8
TITLE BLOCK
  6
Continuous
100
AcDbLine
 10
20.02625718126358
 20
1.299999999999999
 30
0.0
 11
20.02625718126354
 21
1.799999999999999
 31
0.0
  0
ATTDEF
  5
44FC
330
BCC
100
AcDbEntity
  8
TITLE BLOCK
  6
Continuous
100
AcDbText
 10
20.42499999999999
 20
1.625
 30
0.0
 40
0.1010611419
  1

100
AcDbAttributeDefinition
  3
Date
  2
GEN-TITLE-PLOT{5}
 70
     0
1001
GENIUS_GENBLLY_14
1000
BOR2
  0
ATTDEF
  5
44FD
330
BCC
100
AcDbEntity
  8
TITLE BLOCK
  6
Continuous
100
AcDbText
 10
18.89999999999999
 20
0.85
 30
0.0
 40
0.196816573850279
  1

 41
0.8
100
AcDbAttributeDefinition
  3
Drawing Number
  2
GEN-TITLE-NR{13.37}
 70
     0
1001
GENIUS_GENBLLY_14
1000
BOR5
  0
LINE
  5
44FE
330
BCC
100
AcDbEntity
  8
BORDER
100
AcDbLine
 10
21.70000315
 20
8.5
 30
0.0
 11
21.90000009999999
 21
8.5
 31
0.0
  0
LINE
  5
44FF
330
BCC
100
AcDbEntity
  8
BORDER
100
AcDbLine
 10
21.50001131999999
 20
8.499981899999999
 30
0.0
 11
21.70000713999999
 21
8.399983399999999
 31
0.0
  0
TEXT
  5
4500
330
BCC
100
AcDbEntity
  8
BORDER
100
AcDbText
 10
21.67857146
 20
6.2749996
 30
0.0
 40
0.19999999
  1
B
  7
AE
100
AcDbText
  0
LINE
  5
4501
330
BCC
100
AcDbEntity
  8
BORDER
100
AcDbLine
 10
21.49999951999999
 20
8.499982800000001
 30
0.0
 11
21.69999569999999
 21
8.599980399999999
 31
0.0
  0
LINE
  5
4502
330
BCC
100
AcDbEntity
  8
BORDER
100
AcDbLine
 10
21.70000315
 20
8.3999939
 30
0.0
 11
21.70000315
 21
8.5999908
 31
0.0
  0
TEXT
  5
4503
330
BCC
100
AcDbEntity
  8
BORDER
100
AcDbText
 10
21.67857146
 20
14.775
 30
0.0
 40
0.19999999
  1
D
  7
AE
100
AcDbText
  0
LINE
  5
4504
330
BCC
100
AcDbEntity
  8
BORDER
100
AcDbLine
 10
21.49999999999999
 20
12.75
 30
0.0
 11
21.90000003999999
 21
12.75
 31
0.0
  0
TEXT
  5
4505
330
BCC
100
AcDbEntity
  8
BORDER
100
AcDbText
 10
21.67857146
 20
10.52499999999999
 30
0.0
 40
0.19999999
  1
C
  7
AE
100
AcDbText
  0
TEXT
  5
4506
330
BCC
100
AcDbEntity
  8
BORDER
100
AcDbText
 10
19.17857169999999
 20
16.52499399999999
 30
0.0
 40
0.19999999
  1
1
  7
AE
100
AcDbText
  0
LINE
  5
4507
330
BCC
100
AcDbEntity
  8
BORDER
  6
Continuous
 62
    15
100
AcDbLine
 10
0.0
 20
0.2456391960479891
 30
0.0
 11
22.0
 21
0.2456391960479891
 31
0.0
  0
MTEXT
  5
4508
330
BCC
100
AcDbEntity
  8
BORDER
  6
Continuous
100
AcDbMText
 10
20.00308979335871
 20
2.6
 30
0.0
 40
0.125
 41
2.663
 71
     2
 72
     5
  1
{\fArial|b0|i0|c0|p34;\C1;SHEFFIELD AUTOMATION, LLC}
 73
     1
 44
1.0
  0
MTEXT
  5
4509
330
BCC
100
AcDbEntity
  8
BORDER
  6
Continuous
100
AcDbMText
 10
20.00412857763948
 20
2.278264837305509
 30
0.0
 40
0.07874
 41
2.862
 71
     5
 72
     1
  1
{\Fromans.shx;\C9;660 South Military Road\PFond du Lac, Wisconsin 54936 U.S.A.}
 73
     1
 44
1.0
  0
ENDBLK
  5
C91
330
BCC
100
AcDbEntity
  8
0
100
AcDbBlockEnd
  0
BLOCK
  5
CCF
330
CCC
100
AcDbEntity
  8
0
100
AcDbBlockBegin
  2
A$C4F76053E
 70
     0
 10
0.0
 20
0.0
 30
0.0
  3
A$C4F76053E
  1

  0
MTEXT
  5
CCD
330
CCC
100
AcDbEntity
  8
0
100
AcDbMText
 10
-4.535114937015489
 20
-3.905305472352832
 30
0.0
 40
0.125
 41
0.0
 71
     3
 72
     1
  1
LABEL CONNECTOR\PAS SHOWN 
 73
     1
 44
1.0
  0
MTEXT
  5
CCE
330
CCC
100
AcDbEntity
  8
0
100
AcDbMText
 10
-8.333017987392072
 20
-5.422864188570173
 30
0.0
 40
0.1
 41
5.652499999999999
 71
     1
 72
     5
  3
SPECIFICATIONS:\P\P1. LABEL CABLE AND CONNECTORS AS SHOWN.\P\P2. INSPECT FOR SHORTS. CONNECTIVITY MUST CONFORM TO WIRING DIAGRAM.\P\P3. PACKAGE PER MD.1000.5034 PACKAGING SPECIFICATION.\P\P4. WIRING DIAGRAM SHOWING PIN ORIENTATION AND COLOR CODE MUST
  1
 BE INCLUDED IN BOX.\P\P5. CHANGES TO THESE SPECIFICATIONS MUST BE APPROVED, IN WRITING, BY THE GIDDINGS & LEWIS CMS ENGINEERING DEPARTMENT.
 73
     1
 44
1.0
  0
ENDBLK
  5
CD0
330
CCC
100
AcDbEntity
  8
0
100
AcDbBlockEnd
  0
BLOCK
  5
43D6
330
43CC
100
AcDbEntity
  8
0
100
AcDbBlockBegin
  2
*D17
 70
     1
 10
0.0
 20
0.0
 30
0.0
  3
*D17
  1

  0
LINE
  5
43D9
330
43CC
100
AcDbEntity
  8
0
370
    -2
100
AcDbLine
 10
3.27066843954099
 20
9.893450720976133
 30
0.0
 11
3.27066843954099
 21
12.87409088841993
 31
0.0
  0
LINE
  5
43DA
330
43CC
100
AcDbEntity
  8
0
370
    -2
100
AcDbLine
 10
18.36064005518976
 20
8.759883666661107
 30
0.0
 11
18.36064005518976
 21
12.87409088841993
 31
0.0
  0
LINE
  5
43DB
330
43CC
100
AcDbEntity
  8
0
370
    -2
100
AcDbLine
 10
3.41066843954099
 20
12.74909088841993
 30
0.0
 11
18.22064005518976
 21
12.74909088841993
 31
0.0
  0
SOLID
  5
43DC
330
43CC
100
AcDbEntity
  8
0
100
AcDbTrace
 10
3.41066843954099
 20
12.77242422175326
 30
0.0
 11
3.41066843954099
 21
12.7257575550866
 31
0.0
 12
3.27066843954099
 22
12.74909088841993
 32
0.0
 13
3.27066843954099
 23
12.74909088841993
 33
0.0
  0
SOLID
  5
43DD
330
43CC
100
AcDbEntity
  8
0
100
AcDbTrace
 10
18.22064005518976
 20
12.77242422175326
 30
0.0
 11
18.22064005518976
 21
12.7257575550866
 31
0.0
 12
18.36064005518976
 22
12.74909088841993
 32
0.0
 13
18.36064005518976
 23
12.74909088841993
 33
0.0
  0
MTEXT
  5
43DE
330
43CC
100
AcDbEntity
  8
0
 62
     2
100
AcDbMText
 10
10.81565424736537
 20
12.86909088841993
 30
0.0
 40
0.12
 41
0.0
 71
     5
 72
     1
  1
\A1;18 INCHES
 73
     1
 44
1.0
  0
POINT
  5
43DF
330
43CC
100
AcDbEntity
  8
Defpoints
 62
     0
100
AcDbPoint
 10
3.27066843954099
 20
9.768450720976133
 30
0.0
  0
POINT
  5
43E0
330
43CC
100
AcDbEntity
  8
Defpoints
 62
     0
100
AcDbPoint
 10
18.36064005518976
 20
8.634883666661107
 30
0.0
  0
POINT
  5
43E1
330
43CC
100
AcDbEntity
  8
Defpoints
 62
     0
100
AcDbPoint
 10
18.36064005518976
 20
12.74909088841993
 30
0.0
  0
ENDBLK
  5
43D7
330
43CC
100
AcDbEntity
  8
0
100
AcDbBlockEnd
  0
ENDSEC
  0
SECTION
  2
ENTITIES
  0
LWPOLYLINE
  5
94D
330
2
100
AcDbEntity
  8
800
  6
L0
 62
     1
100
AcDbPolyline
 90
        2
 70
     0
 43
0.0
 10
17.88546405518976
 20
7.944748666661107
 10
17.83031005518976
 20
7.999901666661106
  0
LWPOLYLINE
  5
94E
330
2
100
AcDbEntity
  8
800
  6
L5
 62
     2
100
AcDbPolyline
 90
        2
 70
     0
 43
0.0
 10
17.43291605518976
 20
7.707160666661106
 10
16.95986105518976
 20
8.180214666661107
  0
LWPOLYLINE
  5
94F
330
2
100
AcDbEntity
  8
800
  6
L5
 62
     2
100
AcDbPolyline
 90
        2
 70
     0
 43
0.0
 10
17.52095105518976
 20
8.015812666661107
 10
17.32260705518976
 20
7.817469666661107
  0
LWPOLYLINE
  5
950
330
2
100
AcDbEntity
  8
800
  6
L5
 62
     2
100
AcDbPolyline
 90
        2
 70
     0
 43
0.0
 10
18.31185605518976
 20
8.260832666661107
 10
17.80696705518976
 20
7.755942666661107
  0
LWPOLYLINE
  5
951
330
2
100
AcDbEntity
  8
800
  6
L5
 62
     2
100
AcDbPolyline
 90
        2
 70
     0
 43
0.0
 10
18.36064005518976
 20
8.634883666661107
 10
17.43291605518976
 20
7.707160666661106
  0
LWPOLYLINE
  5
95C
330
2
100
AcDbEntity
  8
800
  6
L5
 62
     2
100
AcDbPolyline
 90
        2
 70
     0
 43
0.0
 10
19.55488605518976
 20
7.270429666661106
 42
0.414213
 10
19.55488605518976
 20
7.358818666661107
  0
LWPOLYLINE
  5
95D
330
2
100
AcDbEntity
  8
800
  6
L5
 62
     2
100
AcDbPolyline
 90
        2
 70
     0
 43
0.0
 10
19.61785705518976
 20
7.245012666661107
 42
0.4142149999999999
 10
19.61785705518976
 20
7.377665666661107
  0
LWPOLYLINE
  5
95E
330
2
100
AcDbEntity
  8
800
  6
L5
 62
     2
100
AcDbPolyline
 90
        2
 70
     0
 43
0.0
 10
19.30856905518976
 20
7.686954666661106
 42
0.414212
 10
19.17591705518976
 20
7.686954666661106
  0
LWPOLYLINE
  5
95F
330
2
100
AcDbEntity
  8
800
  6
L5
 62
     2
100
AcDbPolyline
 90
        2
 70
     0
 43
0.0
 10
19.28972105518976
 20
7.623983666661107
 42
0.4142100000000001
 10
19.20133305518976
 20
7.623983666661107
  0
CIRCLE
  5
960
330
2
100
AcDbEntity
  8
800
  6
L0
 62
     1
100
AcDbCircle
 10
19.14723405518976
 20
7.213430666661107
 30
0.0
 40
0.023502
  0
CIRCLE
  5
961
330
2
100
AcDbEntity
  8
800
  6
L0
 62
     1
100
AcDbCircle
 10
19.11557905518976
 20
7.325546666661107
 30
0.0
 40
0.023502
  0
CIRCLE
  5
962
330
2
100
AcDbEntity
  8
800
  6
L0
 62
     1
100
AcDbCircle
 10
19.25746605518976
 20
7.183658666661106
 30
0.0
 40
0.023502
  0
LWPOLYLINE
  5
963
330
2
100
AcDbEntity
  8
800
  6
L5
 62
     2
100
AcDbPolyline
 90
        2
 70
     0
 43
0.0
 10
19.22129805518976
 20
7.348741666661105
 10
19.29430805518976
 20
7.244474666661107
  0
CIRCLE
  5
964
330
2
100
AcDbEntity
  8
800
  6
L0
 62
     1
100
AcDbCircle
 10
19.34048505518976
 20
7.409581666661107
 30
0.0
 40
0.060266
  0
CIRCLE
  5
965
330
2
100
AcDbEntity
  8
800
  6
L0
 62
     1
100
AcDbCircle
 10
19.34048505518976
 20
7.409581666661107
 30
0.0
 40
0.047266
  0
LWPOLYLINE
  5
966
330
2
100
AcDbEntity
  8
800
  6
L5
 62
     2
100
AcDbPolyline
 90
        2
 70
     0
 43
0.0
 10
19.55488705518976
 20
7.358818666661107
 10
19.28972205518976
 20
7.623982666661106
  0
LWPOLYLINE
  5
967
330
2
100
AcDbEntity
  8
800
  6
L5
 62
     2
100
AcDbPolyline
 90
        2
 70
     0
 43
0.0
 10
19.61785805518976
 20
7.377666666661106
 10
19.30857005518976
 20
7.686954666661106
  0
CIRCLE
  5
968
330
2
100
AcDbEntity
  8
800
  6
L0
 62
     1
100
AcDbCircle
 10
18.95930805518976
 20
7.169276666661108
 30
0.0
 40
0.023502
  0
CIRCLE
  5
969
330
2
100
AcDbEntity
  8
800
  6
L0
 62
     1
100
AcDbCircle
 10
19.06909905518976
 20
7.135295666661107
 30
0.0
 40
0.023501
  0
CIRCLE
  5
96A
330
2
100
AcDbEntity
  8
800
  6
L0
 62
     1
100
AcDbCircle
 10
19.03744305518976
 20
7.247411666661106
 30
0.0
 40
0.023501
  0
LWPOLYLINE
  5
96B
330
2
100
AcDbEntity
  8
800
  6
L5
 62
     2
100
AcDbPolyline
 90
        2
 70
     0
 43
0.0
 10
19.22129905518976
 20
7.348740666661107
 42
0.4663060000000001
 10
19.03303005518976
 20
7.365212666661108
  0
CIRCLE
  5
96C
330
2
100
AcDbEntity
  8
800
  6
L0
 62
     1
100
AcDbCircle
 10
19.10119605518976
 20
7.027388666661106
 30
0.0
 40
0.023502
  0
CIRCLE
  5
96D
330
2
100
AcDbEntity
  8
800
  6
L0
 62
     1
100
AcDbCircle
 10
18.99096305518976
 20
7.057159666661107
 30
0.0
 40
0.023502
  0
CIRCLE
  5
96E
330
2
100
AcDbEntity
  8
800
  6
L0
 62
     1
100
AcDbCircle
 10
19.02306105518976
 20
6.949252666661106
 30
0.0
 40
0.023502
  0
CIRCLE
  5
96F
330
2
100
AcDbEntity
  8
800
  6
L0
 62
     1
100
AcDbCircle
 10
18.91282905518976
 20
6.979024666661107
 30
0.0
 40
0.023501
  0
CIRCLE
  5
970
330
2
100
AcDbEntity
  8
800
  6
L0
 62
     1
100
AcDbCircle
 10
18.94492505518976
 20
6.871117666661106
 30
0.0
 40
0.023502
  0
CIRCLE
  5
971
330
2
100
AcDbEntity
  8
800
  6
L0
 62
     1
100
AcDbCircle
 10
18.80303805518976
 20
7.013005666661106
 30
0.0
 40
0.023502
  0
LWPOLYLINE
  5
972
330
2
100
AcDbEntity
  8
800
  6
L5
 62
     2
100
AcDbPolyline
 90
        2
 70
     0
 43
0.0
 10
18.70258705518976
 20
7.034770666661106
 42
0.4663050000000001
 10
18.71905805518976
 20
6.846500666661107
  0
LWPOLYLINE
  5
973
330
2
100
AcDbEntity
  8
800
  6
L5
 62
     2
100
AcDbPolyline
 90
        2
 70
     0
 43
0.0
 10
18.71905905518976
 20
6.846501666661108
 10
18.82332605518976
 20
6.773492666661107
  0
CIRCLE
  5
974
330
2
100
AcDbEntity
  8
800
  6
L0
 62
     1
100
AcDbCircle
 10
18.83469205518976
 20
6.900889666661107
 30
0.0
 40
0.023502
  0
LWPOLYLINE
  5
975
330
2
100
AcDbEntity
  8
800
  6
L5
 62
     2
100
AcDbPolyline
 90
        2
 70
     0
 43
0.0
 10
18.70898205518976
 20
6.512913666661106
 42
0.4142140000000001
 10
18.79737005518976
 20
6.512912666661107
  0
LWPOLYLINE
  5
976
330
2
100
AcDbEntity
  8
800
  6
L5
 62
     2
100
AcDbPolyline
 90
        2
 70
     0
 43
0.0
 10
18.82332505518976
 20
6.773492666661107
 42
0.3639699999999999
 10
18.98130205518976
 20
6.787313666661106
  0
LWPOLYLINE
  5
977
330
2
100
AcDbEntity
  8
800
  6
L5
 62
     2
100
AcDbPolyline
 90
        2
 70
     0
 43
0.0
 10
18.44381605518976
 20
6.866467666661108
 42
0.414213
 10
18.44381605518976
 20
6.778079666661106
  0
LWPOLYLINE
  5
978
330
2
100
AcDbEntity
  8
800
  6
L5
 62
     2
100
AcDbPolyline
 90
        2
 70
     0
 43
0.0
 10
18.44710105518976
 20
6.692974666661108
 10
18.26412905518976
 20
6.510002666661106
  0
LWPOLYLINE
  5
979
330
2
100
AcDbEntity
  8
800
  6
L5
 62
     2
100
AcDbPolyline
 90
        2
 70
     0
 43
0.0
 10
18.38084505518976
 20
6.891883666661106
 42
0.414216
 10
18.38084505518976
 20
6.759230666661107
  0
LWPOLYLINE
  5
97A
330
2
100
AcDbEntity
  8
800
  6
L5
 62
     2
100
AcDbPolyline
 90
        2
 70
     0
 43
0.0
 10
18.70898205518976
 20
6.512913666661106
 10
18.44381705518976
 20
6.778078666661107
  0
LWPOLYLINE
  5
97B
330
2
100
AcDbEntity
  8
800
  6
L5
 62
     2
100
AcDbPolyline
 90
        2
 70
     0
 43
0.0
 10
18.69013405518976
 20
6.449942666661106
 10
18.38084505518976
 20
6.759230666661107
  0
CIRCLE
  5
97C
330
2
100
AcDbEntity
  8
800
  6
L0
 62
     1
100
AcDbCircle
 10
18.65821905518976
 20
6.727315666661107
 30
0.0
 40
0.060266
  0
CIRCLE
  5
97D
330
2
100
AcDbEntity
  8
800
  6
L0
 62
     1
100
AcDbCircle
 10
18.65821905518976
 20
6.727315666661107
 30
0.0
 40
0.047266
  0
LWPOLYLINE
  5
97E
330
2
100
AcDbEntity
  8
800
  6
L5
 62
     2
100
AcDbPolyline
 90
        2
 70
     0
 43
0.0
 10
18.40383505518976
 20
6.429070666661107
 10
18.32866305518976
 20
6.432856666661106
  0
LWPOLYLINE
  5
97F
330
2
100
AcDbEntity
  8
800
  6
L5
 62
     2
100
AcDbPolyline
 90
        2
 70
     0
 43
0.0
 10
18.32866305518976
 20
6.432856666661106
 10
18.49493805518976
 20
6.315185666661107
  0
LWPOLYLINE
  5
980
330
2
100
AcDbEntity
  8
800
  6
L5
 62
     2
100
AcDbPolyline
 90
        2
 70
     0
 43
0.0
 10
18.69013405518976
 20
6.449941666661107
 42
0.4142140000000001
 10
18.82278705518976
 20
6.449941666661107
  0
LWPOLYLINE
  5
981
330
2
100
AcDbEntity
  8
800
  6
L5
 62
     2
100
AcDbPolyline
 90
        2
 70
     0
 43
0.0
 10
18.62387805518976
 20
6.516198666661106
 10
18.45273305518976
 20
6.345053666661106
  0
LWPOLYLINE
  5
982
330
2
100
AcDbEntity
  8
800
  6
L5
 62
     2
100
AcDbPolyline
 90
        2
 70
     0
 43
0.0
 10
19.28048705518976
 20
7.086497666661106
 10
18.98130205518976
 20
6.787313666661106
  0
CIRCLE
  5
983
330
2
100
AcDbEntity
  8
800
  6
L0
 62
     1
100
AcDbCircle
 10
18.88117305518976
 20
7.091140666661107
 30
0.0
 40
0.023501
  0
CIRCLE
  5
984
330
2
100
AcDbEntity
  8
800
  6
L0
 62
     1
100
AcDbCircle
 10
19.17933205518976
 20
7.105523666661106
 30
0.0
 40
0.023502
  0
LWPOLYLINE
  5
985
330
2
100
AcDbEntity
  8
800
  6
L5
 62
     2
100
AcDbPolyline
 90
        2
 70
     0
 43
0.0
 10
19.03303005518976
 20
7.365212666661108
 10
18.70258805518976
 20
7.034770666661106
  0
LWPOLYLINE
  5
986
330
2
100
AcDbEntity
  8
800
  6
L5
 62
     2
100
AcDbPolyline
 90
        2
 70
     0
 43
0.0
 10
19.28048605518976
 20
7.086496666661107
 42
0.363971
 10
19.29430805518976
 20
7.244474666661107
  0
LWPOLYLINE
  5
987
330
2
100
AcDbEntity
  8
800
  6
L5
 62
     2
100
AcDbPolyline
 90
        2
 70
     0
 43
0.0
 10
18.44381705518976
 20
6.866467666661108
 10
19.20133305518976
 20
7.623982666661106
  0
LWPOLYLINE
  5
988
330
2
100
AcDbEntity
  8
800
  6
L5
 62
     2
100
AcDbPolyline
 90
        2
 70
     0
 43
0.0
 10
18.38084505518976
 20
6.891884666661107
 10
19.17591605518976
 20
7.686954666661106
  0
LWPOLYLINE
  5
989
330
2
100
AcDbEntity
  8
800
  6
L5
 62
     2
100
AcDbPolyline
 90
        2
 70
     0
 43
0.0
 10
18.82278705518976
 20
6.449942666661106
 10
19.61785805518976
 20
7.245013666661106
  0
LWPOLYLINE
  5
98A
330
2
100
AcDbEntity
  8
800
  6
L5
 62
     2
100
AcDbPolyline
 90
        2
 70
     0
 43
0.0
 10
18.79737005518976
 20
6.512913666661106
 10
19.55488705518976
 20
7.270430666661106
  0
LWPOLYLINE
  5
98B
330
2
100
AcDbEntity
  8
800
  6
L0
 62
     1
100
AcDbPolyline
 90
        2
 70
     0
 43
0.0
 10
17.66095805518976
 20
7.783881666661107
 10
17.66095805518976
 20
7.758425666661107
  0
LWPOLYLINE
  5
98C
330
2
100
AcDbEntity
  8
800
  6
L0
 62
     1
100
AcDbPolyline
 90
        2
 70
     0
 43
0.0
 10
17.62913805518976
 20
7.790245666661107
 10
17.58459005518976
 20
7.745697666661106
  0
LWPOLYLINE
  5
98D
330
2
100
AcDbEntity
  8
800
  6
L0
 62
     1
100
AcDbPolyline
 90
        2
 70
     0
 43
0.0
 10
17.61004605518976
 20
7.809337666661107
 10
17.56549805518976
 20
7.764789666661108
  0
LWPOLYLINE
  5
98E
330
2
100
AcDbEntity
  8
800
  6
L0
 62
     1
100
AcDbPolyline
 90
        2
 70
     0
 43
0.0
 10
17.59095405518976
 20
7.828429666661108
 10
17.54640605518976
 20
7.783881666661107
  0
LWPOLYLINE
  5
98F
330
2
100
AcDbEntity
  8
800
  6
L0
 62
     1
100
AcDbPolyline
 90
        2
 70
     0
 43
0.0
 10
17.66095805518976
 20
7.783881666661107
 10
17.58529705518976
 20
7.859542666661107
  0
LWPOLYLINE
  5
990
330
2
100
AcDbEntity
  8
800
  6
L5
 62
     2
100
AcDbPolyline
 90
        2
 70
     0
 43
0.0
 10
17.80696705518976
 20
7.755942666661107
 10
17.64433305518976
 20
7.918577666661107
  0
LWPOLYLINE
  5
991
330
2
100
AcDbEntity
  8
800
  6
L0
 62
     1
100
AcDbPolyline
 90
        2
 70
     0
 43
0.0
 10
17.59095405518976
 20
7.713877666661106
 10
17.61641005518976
 20
7.713877666661106
  0
LWPOLYLINE
  5
992
330
2
100
AcDbEntity
  8
800
  6
L0
 62
     1
100
AcDbPolyline
 90
        2
 70
     0
 43
0.0
 10
17.66095805518976
 20
7.783881666661107
 10
17.59095405518976
 20
7.713877666661106
  0
LWPOLYLINE
  5
993
330
2
100
AcDbEntity
  8
800
  6
L0
 62
     1
100
AcDbPolyline
 90
        2
 70
     0
 43
0.0
 10
17.66095805518976
 20
7.758425666661107
 10
17.61641005518976
 20
7.713877666661106
  0
LWPOLYLINE
  5
994
330
2
100
AcDbEntity
  8
800
  6
L0
 62
     1
100
AcDbPolyline
 90
        2
 70
     0
 43
0.0
 10
17.59095405518976
 20
7.713877666661106
 10
17.51529405518976
 20
7.789537666661107
  0
LWPOLYLINE
  5
995
330
2
100
AcDbEntity
  8
800
  6
L5
 62
     2
100
AcDbPolyline
 90
        2
 70
     0
 43
0.0
 10
18.22692805518976
 20
6.531553666661106
 10
18.40383505518976
 20
6.429070666661107
  0
LWPOLYLINE
  5
997
330
2
100
AcDbEntity
  8
800
  6
L5
 62
     2
100
AcDbPolyline
 90
        2
 70
     0
 43
0.0
 10
16.29798805518976
 20
9.253539666661106
 10
14.98081605518976
 20
9.253539666661106
  0
LWPOLYLINE
  5
998
330
2
100
AcDbEntity
  8
800
  6
L5
 62
     2
100
AcDbPolyline
 90
        2
 70
     0
 43
0.0
 10
16.29798805518976
 20
8.867497666661105
 10
14.98081605518976
 20
8.867497666661105
  0
LWPOLYLINE
  5
999
330
2
100
AcDbEntity
  8
800
  6
L5
 62
     2
100
AcDbPolyline
 90
        2
 70
     0
 43
0.0
 10
14.79626105518976
 20
8.867497666661105
 10
10.09715005518976
 20
8.867497666661105
  0
LWPOLYLINE
  5
99A
330
2
100
AcDbEntity
  8
800
  6
L5
 62
     2
100
AcDbPolyline
 90
        2
 70
     0
 43
0.0
 10
14.79626127960914
 20
9.253539666661106
 10
10.09715005518976
 20
9.253539666661106
  0
LWPOLYLINE
  5
99E
330
2
100
AcDbEntity
  8
800
  6
L5
 62
     2
100
AcDbPolyline
 90
        2
 70
     0
 43
0.0
 10
10.07920705518976
 20
9.066610666661105
 42
0.165109
 10
10.09715005518976
 20
9.060519666661106
  0
LWPOLYLINE
  5
99F
330
2
100
AcDbEntity
  8
800
  6
L5
 62
     2
100
AcDbPolyline
 90
        2
 70
     0
 43
0.0
 10
10.06031405518976
 20
9.088786666661105
 42
0.105717
 10
10.07920605518976
 20
9.066610666661105
  0
LWPOLYLINE
  5
9A0
330
2
100
AcDbEntity
  8
800
  6
L5
 62
     2
100
AcDbPolyline
 90
        2
 70
     0
 43
0.0
 10
10.07920605518976
 20
9.247448666661105
 42
0.105717
 10
10.06031405518976
 20
9.225272666661105
  0
LWPOLYLINE
  5
9A1
330
2
100
AcDbEntity
  8
800
  6
L5
 62
     2
100
AcDbPolyline
 90
        2
 70
     0
 43
0.0
 10
10.09715005518976
 20
9.253539666661106
 42
0.165109
 10
10.07920705518976
 20
9.247448666661105
  0
LWPOLYLINE
  5
9A2
330
2
100
AcDbEntity
  8
800
  6
L5
 62
     2
100
AcDbPolyline
 90
        2
 70
     0
 43
0.0
 10
10.07920605518976
 20
9.054427666661105
 42
0.105717
 10
10.06031405518976
 20
9.032251666661105
  0
LWPOLYLINE
  5
9A3
330
2
100
AcDbEntity
  8
800
  6
L5
 62
     2
100
AcDbPolyline
 90
        2
 70
     0
 43
0.0
 10
10.09715005518976
 20
9.060519666661106
 42
0.165109
 10
10.07920705518976
 20
9.054427666661105
  0
LWPOLYLINE
  5
9A4
330
2
100
AcDbEntity
  8
800
  6
L5
 62
     2
100
AcDbPolyline
 90
        2
 70
     0
 43
0.0
 10
10.11509305518976
 20
9.054427666661105
 42
0.165109
 10
10.09715005518976
 20
9.060519666661106
  0
LWPOLYLINE
  5
9A5
330
2
100
AcDbEntity
  8
800
  6
L5
 62
     2
100
AcDbPolyline
 90
        2
 70
     0
 43
0.0
 10
10.13398505518976
 20
9.032251666661105
 42
0.105717
 10
10.11509305518976
 20
9.054427666661105
  0
LWPOLYLINE
  5
9A6
330
2
100
AcDbEntity
  8
800
  6
L5
 62
     2
100
AcDbPolyline
 90
        2
 70
     0
 43
0.0
 10
10.14494805518976
 20
9.002899666661106
 42
0.068857
 10
10.13398505518976
 20
9.032251666661105
  0
LWPOLYLINE
  5
9A7
330
2
100
AcDbEntity
  8
800
  6
L5
 62
     2
100
AcDbPolyline
 90
        2
 70
     0
 43
0.0
 10
10.04505605518976
 20
9.157030666661105
 42
0.055046
 10
10.04935005518976
 20
9.118139666661106
  0
LWPOLYLINE
  5
9A8
330
2
100
AcDbEntity
  8
800
  6
L5
 62
     2
100
AcDbPolyline
 90
        2
 70
     0
 43
0.0
 10
10.04935105518976
 20
9.195921666661105
 42
0.055046
 10
10.04505605518976
 20
9.157030666661105
  0
LWPOLYLINE
  5
9A9
330
2
100
AcDbEntity
  8
800
  6
L5
 62
     2
100
AcDbPolyline
 90
        2
 70
     0
 43
0.0
 10
9.930539055189765
 20
9.247448666661105
 42
0.165112
 10
9.912595055189765
 20
9.253539666661106
  0
LWPOLYLINE
  5
9AA
330
2
100
AcDbEntity
  8
800
  6
L5
 62
     2
100
AcDbPolyline
 90
        2
 70
     0
 43
0.0
 10
9.949430055189765
 20
9.225272666661105
 42
0.105717
 10
9.930538055189765
 20
9.247448666661105
  0
LWPOLYLINE
  5
9AB
330
2
100
AcDbEntity
  8
800
  6
L5
 62
     2
100
AcDbPolyline
 90
        2
 70
     0
 43
0.0
 10
9.960394055189764
 20
9.195920666661105
 42
0.068857
 10
9.949431055189764
 20
9.225272666661105
  0
LWPOLYLINE
  5
9AC
330
2
100
AcDbEntity
  8
800
  6
L5
 62
     2
100
AcDbPolyline
 90
        2
 70
     0
 43
0.0
 10
9.964689055189763
 20
9.157029666661106
 42
0.055046
 10
9.960395055189765
 20
9.195920666661105
  0
LWPOLYLINE
  5
9AD
330
2
100
AcDbEntity
  8
800
  6
L5
 62
     2
100
AcDbPolyline
 90
        2
 70
     0
 43
0.0
 10
9.960394055189764
 20
9.118138666661105
 42
0.055046
 10
9.964689055189763
 20
9.157029666661106
  0
LWPOLYLINE
  5
9AE
330
2
100
AcDbEntity
  8
800
  6
L5
 62
     2
100
AcDbPolyline
 90
        2
 70
     0
 43
0.0
 10
9.949431055189764
 20
9.088785666661106
 42
0.068857
 10
9.960394055189764
 20
9.118137666661105
  0
LWPOLYLINE
  5
9AF
330
2
100
AcDbEntity
  8
800
  6
L5
 62
     2
100
AcDbPolyline
 90
        2
 70
     0
 43
0.0
 10
9.930538055189765
 20
9.066610666661105
 42
0.105716
 10
9.949430055189765
 20
9.088786666661105
  0
LWPOLYLINE
  5
9B0
330
2
100
AcDbEntity
  8
800
  6
L5
 62
     2
100
AcDbPolyline
 90
        2
 70
     0
 43
0.0
 10
9.912595055189765
 20
9.060519666661106
 42
0.165109
 10
9.930538055189765
 20
9.066610666661105
  0
LWPOLYLINE
  5
9B1
330
2
100
AcDbEntity
  8
800
  6
L5
 62
     2
100
AcDbPolyline
 90
        2
 70
     0
 43
0.0
 10
9.894652055189764
 20
9.066610666661105
 42
0.165109
 10
9.912595055189765
 20
9.060519666661106
  0
LWPOLYLINE
  5
9B2
330
2
100
AcDbEntity
  8
800
  6
L5
 62
     2
100
AcDbPolyline
 90
        2
 70
     0
 43
0.0
 10
9.875759055189766
 20
9.088786666661105
 42
0.105717
 10
9.894651055189765
 20
9.066610666661105
  0
LWPOLYLINE
  5
9B3
330
2
100
AcDbEntity
  8
800
  6
L5
 62
     2
100
AcDbPolyline
 90
        2
 70
     0
 43
0.0
 10
9.864796055189765
 20
9.118138666661105
 42
0.068857
 10
9.875759055189766
 20
9.088786666661105
  0
LWPOLYLINE
  5
9B4
330
2
100
AcDbEntity
  8
800
  6
L5
 62
     2
100
AcDbPolyline
 90
        2
 70
     0
 43
0.0
 10
9.860501055189764
 20
9.157030666661105
 42
0.055046
 10
9.864795055189766
 20
9.118139666661106
  0
LWPOLYLINE
  5
9B5
330
2
100
AcDbEntity
  8
800
  6
L5
 62
     2
100
AcDbPolyline
 90
        2
 70
     0
 43
0.0
 10
9.864796055189765
 20
9.195921666661105
 42
0.055046
 10
9.860501055189764
 20
9.157030666661105
  0
LWPOLYLINE
  5
9B6
330
2
100
AcDbEntity
  8
800
  6
L5
 62
     2
100
AcDbPolyline
 90
        2
 70
     0
 43
0.0
 10
9.875759055189766
 20
9.225273666661106
 42
0.068857
 10
9.864796055189765
 20
9.195920666661105
  0
LWPOLYLINE
  5
9B7
330
2
100
AcDbEntity
  8
800
  6
L5
 62
     2
100
AcDbPolyline
 90
        2
 70
     0
 43
0.0
 10
9.894651055189765
 20
9.247448666661105
 42
0.105717
 10
9.875759055189766
 20
9.225272666661105
  0
LWPOLYLINE
  5
9B8
330
2
100
AcDbEntity
  8
800
  6
L5
 62
     2
100
AcDbPolyline
 90
        2
 70
     0
 43
0.0
 10
9.912595055189765
 20
9.253539666661106
 42
0.165109
 10
9.894652055189764
 20
9.247448666661105
  0
LWPOLYLINE
  5
9B9
330
2
100
AcDbEntity
  8
800
  6
L5
 62
     2
100
AcDbPolyline
 90
        2
 70
     0
 43
0.0
 10
9.930539055189765
 20
9.054427666661105
 42
0.165112
 10
9.912595055189765
 20
9.060519666661106
  0
LWPOLYLINE
  5
9BA
330
2
100
AcDbEntity
  8
800
  6
L5
 62
     2
100
AcDbPolyline
 90
        2
 70
     0
 43
0.0
 10
9.949430055189765
 20
9.032251666661105
 42
0.105715
 10
9.930538055189765
 20
9.054427666661105
  0
LWPOLYLINE
  5
9BB
330
2
100
AcDbEntity
  8
800
  6
L5
 62
     2
100
AcDbPolyline
 90
        2
 70
     0
 43
0.0
 10
9.960394055189764
 20
9.002899666661106
 42
0.068857
 10
9.949431055189764
 20
9.032251666661105
  0
LWPOLYLINE
  5
9BC
330
2
100
AcDbEntity
  8
800
  6
L5
 62
     2
100
AcDbPolyline
 90
        2
 70
     0
 43
0.0
 10
10.04935105518976
 20
9.118138666661105
 42
0.068857
 10
10.06031405518976
 20
9.088786666661105
  0
LWPOLYLINE
  5
9BD
330
2
100
AcDbEntity
  8
800
  6
L5
 62
     2
100
AcDbPolyline
 90
        2
 70
     0
 43
0.0
 10
10.06031405518976
 20
9.225273666661106
 42
0.068857
 10
10.04935105518976
 20
9.195920666661105
  0
LWPOLYLINE
  5
9BE
330
2
100
AcDbEntity
  8
800
  6
L5
 62
     2
100
AcDbPolyline
 90
        2
 70
     0
 43
0.0
 10
10.06031405518976
 20
9.032252666661104
 42
0.068857
 10
10.04935105518976
 20
9.002900666661107
  0
LWPOLYLINE
  5
9BF
330
2
100
AcDbEntity
  8
800
  6
L5
 62
     2
100
AcDbPolyline
 90
        2
 70
     0
 43
0.0
 10
10.07920705518976
 20
8.873590666661106
 42
0.165109
 10
10.09715005518976
 20
8.867498666661106
  0
LWPOLYLINE
  5
9C0
330
2
100
AcDbEntity
  8
800
  6
L5
 62
     2
100
AcDbPolyline
 90
        2
 70
     0
 43
0.0
 10
10.06031405518976
 20
8.895765666661105
 42
0.105717
 10
10.07920605518976
 20
8.873589666661105
  0
LWPOLYLINE
  5
9C1
330
2
100
AcDbEntity
  8
800
  6
L5
 62
     2
100
AcDbPolyline
 90
        2
 70
     0
 43
0.0
 10
10.14494805518976
 20
8.925117666661106
 42
0.055046
 10
10.14924305518976
 20
8.964008666661104
  0
LWPOLYLINE
  5
9C2
330
2
100
AcDbEntity
  8
800
  6
L5
 62
     2
100
AcDbPolyline
 90
        2
 70
     0
 43
0.0
 10
10.13398505518976
 20
8.895765666661105
 42
0.068857
 10
10.14494805518976
 20
8.925117666661106
  0
LWPOLYLINE
  5
9C3
330
2
100
AcDbEntity
  8
800
  6
L5
 62
     2
100
AcDbPolyline
 90
        2
 70
     0
 43
0.0
 10
10.11509305518976
 20
8.873589666661105
 42
0.105717
 10
10.13398505518976
 20
8.895765666661105
  0
LWPOLYLINE
  5
9C4
330
2
100
AcDbEntity
  8
800
  6
L5
 62
     2
100
AcDbPolyline
 90
        2
 70
     0
 43
0.0
 10
10.09715005518976
 20
8.867498666661106
 42
0.165109
 10
10.11509305518976
 20
8.873590666661106
  0
LWPOLYLINE
  5
9C5
330
2
100
AcDbEntity
  8
800
  6
L5
 62
     2
100
AcDbPolyline
 90
        2
 70
     0
 43
0.0
 10
10.04505605518976
 20
8.964009666661105
 42
0.055046
 10
10.04935005518976
 20
8.925118666661106
  0
LWPOLYLINE
  5
9C6
330
2
100
AcDbEntity
  8
800
  6
L5
 62
     2
100
AcDbPolyline
 90
        2
 70
     0
 43
0.0
 10
9.960395055189765
 20
8.925118666661106
 42
0.055046
 10
9.964689055189763
 20
8.964009666661105
  0
LWPOLYLINE
  5
9C7
330
2
100
AcDbEntity
  8
800
  6
L5
 62
     2
100
AcDbPolyline
 90
        2
 70
     0
 43
0.0
 10
9.949431055189764
 20
8.895765666661105
 42
0.068857
 10
9.960394055189764
 20
8.925117666661106
  0
LWPOLYLINE
  5
9C8
330
2
100
AcDbEntity
  8
800
  6
L5
 62
     2
100
AcDbPolyline
 90
        2
 70
     0
 43
0.0
 10
9.930538055189765
 20
8.873589666661105
 42
0.105717
 10
9.949430055189765
 20
8.895765666661105
  0
LWPOLYLINE
  5
9C9
330
2
100
AcDbEntity
  8
800
  6
L5
 62
     2
100
AcDbPolyline
 90
        2
 70
     0
 43
0.0
 10
9.912595055189765
 20
8.867498666661106
 42
0.165109
 10
9.930538055189765
 20
8.873590666661106
  0
LWPOLYLINE
  5
9CA
330
2
100
AcDbEntity
  8
800
  6
L5
 62
     2
100
AcDbPolyline
 90
        2
 70
     0
 43
0.0
 10
10.04935105518976
 20
8.925118666661106
 42
0.068857
 10
10.06031405518976
 20
8.895766666661105
  0
LWPOLYLINE
  5
9CB
330
2
100
AcDbEntity
  8
800
  6
L5
 62
     2
100
AcDbPolyline
 90
        2
 70
     0
 43
0.0
 10
10.04935105518976
 20
9.002900666661107
 42
0.055046
 10
10.04505605518976
 20
8.964009666661105
  0
LWPOLYLINE
  5
9CC
330
2
100
AcDbEntity
  8
800
  6
L5
 62
     2
100
AcDbPolyline
 90
        2
 70
     0
 43
0.0
 10
10.14924305518976
 20
8.964009666661105
 42
0.055046
 10
10.14494905518976
 20
9.002900666661107
  0
LWPOLYLINE
  5
9CD
330
2
100
AcDbEntity
  8
800
  6
L5
 62
     2
100
AcDbPolyline
 90
        2
 70
     0
 43
0.0
 10
9.964689055189763
 20
8.964009666661105
 42
0.055046
 10
9.960395055189765
 20
9.002900666661107
  0
LWPOLYLINE
  5
A10
330
2
100
AcDbEntity
  8
800
  6
L5
 62
     2
100
AcDbPolyline
 90
        2
 70
     0
 43
0.0
 10
9.912595055189765
 20
8.867497666661105
 10
8.150813055189765
 20
8.867497666661105
  0
LWPOLYLINE
  5
A11
330
2
100
AcDbEntity
  8
800
  6
L5
 62
     2
100
AcDbPolyline
 90
        2
 70
     0
 43
0.0
 10
9.912595055189765
 20
9.253539666661106
 10
8.150813055189765
 20
9.253539666661106
  0
LWPOLYLINE
  5
A15
330
2
100
AcDbEntity
  8
800
  6
L5
 62
     2
100
AcDbPolyline
 90
        2
 70
     0
 43
0.0
 10
14.96287305518976
 20
9.066610666661105
 42
0.165109
 10
14.98081605518976
 20
9.060519666661106
  0
LWPOLYLINE
  5
A16
330
2
100
AcDbEntity
  8
800
  6
L5
 62
     2
100
AcDbPolyline
 90
        2
 70
     0
 43
0.0
 10
14.94398005518976
 20
9.088786666661105
 42
0.105717
 10
14.96287205518976
 20
9.066610666661105
  0
LWPOLYLINE
  5
A17
330
2
100
AcDbEntity
  8
800
  6
L5
 62
     2
100
AcDbPolyline
 90
        2
 70
     0
 43
0.0
 10
14.93301705518976
 20
9.118138666661105
 42
0.068857
 10
14.94398005518976
 20
9.088786666661105
  0
LWPOLYLINE
  5
A18
330
2
100
AcDbEntity
  8
800
  6
L5
 62
     2
100
AcDbPolyline
 90
        2
 70
     0
 43
0.0
 10
14.92872205518976
 20
9.157030666661105
 42
0.055046
 10
14.93301605518976
 20
9.118139666661106
  0
LWPOLYLINE
  5
A19
330
2
100
AcDbEntity
  8
800
  6
L5
 62
     2
100
AcDbPolyline
 90
        2
 70
     0
 43
0.0
 10
14.93301705518976
 20
9.195921666661105
 42
0.055046
 10
14.92872205518976
 20
9.157030666661105
  0
LWPOLYLINE
  5
A1A
330
2
100
AcDbEntity
  8
800
  6
L5
 62
     2
100
AcDbPolyline
 90
        2
 70
     0
 43
0.0
 10
14.94398005518976
 20
9.225273666661106
 42
0.068857
 10
14.93301705518976
 20
9.195920666661105
  0
LWPOLYLINE
  5
A1B
330
2
100
AcDbEntity
  8
800
  6
L5
 62
     2
100
AcDbPolyline
 90
        2
 70
     0
 43
0.0
 10
14.96287205518976
 20
9.247448666661105
 42
0.105717
 10
14.94398005518976
 20
9.225272666661105
  0
LWPOLYLINE
  5
A1C
330
2
100
AcDbEntity
  8
800
  6
L5
 62
     2
100
AcDbPolyline
 90
        2
 70
     0
 43
0.0
 10
14.98081605518976
 20
9.253539666661106
 42
0.165109
 10
14.96287305518976
 20
9.247448666661105
  0
LWPOLYLINE
  5
A1D
330
2
100
AcDbEntity
  8
800
  6
L5
 62
     2
100
AcDbPolyline
 90
        2
 70
     0
 43
0.0
 10
14.94398005518976
 20
9.032252666661104
 42
0.068857
 10
14.93301705518976
 20
9.002900666661107
  0
LWPOLYLINE
  5
A1E
330
2
100
AcDbEntity
  8
800
  6
L5
 62
     2
100
AcDbPolyline
 90
        2
 70
     0
 43
0.0
 10
14.96287205518976
 20
9.054427666661105
 42
0.105717
 10
14.94398005518976
 20
9.032251666661105
  0
LWPOLYLINE
  5
A1F
330
2
100
AcDbEntity
  8
800
  6
L5
 62
     2
100
AcDbPolyline
 90
        2
 70
     0
 43
0.0
 10
14.98081605518976
 20
9.060519666661106
 42
0.165109
 10
14.96287305518976
 20
9.054427666661105
  0
LWPOLYLINE
  5
A20
330
2
100
AcDbEntity
  8
800
  6
L5
 62
     2
100
AcDbPolyline
 90
        2
 70
     0
 43
0.0
 10
14.99875905518976
 20
9.054427666661105
 42
0.165109
 10
14.98081605518976
 20
9.060519666661106
  0
LWPOLYLINE
  5
A21
330
2
100
AcDbEntity
  8
800
  6
L5
 62
     2
100
AcDbPolyline
 90
        2
 70
     0
 43
0.0
 10
15.01765105518976
 20
9.032251666661105
 42
0.105717
 10
14.99875905518976
 20
9.054427666661105
  0
LWPOLYLINE
  5
A22
330
2
100
AcDbEntity
  8
800
  6
L5
 62
     2
100
AcDbPolyline
 90
        2
 70
     0
 43
0.0
 10
15.02861505518976
 20
9.002899666661106
 42
0.068857
 10
15.01765205518976
 20
9.032251666661105
  0
LWPOLYLINE
  5
A23
330
2
100
AcDbEntity
  8
800
  6
L5
 62
     2
100
AcDbPolyline
 90
        2
 70
     0
 43
0.0
 10
14.81420405518976
 20
9.247448666661105
 42
0.165109
 10
14.79626105518976
 20
9.253539666661106
  0
LWPOLYLINE
  5
A24
330
2
100
AcDbEntity
  8
800
  6
L5
 62
     2
100
AcDbPolyline
 90
        2
 70
     0
 43
0.0
 10
14.83309705518976
 20
9.225272666661105
 42
0.105717
 10
14.81420505518976
 20
9.247448666661105
  0
LWPOLYLINE
  5
A25
330
2
100
AcDbEntity
  8
800
  6
L5
 62
     2
100
AcDbPolyline
 90
        2
 70
     0
 43
0.0
 10
14.84406005518976
 20
9.195920666661105
 42
0.068857
 10
14.83309705518976
 20
9.225272666661105
  0
LWPOLYLINE
  5
A26
330
2
100
AcDbEntity
  8
800
  6
L5
 62
     2
100
AcDbPolyline
 90
        2
 70
     0
 43
0.0
 10
14.84835505518976
 20
9.157029666661106
 42
0.055046
 10
14.84406105518976
 20
9.195920666661105
  0
LWPOLYLINE
  5
A27
330
2
100
AcDbEntity
  8
800
  6
L5
 62
     2
100
AcDbPolyline
 90
        2
 70
     0
 43
0.0
 10
14.84406005518976
 20
9.118138666661105
 42
0.055046
 10
14.84835505518976
 20
9.157029666661106
  0
LWPOLYLINE
  5
A28
330
2
100
AcDbEntity
  8
800
  6
L5
 62
     2
100
AcDbPolyline
 90
        2
 70
     0
 43
0.0
 10
14.83309705518976
 20
9.088785666661106
 42
0.068857
 10
14.84406005518976
 20
9.118137666661105
  0
LWPOLYLINE
  5
A29
330
2
100
AcDbEntity
  8
800
  6
L5
 62
     2
100
AcDbPolyline
 90
        2
 70
     0
 43
0.0
 10
14.81420505518976
 20
9.066610666661105
 42
0.105716
 10
14.83309705518976
 20
9.088786666661105
  0
LWPOLYLINE
  5
A2A
330
2
100
AcDbEntity
  8
800
  6
L5
 62
     2
100
AcDbPolyline
 90
        2
 70
     0
 43
0.0
 10
14.79626105518976
 20
9.060519666661106
 42
0.165109
 10
14.81420405518976
 20
9.066610666661105
  0
LWPOLYLINE
  5
A2B
330
2
100
AcDbEntity
  8
800
  6
L5
 62
     2
100
AcDbPolyline
 90
        2
 70
     0
 43
0.0
 10
14.77831805518976
 20
9.066610666661105
 42
0.165109
 10
14.79626105518976
 20
9.060519666661106
  0
LWPOLYLINE
  5
A2C
330
2
100
AcDbEntity
  8
800
  6
L5
 62
     2
100
AcDbPolyline
 90
        2
 70
     0
 43
0.0
 10
14.75942605518976
 20
9.088786666661105
 42
0.105717
 10
14.77831805518976
 20
9.066610666661105
  0
LWPOLYLINE
  5
A2D
330
2
100
AcDbEntity
  8
800
  6
L5
 62
     2
100
AcDbPolyline
 90
        2
 70
     0
 43
0.0
 10
14.74846305518976
 20
9.118138666661105
 42
0.068857
 10
14.75942605518976
 20
9.088786666661105
  0
LWPOLYLINE
  5
A2E
330
2
100
AcDbEntity
  8
800
  6
L5
 62
     2
100
AcDbPolyline
 90
        2
 70
     0
 43
0.0
 10
14.74416705518976
 20
9.157030666661105
 42
0.055046
 10
14.74846105518976
 20
9.118139666661106
  0
LWPOLYLINE
  5
A2F
330
2
100
AcDbEntity
  8
800
  6
L5
 62
     2
100
AcDbPolyline
 90
        2
 70
     0
 43
0.0
 10
14.74846205518976
 20
9.195921666661105
 42
0.055046
 10
14.74416705518976
 20
9.157030666661105
  0
LWPOLYLINE
  5
A30
330
2
100
AcDbEntity
  8
800
  6
L5
 62
     2
100
AcDbPolyline
 90
        2
 70
     0
 43
0.0
 10
14.75942605518976
 20
9.225273666661106
 42
0.068857
 10
14.74846305518976
 20
9.195920666661105
  0
LWPOLYLINE
  5
A31
330
2
100
AcDbEntity
  8
800
  6
L5
 62
     2
100
AcDbPolyline
 90
        2
 70
     0
 43
0.0
 10
14.77831805518976
 20
9.247448666661105
 42
0.105717
 10
14.75942605518976
 20
9.225272666661105
  0
LWPOLYLINE
  5
A32
330
2
100
AcDbEntity
  8
800
  6
L5
 62
     2
100
AcDbPolyline
 90
        2
 70
     0
 43
0.0
 10
14.79626105518976
 20
9.253539666661106
 42
0.165109
 10
14.77831805518976
 20
9.247448666661105
  0
LWPOLYLINE
  5
A33
330
2
100
AcDbEntity
  8
800
  6
L5
 62
     2
100
AcDbPolyline
 90
        2
 70
     0
 43
0.0
 10
14.81420405518976
 20
9.054427666661105
 42
0.165109
 10
14.79626105518976
 20
9.060519666661106
  0
LWPOLYLINE
  5
A34
330
2
100
AcDbEntity
  8
800
  6
L5
 62
     2
100
AcDbPolyline
 90
        2
 70
     0
 43
0.0
 10
14.83309705518976
 20
9.032251666661105
 42
0.105715
 10
14.81420505518976
 20
9.054427666661105
  0
LWPOLYLINE
  5
A35
330
2
100
AcDbEntity
  8
800
  6
L5
 62
     2
100
AcDbPolyline
 90
        2
 70
     0
 43
0.0
 10
14.84406005518976
 20
9.002899666661106
 42
0.068857
 10
14.83309705518976
 20
9.032251666661105
  0
LWPOLYLINE
  5
A36
330
2
100
AcDbEntity
  8
800
  6
L5
 62
     2
100
AcDbPolyline
 90
        2
 70
     0
 43
0.0
 10
14.96287305518976
 20
8.873590666661106
 42
0.165109
 10
14.98081605518976
 20
8.867498666661106
  0
LWPOLYLINE
  5
A37
330
2
100
AcDbEntity
  8
800
  6
L5
 62
     2
100
AcDbPolyline
 90
        2
 70
     0
 43
0.0
 10
14.94398005518976
 20
8.895765666661105
 42
0.105717
 10
14.96287205518976
 20
8.873589666661105
  0
LWPOLYLINE
  5
A38
330
2
100
AcDbEntity
  8
800
  6
L5
 62
     2
100
AcDbPolyline
 90
        2
 70
     0
 43
0.0
 10
14.93301705518976
 20
8.925118666661106
 42
0.068857
 10
14.94398005518976
 20
8.895766666661105
  0
LWPOLYLINE
  5
A39
330
2
100
AcDbEntity
  8
800
  6
L5
 62
     2
100
AcDbPolyline
 90
        2
 70
     0
 43
0.0
 10
14.92872205518976
 20
8.964009666661105
 42
0.055046
 10
14.93301605518976
 20
8.925118666661106
  0
LWPOLYLINE
  5
A3A
330
2
100
AcDbEntity
  8
800
  6
L5
 62
     2
100
AcDbPolyline
 90
        2
 70
     0
 43
0.0
 10
15.02861505518976
 20
8.925117666661106
 42
0.055046
 10
15.03291005518976
 20
8.964008666661104
  0
LWPOLYLINE
  5
A3B
330
2
100
AcDbEntity
  8
800
  6
L5
 62
     2
100
AcDbPolyline
 90
        2
 70
     0
 43
0.0
 10
15.01765205518976
 20
8.895765666661105
 42
0.068857
 10
15.02861505518976
 20
8.925117666661106
  0
LWPOLYLINE
  5
A3C
330
2
100
AcDbEntity
  8
800
  6
L5
 62
     2
100
AcDbPolyline
 90
        2
 70
     0
 43
0.0
 10
14.99875905518976
 20
8.873589666661105
 42
0.105717
 10
15.01765105518976
 20
8.895765666661105
  0
LWPOLYLINE
  5
A3D
330
2
100
AcDbEntity
  8
800
  6
L5
 62
     2
100
AcDbPolyline
 90
        2
 70
     0
 43
0.0
 10
14.98081605518976
 20
8.867498666661106
 42
0.165109
 10
14.99875905518976
 20
8.873590666661106
  0
LWPOLYLINE
  5
A3E
330
2
100
AcDbEntity
  8
800
  6
L5
 62
     2
100
AcDbPolyline
 90
        2
 70
     0
 43
0.0
 10
14.84406105518976
 20
8.925118666661106
 42
0.055046
 10
14.84835505518976
 20
8.964009666661105
  0
LWPOLYLINE
  5
A3F
330
2
100
AcDbEntity
  8
800
  6
L5
 62
     2
100
AcDbPolyline
 90
        2
 70
     0
 43
0.0
 10
14.83309705518976
 20
8.895765666661105
 42
0.068857
 10
14.84406005518976
 20
8.925117666661106
  0
LWPOLYLINE
  5
A40
330
2
100
AcDbEntity
  8
800
  6
L5
 62
     2
100
AcDbPolyline
 90
        2
 70
     0
 43
0.0
 10
14.81420505518976
 20
8.873589666661105
 42
0.105717
 10
14.83309705518976
 20
8.895765666661105
  0
LWPOLYLINE
  5
A41
330
2
100
AcDbEntity
  8
800
  6
L5
 62
     2
100
AcDbPolyline
 90
        2
 70
     0
 43
0.0
 10
14.79626105518976
 20
8.867498666661106
 42
0.165109
 10
14.81420405518976
 20
8.873590666661106
  0
LWPOLYLINE
  5
A42
330
2
100
AcDbEntity
  8
800
  6
L5
 62
     2
100
AcDbPolyline
 90
        2
 70
     0
 43
0.0
 10
14.93301705518976
 20
9.002900666661107
 42
0.055046
 10
14.92872205518976
 20
8.964009666661105
  0
LWPOLYLINE
  5
A43
330
2
100
AcDbEntity
  8
800
  6
L5
 62
     2
100
AcDbPolyline
 90
        2
 70
     0
 43
0.0
 10
15.03291005518976
 20
8.964009666661105
 42
0.055046
 10
15.02861605518976
 20
9.002900666661107
  0
LWPOLYLINE
  5
A44
330
2
100
AcDbEntity
  8
800
  6
L5
 62
     2
100
AcDbPolyline
 90
        2
 70
     0
 43
0.0
 10
14.84835505518976
 20
8.964009666661105
 42
0.055046
 10
14.84406105518976
 20
9.002900666661107
  0
LWPOLYLINE
  5
A80
330
2
100
AcDbEntity
  8
800
  6
L0
 62
     1
100
AcDbPolyline
 90
        2
 70
     0
 43
0.0
 10
18.35392205518976
 20
8.476845666661107
 10
18.27826205518976
 20
8.552506666661107
  0
LWPOLYLINE
  5
A81
330
2
100
AcDbEntity
  8
800
  6
L0
 62
     1
100
AcDbPolyline
 90
        2
 70
     0
 43
0.0
 10
18.30937505518976
 20
8.406841666661106
 10
18.35392205518976
 20
8.451389666661107
  0
LWPOLYLINE
  5
A82
330
2
100
AcDbEntity
  8
800
  6
L0
 62
     1
100
AcDbPolyline
 90
        2
 70
     0
 43
0.0
 10
18.28391905518976
 20
8.406841666661106
 10
18.30937505518976
 20
8.406841666661106
  0
LWPOLYLINE
  5
A83
330
2
100
AcDbEntity
  8
800
  6
L0
 62
     1
100
AcDbPolyline
 90
        2
 70
     0
 43
0.0
 10
18.28391905518976
 20
8.406841666661106
 10
18.35392205518976
 20
8.476845666661107
  0
LWPOLYLINE
  5
A84
330
2
100
AcDbEntity
  8
800
  6
L0
 62
     1
100
AcDbPolyline
 90
        2
 70
     0
 43
0.0
 10
18.35392205518976
 20
8.476845666661107
 10
18.35392205518976
 20
8.451389666661107
  0
LWPOLYLINE
  5
A85
330
2
100
AcDbEntity
  8
800
  6
L0
 62
     1
100
AcDbPolyline
 90
        2
 70
     0
 43
0.0
 10
18.27755505518976
 20
8.438662666661107
 10
18.32210205518976
 20
8.483210666661106
  0
LWPOLYLINE
  5
A86
330
2
100
AcDbEntity
  8
800
  6
L0
 62
     1
100
AcDbPolyline
 90
        2
 70
     0
 43
0.0
 10
18.25846305518976
 20
8.457754666661106
 10
18.30301105518976
 20
8.502301666661107
  0
LWPOLYLINE
  5
A8D
330
2
100
AcDbEntity
  8
800
  6
L5
 62
     2
100
AcDbPolyline
 90
        2
 70
     0
 43
0.0
 10
17.88758505518976
 20
9.107938666661107
 42
0.4142140000000001
 10
17.84374405518976
 20
9.107938666661107
  0
LWPOLYLINE
  5
A8F
330
2
100
AcDbEntity
  8
800
  6
L0
 62
     1
100
AcDbPolyline
 90
        2
 70
     0
 43
0.0
 10
17.94721005518976
 20
8.442071666661107
 42
0.414212
 10
17.94721005518976
 20
8.530459666661107
  0
LWPOLYLINE
  5
A90
330
2
100
AcDbEntity
  8
800
  6
L5
 62
     2
100
AcDbPolyline
 90
        2
 70
     0
 43
0.0
 10
18.05198805518976
 20
8.546848666661107
 10
18.25033105518976
 20
8.745193666661107
  0
LWPOLYLINE
  5
A93
330
2
100
AcDbEntity
  8
800
  6
L0
 62
     1
100
AcDbPolyline
 90
        2
 70
     0
 43
0.0
 10
17.39843205518976
 20
9.079234666661109
 42
0.414212
 10
17.31004405518976
 20
9.079235666661109
  0
LWPOLYLINE
  5
A94
330
2
100
AcDbEntity
  8
800
  6
L5
 62
     2
100
AcDbPolyline
 90
        2
 70
     0
 43
0.0
 10
18.09618205518976
 20
8.591044666661106
 10
17.83101700807238
 20
8.856208156146459
  0
LWPOLYLINE
  5
A95
330
2
100
AcDbEntity
  8
800
  6
L0
 62
     1
100
AcDbPolyline
 90
        2
 70
     0
 43
0.0
 10
17.39821007515222
 20
9.079455541096789
 10
17.94720905518976
 20
8.530459666661107
  0
LWPOLYLINE
  5
A96
330
2
100
AcDbEntity
  8
800
  6
L5
 62
     2
100
AcDbPolyline
 90
        2
 70
     0
 43
0.0
 10
17.84374405518976
 20
9.107938666661107
 10
17.69173525768183
 20
8.955929869153171
  0
LWPOLYLINE
  5
A98
330
2
100
AcDbEntity
  8
800
  6
L5
 62
     2
100
AcDbPolyline
 90
        2
 70
     0
 43
0.0
 10
17.02853805518976
 20
9.404088666661106
 10
16.80892405518976
 20
9.404088666661106
  0
LWPOLYLINE
  5
A99
330
2
100
AcDbEntity
  8
800
  6
L5
 62
     2
100
AcDbPolyline
 90
        2
 70
     0
 43
0.0
 10
17.02853805518976
 20
9.404088666661106
 10
16.29798805518976
 20
9.404088666661106
  0
LWPOLYLINE
  5
A9B
330
2
100
AcDbEntity
  8
800
  6
L5
 62
     2
100
AcDbPolyline
 90
        2
 70
     0
 43
0.0
 10
17.11692605518976
 20
9.367476666661106
 42
0.198912
 10
17.02853805518976
 20
9.404088666661106
  0
LWPOLYLINE
  5
AA9
330
2
100
AcDbEntity
  8
800
  6
L5
 62
     2
100
AcDbPolyline
 90
        2
 70
     0
 43
0.0
 10
16.7519885124525
 20
8.696387338112458
 10
16.29798805518976
 20
8.696387338112458
  0
LWPOLYLINE
  5
AD7
330
2
100
AcDbEntity
  8
800
  6
L5
 62
     2
100
AcDbPolyline
 90
        2
 70
     0
 43
0.0
 10
16.29798805518976
 20
8.696387338112458
 10
16.29798805518976
 20
9.404088666661106
  0
LWPOLYLINE
  5
ADE
330
2
100
AcDbEntity
  8
800
  6
L0
 62
     1
100
AcDbPolyline
 90
        2
 70
     0
 43
0.0
 10
18.28391905518976
 20
8.406841666661106
 10
18.20825805518976
 20
8.482503666661107
  0
LWPOLYLINE
  5
ADF
330
2
100
AcDbEntity
  8
800
  6
L0
 62
     1
100
AcDbPolyline
 90
        2
 70
     0
 43
0.0
 10
18.22138905518976
 20
8.495632666661107
 10
18.26593605518976
 20
8.540180666661106
  0
LWPOLYLINE
  5
AE0
330
2
100
AcDbEntity
  8
800
  6
L0
 62
     1
100
AcDbPolyline
 90
        2
 70
     0
 43
0.0
 10
18.23937105518976
 20
8.476845666661107
 10
18.28391905518976
 20
8.521393666661106
  0
LWPOLYLINE
  5
AE1
330
2
100
AcDbEntity
  8
800
  6
L5
 62
     2
100
AcDbPolyline
 90
        2
 70
     0
 43
0.0
 10
18.36064005518976
 20
8.634883666661107
 10
17.88758505518976
 20
9.107938666661107
  0
LWPOLYLINE
  5
AE2
330
2
100
AcDbEntity
  8
800
  6
L0
 62
     1
100
AcDbPolyline
 90
        2
 70
     0
 43
0.0
 10
18.12305205518976
 20
8.182335666661106
 10
18.06789805518976
 20
8.237489666661106
  0
LWPOLYLINE
  5
AE3
330
2
100
AcDbEntity
  8
800
  6
L0
 62
     1
100
AcDbPolyline
 90
        2
 70
     0
 43
0.0
 10
18.02688505518976
 20
8.086168666661107
 10
17.97173005518976
 20
8.141324666661107
  0
LWPOLYLINE
  5
AE4
330
2
100
AcDbEntity
  8
800
  6
L0
 62
     1
100
AcDbPolyline
 90
        2
 70
     0
 43
0.0
 10
17.97173005518976
 20
8.141324666661107
 10
17.92647605518976
 20
8.096068666661107
  0
LWPOLYLINE
  5
AE5
330
2
100
AcDbEntity
  8
800
  6
L0
 62
     1
100
AcDbPolyline
 90
        2
 70
     0
 43
0.0
 10
18.06789805518976
 20
8.237489666661106
 10
18.02264305518976
 20
8.192235666661106
  0
LWPOLYLINE
  5
AE6
330
2
100
AcDbEntity
  8
800
  6
L0
 62
     1
100
AcDbPolyline
 90
        2
 70
     0
 43
0.0
 10
18.07779705518976
 20
8.137080666661105
 10
18.02264305518976
 20
8.192235666661106
  0
LWPOLYLINE
  5
AE7
330
2
100
AcDbEntity
  8
800
  6
L0
 62
     1
100
AcDbPolyline
 90
        2
 70
     0
 43
0.0
 10
17.93071905518976
 20
7.990003666661106
 10
17.87556505518976
 20
8.045157666661108
  0
LWPOLYLINE
  5
AE8
330
2
100
AcDbEntity
  8
800
  6
L0
 62
     1
100
AcDbPolyline
 90
        2
 70
     0
 43
0.0
 10
17.98163105518976
 20
8.040914666661107
 10
17.92647605518976
 20
8.096068666661107
  0
LWPOLYLINE
  5
AE9
330
2
100
AcDbEntity
  8
800
  6
L0
 62
     1
100
AcDbPolyline
 90
        2
 70
     0
 43
0.0
 10
17.53734105518976
 20
8.120590666661106
 42
0.414212
 10
17.62572905518976
 20
8.120590666661106
  0
LWPOLYLINE
  5
AEA
330
2
100
AcDbEntity
  8
800
  6
L0
 62
     1
100
AcDbPolyline
 90
        2
 70
     0
 43
0.0
 10
17.87556505518976
 20
8.045157666661108
 10
17.83031005518976
 20
7.999901666661106
  0
LWPOLYLINE
  5
AEB
330
2
100
AcDbEntity
  8
800
  6
L0
 62
     1
100
AcDbPolyline
 90
        2
 70
     0
 43
0.0
 10
16.98856405518976
 20
8.757756666661109
 42
0.414212
 10
16.98856405518976
 20
8.669368666661108
  0
LWPOLYLINE
  5
AEC
330
2
100
AcDbEntity
  8
800
  6
L5
 62
     2
100
AcDbPolyline
 90
        2
 70
     0
 43
0.0
 10
16.95986205518976
 20
8.224055666661106
 42
0.4142140000000001
 10
16.95986205518976
 20
8.180214666661107
  0
LWPOLYLINE
  5
AED
330
2
100
AcDbEntity
  8
800
  6
L5
 62
     2
100
AcDbPolyline
 90
        2
 70
     0
 43
0.0
 10
17.47675605518976
 20
7.971617666661106
 10
16.7519885124525
 20
8.696387338112458
  0
LWPOLYLINE
  5
AEE
330
2
100
AcDbEntity
  8
800
  6
L0
 62
     1
100
AcDbPolyline
 90
        2
 70
     0
 43
0.0
 10
16.98826014478693
 20
8.669674683129267
 10
17.53734105518976
 20
8.120590666661106
  0
LWPOLYLINE
  5
B00
330
2
100
AcDbEntity
  8
800
  6
L5
 62
     2
100
AcDbPolyline
 90
        2
 70
     0
 43
0.0
 10
16.95986105518976
 20
8.224054666661107
 10
17.09209033711509
 20
8.35628451453711
  0
LWPOLYLINE
  5
B01
330
2
100
AcDbEntity
  8
800
  6
L0
 62
     1
100
AcDbPolyline
 90
        2
 70
     0
 43
0.0
 10
17.62572905518976
 20
8.120590666661106
 10
17.94720905518976
 20
8.442071666661107
  0
LWPOLYLINE
  5
B02
330
2
100
AcDbEntity
  8
800
  6
L5
 62
     2
100
AcDbPolyline
 90
        2
 70
     0
 43
0.0
 10
18.31185605518976
 20
8.260832666661107
 10
18.14922305518976
 20
8.423466666661106
  0
MTEXT
  5
CC9
330
2
100
AcDbEntity
  8
0
100
AcDbMText
 10
20.45025407846924
 20
9.07284587082435
 30
0.0
 40
0.125
 41
0.0
 71
     3
 72
     1
  1
LABEL CONNECTOR\PAS SHOWN 
 73
     1
 44
1.0
  0
TEXT
  5
CE7
330
2
100
AcDbEntity
  8
0
100
AcDbText
 10
17.7826376937998
 20
8.501886141953926
 30
0.0
 40
0.125
  1
DSA
 50
225.0
 72
     1
 11
17.70750759829873
 21
8.338367698804537
 31
0.0
100
AcDbText
 73
     2
  0
TEXT
  5
CE8
330
2
100
AcDbEntity
  8
0
100
AcDbText
 10
17.72239964272797
 20
8.685923884901297
 30
0.0
 40
0.125
  1
 J2
 50
225.0
 72
     1
 11
17.60307537340274
 21
8.478211267927749
 31
0.0
100
AcDbText
 73
     2
  0
MTEXT
  5
CF2
330
2
100
AcDbEntity
  8
0
100
AcDbMText
 10
3.915263052369617
 20
5.520908981179447
 30
0.0
 40
0.125
 41
5.652499999999999
 71
     1
 72
     5
  3
SPECIFICATIONS:\P\P1. LABEL CABLE AND CONNECTORS AS SHOWN.\P\P2. INSPECT FOR SHORTS. CONNECTIVITY MUST CONFORM TO WIRING DIAGRAM.\P\P3. PACKAGE PER MD.1000.5034 PACKAGING SPECIFICATION.\P\P4. WIRING DIAGRAM SHOWING PIN ORIENTATION AND COLOR CODE MUST
  1
 BE INCLUDED IN BOX.\P\P5. CHANGES TO THESE SPECIFICATIONS MUST BE APPROVED, IN WRITING, BY THE GIDDINGS & LEWIS CMS ENGINEERING DEPARTMENT.
 73
     1
 44
1.0
  0
TEXT
  5
D63
330
2
100
AcDbEntity
  8
0
100
AcDbText
 10
6.815813055189765
 20
8.949922570672574
 30
0.0
 40
0.1
  1
MM/DD/YY
 72
     4
 11
7.200813055189764
 21
8.999922570672575
 31
0.0
100
AcDbText
  0
TEXT
  5
D64
330
2
100
AcDbEntity
  8
0
100
AcDbText
 10
6.669313055189764
 20
9.107673486963657
 30
0.0
 40
0.1
  1
M.xxxx.xxxx
 72
     4
 11
7.200813055189764
 21
9.157673486963657
 31
0.0
100
AcDbText
  0
LINE
  5
D65
330
2
100
AcDbEntity
  8
0
 62
     2
100
AcDbLine
 10
6.250813055189766
 20
8.831279764119793
 30
0.0
 11
6.250813055189766
 21
9.284118816536894
 31
0.0
  0
LINE
  5
D66
330
2
100
AcDbEntity
  8
0
 62
     2
100
AcDbLine
 10
8.150813055189765
 20
8.831279764119793
 30
0.0
 11
8.150813055189765
 21
9.284118816536894
 31
0.0
  0
LINE
  5
D67
330
2
100
AcDbEntity
  8
0
100
AcDbLine
 10
6.250813055189766
 20
9.284118816536896
 30
0.0
 11
8.150813055189765
 21
9.284118816536896
 31
0.0
  0
LINE
  5
D68
330
2
100
AcDbEntity
  8
0
100
AcDbLine
 10
8.150813055189765
 20
8.831279764119789
 30
0.0
 11
6.250813055189766
 21
8.831279764119793
 31
0.0
  0
LINE
  5
D6C
330
2
100
AcDbEntity
  8
0
100
AcDbLine
 10
6.250813055189767
 20
9.253539666661106
 30
0.0
 11
5.828000000000001
 21
9.253539666661106
 31
0.0
  0
LINE
  5
D6D
330
2
100
AcDbEntity
  8
0
100
AcDbLine
 10
6.250813055189767
 20
8.867497666661106
 30
0.0
 11
5.828000000000001
 21
8.867497666661105
 31
0.0
  0
LWPOLYLINE
  5
3FC2
330
2
100
AcDbEntity
  8
800
  6
L5
 62
     2
100
AcDbPolyline
 90
        2
 70
     0
 43
0.0
 10
16.29798805518976
 20
8.867497666661105
 10
14.98081605518976
 20
8.867497666661105
  0
LINE
  5
416D
330
2
100
AcDbEntity
  8
0
 62
     2
100
AcDbLine
 10
17.11692605518976
 20
9.367476666661106
 30
0.0
 11
17.83101700807238
 21
8.856208156146459
 31
0.0
  0
LINE
  5
416E
330
2
100
AcDbEntity
  8
0
 62
     1
100
AcDbLine
 10
16.98856405518976
 20
8.757756666661109
 30
0.0
 11
17.31004405518976
 21
9.079235666661109
 31
0.0
  0
TEXT
  5
419E
330
2
100
AcDbEntity
  8
0
100
AcDbText
 10
16.306
 20
3.1
 30
0.0
 40
0.2
  1
MATERIAL M.1302.3047
100
AcDbText
  0
LINE
  5
42A3
330
2
100
AcDbEntity
  8
1
 62
     2
100
AcDbLine
 10
4.555766187015334
 20
9.314222132158965
 30
0.0
 11
4.157766187015338
 21
9.384400270480929
 31
0.0
  0
LINE
  5
42A4
330
2
100
AcDbEntity
  8
1
 62
     2
100
AcDbLine
 10
4.555766187015334
 20
8.807953409978741
 30
0.0
 11
4.157766187015338
 21
8.737775271656774
 31
0.0
  0
LINE
  5
42A5
330
2
100
AcDbEntity
  8
1
 62
     2
100
AcDbLine
 10
4.71176618701534
 20
8.677053867515086
 30
0.0
 11
4.444233812984647
 21
8.629880691760485
 31
0.0
  0
LINE
  5
42A8
330
2
100
AcDbEntity
  8
1
 62
     2
100
AcDbLine
 10
4.71176618701534
 20
9.445121674622621
 30
0.0
 11
4.444233812984647
 21
9.492294850377218
 31
0.0
  0
LINE
  5
42D4
330
2
100
AcDbEntity
  8
1
 62
     2
100
AcDbLine
 10
3.429
 20
8.779087771068853
 30
0.0
 11
3.429
 21
9.343087771068853
 31
0.0
  0
LINE
  5
42D5
330
2
100
AcDbEntity
  8
1
 62
     2
100
AcDbLine
 10
3.929
 20
8.779087771068853
 30
0.0
 11
3.929
 21
9.34308777106885
 31
0.0
  0
LINE
  5
42D6
330
2
100
AcDbEntity
  8
1
 62
     2
100
AcDbLine
 10
4.084999999999991
 20
8.79883335234353
 30
0.0
 11
4.084999999999991
 21
9.323342189794173
 31
0.0
  0
LINE
  5
42D7
330
2
100
AcDbEntity
  8
1
 62
     7
100
AcDbLine
 10
4.142999999999998
 20
8.736962519150432
 30
0.0
 11
4.142999999999998
 21
9.385213022987136
 31
0.0
  0
LINE
  5
42D8
330
2
100
AcDbEntity
  8
1
 62
     7
100
AcDbLine
 10
4.200999999999991
 20
8.74539855936487
 30
0.0
 11
4.200999999999991
 21
9.376776982772833
 31
0.0
  0
LINE
  5
42D9
330
2
100
AcDbEntity
  8
1
 62
     7
100
AcDbLine
 10
4.258999999999984
 20
8.755625524245962
 30
0.0
 11
4.258999999999984
 21
9.366550017891741
 31
0.0
  0
LINE
  5
42DA
330
2
100
AcDbEntity
  8
1
 62
     7
100
AcDbLine
 10
4.316999999999991
 20
8.765852489127054
 30
0.0
 11
4.316999999999991
 21
9.356323053010653
 31
0.0
  0
LINE
  5
42DB
330
2
100
AcDbEntity
  8
1
 62
     7
100
AcDbLine
 10
4.374999999999998
 20
8.776079454008145
 30
0.0
 11
4.374999999999998
 21
9.346096088129561
 31
0.0
  0
LINE
  5
42DC
330
2
100
AcDbEntity
  8
1
 62
     7
100
AcDbLine
 10
4.490999999999983
 20
8.796533383770325
 30
0.0
 11
4.490999999999983
 21
9.325642158367378
 31
0.0
  0
LINE
  5
42DD
330
2
100
AcDbEntity
  8
1
 62
     7
100
AcDbLine
 10
4.461999999999987
 20
8.79141990132978
 30
0.0
 11
4.461999999999987
 21
9.330755640807923
 31
0.0
  0
LINE
  5
42DE
330
2
100
AcDbEntity
  8
1
 62
     7
100
AcDbLine
 10
4.346000000000001
 20
8.7709659715676
 30
0.0
 11
4.346000000000001
 21
9.351209570570103
 31
0.0
  0
LINE
  5
42DF
330
2
100
AcDbEntity
  8
1
 62
     7
100
AcDbLine
 10
4.287999999999994
 20
8.760739006686508
 30
0.0
 11
4.28799999999998
 21
9.361436535451195
 31
0.0
  0
LINE
  5
42E0
330
2
100
AcDbEntity
  8
1
 62
     7
100
AcDbLine
 10
4.229999999999987
 20
8.750512041805416
 30
0.0
 11
4.229999999999987
 21
9.371663500332287
 31
0.0
  0
LINE
  5
42E1
330
2
100
AcDbEntity
  8
1
 62
     7
100
AcDbLine
 10
4.171999999999995
 20
8.740285076924324
 30
0.0
 11
4.171999999999995
 21
9.381890465213379
 31
0.0
  0
LINE
  5
42E2
330
2
100
AcDbEntity
  8
1
 62
     7
100
AcDbLine
 10
4.114000000000002
 20
8.746345258455411
 30
0.0
 11
4.114000000000002
 21
9.375830283682136
 31
0.0
  0
LINE
  5
42E3
330
2
100
AcDbEntity
  8
1
 62
     7
100
AcDbLine
 10
4.403999999999994
 20
8.890752565017235
 30
0.0
 11
4.403999999999994
 21
9.231422977120471
 31
0.0
  0
LINE
  5
42E4
330
2
100
AcDbEntity
  8
1
 62
     7
100
AcDbLine
 10
4.43299999999999
 20
8.884773209633506
 30
0.0
 11
4.43299999999999
 21
9.237402332504201
 31
0.0
  0
LINE
  5
42E5
330
2
100
AcDbEntity
  8
1
 62
     2
100
AcDbLine
 10
3.043000000000004
 20
8.741999999999999
 30
0.0
 11
3.043000000000004
 21
9.486
 31
0.0
  0
LINE
  5
42E9
330
2
100
AcDbEntity
  8
1
 62
     2
100
AcDbLine
 10
3.272999999999994
 20
8.392288299417186
 30
0.0
 11
3.272999999999993
 21
9.768450720976131
 31
0.0
  0
LINE
  5
42F6
330
2
100
AcDbEntity
  8
1
 62
     2
100
AcDbLine
 10
3.429
 20
8.392288299417186
 30
0.0
 11
3.429
 21
8.465087771068853
 31
0.0
  0
LINE
  5
42F8
330
2
100
AcDbEntity
  8
1
 62
     2
100
AcDbLine
 10
3.866999999999988
 20
8.717087771068852
 30
0.0
 11
3.490999999999983
 21
8.717087771068852
 31
0.0
  0
LINE
  5
42F9
330
2
100
AcDbEntity
  8
1
 62
     2
100
AcDbLine
 10
4.392999999999998
 20
8.465087771068853
 30
0.0
 11
3.429
 21
8.465087771068853
 31
0.0
  0
ARC
  5
42FD
330
2
100
AcDbEntity
  8
1
 62
     2
100
AcDbCircle
 10
3.490999999999983
 20
8.779087771068853
 30
0.0
 40
0.062
100
AcDbArc
 50
180.0
 51
270.0
  0
LINE
  5
42FE
330
2
100
AcDbEntity
  8
1
 62
     2
100
AcDbLine
 10
4.392999999999999
 20
8.465087771068851
 30
0.0
 11
4.392999999999998
 21
8.568822611073729
 31
0.0
  0
ARC
  5
4300
330
2
100
AcDbEntity
  8
1
 62
     2
100
AcDbCircle
 10
4.454999999999996
 20
8.568822611073729
 30
0.0
 40
0.062
100
AcDbArc
 50
99.99999999999976
 51
179.9999999999998
  0
ARC
  5
4302
330
2
100
AcDbEntity
  8
1
 62
     2
100
AcDbCircle
 10
4.146999999999989
 20
8.79883335234353
 30
0.0
 40
0.062
100
AcDbArc
 50
180.0000000000002
 51
280.0000000000001
  0
ARC
  5
4303
330
2
100
AcDbEntity
  8
1
 62
     2
100
AcDbCircle
 10
3.866999999999988
 20
8.779087771068853
 30
0.0
 40
0.062
100
AcDbArc
 50
270.0
 51
0.0
  0
CIRCLE
  5
4304
330
2
100
AcDbEntity
  8
1
 62
     7
100
AcDbCircle
 10
4.41299999999998
 20
8.86108777106885
 30
0.0
 40
0.031
  0
LINE
  5
4305
330
2
100
AcDbEntity
  8
1
 62
     7
100
AcDbLine
 10
4.43299999999999
 20
8.786306418889237
 30
0.0
 11
4.43299999999999
 21
8.837402332504199
 31
0.0
  0
LINE
  5
4306
330
2
100
AcDbEntity
  8
1
 62
     7
100
AcDbLine
 10
4.403999999999994
 20
8.781192936448688
 30
0.0
 11
4.403999999999994
 21
8.831422977120469
 31
0.0
  0
LINE
  5
4310
330
2
100
AcDbEntity
  8
1
 62
     2
100
AcDbLine
 10
3.866999999999988
 20
9.405087771068851
 30
0.0
 11
3.490999999999983
 21
9.405087771068854
 31
0.0
  0
LINE
  5
4311
330
2
100
AcDbEntity
  8
1
 62
     2
100
AcDbLine
 10
4.392999999999998
 20
9.657087771068853
 30
0.0
 11
3.429
 21
9.65708777106885
 31
0.0
  0
ARC
  5
4313
330
2
100
AcDbEntity
  8
1
 62
     2
100
AcDbCircle
 10
3.490999999999983
 20
9.343087771068853
 30
0.0
 40
0.062
100
AcDbArc
 50
90.0
 51
180.0000000000002
  0
LINE
  5
4314
330
2
100
AcDbEntity
  8
1
 62
     2
100
AcDbLine
 10
3.429
 20
9.657087771068853
 30
0.0
 11
3.429
 21
9.768450720976133
 31
0.0
  0
LINE
  5
4318
330
2
100
AcDbEntity
  8
1
 62
     2
100
AcDbLine
 10
4.392999999999998
 20
9.553352931063974
 30
0.0
 11
4.392999999999999
 21
9.657087771068852
 31
0.0
  0
ARC
  5
4319
330
2
100
AcDbEntity
  8
1
 62
     2
100
AcDbCircle
 10
4.146999999999989
 20
9.323342189794173
 30
0.0
 40
0.062
100
AcDbArc
 50
80.00000000000023
 51
180.0
  0
ARC
  5
431A
330
2
100
AcDbEntity
  8
1
 62
     2
100
AcDbCircle
 10
3.866999999999988
 20
9.34308777106885
 30
0.0
 40
0.062
100
AcDbArc
 50
0.0
 51
90.0
  0
LINE
  5
431B
330
2
100
AcDbEntity
  8
1
 62
     7
100
AcDbLine
 10
4.43299999999999
 20
9.284773209633508
 30
0.0
 11
4.43299999999999
 21
9.335869123248469
 31
0.0
  0
LINE
  5
431C
330
2
100
AcDbEntity
  8
1
 62
     7
100
AcDbLine
 10
4.403999999999994
 20
9.290752565017237
 30
0.0
 11
4.403999999999994
 21
9.340982605689015
 31
0.0
  0
CIRCLE
  5
431D
330
2
100
AcDbEntity
  8
1
 62
     7
100
AcDbCircle
 10
4.41299999999998
 20
9.261087771068853
 30
0.0
 40
0.031
  0
ARC
  5
431E
330
2
100
AcDbEntity
  8
1
 62
     2
100
AcDbCircle
 10
4.454999999999996
 20
9.553352931063974
 30
0.0
 40
0.062
100
AcDbArc
 50
180.0000000000002
 51
260.0000000000002
  0
LINE
  5
4323
330
2
100
AcDbEntity
  8
1
 62
     2
100
AcDbLine
 10
5.828000000000001
 20
9.301087771068848
 30
0.0
 11
5.828000000000001
 21
8.821087771068851
 31
0.0
  0
LINE
  5
432A
330
2
100
AcDbEntity
  8
1
 62
     2
100
AcDbLine
 10
4.763000000000003
 20
8.738111948201845
 30
0.0
 11
4.762999999999989
 21
9.384063593935861
 31
0.0
  0
LINE
  5
432B
330
2
100
AcDbEntity
  8
1
 62
     2
100
AcDbLine
 10
4.888000000000003
 20
8.749087771068852
 30
0.0
 11
4.888000000000003
 21
9.373087771068854
 31
0.0
  0
LINE
  5
432C
330
2
100
AcDbEntity
  8
1
 62
     2
100
AcDbLine
 10
4.606999999999997
 20
8.869011490665497
 30
0.0
 11
4.606999999999997
 21
9.253164051472205
 31
0.0
  0
LINE
  5
432D
330
2
100
AcDbEntity
  8
1
 62
     7
100
AcDbLine
 10
4.578000000000001
 20
8.816523396777457
 30
0.0
 11
4.578000000000001
 21
9.305652145360246
 31
0.0
  0
LINE
  5
432E
330
2
100
AcDbEntity
  8
1
 62
     7
100
AcDbLine
 10
4.54899999999999
 20
8.806760348651417
 30
0.0
 11
4.54899999999999
 21
9.315415193486286
 31
0.0
  0
LINE
  5
432F
330
2
100
AcDbEntity
  8
1
 62
     7
100
AcDbLine
 10
4.519999999999994
 20
8.801646866210871
 30
0.0
 11
4.51999999999998
 21
9.320528675926832
 31
0.0
  0
ARC
  5
4337
330
2
100
AcDbEntity
  8
1
 62
     2
100
AcDbCircle
 10
4.700999999999991
 20
8.738111948201845
 30
0.0
 40
0.062
100
AcDbArc
 50
280.0000000000001
 51
0.0000000000002036
  0
LINE
  5
4346
330
2
100
AcDbEntity
  8
1
 62
     2
100
AcDbLine
 10
4.888000000000003
 20
8.749087771068852
 30
0.0
 11
4.763000000000003
 21
8.749087771068852
 31
0.0
  0
ARC
  5
4347
330
2
100
AcDbEntity
  8
1
 62
     2
100
AcDbCircle
 10
4.544999999999985
 20
8.869011490665497
 30
0.0
 40
0.062
100
AcDbArc
 50
280.0000000000001
 51
0.0000000000002036
  0
LINE
  5
435D
330
2
100
AcDbEntity
  8
1
 62
     2
100
AcDbLine
 10
5.828000000000001
 20
9.301087771068848
 30
0.0
 11
5.671999999999995
 21
9.309263384637004
 31
0.0
  0
LINE
  5
435F
330
2
100
AcDbEntity
  8
1
 62
     2
100
AcDbLine
 10
5.296500000000007
 20
9.328942505757785
 30
0.0
 11
4.888000000000003
 21
9.350351083594906
 31
0.0
  0
LINE
  5
4360
330
2
100
AcDbEntity
  8
1
 62
     2
100
AcDbLine
 10
4.888000000000003
 20
9.373087771068854
 30
0.0
 11
4.762999999999989
 21
9.373087771068851
 31
0.0
  0
ARC
  5
4361
330
2
100
AcDbEntity
  8
1
 62
     2
100
AcDbCircle
 10
4.700999999999991
 20
9.384063593935861
 30
0.0
 40
0.062
100
AcDbArc
 50
0.0000000000002036
 51
80.00000000000023
  0
ARC
  5
4362
330
2
100
AcDbEntity
  8
1
 62
     2
100
AcDbCircle
 10
4.544999999999985
 20
9.253164051472205
 30
0.0
 40
0.062
100
AcDbArc
 50
0.0000000000002036
 51
80.00000000000023
  0
LINE
  5
4387
330
2
100
AcDbEntity
  8
0
100
AcDbLine
 10
5.671999999999995
 20
9.309263384637004
 30
0.0
 11
5.296500000000007
 21
9.328942505757785
 31
0.0
  0
LWPOLYLINE
  5
4389
330
2
100
AcDbEntity
  8
800
  6
L5
 62
     2
100
AcDbPolyline
 90
        2
 70
     0
 43
0.0
 10
2.227193058611257
 20
8.590035216442649
 10
2.236937792183316
 20
9.661281710367184
  0
LWPOLYLINE
  5
438A
330
2
100
AcDbEntity
  8
800
  6
L5
 62
     2
100
AcDbPolyline
 90
        2
 70
     0
 43
0.0
 10
2.28944867886825
 20
8.562913113345418
 10
2.299676508825696
 20
9.687266786162101
  0
LWPOLYLINE
  5
438B
330
2
100
AcDbEntity
  8
800
  6
L5
 62
     2
100
AcDbPolyline
 90
        2
 70
     0
 43
0.0
 10
1.664474166061283
 20
8.568598275585085
 10
1.674702696664231
 20
9.692951234892216
  0
LWPOLYLINE
  5
438C
330
2
100
AcDbEntity
  8
800
  6
L5
 62
     2
100
AcDbPolyline
 90
        2
 70
     0
 43
0.0
 10
1.727213596213207
 20
8.594584052025506
 10
1.736959017566731
 20
9.665828418285435
  0
LWPOLYLINE
  5
438D
330
2
100
AcDbEntity
  8
800
  6
L5
 62
     2
100
AcDbPolyline
 90
        2
 70
     0
 43
0.0
 10
1.798981841474972
 20
8.931807600565212
 42
0.363971
 10
1.899806287890368
 20
8.80940446672858
  0
LWPOLYLINE
  5
438E
330
2
100
AcDbEntity
  8
800
  6
L5
 62
     2
100
AcDbPolyline
 90
        2
 70
     0
 43
0.0
 10
2.170825172931428
 20
8.90632000665434
 10
2.175075994036459
 20
9.373616230957443
  0
CIRCLE
  5
438F
330
2
100
AcDbEntity
  8
800
  6
L0
 62
     1
100
AcDbCircle
 10
2.085521491020565
 20
9.260080887254538
 30
0.0
 40
0.023502
  0
CIRCLE
  5
4390
330
2
100
AcDbEntity
  8
800
  6
L0
 62
     1
100
AcDbCircle
 10
1.88285958140005
 20
9.040914716600934
 30
0.0
 40
0.023501
  0
LWPOLYLINE
  5
4391
330
2
100
AcDbEntity
  8
800
  6
L5
 62
     2
100
AcDbPolyline
 90
        2
 70
     0
 43
0.0
 10
1.798981828610928
 20
8.93180618641016
 10
1.802831258874059
 20
9.354899452685634
  0
LWPOLYLINE
  5
4393
330
2
100
AcDbEntity
  8
800
  6
L5
 62
     2
100
AcDbPolyline
 90
        2
 70
     0
 43
0.0
 10
2.194800197184441
 20
8.469969671807298
 42
0.4142140000000001
 10
2.289449379513754
 20
8.562912399835868
  0
CIRCLE
  5
4396
330
2
100
AcDbEntity
  8
800
  6
L0
 62
     1
100
AcDbCircle
 10
1.977687693899656
 20
8.645517568457798
 30
0.0
 40
0.047266
  0
CIRCLE
  5
4397
330
2
100
AcDbEntity
  8
800
  6
L0
 62
     1
100
AcDbCircle
 10
1.977687693899656
 20
8.645517568457798
 30
0.0
 40
0.060266
  0
LWPOLYLINE
  5
4398
330
2
100
AcDbEntity
  8
800
  6
L5
 62
     2
100
AcDbPolyline
 90
        2
 70
     0
 43
0.0
 10
2.194799496538938
 20
8.469970385316846
 10
1.757417594735357
 20
8.473948379746225
  0
LWPOLYLINE
  5
4399
330
2
100
AcDbEntity
  8
800
  6
L5
 62
     2
100
AcDbPolyline
 90
        2
 70
     0
 43
0.0
 10
2.164127376510412
 20
8.528106561644118
 10
1.78914295165724
 20
8.531517656415111
  0
LWPOLYLINE
  5
439A
330
2
100
AcDbEntity
  8
800
  6
L5
 62
     2
100
AcDbPolyline
 90
        2
 70
     0
 43
0.0
 10
1.664474866706787
 20
8.568597562075535
 42
0.414216
 10
1.757417594735357
 20
8.473948379746225
  0
LWPOLYLINE
  5
439C
330
2
100
AcDbEntity
  8
800
  6
L5
 62
     2
100
AcDbPolyline
 90
        2
 70
     0
 43
0.0
 10
1.727212882703656
 20
8.59458335138
 42
0.414213
 10
1.789141537502186
 20
8.531517669279155
  0
LWPOLYLINE
  5
439D
330
2
100
AcDbEntity
  8
800
  6
L5
 62
     2
100
AcDbPolyline
 90
        2
 70
     0
 43
0.0
 10
1.905865735536892
 20
9.475446742944749
 42
0.3639699999999999
 10
1.802831258874059
 20
9.354899452685634
  0
LWPOLYLINE
  5
439E
330
2
100
AcDbEntity
  8
800
  6
L5
 62
     2
100
AcDbPolyline
 90
        2
 70
     0
 43
0.0
 10
2.164127376510412
 20
8.528106561644118
 42
0.4142140000000001
 10
2.227193759256759
 20
8.5900345029331
  0
CIRCLE
  5
439F
330
2
100
AcDbEntity
  8
800
  6
L0
 62
     1
100
AcDbCircle
 10
1.982993451770978
 20
8.872602107547013
 30
0.0
 40
0.023502
  0
LWPOLYLINE
  5
43A0
330
2
100
AcDbEntity
  8
800
  6
L5
 62
     2
100
AcDbPolyline
 90
        2
 70
     0
 43
0.0
 10
2.031413949865902
 20
9.496407628321984
 10
1.905865022027341
 20
9.475446042299244
  0
LWPOLYLINE
  5
43A1
330
2
100
AcDbEntity
  8
800
  6
L5
 62
     2
100
AcDbPolyline
 90
        2
 70
     0
 43
0.0
 10
2.17507670754601
 20
9.373616931602947
 42
0.4663050000000001
 10
2.031413962729946
 20
9.496409042477038
  0
CIRCLE
  5
43A2
330
2
100
AcDbEntity
  8
800
  6
L0
 62
     1
100
AcDbCircle
 10
1.881854449161893
 20
8.930419711468648
 30
0.0
 40
0.023502
  0
CIRCLE
  5
43A3
330
2
100
AcDbEntity
  8
800
  6
L0
 62
     1
100
AcDbCircle
 10
2.082505367932493
 20
8.928593757057122
 30
0.0
 40
0.023502
  0
CIRCLE
  5
43A4
330
2
100
AcDbEntity
  8
800
  6
L0
 62
     1
100
AcDbCircle
 10
1.984000011028236
 20
8.983098513970304
 30
0.0
 40
0.023501
  0
CIRCLE
  5
43A5
330
2
100
AcDbEntity
  8
800
  6
L0
 62
     1
100
AcDbCircle
 10
2.083511213680204
 20
9.039089462834915
 30
0.0
 40
0.023502
  0
CIRCLE
  5
43A6
330
2
100
AcDbEntity
  8
800
  6
L0
 62
     1
100
AcDbCircle
 10
1.985004429756846
 20
9.093592818457086
 30
0.0
 40
0.023502
  0
CIRCLE
  5
43A7
330
2
100
AcDbEntity
  8
800
  6
L0
 62
     1
100
AcDbCircle
 10
2.084515645272856
 20
9.149585181476748
 30
0.0
 40
0.023502
  0
LWPOLYLINE
  5
43A8
330
2
100
AcDbEntity
  8
800
  6
L5
 62
     2
100
AcDbPolyline
 90
        2
 70
     0
 43
0.0
 10
2.024952410731978
 20
8.786163107587737
 42
0.4663060000000001
 10
2.170825172931428
 20
8.90632000665434
  0
CIRCLE
  5
43A9
330
2
100
AcDbEntity
  8
800
  6
L0
 62
     1
100
AcDbCircle
 10
1.884869145230863
 20
9.261905440375052
 30
0.0
 40
0.023501
  0
CIRCLE
  5
43AA
330
2
100
AcDbEntity
  8
800
  6
L0
 62
     1
100
AcDbCircle
 10
1.986009574859048
 20
9.204089237744424
 30
0.0
 40
0.023501
  0
CIRCLE
  5
43AB
330
2
100
AcDbEntity
  8
800
  6
L0
 62
     1
100
AcDbCircle
 10
1.883864012992704
 20
9.15141043524277
 30
0.0
 40
0.023502
  0
LWPOLYLINE
  5
43AC
330
2
100
AcDbEntity
  8
800
  6
L5
 62
     2
100
AcDbPolyline
 90
        2
 70
     0
 43
0.0
 10
2.206733780797126
 20
9.781915968491412
 10
1.769352592503091
 20
9.78589466356629
  0
LWPOLYLINE
  5
43AD
330
2
100
AcDbEntity
  8
800
  6
L5
 62
     2
100
AcDbPolyline
 90
        2
 70
     0
 43
0.0
 10
2.175009137384786
 20
9.724347392468025
 10
1.800025413177121
 20
9.727757773729466
  0
CIRCLE
  5
43AE
330
2
100
AcDbEntity
  8
800
  6
L0
 62
     1
100
AcDbCircle
 10
1.98646439514237
 20
9.610347480425341
 30
0.0
 40
0.047266
  0
CIRCLE
  5
43AF
330
2
100
AcDbEntity
  8
800
  6
L0
 62
     1
100
AcDbCircle
 10
1.98646439514237
 20
9.610347480425341
 30
0.0
 40
0.060266
  0
LWPOLYLINE
  5
43B0
330
2
100
AcDbEntity
  8
800
  6
L5
 62
     2
100
AcDbPolyline
 90
        2
 70
     0
 43
0.0
 10
2.024953824887028
 20
8.786163094723692
 10
1.899806287890368
 20
8.80940446672858
  0
CIRCLE
  5
43B1
330
2
100
AcDbEntity
  8
800
  6
L0
 62
     1
100
AcDbCircle
 10
2.086525909749175
 20
9.37057519174132
 30
0.0
 40
0.023502
  0
CIRCLE
  5
43B2
330
2
100
AcDbEntity
  8
800
  6
L0
 62
     1
100
AcDbCircle
 10
1.885874990978572
 20
9.372401146152844
 30
0.0
 40
0.023502
  0
CIRCLE
  5
43B3
330
2
100
AcDbEntity
  8
800
  6
L0
 62
     1
100
AcDbCircle
 10
1.987014707097206
 20
9.314584242876708
 30
0.0
 40
0.023502
  0
LWPOLYLINE
  5
43B4
330
2
100
AcDbEntity
  8
800
  6
L5
 62
     2
100
AcDbPolyline
 90
        2
 70
     0
 43
0.0
 10
1.800023999022065
 20
9.727757786593512
 42
0.4142100000000001
 10
1.736958316921225
 20
9.665829131794986
  0
LWPOLYLINE
  5
43B5
330
2
100
AcDbEntity
  8
800
  6
L5
 62
     2
100
AcDbPolyline
 90
        2
 70
     0
 43
0.0
 10
1.76935187899354
 20
9.785893962920786
 42
0.414212
 10
1.674703410173781
 20
9.692951935537722
  0
LWPOLYLINE
  5
43B6
330
2
100
AcDbEntity
  8
800
  6
L5
 62
     2
100
AcDbPolyline
 90
        2
 70
     0
 43
0.0
 10
2.299676495961649
 20
9.687265372007049
 42
0.4142149999999999
 10
2.206733767933079
 20
9.78191455433636
  0
LWPOLYLINE
  5
43B7
330
2
100
AcDbEntity
  8
800
  6
L5
 62
     2
100
AcDbPolyline
 90
        2
 70
     0
 43
0.0
 10
2.236937779319272
 20
9.661280296212131
 42
0.414213
 10
2.175008423875238
 20
9.724346691822525
  0
LINE
  5
43B8
330
2
100
AcDbEntity
  8
0
100
AcDbLine
 10
3.037999999999999
 20
9.486
 30
0.0
 11
3.272999999999993
 21
9.486
 31
0.0
  0
LINE
  5
43B9
330
2
100
AcDbEntity
  8
0
100
AcDbLine
 10
3.037999999999999
 20
8.741999999999999
 30
0.0
 11
3.272999999999993
 21
8.741999999999997
 31
0.0
  0
LINE
  5
43BB
330
2
100
AcDbEntity
  8
0
100
AcDbLine
 10
3.272999999999994
 20
8.392288299417186
 30
0.0
 11
3.428999999999999
 21
8.392288299417186
 31
0.0
  0
LINE
  5
43BC
330
2
100
AcDbEntity
  8
0
100
AcDbLine
 10
3.27066843954099
 20
9.768450720976133
 30
0.0
 11
3.429630862028922
 21
9.768450720976133
 31
0.0
  0
LINE
  5
43C0
330
2
100
AcDbEntity
  8
0
100
AcDbLine
 10
5.828000000000001
 20
8.821087771068851
 30
0.0
 11
4.888000000000003
 21
8.818829199214913
 31
0.0
  0
ARC
  5
43C2
330
2
100
AcDbEntity
  8
0
100
AcDbCircle
 10
4.866859765069068
 20
8.543132602088453
 30
0.0
 40
0.2766471085354714
100
AcDbArc
 50
16.21800060645801
 51
85.41679116928627
  0
ARC
  5
43C3
330
2
100
AcDbEntity
  8
0
100
AcDbCircle
 10
4.884487507460681
 20
8.556123555123029
 30
0.0
 40
0.2291525243593674
100
AcDbArc
 50
16.28934676784763
 51
89.16086608319757
  0
ARC
  5
43C4
330
2
100
AcDbEntity
  8
0
100
AcDbCircle
 10
4.906029435058384
 20
8.582790310555761
 30
0.0
 40
0.1720245410039497
100
AcDbArc
 50
12.24543779498438
 51
96.06849148295596
  0
LINE
  5
43C7
330
2
100
AcDbEntity
  8
0
100
AcDbLine
 10
5.132497975162686
 20
8.620398144209737
 30
0.0
 11
6.240530827375422
 21
5.827999999999999
 31
0.0
  0
LINE
  5
43C8
330
2
100
AcDbEntity
  8
0
100
AcDbLine
 10
5.074140073381607
 20
8.619276691442031
 30
0.0
 11
6.156382800276714
 21
5.828
 31
0.0
  0
LINE
  5
43C9
330
2
100
AcDbEntity
  8
0
100
AcDbLine
 10
5.104441267642237
 20
8.620398144209737
 30
0.0
 11
6.193961160241573
 21
5.827999999999999
 31
0.0
  0
LINE
  5
43CA
330
2
100
AcDbEntity
  8
0
100
AcDbLine
 10
6.156382800276714
 20
5.828
 30
0.0
 11
6.240530827375422
 21
5.827999999999999
 31
0.0
  0
DIMENSION
  5
43CB
330
2
100
AcDbEntity
  8
0
100
AcDbDimension
  2
*D17
 10
18.36064005518976
 20
12.74909088841993
 30
0.0
 11
10.81565424736537
 21
12.86909088841993
 31
0.0
 70
    32
  1
18 INCHES
 71
     5
 42
15.08997161564877
  3
GEN-ANSI
100
AcDbAlignedDimension
 13
3.27066843954099
 23
9.768450720976133
 33
0.0
 14
18.36064005518976
 24
8.634883666661107
 34
0.0
100
AcDbRotatedDimension
  0
LEADER
  5
43E2
330
2
100
AcDbEntity
  8
0
100
AcDbLeader
  3
GEN-ANSI
 73
     0
 40
0.5368
 41
2.771999999999999
 76
     3
 10
4.392999999999999
 20
9.657087771068853
 30
0.0
 10
5.642
 20
11.408
 30
0.0
 10
5.951999999999999
 20
11.408
 30
0.0
340
43E3
213
0.0
223
-0.06
233
0.0
1001
ACAD
1000
DSTYLE
1002
{
1070
   147
1040
0.06
1070
    77
1070
     0
1002
}
  0
MTEXT
  5
43E3
102
{ACAD_REACTORS
330
43E2
102
}
330
2
100
AcDbEntity
  8
0
 62
     2
100
AcDbMText
 10
6.011999999999999
 20
11.468
 30
0.0
 40
0.12
 41
0.0
 71
     1
 72
     1
  1
{\Fmigrator.shx;METALLIZED PLASTIC\PBACKSHELL\P(PVC OVERMOLD PERMITTED)}
 73
     1
 44
1.0
  0
LEADER
  5
43E4
330
2
100
AcDbEntity
  8
0
100
AcDbLeader
  3
GEN-ANSI
 73
     0
 40
0.9451999999999998
 41
2.210399999999999
 76
     3
 10
5.686514401269054
 20
7.224199072104868
 30
0.0
 10
7.378
 20
7.998
 30
0.0
 10
7.687999999999999
 20
7.998
 30
0.0
340
43E5
213
0.0
223
-0.06
233
0.0
1001
ACAD
1000
DSTYLE
1002
{
1070
   147
1040
0.06
1070
    77
1070
     0
1002
}
  0
MTEXT
  5
43E5
102
{ACAD_REACTORS
330
43E4
102
}
330
2
100
AcDbEntity
  8
0
 62
     2
100
AcDbMText
 10
7.747999999999999
 20
8.057999999999999
 30
0.0
 40
0.12
 41
0.0
 71
     1
 72
     1
  1
{\Fmigrator.shx;LET HANG 12 INCHES\PFROM CONNECTOR\PWIRE LABELS:\P#22 BLU.....(12VDC)\P#22 WHT/BLU...(COM)}
 73
     1
 44
1.0
  0
LEADER
  5
4407
330
2
100
AcDbEntity
  8
0
100
AcDbLeader
  3
GEN-ANSI
 76
     2
 10
17.02853805518976
 20
9.404088666661106
 30
0.0
 10
16.91873105518976
 20
9.404088666661106
 30
0.0
1001
ACAD
1000
DSTYLE
1002
{
1070
   147
1040
0.06
1070
    77
1070
     0
1002
}
  0
LEADER
  5
4409
330
2
100
AcDbEntity
  8
0
100
AcDbLeader
  3
GEN-ANSI
 40
0.5368
 41
2.771999999999999
 76
     3
 10
16.80892405518976
 20
9.404088666661106
 30
0.0
 10
15.5
 20
11.346
 30
0.0
 10
15.19
 20
11.346
 30
0.0
213
0.0
223
0.06
233
0.0
1001
ACAD
1000
DSTYLE
1002
{
1070
   147
1040
0.06
1070
    77
1070
     0
1002
}
  0
MTEXT
  5
440B
330
2
100
AcDbEntity
  8
0
 62
     2
100
AcDbMText
 10
12.894
 20
11.406
 30
0.0
 40
0.12
 41
0.0
 71
     1
 72
     1
  1
{\Fmigrator.shx;METALLIZED PLASTIC\PBACKSHELL\P(PVC OVERMOLD PERMITTED)}
 73
     1
 44
1.0
  0
INSERT
  5
450B
330
2
100
AcDbEntity
  8
0
100
AcDbBlockReference
 66
     1
  2
ASSEMBLY_C
 10
0.0
 20
0.0
 30
0.0
  0
ATTRIB
  5
450D
330
450B
100
AcDbEntity
  8
TITLE BLOCK
  6
Continuous
100
AcDbText
 10
17.42499999999999
 20
1.875
 30
0.0
 40
0.1010611419
  1
G. MUMM
100
AcDbAttribute
  2
GEN-TITLE-NAME{5}
 70
     0
  0
ATTRIB
  5
450E
330
450B
100
AcDbEntity
  8
TITLE BLOCK
  6
Continuous
100
AcDbText
 10
17.42499999999999
 20
1.625
 30
0.0
 40
0.1010611419
  1

100
AcDbAttribute
  2
GEN-TITLE-CHKM{5}
 70
     0
  0
ATTRIB
  5
450F
330
450B
100
AcDbEntity
  8
TITLE BLOCK
  6
Continuous
100
AcDbText
 10
17.42499999999999
 20
1.375
 30
0.0
 40
0.1010611419
  1

100
AcDbAttribute
  2
GEN-TITLE-APPM{5}
 70
     0
  0
ATTRIB
  5
4510
330
450B
100
AcDbEntity
  8
TITLE BLOCK
  6
Continuous
100
AcDbText
 10
15.7
 20
0.95
 30
0.0
 40
0.126326427375
  1
CABLE, STEGMANN ADAPTER
 41
0.8
100
AcDbAttribute
  2
GEN-TITLE-DES1{15.54}
 70
     0
  0
ATTRIB
  5
4511
330
450B
100
AcDbEntity
  8
TITLE BLOCK
  6
Continuous
100
AcDbText
 10
20.89999999999999
 20
1.375
 30
0.0
 40
0.11808994431015
  1
2
 41
0.8
100
AcDbAttribute
  2
GEN-TITLE-SHEET-OF{2.62}
 70
     0
  0
ATTRIB
  5
4512
330
450B
100
AcDbEntity
  8
TITLE BLOCK
  6
Continuous
100
AcDbText
 10
20.5
 20
1.375
 30
0.0
 40
0.11808994431015
  1
1
 41
0.8
100
AcDbAttribute
  2
GEN-TITLE-SHEET{2.62}
 70
     0
  0
ATTRIB
  5
4513
330
450B
100
AcDbEntity
  8
TITLE BLOCK
  6
Continuous
100
AcDbText
 10
18.94999999999999
 20
1.375
 30
0.0
 40
0.1010611419
  1

 41
0.8
100
AcDbAttribute
  2
GEN-TITLE-MAT{11.15}
 70
     0
  0
ATTRIB
  5
4514
330
450B
100
AcDbEntity
  8
TITLE BLOCK
  6
Continuous
100
AcDbText
 10
18.94999999999999
 20
1.625
 30
0.0
 40
0.1010611419
  1

100
AcDbAttribute
  2
GEN-TITLE-MACH{5}
 70
     0
  0
ATTRIB
  5
4515
330
450B
100
AcDbEntity
  8
TITLE BLOCK
  6
Continuous
100
AcDbText
 10
18.94999999999999
 20
1.875
 30
0.0
 40
0.1010611419
  1

100
AcDbAttribute
  2
GEN-TITLE-REF{5}
 70
     0
  0
ATTRIB
  5
4516
330
450B
100
AcDbEntity
  8
TITLE BLOCK
  6
Continuous
100
AcDbText
 10
20.42499999999999
 20
1.625
 30
0.0
 40
0.1010611419
  1
24.10.02
100
AcDbAttribute
  2
GEN-TITLE-PLOT{5}
 70
     0
  0
ATTRIB
  5
4517
330
450B
100
AcDbEntity
  8
TITLE BLOCK
  6
Continuous
100
AcDbText
 10
18.89999999999999
 20
0.85
 30
0.0
 40
0.196816573850279
  1
MD.1000.7091
 41
0.8
100
AcDbAttribute
  2
GEN-TITLE-NR{13.37}
 70
     0
  0
SEQEND
  5
450C
330
450B
100
AcDbEntity
  8
0
  0
ENDSEC
  0
SECTION
  2
OBJECTS
  0
DICTIONARY
  5
7
330
0
100
AcDbDictionary
281
     1
  3
ACAD_GROUP
350
1F
  3
ACAD_LAYOUT
350
B
  3
ACAD_MLINESTYLE
350
20
  3
ACAD_PLOTSETTINGS
350
21
  3
ACAD_PLOTSTYLENAME
350
6
  3
AcadDim
350
4406
  3
AcDbVariableDictionary
350
178
  3
AcmDictionary
350
18B
  3
AMG
350
16F
  3
AMGSNAPSETTINGS
350
1C0
  3
ASE_INDEX_DICTIONARY
350
4518
  3
DWGPROPS
350
4457
  0
DICTIONARY
  5
164
330
2
100
AcDbDictionary
280
     1
281
     1
  3
ACAD_INDEX
360
4141
  3
ACAD_LAYOUTSELFREF
360
165
  0
DICTIONARY
  5
168
330
C
100
AcDbDictionary
280
     1
281
     1
  3
ACAD_LAYOUTSELFREF
360
169
  0
DICTIONARY
  5
1F
102
{ACAD_REACTORS
330
7
102
}
330
7
100
AcDbDictionary
281
     1
  0
DICTIONARY
  5
B
102
{ACAD_REACTORS
330
7
102
}
330
7
100
AcDbDictionary
281
     1
  3
Layout1
350
F
  3
Model
350
A
  0
DICTIONARY
  5
20
102
{ACAD_REACTORS
330
7
102
}
330
7
100
AcDbDictionary
281
     1
  3
STANDARD
350
23
  0
DICTIONARY
  5
21
102
{ACAD_REACTORS
330
7
102
}
330
7
100
AcDbDictionary
281
     1
  0
ACDBDICTIONARYWDFLT
  5
6
102
{ACAD_REACTORS
330
7
102
}
330
7
100
AcDbDictionary
281
     1
  3
Normal
350
5
100
AcDbDictionaryWithDefault
340
5
  0
XRECORD
  5
4406
102
{ACAD_REACTORS
330
7
102
}
330
7
100
AcDbXrecord
280
     1
 90
   990106
  3

 60
     0
 61
     0
 62
     1
 63
     3
 64
     0
 65
     0
 66
     0
 67
     3
 68
     1
 69
     0
 70
     0
 71
     0
 72
     0
 40
0.0
170
     0
340
0
  0
DICTIONARY
  5
178
102
{ACAD_REACTORS
330
7
102
}
330
7
100
AcDbDictionary
281
     1
  3
INDEXCTL
350
179
  0
DICTIONARY
  5
18B
102
{ACAD_REACTORS
330
7
102
}
330
7
100
AcDbDictionary
281
     1
  3
AcmBOMDATA
350
18C
  3
AcmStdDictionary
350
191
  0
DICTIONARY
  5
16F
102
{ACAD_REACTORS
330
7
102
}
330
7
100
AcDbDictionary
281
     1
  3
AcMgSettings
350
170
  3
AMGLAYCFG
350
193
  0
DICTIONARY
  5
1C0
102
{ACAD_REACTORS
330
7
102
}
330
7
100
AcDbDictionary
281
     1
  3
DIMENSION
350
1C5
  3
FEA
350
1C4
  3
HATCH (1)
350
1C1
  3
HATCH (2)
350
1C2
  3
SIMPLE WELD
350
1C6
  3
SYMBOLS
350
1C3
  0
DICTIONARY
  5
4518
102
{ACAD_REACTORS
330
7
102
}
330
7
100
AcDbDictionary
281
     1
  3
ASEBlockHierarchyIndexRecord
350
4519
1001
DCO15
1040
1450001027.787
  0
XRECORD
  5
4457
102
{ACAD_REACTORS
330
7
102
}
330
7
100
AcDbXrecord
280
     1
  1
DWGPROPS COOKIE
  2

  3

  4

  6

  7

  8

  9

300
AmdtFileType=84
301
=
302
=
303
=
304
=
305
=
306
=
307
=
308
=
309
=
 40
0.6460287847222223
 41
2450932.12110206
 42
2452577.634315578
  1

 90
        1
  0
DICTIONARY
  5
4141
102
{ACAD_REACTORS
330
164
102
}
330
164
100
AcDbDictionary
281
     1
  3
*A1
350
4142
  0
XRECORD
  5
165
102
{ACAD_REACTORS
330
164
102
}
330
164
100
AcDbXrecord
280
     1
340
2
  0
XRECORD
  5
169
102
{ACAD_REACTORS
330
168
102
}
330
168
100
AcDbXrecord
280
     1
340
C
  0
LAYOUT
  5
F
102
{ACAD_REACTORS
330
B
102
}
330
B
100
AcDbPlotSettings
  1

  2
\\CONTROLSFS1\HP LaserJet 8000 Series PCL 6 (Davis)
  4

  6

 40
0.0
 41
0.0
 42
0.0
 43
0.0
 44
0.0
 45
0.0
 46
0.0
 47
0.0
 48
0.0
 49
0.0
140
0.0
141
0.0
142
1.0
143
1.0
 70
   688
 72
     0
 73
     0
 74
     5
  7
monochrome.ctb
 75
    16
147
1.0
148
0.0
149
0.0
100
AcDbLayout
  1
Layout1
 70
     1
 71
     1
 10
0.0
 20
0.0
 11
420.0
 21
297.0
 12
0.0
 22
0.0
 32
0.0
 14
1.000000000000000E+20
 24
1.000000000000000E+20
 34
1.000000000000000E+20
 15
-1.000000000000000E+20
 25
-1.000000000000000E+20
 35
-1.000000000000000E+20
146
0.0
 13
0.0
 23
0.0
 33
0.0
 16
1.0
 26
0.0
 36
0.0
 17
0.0
 27
1.0
 37
0.0
 76
     0
330
C
  0
LAYOUT
  5
A
102
{ACAD_REACTORS
330
B
102
}
330
B
100
AcDbPlotSettings
  1

  2
\\CONTROLSFS1\HP LaserJet 5Si MX
  4
Legal
  6

 40
7.143749713897705
 41
6.127765178680419
 42
7.14373779296875
 43
7.14373779296875
 44
215.8999938964843
 45
355.6000061035156
 46
0.0
 47
38.862
 48
0.0
 49
0.0
140
0.0
141
0.0
142
1.0
143
2.112489126693651
 70
 11956
 72
     0
 73
     1
 74
     1
  7
monochrome.ctb
 75
     0
147
0.4733752175875781
148
0.3255366854427166
149
-6.100807976655141
100
AcDbLayout
  1
Model
 70
     1
 71
     0
 10
0.0
 20
0.0
 11
12.0
 21
9.0
 12
0.0
 22
0.0
 32
0.0
 14
0.0
 24
0.0
 34
0.0
 15
0.0
 25
0.0
 35
0.0
146
0.0
 13
0.0
 23
0.0
 33
0.0
 16
1.0
 26
0.0
 36
0.0
 17
0.0
 27
1.0
 37
0.0
 76
     0
330
2
  0
MLINESTYLE
  5
23
102
{ACAD_REACTORS
330
20
102
}
330
20
100
AcDbMlineStyle
  2
STANDARD
 70
     0
  3

 62
   256
 51
90.0
 52
90.0
 71
     2
 49
0.5
 62
   256
  6
BYLAYER
 49
-0.5
 62
   256
  6
BYLAYER
  0
ACDBPLACEHOLDER
  5
5
102
{ACAD_REACTORS
330
6
102
}
330
6
  0
DICTIONARYVAR
  5
179
102
{ACAD_REACTORS
330
178
102
}
330
178
100
DictionaryVariables
280
     0
  1
1
  0
ACMDATADICTIONARY
  5
18C
102
{ACAD_REACTORS
330
18B
102
}
330
18B
100
AcDbDictionary
281
     1
  3
*A1
350
18D
100
AcmDataDictionary
  0
DICTIONARY
  5
191
102
{ACAD_REACTORS
330
18B
102
}
330
18B
100
AcDbDictionary
281
     1
  3
ANSI
350
192
  3
ISO
350
EF9
  0
DICTIONARY
  5
170
102
{ACAD_REACTORS
330
16F
102
}
330
16F
100
AcDbDictionary
281
     1
  3
DWGSETTINGS
350
171
  3
TRANSSETTINGS
350
172
  0
ACAMGFILTERDAT
  5
1C5
102
{ACAD_REACTORS
330
1C0
102
}
330
1C0
100
AcAmgFilterDat
 70
    15
  1
DIMENSION,AMDT_*_DIM
  2
*
  3
*
  4
*
  5
*
290
     1
  0
ACAMGFILTERDAT
  5
1C4
102
{ACAD_REACTORS
330
1C0
102
}
330
1C0
100
AcAmgFilterDat
 70
    15
  1
*
  2
AM_FEA-AM_*
  3
*
  4
*
  5
*
290
     1
  0
ACAMGFILTERDAT
  5
1C1
102
{ACAD_REACTORS
330
1C0
102
}
330
1C0
100
AcAmgFilterDat
 70
    15
  1
HATCH
  2
*
  3
*
  4
*
  5
*
290
     1
  0
ACAMGFILTERDAT
  5
1C2
102
{ACAD_REACTORS
330
1C0
102
}
330
1C0
100
AcAmgFilterDat
 70
    15
  1
LINE
  2
8,8N,*-8,*-8N,AM_8,AM_8N,*-AM_8,*-AM_8N
  3
*
  4
*
  5
INSERT,STDPART2D
290
     1
  0
ACAMGFILTERDAT
  5
1C6
102
{ACAD_REACTORS
330
1C0
102
}
330
1C0
100
AcAmgFilterDat
 70
    15
  1
ARC
  2
AM_5
  3
*
  4
2
  5
INSERT
290
     0
  0
ACAMGFILTERDAT
  5
1C3
102
{ACAD_REACTORS
330
1C0
102
}
330
1C0
100
AcAmgFilterDat
 70
    15
  1
ACMFCFRAME,ACMDATUMTARGET,ACMDATUMID,ACMWELDSYM,ACMSURFSYM,ACMFEATID,ACMPARTREF,ACMBALLOON,AMDTEDGESYM
  2
*
  3
*
  4
*
  5
*
290
     1
  0
XRECORD
  5
4519
102
{ACAD_REACTORS
330
4518
102
}
330
4518
100
AcDbXrecord
280
     1
330
450B
330
1E0
330
1E1
330
1E9
330
1F1
330
1F6
330
1FC
330
1FD
330
204
330
209
330
20A
330
211
330
216
330
217
330
21E
  0
LAYER_INDEX
  5
4142
102
{ACAD_REACTORS
330
4141
102
}
330
4141
100
AcDbIndex
 40
2452585.631154942
100
AcDbLayerIndex
  8
0
360
4143
 90
       37
  8
BORDER
360
4144
 90
        0
  8
TITLE BLOCK
360
4145
 90
        0
  8
800
360
4146
 90
      248
  8
4
360
4147
 90
        0
  8
6
360
4148
 90
        0
  8
500
360
4149
 90
        0
  8
Defpoints
360
414A
 90
        0
  8
AM_VIS
360
414B
 90
        0
  8
7A
360
414C
 90
        0
  8
8
360
414D
 90
        0
  8
5
360
414E
 90
        0
  8
LAYER_1
360
414F
 90
        0
  8
1
360
43BE
 90
       60
  0
ACMDATAENTRYBLOCK
  5
18D
102
{ACAD_REACTORS
330
18C
102
}
330
18C
100
AcmDataEntry
100
AcmDataEntryBlock
  0
IDBUFFER
  5
4143
330
0
100
AcDbIdBuffer
330
CC9
330
CE7
330
CE8
330
CF2
330
D63
330
D64
330
D65
330
D66
330
D67
330
D68
330
D6C
330
D6D
330
416D
330
416E
330
419E
330
4387
330
43B8
330
43B9
330
43BB
330
43BC
330
43C0
330
43C2
330
43C3
330
43C4
330
43C7
330
43C8
330
43C9
330
43CA
330
43CB
330
43E2
330
43E3
330
43E4
330
43E5
330
4407
330
4409
330
440B
330
450B
  0
IDBUFFER
  5
4144
330
0
100
AcDbIdBuffer
  0
IDBUFFER
  5
4145
330
0
100
AcDbIdBuffer
  0
IDBUFFER
  5
4146
330
0
100
AcDbIdBuffer
330
94D
330
94E
330
94F
330
950
330
951
330
95C
330
95D
330
95E
330
95F
330
960
330
961
330
962
330
963
330
964
330
965
330
966
330
967
330
968
330
969
330
96A
330
96B
330
96C
330
96D
330
96E
330
96F
330
970
330
971
330
972
330
973
330
974
330
975
330
976
330
977
330
978
330
979
330
97A
330
97B
330
97C
330
97D
330
97E
330
97F
330
980
330
981
330
982
330
983
330
984
330
985
330
986
330
987
330
988
330
989
330
98A
330
98B
330
98C
330
98D
330
98E
330
98F
330
990
330
991
330
992
330
993
330
994
330
995
330
997
330
998
330
999
330
99A
330
99E
330
99F
330
9A0
330
9A1
330
9A2
330
9A3
330
9A4
330
9A5
330
9A6
330
9A7
330
9A8
330
9A9
330
9AA
330
9AB
330
9AC
330
9AD
330
9AE
330
9AF
330
9B0
330
9B1
330
9B2
330
9B3
330
9B4
330
9B5
330
9B6
330
9B7
330
9B8
330
9B9
330
9BA
330
9BB
330
9BC
330
9BD
330
9BE
330
9BF
330
9C0
330
9C1
330
9C2
330
9C3
330
9C4
330
9C5
330
9C6
330
9C7
330
9C8
330
9C9
330
9CA
330
9CB
330
9CC
330
9CD
330
A10
330
A11
330
A15
330
A16
330
A17
330
A18
330
A19
330
A1A
330
A1B
330
A1C
330
A1D
330
A1E
330
A1F
330
A20
330
A21
330
A22
330
A23
330
A24
330
A25
330
A26
330
A27
330
A28
330
A29
330
A2A
330
A2B
330
A2C
330
A2D
330
A2E
330
A2F
330
A30
330
A31
330
A32
330
A33
330
A34
330
A35
330
A36
330
A37
330
A38
330
A39
330
A3A
330
A3B
330
A3C
330
A3D
330
A3E
330
A3F
330
A40
330
A41
330
A42
330
A43
330
A44
330
A80
330
A81
330
A82
330
A83
330
A84
330
A85
330
A86
330
A8D
330
A8F
330
A90
330
A93
330
A94
330
A95
330
A96
330
A98
330
A99
330
A9B
330
AA9
330
AD7
330
ADE
330
ADF
330
AE0
330
AE1
330
AE2
330
AE3
330
AE4
330
AE5
330
AE6
330
AE7
330
AE8
330
AE9
330
AEA
330
AEB
330
AEC
330
AED
330
AEE
330
B00
330
B01
330
B02
330
3FC2
330
4389
330
438A
330
438B
330
438C
330
438D
330
438E
330
438F
330
4390
330
4391
330
4393
330
4396
330
4397
330
4398
330
4399
330
439A
330
439C
330
439D
330
439E
330
439F
330
43A0
330
43A1
330
43A2
330
43A3
330
43A4
330
43A5
330
43A6
330
43A7
330
43A8
330
43A9
330
43AA
330
43AB
330
43AC
330
43AD
330
43AE
330
43AF
330
43B0
330
43B1
330
43B2
330
43B3
330
43B4
330
43B5
330
43B6
330
43B7
  0
IDBUFFER
  5
4147
330
0
100
AcDbIdBuffer
  0
IDBUFFER
  5
4148
330
0
100
AcDbIdBuffer
  0
IDBUFFER
  5
4149
330
0
100
AcDbIdBuffer
  0
IDBUFFER
  5
414A
330
0
100
AcDbIdBuffer
  0
IDBUFFER
  5
414B
330
0
100
AcDbIdBuffer
  0
IDBUFFER
  5
414C
330
0
100
AcDbIdBuffer
  0
IDBUFFER
  5
414D
330
0
100
AcDbIdBuffer
  0
IDBUFFER
  5
414E
330
0
100
AcDbIdBuffer
  0
IDBUFFER
  5
414F
330
0
100
AcDbIdBuffer
  0
IDBUFFER
  5
43BE
330
0
100
AcDbIdBuffer
330
42A3
330
42A4
330
42A5
330
42A8
330
42D4
330
42D5
330
42D6
330
42D7
330
42D8
330
42D9
330
42DA
330
42DB
330
42DC
330
42DD
330
42DE
330
42DF
330
42E0
330
42E1
330
42E2
330
42E3
330
42E4
330
42E5
330
42E9
330
42F6
330
42F8
330
42F9
330
42FD
330
42FE
330
4300
330
4302
330
4303
330
4304
330
4305
330
4306
330
4310
330
4311
330
4313
330
4314
330
4318
330
4319
330
431A
330
431B
330
431C
330
431D
330
431E
330
4323
330
432A
330
432B
330
432C
330
432D
330
432E
330
432F
330
4337
330
4346
330
4347
330
435D
330
435F
330
4360
330
4361
330
4362
  0
ENDSEC
  0
EOF
