  0
SECTION
  2
HEADER
  9
$ACADVER
  1
AC1015
  9
$ACADMAINTVER
 70
    10
  9
$DWGCODEPAGE
  3
ANSI_1252
  9
$INSBASE
 10
0.0
 20
0.0
 30
0.0
  9
$EXTMIN
 10
-0.0517225351270554
 20
0.175394544761275
 30
-0.0000000349181977
  9
$EXTMAX
 10
558.8614369898973
 20
425.8091409311646
 30
0.0000000814935717
  9
$LIMMIN
 10
253.4737421961789
 20
731.2042561527164
  9
$LIMMAX
 10
847.4737421961789
 20
1151.204256152716
  9
$ORTHOMODE
 70
     0
  9
$REGENMODE
 70
     1
  9
$FILLMODE
 70
     1
  9
$QTEXTMODE
 70
     0
  9
$MIRRTEXT
 70
     1
  9
$LTSCALE
 40
5.0
  9
$ATTMODE
 70
     1
  9
$TEXTSIZE
 40
3.5
  9
$TRACEWID
 40
0.05
  9
$TEXTSTYLE
  7
TXT
  9
$CLAYER
  8
0
  9
$CELTYPE
  6
Continuous
  9
$CECOLOR
 62
   256
  9
$CELTSCALE
 40
1.0
  9
$DISPSILH
 70
     0
  9
$DIMSCALE
 40
1.0
  9
$DIMASZ
 40
3.5
  9
$DIMEXO
 40
0.0625
  9
$DIMDLI
 40
0.38
  9
$DIMRND
 40
0.0
  9
$DIMDLE
 40
0.0
  9
$DIMEXE
 40
0.18
  9
$DIMTP
 40
0.0
  9
$DIMTM
 40
0.0
  9
$DIMTXT
 40
3.5
  9
$DIMCEN
 40
0.09
  9
$DIMTSZ
 40
0.0
  9
$DIMTOL
 70
     0
  9
$DIMLIM
 70
     0
  9
$DIMTIH
 70
     1
  9
$DIMTOH
 70
     1
  9
$DIMSE1
 70
     0
  9
$DIMSE2
 70
     0
  9
$DIMTAD
 70
     0
  9
$DIMZIN
 70
     0
  9
$DIMBLK
  1

  9
$DIMASO
 70
     1
  9
$DIMSHO
 70
     1
  9
$DIMPOST
  1

  9
$DIMAPOST
  1

  9
$DIMALT
 70
     0
  9
$DIMALTD
 70
     2
  9
$DIMALTF
 40
25.4
  9
$DIMLFAC
 40
1.0
  9
$DIMTOFL
 70
     0
  9
$DIMTVP
 40
0.0
  9
$DIMTIX
 70
     0
  9
$DIMSOXD
 70
     0
  9
$DIMSAH
 70
     0
  9
$DIMBLK1
  1

  9
$DIMBLK2
  1

  9
$DIMSTYLE
  2
Standard
  9
$DIMCLRD
 70
     0
  9
$DIMCLRE
 70
     0
  9
$DIMCLRT
 70
     0
  9
$DIMTFAC
 40
1.0
  9
$DIMGAP
 40
0.09
  9
$DIMJUST
 70
     0
  9
$DIMSD1
 70
     0
  9
$DIMSD2
 70
     0
  9
$DIMTOLJ
 70
     1
  9
$DIMTZIN
 70
     0
  9
$DIMALTZ
 70
     0
  9
$DIMALTTZ
 70
     0
  9
$DIMUPT
 70
     0
  9
$DIMDEC
 70
     4
  9
$DIMTDEC
 70
     4
  9
$DIMALTU
 70
     2
  9
$DIMALTTD
 70
     2
  9
$DIMTXSTY
  7
TXT
  9
$DIMAUNIT
 70
     0
  9
$DIMADEC
 70
     0
  9
$DIMALTRND
 40
0.0
  9
$DIMAZIN
 70
     0
  9
$DIMDSEP
 70
     0
  9
$DIMATFIT
 70
     3
  9
$DIMFRAC
 70
     0
  9
$DIMLDRBLK
  1

  9
$DIMLUNIT
 70
     2
  9
$DIMLWD
 70
     0
  9
$DIMLWE
 70
     0
  9
$DIMTMOVE
 70
     0
  9
$LUNITS
 70
     2
  9
$LUPREC
 70
     2
  9
$SKETCHINC
 40
0.1
  9
$FILLETRAD
 40
0.0
  9
$AUNITS
 70
     0
  9
$AUPREC
 70
     2
  9
$MENU
  1
acad
  9
$ELEVATION
 40
0.0
  9
$PELEVATION
 40
0.0
  9
$THICKNESS
 40
0.0
  9
$LIMCHECK
 70
     0
  9
$CHAMFERA
 40
0.0
  9
$CHAMFERB
 40
0.0
  9
$CHAMFERC
 40
0.0
  9
$CHAMFERD
 40
0.0
  9
$SKPOLY
 70
     0
  9
$TDCREATE
 40
2452650.355663668
  9
$TDUCREATE
 40
2452650.605663668
  9
$TDUPDATE
 40
2452656.477931875
  9
$TDUUPDATE
 40
2452656.727931874
  9
$TDINDWG
 40
0.0544978241
  9
$TDUSRTIMER
 40
0.0544978241
  9
$USRTIMER
 70
     1
  9
$ANGBASE
 50
0.0
  9
$ANGDIR
 70
     0
  9
$PDMODE
 70
     2
  9
$PDSIZE
 40
0.5
  9
$PLINEWID
 40
0.0
  9
$SPLFRAME
 70
     0
  9
$SPLINETYPE
 70
     6
  9
$SPLINESEGS
 70
     8
  9
$HANDSEED
  5
8EC
  9
$SURFTAB1
 70
     6
  9
$SURFTAB2
 70
     6
  9
$SURFTYPE
 70
     6
  9
$SURFU
 70
     6
  9
$SURFV
 70
     6
  9
$UCSBASE
  2

  9
$UCSNAME
  2

  9
$UCSORG
 10
0.0
 20
0.0
 30
0.0
  9
$UCSXDIR
 10
1.0
 20
0.0
 30
0.0
  9
$UCSYDIR
 10
0.0
 20
1.0
 30
0.0
  9
$UCSORTHOREF
  2

  9
$UCSORTHOVIEW
 70
     0
  9
$UCSORGTOP
 10
0.0
 20
0.0
 30
0.0
  9
$UCSORGBOTTOM
 10
0.0
 20
0.0
 30
0.0
  9
$UCSORGLEFT
 10
0.0
 20
0.0
 30
0.0
  9
$UCSORGRIGHT
 10
0.0
 20
0.0
 30
0.0
  9
$UCSORGFRONT
 10
0.0
 20
0.0
 30
0.0
  9
$UCSORGBACK
 10
0.0
 20
0.0
 30
0.0
  9
$PUCSBASE
  2

  9
$PUCSNAME
  2

  9
$PUCSORG
 10
0.0
 20
0.0
 30
0.0
  9
$PUCSXDIR
 10
1.0
 20
0.0
 30
0.0
  9
$PUCSYDIR
 10
0.0
 20
1.0
 30
0.0
  9
$PUCSORTHOREF
  2

  9
$PUCSORTHOVIEW
 70
     0
  9
$PUCSORGTOP
 10
0.0
 20
0.0
 30
0.0
  9
$PUCSORGBOTTOM
 10
0.0
 20
0.0
 30
0.0
  9
$PUCSORGLEFT
 10
0.0
 20
0.0
 30
0.0
  9
$PUCSORGRIGHT
 10
0.0
 20
0.0
 30
0.0
  9
$PUCSORGFRONT
 10
0.0
 20
0.0
 30
0.0
  9
$PUCSORGBACK
 10
0.0
 20
0.0
 30
0.0
  9
$USERI1
 70
     0
  9
$USERI2
 70
     0
  9
$USERI3
 70
     0
  9
$USERI4
 70
     0
  9
$USERI5
 70
     0
  9
$USERR1
 40
0.0
  9
$USERR2
 40
0.0
  9
$USERR3
 40
0.0
  9
$USERR4
 40
0.0
  9
$USERR5
 40
0.0
  9
$WORLDVIEW
 70
     1
  9
$SHADEDGE
 70
     3
  9
$SHADEDIF
 70
    70
  9
$TILEMODE
 70
     1
  9
$MAXACTVP
 70
    16
  9
$PINSBASE
 10
0.0
 20
0.0
 30
0.0
  9
$PLIMCHECK
 70
     0
  9
$PEXTMIN
 10
1.000000000000000E+20
 20
1.000000000000000E+20
 30
1.000000000000000E+20
  9
$PEXTMAX
 10
-1.000000000000000E+20
 20
-1.000000000000000E+20
 30
-1.000000000000000E+20
  9
$PLIMMIN
 10
0.0
 20
0.0
  9
$PLIMMAX
 10
12.0
 20
9.0
  9
$UNITMODE
 70
     0
  9
$VISRETAIN
 70
     0
  9
$PLINEGEN
 70
     1
  9
$PSLTSCALE
 70
     0
  9
$TREEDEPTH
 70
  3020
  9
$CMLSTYLE
  2
Standard
  9
$CMLJUST
 70
     0
  9
$CMLSCALE
 40
1.0
  9
$PROXYGRAPHICS
 70
     0
  9
$MEASUREMENT
 70
     0
  9
$CELWEIGHT
370
     0
  9
$ENDCAPS
280
     0
  9
$JOINSTYLE
280
     0
  9
$LWDISPLAY
290
     0
  9
$INSUNITS
 70
     0
  9
$HYPERLINKBASE
  1

  9
$STYLESHEET
  1
monochrome.ctb
  9
$XEDIT
290
     1
  9
$CEPSNTYPE
380
     0
  9
$PSTYLEMODE
290
     1
  9
$FINGERPRINTGUID
  2

  9
$VERSIONGUID
  2
{43462CD9-1F8E-4302-88DB-380AAB6C07BB}
  9
$EXTNAMES
290
     1
  9
$PSVPSCALE
 40
0.0
  9
$OLESTARTUP
290
     0
  0
ENDSEC
  0
SECTION
  2
CLASSES
  0
CLASS
  1
LWPOLYLINE
  2
AcDbPolyline
  3
AutoCAD 2000
 90
    32768
280
     0
281
     1
  0
CLASS
  1
IMAGE
  2
AcDbRasterImage
  3
ISM
 90
    32895
280
     0
281
     1
  0
CLASS
  1
OLE2FRAME
  2
AcDbOle2Frame
  3
AutoCAD 2000
 90
    32768
280
     0
281
     1
  0
CLASS
  1
HATCH
  2
AcDbHatch
  3
AutoCAD 2000
 90
    32768
280
     0
281
     1
  0
CLASS
  1
DICTIONARYVAR
  2
AcDbDictionaryVar
  3
AutoCAD 2000
 90
        0
280
     0
281
     0
  0
CLASS
  1
RASTERVARIABLES
  2
AcDbRasterVariables
  3
ISM
 90
    32768
280
     0
281
     0
  0
CLASS
  1
IMAGEDEF
  2
AcDbRasterImageDef
  3
ISM
 90
    32768
280
     0
281
     0
  0
CLASS
  1
IMAGEDEF_REACTOR
  2
AcDbRasterImageDefReactor
  3
ISM
 90
    32769
280
     0
281
     0
  0
CLASS
  1
IDBUFFER
  2
AcDbIdBuffer
  3
AutoCAD 2000
 90
        0
280
     0
281
     0
  0
CLASS
  1
SPATIAL_FILTER
  2
AcDbSpatialFilter
  3
AutoCAD 2000
 90
    32768
280
     0
281
     0
  0
CLASS
  1
XRECORD
  2
AcDbXrecord
  3
AutoCAD 2000
 90
    32768
280
     0
281
     0
  0
CLASS
  1
SORTENTSTABLE
  2
AcDbSortentsTable
  3
AutoCAD 2000
 90
    32768
280
     0
281
     0
  0
CLASS
  1
LAYER_INDEX
  2
AcDbLayerIndex
  3
AutoCAD 2000
 90
        0
280
     0
281
     0
  0
CLASS
  1
SPATIAL_INDEX
  2
AcDbSpatialIndex
  3
AutoCAD 2000
 90
    32768
280
     0
281
     0
  0
CLASS
  1
OBJECT_PTR
  2
CAseDLPNTableRecord
  3
ASE-LPNTableRecord
 90
    32769
280
     0
281
     0
  0
CLASS
  1
LAYOUT
  2
AcDbLayout
  3
AutoCAD 2000
 90
        0
280
     0
281
     0
  0
CLASS
  1
PLOTSETTINGS
  2
AcDbPlotSettings
  3
AutoCAD 2000
 90
    32768
280
     0
281
     0
  0
CLASS
  1
ACDBDICTIONARYWDFLT
  2
AcDbDictionaryWithDefault
  3
AutoCAD 2000
 90
        0
280
     0
281
     0
  0
CLASS
  1
ACDBPLACEHOLDER
  2
AcDbPlaceHolder
  3
AutoCAD 2000
 90
        0
280
     0
281
     0
  0
CLASS
  1
VBA_PROJECT
  2
AcDbVbaProject
  3
acadvba
 90
    32768
280
     0
281
     0
  0
CLASS
  1
WIPEOUT
  2
AcDbWipeout
  3
WipeOut|AutoCAD Express Tool|expresstools@autodesk.com
 90
    32895
280
     0
281
     1
  0
CLASS
  1
WIPEOUTVARIABLES
  2
AcDbWipeoutVariables
  3
WipeOut|AutoCAD Express Tool|expresstools@autodesk.com
 90
        0
280
     0
281
     0
  0
CLASS
  1
RTEXT
  2
RText
  3
RText|AutoCAD Express Tool|expresstools@autodesk.com
 90
    32768
280
     0
281
     1
  0
CLASS
  1
ARCALIGNEDTEXT
  2
AcDbArcAlignedText
  3
ATEXT|AutoCAD Express Tool|expresstools@autodesk.com
 90
    32768
280
     0
281
     1
  0
CLASS
  1
ACME_DOCUMENT
  2
AcMeDbDoc
  3
AcMeServices
 90
        0
280
     0
281
     0
  0
CLASS
  1
AMGSETTINGSOBJ
  2
AmgSettingsObj
  3
"AcadM|Product Description: AutoCAD Mechanical 2000|Company: Autodesk"
 90
        0
280
     0
281
     0
  0
CLASS
  1
ACMESCOPE
  2
AcMeScope
  3
AcMeServices
 90
        0
280
     0
281
     0
  0
CLASS
  1
ACMECOMMANDHISTORY
  2
AcMeCommandHistory
  3
AcMeServices
 90
        0
280
     0
281
     0
  0
CLASS
  1
ACIMSYSVARMAN
  2
AcImSysVarManager
  3
AcMeServices
 90
        0
280
     0
281
     0
  0
CLASS
  1
ACIMREALSYSVAR
  2
AcImRealSysVar
  3
AcMeServices
 90
        0
280
     0
281
     0
  0
CLASS
  1
ACIMINTSYSVAR
  2
AcImIntSysVar
  3
AcMeServices
 90
        0
280
     0
281
     0
  0
CLASS
  1
ACMEDRAWINGMAN
  2
AcMeDrawingMan
  3
AcMeServices
 90
        0
280
     0
281
     0
  0
CLASS
  1
ACMEVIEW
  2
AcMeView
  3
AcMeServices
 90
        0
280
     0
281
     0
  0
CLASS
  1
ACDBENTITYCACHE
  2
AcMeEntityCache
  3
AcMeServices
 90
        0
280
     0
281
     0
  0
CLASS
  1
GSMANAGER
  2
AcMeGSManager
  3
AcMeServices
 90
        0
280
     0
281
     0
  0
CLASS
  1
AmdtInternalReactor
  2
AmdtInternalReactor
  3
AcMeServices
 90
        0
280
     0
281
     0
  0
CLASS
  1
ACMESTATEMGR
  2
AcMeStateMgr
  3
AcMeServices
 90
        0
280
     0
281
     0
  0
CLASS
  1
ACGREFMASTER
  2
AcGrefMaster
  3
AcAttribServices
 90
        0
280
     0
281
     0
  0
CLASS
  1
ACME_DATABASE
  2
AcMeDbDatabase
  3
AcMeServices
 90
        0
280
     0
281
     0
  0
CLASS
  1
ACRFINSADJUSTERMGR
  2
AcRfInsAdjusterMgr
  3
AcMeServices
 90
        0
280
     0
281
     0
  0
CLASS
  1
ACGREFMASTER
  2
AcGrefacadMaster
  3
AcGrefServices
 90
        0
280
     0
281
     0
  0
CLASS
  1
AMIMASTER
  2
AmiMaster
  3
AmiServices
 90
        0
280
     0
281
     0
  0
CLASS
  1
ACMDATADICTIONARY
  2
AcmDataDictionary
  3
"AcmSymBB|Product Description: AutoCAD Mechanical 2000|Company: Autodesk"
 90
        0
280
     0
281
     0
  0
CLASS
  1
ACMDATAENTRYBLOCK
  2
AcmDataEntryBlock
  3
"AcmSymBB|Product Description: AutoCAD Mechanical 2000|Company: Autodesk"
 90
        0
280
     0
281
     0
  0
CLASS
  1
ACIMSTRSYSVAR
  2
AcImStrSysVar
  3
AcMeServices
 90
        0
280
     0
281
     0
  0
CLASS
  1
ACMSTANDARDANSI
  2
AcmStandardANSI
  3
"Amdt_StdImp|Product Description: AutoCAD Mechanical 2000|Company: Autodesk"
 90
        0
280
     0
281
     0
  0
CLASS
  1
AMGOBJPROPCFG
  2
AmgObjPropCfg
  3
"AmgLay|Product Description: AutoCAD Mechanical 2000|Company: Autodesk"
 90
        1
280
     0
281
     0
  0
CLASS
  1
ACMSURFSTANDARDANSI
  2
AcmSurfTextStdANSI
  3
"Amdt_StdImp|Product Description: AutoCAD Mechanical 2000|Company: Autodesk"
 90
        0
280
     0
281
     0
  0
CLASS
  1
ACMFCFSTANDARDANSI
  2
AcmFCFStdANSI
  3
"Amdt_StdImp|Product Description: AutoCAD Mechanical 2000|Company: Autodesk"
 90
        0
280
     0
281
     0
  0
CLASS
  1
ACMWELDSTANDARDANSI
  2
AcmWeldingStdANSI
  3
"Amdt_StdImp|Product Description: AutoCAD Mechanical 2000|Company: Autodesk"
 90
        0
280
     0
281
     0
  0
CLASS
  1
ACMIDSTANDARDANSI
  2
AcmIdStdANSI
  3
"Amdt_StdImp|Product Description: AutoCAD Mechanical 2000|Company: Autodesk"
 90
        0
280
     0
281
     0
  0
CLASS
  1
ACMDATUMSTANDARDANSI
  2
AcmDatumStdANSI
  3
"Amdt_StdImp|Product Description: AutoCAD Mechanical 2000|Company: Autodesk"
 90
        0
280
     0
281
     0
  0
CLASS
  1
ACMBOMSTANDARDANSI
  2
AcmBOMStdANSI
  3
"Amdt_StdImp|Product Description: AutoCAD Mechanical 2000|Company: Autodesk"
 90
        0
280
     0
281
     0
  0
CLASS
  1
ACMDETAILSTANDARDANSI
  2
AmdtDetailSymStdANSI
  3
"Amdt_StdImp|Product Description: AutoCAD Mechanical 2000|Company: Autodesk"
 90
        0
280
     0
281
     0
  0
CLASS
  1
ACMSECTIONSTANDARDANSI
  2
AmdtSectionSymStdANSI
  3
"Amdt_StdImp|Product Description: AutoCAD Mechanical 2000|Company: Autodesk"
 90
        0
280
     0
281
     0
  0
CLASS
  1
ACMCENTERLINESTANDARDANSI
  2
AmdtCenterLineStdANSI
  3
"Amdt_StdImp|Product Description: AutoCAD Mechanical 2000|Company: Autodesk"
 90
        0
280
     0
281
     0
  0
CLASS
  1
ACMThreadLineSTANDARDANSI
  2
AmdtThreadLineStdANSI
  3
"Amdt_StdImp|Product Description: AutoCAD Mechanical 2000|Company: Autodesk"
 90
        0
280
     0
281
     0
  0
CLASS
  1
"AcAmgLayStd"
  2
AcAmgLayStd
  3
"AcAmgLayStd|Product Description: AutoCAD Mechanical 2000|Company: Autodesk"
 90
        0
280
     0
281
     0
  0
CLASS
  1
"AcAmgDimStd"
  2
AcAmgDimStd
  3
"AcAmgDimStd|Product Description: AutoCAD Mechanical 2000|Company: Autodesk"
 90
        0
280
     0
281
     0
  0
CLASS
  1
AcAmgTitleStd
  2
AcAmgTitleStd
  3
"TITLEAPP"
 90
        0
280
     0
281
     0
  0
CLASS
  1
ACAMGFILTERDAT
  2
AcAmgFilterDat
  3
"AcadM|Product Description: AutoCAD Mechanical 2000|Company: Autodesk"
 90
        0
280
     0
281
     0
  0
CLASS
  1
AMDTFORMULAUPDATEDISPATCHER
  2
AmdtFormulaUpdateDispatcher
  3
AcMeServices
 90
        0
280
     0
281
     0
  0
ENDSEC
  0
SECTION
  2
TABLES
  0
TABLE
  2
VPORT
  5
7
330
0
100
AcDbSymbolTable
 70
     7
  0
VPORT
  5
8EB
330
7
100
AcDbSymbolTableRecord
100
AcDbViewportTableRecord
  2
*Active
 70
     0
 10
0.0
 20
0.0
 11
1.0
 21
1.0
 12
279.4048572273851
 22
212.9922677379629
 13
0.0
 23
0.0
 14
1.0
 24
1.0
 15
0.0
 25
0.0
 16
0.0
 26
0.0
 36
1.0
 17
0.0
 27
0.0
 37
0.0
 40
430.3024894911902
 41
1.666666666666666
 42
50.0
 43
0.0
 44
0.0
 50
0.0
 51
0.0
 71
     0
 72
   100
 73
     1
 74
     1
 75
     0
 76
     0
 77
     0
 78
     0
281
     0
 65
     0
110
0.0
120
0.0
130
0.0
111
1.0
121
0.0
131
0.0
112
0.0
122
1.0
132
0.0
 79
     0
146
0.0
  0
ENDTAB
  0
TABLE
  2
LTYPE
  5
4
330
0
100
AcDbSymbolTable
 70
    23
  0
LTYPE
  5
11
330
4
100
AcDbSymbolTableRecord
100
AcDbLinetypeTableRecord
  2
ByBlock
 70
     0
  3

 72
    65
 73
     0
 40
0.0
  0
LTYPE
  5
12
330
4
100
AcDbSymbolTableRecord
100
AcDbLinetypeTableRecord
  2
ByLayer
 70
     0
  3

 72
    65
 73
     0
 40
0.0
  0
LTYPE
  5
13
330
4
100
AcDbSymbolTableRecord
100
AcDbLinetypeTableRecord
  2
Continuous
 70
     0
  3
Solid line
 72
    65
 73
     0
 40
0.0
  0
LTYPE
  5
24
330
4
100
AcDbSymbolTableRecord
100
AcDbLinetypeTableRecord
  2
AUSGEZOGEN
 70
     0
  3

 72
    65
 73
     0
 40
0.0
  0
LTYPE
  5
25
330
4
100
AcDbSymbolTableRecord
100
AcDbLinetypeTableRecord
  2
VERDECKT
 70
     0
  3

 72
    65
 73
     2
 40
0.375
 49
0.25
 74
     0
 49
-0.125
 74
     0
  0
LTYPE
  5
26
330
4
100
AcDbSymbolTableRecord
100
AcDbLinetypeTableRecord
  2
STRICHPUNKT
 70
     0
  3

 72
    65
 73
     4
 40
1.0
 49
0.5
 74
     0
 49
-0.25
 74
     0
 49
0.0
 74
     0
 49
-0.25
 74
     0
  0
LTYPE
  5
27
330
4
100
AcDbSymbolTableRecord
100
AcDbLinetypeTableRecord
  2
PUNKT3
 70
     0
  3

 72
    65
 73
     2
 40
0.5
 49
0.25
 74
     0
 49
-0.25
 74
     0
  0
LTYPE
  5
43A
330
4
100
AcDbSymbolTableRecord
100
AcDbLinetypeTableRecord
  2
AM_ISO02W050
 70
     0
  3
__ __ __ __ __ __ __ __ __ __ __ __ __ __ __
 72
    65
 73
     2
 40
7.5
 49
6.0
 74
     0
 49
-1.5
 74
     0
  0
LTYPE
  5
43B
330
4
100
AcDbSymbolTableRecord
100
AcDbLinetypeTableRecord
  2
AM_ISO08W050
 70
     0
  3
____ . ____ . ____ . ____ . ____ . ____ . ____
 72
    65
 73
     4
 40
18.0
 49
12.0
 74
     0
 49
-1.5
 74
     0
 49
3.0
 74
     0
 49
-1.5
 74
     0
  0
LTYPE
  5
43C
330
4
100
AcDbSymbolTableRecord
100
AcDbLinetypeTableRecord
  2
AM_ISO09W050
 70
     0
  3
_____ . . _____ . . _____ . . ____ .. ____
 72
    65
 73
     6
 40
22.5
 49
12.0
 74
     0
 49
-1.5
 74
     0
 49
3.0
 74
     0
 49
-1.5
 74
     0
 49
3.0
 74
     0
 49
-1.5
 74
     0
  0
LTYPE
  5
43D
330
4
100
AcDbSymbolTableRecord
100
AcDbLinetypeTableRecord
  2
Amconstr
 70
     0
  3
_______________________
 72
    65
 73
     2
 40
9999.0
 49
9999.0
 74
     0
 49
0.0
 74
     0
  0
LTYPE
  5
43E
330
4
100
AcDbSymbolTableRecord
100
AcDbLinetypeTableRecord
  2
AM_ISO08W050x2
 70
     0
  3
__ . __ . __ . __ . __ . __
 72
    65
 73
     4
 40
9.0
 49
6.0
 74
     0
 49
-0.75
 74
     0
 49
1.5
 74
     0
 49
-0.75
 74
     0
  0
LTYPE
  5
43F
330
4
100
AcDbSymbolTableRecord
100
AcDbLinetypeTableRecord
  2
AM_ISO02W050x2
 70
     0
  3
 _ _ _ _ _ _ _ _ _ _ _ _
 72
    65
 73
     2
 40
3.75
 49
3.0
 74
     0
 49
-0.75
 74
     0
  0
LTYPE
  5
442
330
4
100
AcDbSymbolTableRecord
100
AcDbLinetypeTableRecord
  2
Amzigzag
 70
     0
  3
/\/-/\/-/\/-/\/-/\/-/\/
 72
    65
 73
     2
 40
11.00009999999999
 49
0.0001
 74
     4
 75
   135
340
441
 46
0.04
 50
0.0
 44
0.0
 45
0.0
 49
-11.0
 74
     0
  0
LTYPE
  5
443
330
4
100
AcDbSymbolTableRecord
100
AcDbLinetypeTableRecord
  2
HIDDEN
 70
     0
  3
Hidden __ __ __ __ __ __ __ __ __ __ __ __ __ _
 72
    65
 73
     2
 40
0.375
 49
0.25
 74
     0
 49
-0.125
 74
     0
  0
LTYPE
  5
444
330
4
100
AcDbSymbolTableRecord
100
AcDbLinetypeTableRecord
  2
CENTER
 70
     0
  3
Center ____ _ ____ _ ____ _ ____ _ ____ _ ____
 72
    65
 73
     4
 40
2.0
 49
1.25
 74
     0
 49
-0.25
 74
     0
 49
0.25
 74
     0
 49
-0.25
 74
     0
  0
LTYPE
  5
445
330
4
100
AcDbSymbolTableRecord
100
AcDbLinetypeTableRecord
  2
PHANTOM2
 70
     0
  3
Phantom (.5x) ___ _ _ ___ _ _ ___ _ _ ___ _ _
 72
    65
 73
     6
 40
1.25
 49
0.625
 74
     0
 49
-0.125
 74
     0
 49
0.125
 74
     0
 49
-0.125
 74
     0
 49
0.125
 74
     0
 49
-0.125
 74
     0
  0
LTYPE
  5
446
330
4
100
AcDbSymbolTableRecord
100
AcDbLinetypeTableRecord
  2
CENTER2
 70
     0
  3
Center (.5x) ___ _ ___ _ ___ _ ___ _ ___ _ ___
 72
    65
 73
     4
 40
1.125
 49
0.75
 74
     0
 49
-0.125
 74
     0
 49
0.125
 74
     0
 49
-0.125
 74
     0
  0
LTYPE
  5
447
330
4
100
AcDbSymbolTableRecord
100
AcDbLinetypeTableRecord
  2
HIDDEN2
 70
     0
  3
Hidden (.5x) _ _ _ _ _ _ _ _ _ _ _ _ _ _ _ _ _
 72
    65
 73
     2
 40
0.1875
 49
0.125
 74
     0
 49
-0.0625
 74
     0
  0
LTYPE
  5
448
330
4
100
AcDbSymbolTableRecord
100
AcDbLinetypeTableRecord
  2
Amzigzag2
 70
     0
  3
/\/-/\/-/\/-/\/-/\/-/\/
 72
    65
 73
     2
 40
0.4401
 49
0.0001
 74
     4
 75
   135
340
441
 46
0.0016
 50
0.0
 44
0.0
 45
0.0
 49
-0.4400000000000001
 74
     0
  0
LTYPE
  5
455
330
4
100
AcDbSymbolTableRecord
100
AcDbLinetypeTableRecord
  2
ACANSTGB
 70
     0
  3
__ . . __ . .
 72
    65
 73
     6
 40
0.35433070866
 49
0.15748031496
 74
     0
 49
-0.03937007874
 74
     0
 49
0.03937007874
 74
     0
 49
-0.03937007874
 74
     0
 49
0.03937007874
 74
     0
 49
-0.03937007874
 74
     0
  0
LTYPE
  5
456
330
4
100
AcDbSymbolTableRecord
100
AcDbLinetypeTableRecord
  2
ACANSTGL
 70
     0
  3
_ _ _ _ _
 72
    65
 73
     2
 40
0.11811023622
 49
0.07874015748
 74
     0
 49
-0.03937007874
 74
     0
  0
LTYPE
  5
4DD
330
4
100
AcDbSymbolTableRecord
100
AcDbLinetypeTableRecord
  2
MS
 70
     0
  3
MEDIUM_SOLID
 72
    65
 73
     0
 40
0.0
  0
LTYPE
  5
4DE
330
4
100
AcDbSymbolTableRecord
100
AcDbLinetypeTableRecord
  2
LS
 70
     0
  3
LIGHT_SOLID
 72
    65
 73
     0
 40
0.0
  0
LTYPE
  5
4DF
330
4
100
AcDbSymbolTableRecord
100
AcDbLinetypeTableRecord
  2
LP
 70
     0
  3
LIGHT_PHANTOM
 72
    65
 73
     6
 40
1.5
 49
0.75
 74
     0
 49
-0.14999998
 74
     0
 49
0.14999998
 74
     0
 49
-0.14999998
 74
     0
 49
0.14999998
 74
     0
 49
-0.14999998
 74
     0
  0
ENDTAB
  0
TABLE
  2
LAYER
  5
2
330
0
100
AcDbSymbolTable
 70
    10
  0
LAYER
  5
14
330
2
100
AcDbSymbolTableRecord
100
AcDbLayerTableRecord
  2
0
 70
     0
 62
     7
  6
Continuous
370
    -3
390
1D
  0
LAYER
  5
29
330
2
100
AcDbSymbolTableRecord
100
AcDbLayerTableRecord
  2
1
 70
     0
 62
     7
  6
Continuous
370
    -3
390
1F
  0
LAYER
  5
2A
330
2
100
AcDbSymbolTableRecord
100
AcDbLayerTableRecord
  2
2
 70
     0
 62
     7
  6
Continuous
370
    -3
390
1F
  0
LAYER
  5
2B
330
2
100
AcDbSymbolTableRecord
100
AcDbLayerTableRecord
  2
3
 70
     0
 62
     7
  6
Continuous
370
    -3
390
1F
  0
LAYER
  5
2C
330
2
100
AcDbSymbolTableRecord
100
AcDbLayerTableRecord
  2
4
 70
     0
 62
     7
  6
Continuous
370
    -3
390
1F
  0
LAYER
  5
2D
330
2
100
AcDbSymbolTableRecord
100
AcDbLayerTableRecord
  2
5
 70
     0
 62
     7
  6
Continuous
370
    -3
390
1F
  0
LAYER
  5
2E
330
2
100
AcDbSymbolTableRecord
100
AcDbLayerTableRecord
  2
10
 70
     0
 62
     7
  6
Continuous
370
    -3
390
1F
  0
LAYER
  5
46D
330
2
100
AcDbSymbolTableRecord
100
AcDbLayerTableRecord
  2
Defpoints
 70
     0
 62
     7
  6
Continuous
290
     0
370
    -3
390
1D
  0
LAYER
  5
4E0
330
2
100
AcDbSymbolTableRecord
100
AcDbLayerTableRecord
  2
BORDER
 70
     0
 62
    15
  6
Continuous
370
    -3
390
1D
  0
LAYER
  5
4E1
330
2
100
AcDbSymbolTableRecord
100
AcDbLayerTableRecord
  2
TITLE BLOCK
 70
     0
 62
     2
  6
Continuous
370
    -3
390
1D
  0
ENDTAB
  0
TABLE
  2
STYLE
  5
3
330
0
100
AcDbSymbolTable
 70
     8
  0
STYLE
  5
17
330
3
100
AcDbSymbolTableRecord
100
AcDbTextStyleTableRecord
  2
TXT
 70
     0
 40
3.5
 41
1.0
 50
0.0
 71
     0
 42
3.5
  3
TXT
  4

  0
STYLE
  5
28
330
3
100
AcDbSymbolTableRecord
100
AcDbTextStyleTableRecord
  2
ARIAL
 70
     0
 40
3.5
 41
1.0
 50
0.0
 71
     0
 42
3.5
  3
ARIAL
  4

  0
STYLE
  5
441
330
3
100
AcDbSymbolTableRecord
100
AcDbTextStyleTableRecord
  2

 70
     1
 40
0.0
 41
1.0
 50
0.0
 71
     0
 42
0.2
  3
ltypeshp.shx
  4

  0
STYLE
  5
449
330
3
100
AcDbSymbolTableRecord
100
AcDbTextStyleTableRecord
  2
ACANSTS
 70
     0
 40
1.0
 41
1.0
 50
0.0
 71
     0
 42
0.2
  3
romans.shx
  4

  0
STYLE
  5
454
330
3
100
AcDbSymbolTableRecord
100
AcDbTextStyleTableRecord
  2
ACANSGDT
 70
     0
 40
0.0
 41
1.0
 50
0.0
 71
     0
 42
0.2
  3
amgdtans.shx
  4

  0
STYLE
  5
4E2
330
3
100
AcDbSymbolTableRecord
100
AcDbTextStyleTableRecord
  2
STANDARD
 70
     0
 40
0.0
 41
1.0
 50
0.0
 71
     0
 42
2.5
  3
migrator.shx
  4

  0
STYLE
  5
4E3
330
3
100
AcDbSymbolTableRecord
100
AcDbTextStyleTableRecord
  2
AE
 70
     0
 40
0.0
 41
1.0
 50
0.0
 71
     0
 42
0.16408998
  3
MIGRATOR
  4

  0
STYLE
  5
4E4
330
3
100
AcDbSymbolTableRecord
100
AcDbTextStyleTableRecord
  2

 70
     1
 40
0.0
 41
1.0
 50
0.0
 71
     0
 42
1.0
  3
symtb128
  4

  0
ENDTAB
  0
TABLE
  2
VIEW
  5
5
330
0
100
AcDbSymbolTable
 70
     0
  0
ENDTAB
  0
TABLE
  2
UCS
  5
6
330
0
100
AcDbSymbolTable
 70
     0
  0
ENDTAB
  0
TABLE
  2
APPID
  5
8
330
0
100
AcDbSymbolTable
 70
     9
  0
APPID
  5
16
330
8
100
AcDbSymbolTableRecord
100
AcDbRegAppTableRecord
  2
ACAD
 70
     0
  0
APPID
  5
2F
330
8
100
AcDbSymbolTableRecord
100
AcDbRegAppTableRecord
  2
MegaCADPntStyle
 70
     0
  0
APPID
  5
41A
330
8
100
AcDbSymbolTableRecord
100
AcDbRegAppTableRecord
  2
MCAD_NO_VIS
 70
     0
  0
APPID
  5
41B
330
8
100
AcDbSymbolTableRecord
100
AcDbRegAppTableRecord
  2
ACAD_TEMP_GRAPHIC
 70
     0
  0
APPID
  5
42E
330
8
100
AcDbSymbolTableRecord
100
AcDbRegAppTableRecord
  2
ACATTRIBSERVICES
 70
     0
  0
APPID
  5
4E6
330
8
100
AcDbSymbolTableRecord
100
AcDbRegAppTableRecord
  2
GENIUS_GENBLLY_14
 70
     0
  0
APPID
  5
4E7
330
8
100
AcDbSymbolTableRecord
100
AcDbRegAppTableRecord
  2
GENIUS_GENTRA_14
 70
     0
  0
APPID
  5
67B
330
8
100
AcDbSymbolTableRecord
100
AcDbRegAppTableRecord
  2
GENIUS_GENDTOL_13
 70
     0
  0
APPID
  5
6D1
330
8
100
AcDbSymbolTableRecord
100
AcDbRegAppTableRecord
  2
DCO15
 70
     0
  0
ENDTAB
  0
TABLE
  2
DIMSTYLE
  5
9
330
0
100
AcDbSymbolTable
 70
     9
100
AcDbDimStyleTable
 71
     0
  0
DIMSTYLE
105
18
330
9
100
AcDbSymbolTableRecord
100
AcDbDimStyleTableRecord
  2
Standard
 70
     0
289
     0
340
17
  0
DIMSTYLE
105
30
102
{ACAD_REACTORS
330
7E
330
7F
330
80
330
81
330
A2
330
A3
330
A4
330
A6
330
D0
330
122
330
123
330
124
330
125
330
162
330
163
330
18E
330
18F
330
190
330
199
330
19A
330
19D
102
}
330
9
100
AcDbSymbolTableRecord
100
AcDbDimStyleTableRecord
  2
DIMS0
 70
     0
 41
3.0
 42
0.1
 43
7.0
 44
1.709999999999999
 73
     0
 74
     0
 77
     1
140
3.0
141
1.5
178
    54
289
     0
340
17
  0
DIMSTYLE
105
45A
330
9
100
AcDbSymbolTableRecord
100
AcDbDimStyleTableRecord
  2
AM_ANSI
 70
     0
  4
mm
 41
0.1
 42
0.05
 43
0.5
 44
0.1
 47
0.1
 48
0.1
 78
     7
 79
     2
140
0.12
141
0.0
146
0.71
147
0.06
176
   256
177
   256
178
     2
274
     4
284
     7
340
17
371
    -1
372
    -1
  0
DIMSTYLE
105
45B
330
9
100
AcDbSymbolTableRecord
100
AcDbDimStyleTableRecord
  2
AM_ANSI$3
 70
     0
  4
mm
 41
0.1
 42
0.05
 43
0.5
 44
0.1
 47
0.1
 48
0.1
 78
     7
 79
     2
140
0.12
141
0.0
146
0.71
147
0.06
176
   256
177
   256
178
     2
274
     4
284
     7
288
     1
289
     0
340
17
371
    -1
372
    -1
  0
DIMSTYLE
105
45C
330
9
100
AcDbSymbolTableRecord
100
AcDbDimStyleTableRecord
  2
AM_ANSI$4
 70
     0
  4
mm
 41
0.1
 42
0.05
 43
0.5
 44
0.1
 47
0.1
 48
0.1
 78
     7
 79
     2
140
0.12
141
0.0
146
0.71
147
0.06
176
   256
177
   256
178
     2
274
     4
284
     7
288
     1
289
     0
340
17
371
    -1
372
    -1
  0
DIMSTYLE
105
45D
330
9
100
AcDbSymbolTableRecord
100
AcDbDimStyleTableRecord
  2
AM_ANSI$7
 70
     0
  4
mm
 41
0.1
 42
0.05
 43
0.5
 44
0.1
 47
0.1
 48
0.1
 78
     7
 79
     2
140
0.24
141
0.0
146
0.71
147
0.06
176
   256
177
   256
178
     2
274
     4
284
     7
340
17
371
    -1
372
    -1
  0
DIMSTYLE
105
45E
330
9
100
AcDbSymbolTableRecord
100
AcDbDimStyleTableRecord
  2
AM_ANSI$SF
 70
     0
  4
mm
 41
0.1
 42
0.05
 43
0.5
 44
0.1
 47
0.1
 48
0.1
 75
     1
 76
     1
 78
     7
 79
     2
140
0.12
141
0.0
146
0.71
147
0.06
176
   256
177
   256
178
     2
274
     4
284
     7
340
17
371
    -1
372
    -1
  0
DIMSTYLE
105
463
330
9
100
AcDbSymbolTableRecord
100
AcDbDimStyleTableRecord
  2
AM_ANSI$SH
 70
     0
  4
mm
 41
0.1
 42
0.05
 43
0.5
 44
0.1
 47
0.1
 48
0.1
 75
     1
 76
     1
 78
     7
 79
     2
140
0.12
141
0.0
146
0.71
147
0.06
173
     1
176
   256
177
   256
178
     2
274
     4
284
     7
340
17
343
45F
371
    -1
372
    -1
  0
DIMSTYLE
105
4E5
330
9
100
AcDbSymbolTableRecord
100
AcDbDimStyleTableRecord
  2
GEN-ANSI
 70
     0
  3
<>
  4
mm
 41
0.14
 42
0.125
 43
0.5
 44
0.125
 47
0.1
 48
0.1
 73
     0
 74
     0
 77
     1
 78
     7
140
0.12
141
0.0
146
0.71
147
0.06
176
   256
177
   256
178
     2
274
     4
340
4E2
  0
ENDTAB
  0
TABLE
  2
BLOCK_RECORD
  5
1
330
0
100
AcDbSymbolTable
 70
    40
  0
BLOCK_RECORD
  5
A
102
{ACAD_XDICTIONARY
360
6D3
102
}
330
1
100
AcDbSymbolTableRecord
100
AcDbBlockTableRecord
  2
*MODEL_SPACE
340
20
  0
BLOCK_RECORD
  5
B
330
1
100
AcDbSymbolTableRecord
100
AcDbBlockTableRecord
  2
*PAPER_SPACE
340
21
  0
BLOCK_RECORD
  5
31
330
1
100
AcDbSymbolTableRecord
100
AcDbBlockTableRecord
  2
ELIPPSE
340
0
  0
BLOCK_RECORD
  5
32
330
1
100
AcDbSymbolTableRecord
100
AcDbBlockTableRecord
  2
M25-KOPF_1
340
0
102
{BLKREFS
331
57
102
}
  0
BLOCK_RECORD
  5
33
330
1
100
AcDbSymbolTableRecord
100
AcDbBlockTableRecord
  2
M25-KOPF_2
340
0
102
{BLKREFS
331
58
102
}
  0
BLOCK_RECORD
  5
34
330
1
100
AcDbSymbolTableRecord
100
AcDbBlockTableRecord
  2
M25-KOPF_3
340
0
102
{BLKREFS
331
59
102
}
  0
BLOCK_RECORD
  5
35
330
1
100
AcDbSymbolTableRecord
100
AcDbBlockTableRecord
  2
M25-KOPF_4
340
0
102
{BLKREFS
331
5A
102
}
  0
BLOCK_RECORD
  5
36
330
1
100
AcDbSymbolTableRecord
100
AcDbBlockTableRecord
  2
M25-KOPF_5
340
0
102
{BLKREFS
331
5B
102
}
  0
BLOCK_RECORD
  5
37
330
1
100
AcDbSymbolTableRecord
100
AcDbBlockTableRecord
  2
M25-KOPF_6
340
0
102
{BLKREFS
331
5C
102
}
  0
BLOCK_RECORD
  5
38
330
1
100
AcDbSymbolTableRecord
100
AcDbBlockTableRecord
  2
M25-KOPF_7
340
0
102
{BLKREFS
331
5D
102
}
  0
BLOCK_RECORD
  5
39
330
1
100
AcDbSymbolTableRecord
100
AcDbBlockTableRecord
  2
M25-KOPF_8
340
0
102
{BLKREFS
331
5E
102
}
  0
BLOCK_RECORD
  5
3A
330
1
100
AcDbSymbolTableRecord
100
AcDbBlockTableRecord
  2
M3D_9
340
0
102
{BLKREFS
331
5F
102
}
  0
BLOCK_RECORD
  5
3B
330
1
100
AcDbSymbolTableRecord
100
AcDbBlockTableRecord
  2
M3D_10
340
0
102
{BLKREFS
331
60
102
}
  0
BLOCK_RECORD
  5
3C
330
1
100
AcDbSymbolTableRecord
100
AcDbBlockTableRecord
  2
25X8_11
340
0
102
{BLKREFS
331
61
102
}
  0
BLOCK_RECORD
  5
3D
330
1
100
AcDbSymbolTableRecord
100
AcDbBlockTableRecord
  2
25X8_12
340
0
102
{BLKREFS
331
62
102
}
  0
BLOCK_RECORD
  5
3E
330
1
100
AcDbSymbolTableRecord
100
AcDbBlockTableRecord
  2
ZEICHNUNGS-LOGO UND ADR_13
340
0
102
{BLKREFS
331
63
102
}
  0
BLOCK_RECORD
  5
3F
330
1
100
AcDbSymbolTableRecord
100
AcDbBlockTableRecord
  2
ZEICHNUNGS-LOGO UND ADR_14
340
0
102
{BLKREFS
331
64
102
}
  0
BLOCK_RECORD
  5
40
330
1
100
AcDbSymbolTableRecord
100
AcDbBlockTableRecord
  2
ZEICHNUNGS-LOGO UND ADR_15
340
0
102
{BLKREFS
331
65
102
}
  0
BLOCK_RECORD
  5
41
330
1
100
AcDbSymbolTableRecord
100
AcDbBlockTableRecord
  2
A2_16
340
0
  0
BLOCK_RECORD
  5
42
330
1
100
AcDbSymbolTableRecord
100
AcDbBlockTableRecord
  2
*D17
340
0
  0
BLOCK_RECORD
  5
43
330
1
100
AcDbSymbolTableRecord
100
AcDbBlockTableRecord
  2
*D18
340
0
  0
BLOCK_RECORD
  5
44
330
1
100
AcDbSymbolTableRecord
100
AcDbBlockTableRecord
  2
*D19
340
0
  0
BLOCK_RECORD
  5
45
330
1
100
AcDbSymbolTableRecord
100
AcDbBlockTableRecord
  2
*D20
340
0
  0
BLOCK_RECORD
  5
46
330
1
100
AcDbSymbolTableRecord
100
AcDbBlockTableRecord
  2
*D21
340
0
  0
BLOCK_RECORD
  5
47
330
1
100
AcDbSymbolTableRecord
100
AcDbBlockTableRecord
  2
*D22
340
0
  0
BLOCK_RECORD
  5
48
330
1
100
AcDbSymbolTableRecord
100
AcDbBlockTableRecord
  2
*D23
340
0
  0
BLOCK_RECORD
  5
49
330
1
100
AcDbSymbolTableRecord
100
AcDbBlockTableRecord
  2
*D24
340
0
  0
BLOCK_RECORD
  5
4A
330
1
100
AcDbSymbolTableRecord
100
AcDbBlockTableRecord
  2
*D25
340
0
  0
BLOCK_RECORD
  5
4B
330
1
100
AcDbSymbolTableRecord
100
AcDbBlockTableRecord
  2
*D26
340
0
  0
BLOCK_RECORD
  5
4C
330
1
100
AcDbSymbolTableRecord
100
AcDbBlockTableRecord
  2
*D27
340
0
  0
BLOCK_RECORD
  5
4D
330
1
100
AcDbSymbolTableRecord
100
AcDbBlockTableRecord
  2
*D28
340
0
  0
BLOCK_RECORD
  5
4E
330
1
100
AcDbSymbolTableRecord
100
AcDbBlockTableRecord
  2
*D29
340
0
  0
BLOCK_RECORD
  5
4F
330
1
100
AcDbSymbolTableRecord
100
AcDbBlockTableRecord
  2
*D30
340
0
  0
BLOCK_RECORD
  5
50
330
1
100
AcDbSymbolTableRecord
100
AcDbBlockTableRecord
  2
*D31
340
0
  0
BLOCK_RECORD
  5
51
330
1
100
AcDbSymbolTableRecord
100
AcDbBlockTableRecord
  2
*D32
340
0
  0
BLOCK_RECORD
  5
52
330
1
100
AcDbSymbolTableRecord
100
AcDbBlockTableRecord
  2
*D33
340
0
  0
BLOCK_RECORD
  5
53
330
1
100
AcDbSymbolTableRecord
100
AcDbBlockTableRecord
  2
*D34
340
0
  0
BLOCK_RECORD
  5
54
330
1
100
AcDbSymbolTableRecord
100
AcDbBlockTableRecord
  2
*D35
340
0
  0
BLOCK_RECORD
  5
55
330
1
100
AcDbSymbolTableRecord
100
AcDbBlockTableRecord
  2
*D36
340
0
  0
BLOCK_RECORD
  5
56
330
1
100
AcDbSymbolTableRecord
100
AcDbBlockTableRecord
  2
*D37
340
0
  0
BLOCK_RECORD
  5
45F
330
1
100
AcDbSymbolTableRecord
100
AcDbBlockTableRecord
  2
GENAXEH
340
0
  0
BLOCK_RECORD
  5
4E8
330
1
100
AcDbSymbolTableRecord
100
AcDbBlockTableRecord
  2
METRIC_C
340
0
102
{BLKREFS
331
59F
102
}
  0
ENDTAB
  0
ENDSEC
  0
SECTION
  2
BLOCKS
  0
BLOCK
  5
D
330
A
100
AcDbEntity
  8
0
100
AcDbBlockBegin
  2
*MODEL_SPACE
 70
     0
 71
     1
 10
0.0
 20
0.0
 30
0.0
  3
*MODEL_SPACE
  1

  0
ENDBLK
  5
E
330
A
100
AcDbEntity
  8
0
100
AcDbBlockEnd
  0
BLOCK
  5
F
330
B
100
AcDbEntity
 67
     1
  8
0
100
AcDbBlockBegin
  2
*PAPER_SPACE
 70
     0
 71
     1
 10
0.0
 20
0.0
 30
0.0
  3
*PAPER_SPACE
  1

  0
ENDBLK
  5
10
330
B
100
AcDbEntity
 67
     1
  8
0
100
AcDbBlockEnd
  0
BLOCK
  5
1A5
330
31
100
AcDbEntity
  8
0
100
AcDbBlockBegin
  2
ELIPPSE
 70
     0
 71
     1
 10
0.0
 20
0.0
 30
0.0
  3
ELIPPSE
  1

  0
CIRCLE
  5
1A6
330
31
100
AcDbEntity
  8
0
  6
ByBlock
 62
     0
100
AcDbCircle
 10
0.0
 20
0.0
 30
0.0
 40
1.0
  0
ENDBLK
  5
1A7
330
31
100
AcDbEntity
  8
0
  6
ByBlock
 62
     0
100
AcDbBlockEnd
  0
BLOCK
  5
1A8
330
32
100
AcDbEntity
  8
0
100
AcDbBlockBegin
  2
M25-KOPF_1
 70
     0
 71
     1
 10
0.0
 20
0.0
 30
0.0
  3
M25-KOPF_1
  1

  0
LINE
  5
1A9
330
32
100
AcDbEntity
  8
5
  6
AUSGEZOGEN
 62
    14
100
AcDbLine
 10
1.499999999939973
 20
2.166666666580226
 30
0.0
 11
1.499999999939973
 21
-2.166666666579999
 31
0.0
  0
LINE
  5
1AA
330
32
100
AcDbEntity
  8
5
  6
AUSGEZOGEN
 62
    14
100
AcDbLine
 10
0.0
 20
2.333333333240375
 30
0.0
 11
1.499999999939973
 21
2.166666666580226
 31
0.0
  0
LINE
  5
1AB
330
32
100
AcDbEntity
  8
5
  6
AUSGEZOGEN
 62
    14
100
AcDbLine
 10
1.499999999939973
 20
-2.166666666579999
 30
0.0
 11
0.0
 21
-2.333333333240148
 31
0.0
  0
ARC
  5
1AC
330
32
100
AcDbEntity
  8
5
  6
AUSGEZOGEN
 62
    14
100
AcDbCircle
 10
-2.944444444326791
 20
0.0000000000001137
 30
0.0
 40
4.944444444246812
100
AcDbArc
 50
2.898213389674822
 51
25.98923358383257
  0
ARC
  5
1AD
330
32
100
AcDbEntity
  8
5
  6
AUSGEZOGEN
 62
    14
100
AcDbCircle
 10
-2.944444444326791
 20
0.0000000000001137
 30
0.0
 40
4.944444444246812
100
AcDbArc
 50
334.0107664161674
 51
357.1017866103251
  0
LINE
  5
1AE
330
32
100
AcDbEntity
  8
5
  6
AUSGEZOGEN
 62
    14
100
AcDbLine
 10
1.999999999919964
 20
0.2499999999901092
 30
0.0
 11
1.749999999930196
 21
0.2499999999901092
 31
0.0
  0
LINE
  5
1AF
330
32
100
AcDbEntity
  8
5
  6
AUSGEZOGEN
 62
    14
100
AcDbLine
 10
1.993675730623181
 20
-0.2499999999898819
 30
0.0
 11
1.749999999930196
 21
-0.2499999999898819
 31
0.0
  0
LINE
  5
1B0
330
32
100
AcDbEntity
  8
5
  6
AUSGEZOGEN
 62
    14
100
AcDbLine
 10
1.749999999930196
 20
-0.2499999999898819
 30
0.0
 11
1.749999999930196
 21
0.2499999999901092
 31
0.0
  0
LINE
  5
1B1
330
32
100
AcDbEntity
  8
5
  6
VERDECKT
 62
   214
100
AcDbLine
 10
1.710633759601478
 20
1.666666666600235
 30
0.0
 11
0.4166666666501442
 21
0.0000000000001137
 31
0.0
  0
LINE
  5
1B2
330
32
100
AcDbEntity
  8
5
  6
VERDECKT
 62
   214
100
AcDbLine
 10
0.4166666666501442
 20
0.0000000000001137
 30
0.0
 11
1.710633759601478
 21
-1.666666666600008
 31
0.0
  0
LINE
  5
1B3
330
32
100
AcDbEntity
  8
5
  6
VERDECKT
 62
   214
100
AcDbLine
 10
0.6107617305926852
 20
0.2499999999901092
 30
0.0
 11
0.6107617305926852
 21
-0.2499999999898819
 31
0.0
  0
LINE
  5
1B4
330
32
100
AcDbEntity
  8
5
  6
VERDECKT
 62
   214
100
AcDbLine
 10
1.749999999930196
 20
0.2499999999901092
 30
0.0
 11
0.6107617305926852
 21
0.2499999999901092
 31
0.0
  0
LINE
  5
1B5
330
32
100
AcDbEntity
  8
5
  6
VERDECKT
 62
   214
100
AcDbLine
 10
0.6107617305926852
 20
-0.2499999999898819
 30
0.0
 11
1.749999999930196
 21
-0.2499999999898819
 31
0.0
  0
ENDBLK
  5
1B6
330
32
100
AcDbEntity
  8
0
  6
ByBlock
 62
     0
100
AcDbBlockEnd
  0
BLOCK
  5
1B7
330
33
100
AcDbEntity
  8
0
100
AcDbBlockBegin
  2
M25-KOPF_2
 70
     0
 71
     1
 10
0.0
 20
0.0
 30
0.0
  3
M25-KOPF_2
  1

  0
LINE
  5
1B8
330
33
100
AcDbEntity
  8
5
  6
AUSGEZOGEN
 62
    14
100
AcDbLine
 10
1.499999999939973
 20
2.166666666580226
 30
0.0
 11
1.499999999939973
 21
-2.166666666579999
 31
0.0
  0
LINE
  5
1B9
330
33
100
AcDbEntity
  8
5
  6
AUSGEZOGEN
 62
    14
100
AcDbLine
 10
0.0
 20
2.33333333323992
 30
0.0
 11
1.499999999939973
 21
2.166666666580226
 31
0.0
  0
LINE
  5
1BA
330
33
100
AcDbEntity
  8
5
  6
AUSGEZOGEN
 62
    14
100
AcDbLine
 10
1.499999999939973
 20
-2.166666666579999
 30
0.0
 11
0.0
 21
-2.333333333240148
 31
0.0
  0
ARC
  5
1BB
330
33
100
AcDbEntity
  8
5
  6
AUSGEZOGEN
 62
    14
100
AcDbCircle
 10
-2.944444444326791
 20
0.0000000000001137
 30
0.0
 40
4.944444444246812
100
AcDbArc
 50
2.898213389674822
 51
25.98923358383257
  0
ARC
  5
1BC
330
33
100
AcDbEntity
  8
5
  6
AUSGEZOGEN
 62
    14
100
AcDbCircle
 10
-2.944444444326791
 20
0.0000000000001137
 30
0.0
 40
4.944444444246812
100
AcDbArc
 50
334.0107664161674
 51
357.1017866103251
  0
LINE
  5
1BD
330
33
100
AcDbEntity
  8
5
  6
AUSGEZOGEN
 62
    14
100
AcDbLine
 10
1.999999999919964
 20
0.2499999999901092
 30
0.0
 11
1.749999999930196
 21
0.2499999999901092
 31
0.0
  0
LINE
  5
1BE
330
33
100
AcDbEntity
  8
5
  6
AUSGEZOGEN
 62
    14
100
AcDbLine
 10
1.993675730623181
 20
-0.2499999999898819
 30
0.0
 11
1.749999999930196
 21
-0.2499999999898819
 31
0.0
  0
LINE
  5
1BF
330
33
100
AcDbEntity
  8
5
  6
AUSGEZOGEN
 62
    14
100
AcDbLine
 10
1.749999999930196
 20
-0.2499999999898819
 30
0.0
 11
1.749999999930196
 21
0.2499999999901092
 31
0.0
  0
LINE
  5
1C0
330
33
100
AcDbEntity
  8
5
  6
VERDECKT
 62
   214
100
AcDbLine
 10
1.710633759601478
 20
1.666666666600235
 30
0.0
 11
0.4166666666501442
 21
0.0000000000001137
 31
0.0
  0
LINE
  5
1C1
330
33
100
AcDbEntity
  8
5
  6
VERDECKT
 62
   214
100
AcDbLine
 10
0.4166666666501442
 20
0.0000000000001137
 30
0.0
 11
1.710633759601478
 21
-1.666666666600008
 31
0.0
  0
LINE
  5
1C2
330
33
100
AcDbEntity
  8
5
  6
VERDECKT
 62
   214
100
AcDbLine
 10
0.6107617305926852
 20
0.2499999999901092
 30
0.0
 11
0.6107617305926852
 21
-0.2499999999898819
 31
0.0
  0
LINE
  5
1C3
330
33
100
AcDbEntity
  8
5
  6
VERDECKT
 62
   214
100
AcDbLine
 10
1.749999999930196
 20
0.2499999999901092
 30
0.0
 11
0.6107617305926852
 21
0.2499999999901092
 31
0.0
  0
LINE
  5
1C4
330
33
100
AcDbEntity
  8
5
  6
VERDECKT
 62
   214
100
AcDbLine
 10
0.6107617305926852
 20
-0.2499999999898819
 30
0.0
 11
1.749999999930196
 21
-0.2499999999898819
 31
0.0
  0
ENDBLK
  5
1C5
330
33
100
AcDbEntity
  8
0
  6
ByBlock
 62
     0
100
AcDbBlockEnd
  0
BLOCK
  5
1C6
330
34
100
AcDbEntity
  8
0
100
AcDbBlockBegin
  2
M25-KOPF_3
 70
     0
 71
     1
 10
0.0
 20
0.0
 30
0.0
  3
M25-KOPF_3
  1

  0
LINE
  5
1C7
330
34
100
AcDbEntity
  8
5
  6
AUSGEZOGEN
 62
    14
100
AcDbLine
 10
1.499999999939973
 20
2.166666666579999
 30
0.0
 11
1.499999999939973
 21
-2.166666666580226
 31
0.0
  0
LINE
  5
1C8
330
34
100
AcDbEntity
  8
5
  6
AUSGEZOGEN
 62
    14
100
AcDbLine
 10
-0.0000000000004547
 20
2.333333333240148
 30
0.0
 11
1.499999999939973
 21
2.166666666579999
 31
0.0
  0
LINE
  5
1C9
330
34
100
AcDbEntity
  8
5
  6
AUSGEZOGEN
 62
    14
100
AcDbLine
 10
1.499999999939973
 20
-2.166666666580226
 30
0.0
 11
-0.0000000000004547
 21
-2.333333333240375
 31
0.0
  0
ARC
  5
1CA
330
34
100
AcDbEntity
  8
5
  6
AUSGEZOGEN
 62
    14
100
AcDbCircle
 10
-2.944444444327018
 20
-0.0000000000001137
 30
0.0
 40
4.944444444246812
100
AcDbArc
 50
2.898213389674822
 51
25.98923358383257
  0
ARC
  5
1CB
330
34
100
AcDbEntity
  8
5
  6
AUSGEZOGEN
 62
    14
100
AcDbCircle
 10
-2.944444444327018
 20
-0.0000000000001137
 30
0.0
 40
4.944444444246812
100
AcDbArc
 50
334.0107664161674
 51
357.1017866103251
  0
LINE
  5
1CC
330
34
100
AcDbEntity
  8
5
  6
AUSGEZOGEN
 62
    14
100
AcDbLine
 10
1.999999999919964
 20
0.2499999999898819
 30
0.0
 11
1.749999999929968
 21
0.2499999999898819
 31
0.0
  0
LINE
  5
1CD
330
34
100
AcDbEntity
  8
5
  6
AUSGEZOGEN
 62
    14
100
AcDbLine
 10
1.993675730623181
 20
-0.2499999999901092
 30
0.0
 11
1.749999999929968
 21
-0.2499999999901092
 31
0.0
  0
LINE
  5
1CE
330
34
100
AcDbEntity
  8
5
  6
AUSGEZOGEN
 62
    14
100
AcDbLine
 10
1.749999999929968
 20
-0.2499999999901092
 30
0.0
 11
1.749999999929968
 21
0.2499999999898819
 31
0.0
  0
LINE
  5
1CF
330
34
100
AcDbEntity
  8
5
  6
VERDECKT
 62
   214
100
AcDbLine
 10
1.71063375960125
 20
1.666666666600008
 30
0.0
 11
0.4166666666499168
 21
-0.0000000000001137
 31
0.0
  0
LINE
  5
1D0
330
34
100
AcDbEntity
  8
5
  6
VERDECKT
 62
   214
100
AcDbLine
 10
0.4166666666499168
 20
-0.0000000000001137
 30
0.0
 11
1.71063375960125
 21
-1.666666666600235
 31
0.0
  0
LINE
  5
1D1
330
34
100
AcDbEntity
  8
5
  6
VERDECKT
 62
   214
100
AcDbLine
 10
0.6107617305924578
 20
0.2499999999898819
 30
0.0
 11
0.6107617305924578
 21
-0.2499999999901092
 31
0.0
  0
LINE
  5
1D2
330
34
100
AcDbEntity
  8
5
  6
VERDECKT
 62
   214
100
AcDbLine
 10
1.749999999929968
 20
0.2499999999898819
 30
0.0
 11
0.6107617305924578
 21
0.2499999999898819
 31
0.0
  0
LINE
  5
1D3
330
34
100
AcDbEntity
  8
5
  6
VERDECKT
 62
   214
100
AcDbLine
 10
0.6107617305924578
 20
-0.2499999999901092
 30
0.0
 11
1.749999999929968
 21
-0.2499999999901092
 31
0.0
  0
ENDBLK
  5
1D4
330
34
100
AcDbEntity
  8
0
  6
ByBlock
 62
     0
100
AcDbBlockEnd
  0
BLOCK
  5
1D5
330
35
100
AcDbEntity
  8
0
100
AcDbBlockBegin
  2
M25-KOPF_4
 70
     0
 71
     1
 10
0.0
 20
0.0
 30
0.0
  3
M25-KOPF_4
  1

  0
LINE
  5
1D6
330
35
100
AcDbEntity
  8
5
  6
AUSGEZOGEN
 62
    14
100
AcDbLine
 10
1.499999999939973
 20
2.166666666579999
 30
0.0
 11
1.499999999939973
 21
-2.166666666580226
 31
0.0
  0
LINE
  5
1D7
330
35
100
AcDbEntity
  8
5
  6
AUSGEZOGEN
 62
    14
100
AcDbLine
 10
-0.0000000000004547
 20
2.333333333239693
 30
0.0
 11
1.499999999939973
 21
2.166666666579999
 31
0.0
  0
LINE
  5
1D8
330
35
100
AcDbEntity
  8
5
  6
AUSGEZOGEN
 62
    14
100
AcDbLine
 10
1.499999999939973
 20
-2.166666666580226
 30
0.0
 11
-0.0000000000004547
 21
-2.333333333240375
 31
0.0
  0
ARC
  5
1D9
330
35
100
AcDbEntity
  8
5
  6
AUSGEZOGEN
 62
    14
100
AcDbCircle
 10
-2.944444444327018
 20
-0.0000000000001137
 30
0.0
 40
4.944444444246812
100
AcDbArc
 50
2.898213389674822
 51
25.98923358383257
  0
ARC
  5
1DA
330
35
100
AcDbEntity
  8
5
  6
AUSGEZOGEN
 62
    14
100
AcDbCircle
 10
-2.944444444327018
 20
-0.0000000000001137
 30
0.0
 40
4.944444444246812
100
AcDbArc
 50
334.0107664161674
 51
357.1017866103251
  0
LINE
  5
1DB
330
35
100
AcDbEntity
  8
5
  6
AUSGEZOGEN
 62
    14
100
AcDbLine
 10
1.999999999919964
 20
0.2499999999898819
 30
0.0
 11
1.749999999929968
 21
0.2499999999898819
 31
0.0
  0
LINE
  5
1DC
330
35
100
AcDbEntity
  8
5
  6
AUSGEZOGEN
 62
    14
100
AcDbLine
 10
1.993675730623181
 20
-0.2499999999901092
 30
0.0
 11
1.749999999929968
 21
-0.2499999999901092
 31
0.0
  0
LINE
  5
1DD
330
35
100
AcDbEntity
  8
5
  6
AUSGEZOGEN
 62
    14
100
AcDbLine
 10
1.749999999929968
 20
-0.2499999999901092
 30
0.0
 11
1.749999999929968
 21
0.2499999999898819
 31
0.0
  0
LINE
  5
1DE
330
35
100
AcDbEntity
  8
5
  6
VERDECKT
 62
   214
100
AcDbLine
 10
1.71063375960125
 20
1.666666666600008
 30
0.0
 11
0.4166666666499168
 21
-0.0000000000001137
 31
0.0
  0
LINE
  5
1DF
330
35
100
AcDbEntity
  8
5
  6
VERDECKT
 62
   214
100
AcDbLine
 10
0.4166666666499168
 20
-0.0000000000001137
 30
0.0
 11
1.71063375960125
 21
-1.666666666600235
 31
0.0
  0
LINE
  5
1E0
330
35
100
AcDbEntity
  8
5
  6
VERDECKT
 62
   214
100
AcDbLine
 10
0.6107617305924578
 20
0.2499999999898819
 30
0.0
 11
0.6107617305924578
 21
-0.2499999999901092
 31
0.0
  0
LINE
  5
1E1
330
35
100
AcDbEntity
  8
5
  6
VERDECKT
 62
   214
100
AcDbLine
 10
1.749999999929968
 20
0.2499999999898819
 30
0.0
 11
0.6107617305924578
 21
0.2499999999898819
 31
0.0
  0
LINE
  5
1E2
330
35
100
AcDbEntity
  8
5
  6
VERDECKT
 62
   214
100
AcDbLine
 10
0.6107617305924578
 20
-0.2499999999901092
 30
0.0
 11
1.749999999929968
 21
-0.2499999999901092
 31
0.0
  0
ENDBLK
  5
1E3
330
35
100
AcDbEntity
  8
0
  6
ByBlock
 62
     0
100
AcDbBlockEnd
  0
BLOCK
  5
1E4
330
36
100
AcDbEntity
  8
0
100
AcDbBlockBegin
  2
M25-KOPF_5
 70
     0
 71
     1
 10
0.0
 20
0.0
 30
0.0
  3
M25-KOPF_5
  1

  0
LINE
  5
1E5
330
36
100
AcDbEntity
  8
5
  6
AUSGEZOGEN
 62
    14
100
AcDbLine
 10
1.499999999939973
 20
2.166666666580113
 30
0.0
 11
1.499999999939973
 21
-2.166666666580113
 31
0.0
  0
LINE
  5
1E6
330
36
100
AcDbEntity
  8
5
  6
AUSGEZOGEN
 62
    14
100
AcDbLine
 10
0.0
 20
2.333333333240261
 30
0.0
 11
1.499999999939973
 21
2.166666666580113
 31
0.0
  0
LINE
  5
1E7
330
36
100
AcDbEntity
  8
5
  6
AUSGEZOGEN
 62
    14
100
AcDbLine
 10
1.499999999939973
 20
-2.166666666580113
 30
0.0
 11
0.0
 21
-2.333333333240261
 31
0.0
  0
ARC
  5
1E8
330
36
100
AcDbEntity
  8
5
  6
AUSGEZOGEN
 62
    14
100
AcDbCircle
 10
-2.944444444326791
 20
0.0
 30
0.0
 40
4.944444444246812
100
AcDbArc
 50
2.898213389674822
 51
25.98923358383257
  0
ARC
  5
1E9
330
36
100
AcDbEntity
  8
5
  6
AUSGEZOGEN
 62
    14
100
AcDbCircle
 10
-2.944444444326791
 20
0.0
 30
0.0
 40
4.944444444246812
100
AcDbArc
 50
334.0107664161674
 51
357.1017866103251
  0
LINE
  5
1EA
330
36
100
AcDbEntity
  8
5
  6
AUSGEZOGEN
 62
    14
100
AcDbLine
 10
1.999999999919964
 20
0.2499999999899956
 30
0.0
 11
1.749999999930196
 21
0.2499999999899956
 31
0.0
  0
LINE
  5
1EB
330
36
100
AcDbEntity
  8
5
  6
AUSGEZOGEN
 62
    14
100
AcDbLine
 10
1.993675730623181
 20
-0.2499999999899956
 30
0.0
 11
1.749999999930196
 21
-0.2499999999899956
 31
0.0
  0
LINE
  5
1EC
330
36
100
AcDbEntity
  8
5
  6
AUSGEZOGEN
 62
    14
100
AcDbLine
 10
1.749999999930196
 20
-0.2499999999899956
 30
0.0
 11
1.749999999930196
 21
0.2499999999899956
 31
0.0
  0
LINE
  5
1ED
330
36
100
AcDbEntity
  8
5
  6
VERDECKT
 62
   214
100
AcDbLine
 10
1.710633759601478
 20
1.666666666600121
 30
0.0
 11
0.4166666666501442
 21
0.0
 31
0.0
  0
LINE
  5
1EE
330
36
100
AcDbEntity
  8
5
  6
VERDECKT
 62
   214
100
AcDbLine
 10
0.4166666666501442
 20
0.0
 30
0.0
 11
1.710633759601478
 21
-1.666666666600121
 31
0.0
  0
LINE
  5
1EF
330
36
100
AcDbEntity
  8
5
  6
VERDECKT
 62
   214
100
AcDbLine
 10
0.6107617305926852
 20
0.2499999999899956
 30
0.0
 11
0.6107617305926852
 21
-0.2499999999899956
 31
0.0
  0
LINE
  5
1F0
330
36
100
AcDbEntity
  8
5
  6
VERDECKT
 62
   214
100
AcDbLine
 10
1.749999999930196
 20
0.2499999999899956
 30
0.0
 11
0.6107617305926852
 21
0.2499999999899956
 31
0.0
  0
LINE
  5
1F1
330
36
100
AcDbEntity
  8
5
  6
VERDECKT
 62
   214
100
AcDbLine
 10
0.6107617305926852
 20
-0.2499999999899956
 30
0.0
 11
1.749999999930196
 21
-0.2499999999899956
 31
0.0
  0
ENDBLK
  5
1F2
330
36
100
AcDbEntity
  8
0
  6
ByBlock
 62
     0
100
AcDbBlockEnd
  0
BLOCK
  5
1F3
330
37
100
AcDbEntity
  8
0
100
AcDbBlockBegin
  2
M25-KOPF_6
 70
     0
 71
     1
 10
0.0
 20
0.0
 30
0.0
  3
M25-KOPF_6
  1

  0
LINE
  5
1F4
330
37
100
AcDbEntity
  8
5
  6
AUSGEZOGEN
 62
    14
100
AcDbLine
 10
1.499999999939973
 20
2.166666666580113
 30
0.0
 11
1.499999999939973
 21
-2.166666666580113
 31
0.0
  0
LINE
  5
1F5
330
37
100
AcDbEntity
  8
5
  6
AUSGEZOGEN
 62
    14
100
AcDbLine
 10
0.0
 20
2.333333333239806
 30
0.0
 11
1.499999999939973
 21
2.166666666580113
 31
0.0
  0
LINE
  5
1F6
330
37
100
AcDbEntity
  8
5
  6
AUSGEZOGEN
 62
    14
100
AcDbLine
 10
1.499999999939973
 20
-2.166666666580113
 30
0.0
 11
0.0
 21
-2.333333333240261
 31
0.0
  0
ARC
  5
1F7
330
37
100
AcDbEntity
  8
5
  6
AUSGEZOGEN
 62
    14
100
AcDbCircle
 10
-2.944444444326791
 20
0.0
 30
0.0
 40
4.944444444246812
100
AcDbArc
 50
2.898213389674822
 51
25.98923358383257
  0
ARC
  5
1F8
330
37
100
AcDbEntity
  8
5
  6
AUSGEZOGEN
 62
    14
100
AcDbCircle
 10
-2.944444444326791
 20
0.0
 30
0.0
 40
4.944444444246812
100
AcDbArc
 50
334.0107664161674
 51
357.1017866103251
  0
LINE
  5
1F9
330
37
100
AcDbEntity
  8
5
  6
AUSGEZOGEN
 62
    14
100
AcDbLine
 10
1.999999999919964
 20
0.2499999999899956
 30
0.0
 11
1.749999999930196
 21
0.2499999999899956
 31
0.0
  0
LINE
  5
1FA
330
37
100
AcDbEntity
  8
5
  6
AUSGEZOGEN
 62
    14
100
AcDbLine
 10
1.993675730623181
 20
-0.2499999999899956
 30
0.0
 11
1.749999999930196
 21
-0.2499999999899956
 31
0.0
  0
LINE
  5
1FB
330
37
100
AcDbEntity
  8
5
  6
AUSGEZOGEN
 62
    14
100
AcDbLine
 10
1.749999999930196
 20
-0.2499999999899956
 30
0.0
 11
1.749999999930196
 21
0.2499999999899956
 31
0.0
  0
LINE
  5
1FC
330
37
100
AcDbEntity
  8
5
  6
VERDECKT
 62
   214
100
AcDbLine
 10
1.710633759601478
 20
1.666666666600121
 30
0.0
 11
0.4166666666501442
 21
0.0
 31
0.0
  0
LINE
  5
1FD
330
37
100
AcDbEntity
  8
5
  6
VERDECKT
 62
   214
100
AcDbLine
 10
0.4166666666501442
 20
0.0
 30
0.0
 11
1.710633759601478
 21
-1.666666666600121
 31
0.0
  0
LINE
  5
1FE
330
37
100
AcDbEntity
  8
5
  6
VERDECKT
 62
   214
100
AcDbLine
 10
0.6107617305926852
 20
0.2499999999899956
 30
0.0
 11
0.6107617305926852
 21
-0.2499999999899956
 31
0.0
  0
LINE
  5
1FF
330
37
100
AcDbEntity
  8
5
  6
VERDECKT
 62
   214
100
AcDbLine
 10
1.749999999930196
 20
0.2499999999899956
 30
0.0
 11
0.6107617305926852
 21
0.2499999999899956
 31
0.0
  0
LINE
  5
200
330
37
100
AcDbEntity
  8
5
  6
VERDECKT
 62
   214
100
AcDbLine
 10
0.6107617305926852
 20
-0.2499999999899956
 30
0.0
 11
1.749999999930196
 21
-0.2499999999899956
 31
0.0
  0
ENDBLK
  5
201
330
37
100
AcDbEntity
  8
0
  6
ByBlock
 62
     0
100
AcDbBlockEnd
  0
BLOCK
  5
202
330
38
100
AcDbEntity
  8
0
100
AcDbBlockBegin
  2
M25-KOPF_7
 70
     0
 71
     1
 10
0.0
 20
0.0
 30
0.0
  3
M25-KOPF_7
  1

  0
LINE
  5
203
330
38
100
AcDbEntity
  8
5
  6
AUSGEZOGEN
 62
    14
100
AcDbLine
 10
1.49999999994003
 20
2.166666666580113
 30
0.0
 11
1.49999999994003
 21
-2.166666666580113
 31
0.0
  0
LINE
  5
204
330
38
100
AcDbEntity
  8
5
  6
AUSGEZOGEN
 62
    14
100
AcDbLine
 10
-0.0000000000003979
 20
2.333333333240261
 30
0.0
 11
1.49999999994003
 21
2.166666666580113
 31
0.0
  0
LINE
  5
205
330
38
100
AcDbEntity
  8
5
  6
AUSGEZOGEN
 62
    14
100
AcDbLine
 10
1.49999999994003
 20
-2.166666666580113
 30
0.0
 11
-0.0000000000003979
 21
-2.333333333240261
 31
0.0
  0
ARC
  5
206
330
38
100
AcDbEntity
  8
5
  6
AUSGEZOGEN
 62
    14
100
AcDbCircle
 10
-2.944444444326961
 20
0.0
 30
0.0
 40
4.944444444246812
100
AcDbArc
 50
2.898213389674822
 51
25.98923358383257
  0
ARC
  5
207
330
38
100
AcDbEntity
  8
5
  6
AUSGEZOGEN
 62
    14
100
AcDbCircle
 10
-2.944444444326961
 20
0.0
 30
0.0
 40
4.944444444246812
100
AcDbArc
 50
334.0107664161674
 51
357.1017866103251
  0
LINE
  5
208
330
38
100
AcDbEntity
  8
5
  6
AUSGEZOGEN
 62
    14
100
AcDbLine
 10
1.999999999920021
 20
0.2499999999899956
 30
0.0
 11
1.749999999930025
 21
0.2499999999899956
 31
0.0
  0
LINE
  5
209
330
38
100
AcDbEntity
  8
5
  6
AUSGEZOGEN
 62
    14
100
AcDbLine
 10
1.993675730623237
 20
-0.2499999999899956
 30
0.0
 11
1.749999999930025
 21
-0.2499999999899956
 31
0.0
  0
LINE
  5
20A
330
38
100
AcDbEntity
  8
5
  6
AUSGEZOGEN
 62
    14
100
AcDbLine
 10
1.749999999930025
 20
-0.2499999999899956
 30
0.0
 11
1.749999999930025
 21
0.2499999999899956
 31
0.0
  0
LINE
  5
20B
330
38
100
AcDbEntity
  8
5
  6
VERDECKT
 62
   214
100
AcDbLine
 10
1.710633759601307
 20
1.666666666600121
 30
0.0
 11
0.4166666666499737
 21
0.0
 31
0.0
  0
LINE
  5
20C
330
38
100
AcDbEntity
  8
5
  6
VERDECKT
 62
   214
100
AcDbLine
 10
0.4166666666499737
 20
0.0
 30
0.0
 11
1.710633759601307
 21
-1.666666666600121
 31
0.0
  0
LINE
  5
20D
330
38
100
AcDbEntity
  8
5
  6
VERDECKT
 62
   214
100
AcDbLine
 10
0.6107617305925146
 20
0.2499999999899956
 30
0.0
 11
0.6107617305925146
 21
-0.2499999999899956
 31
0.0
  0
LINE
  5
20E
330
38
100
AcDbEntity
  8
5
  6
VERDECKT
 62
   214
100
AcDbLine
 10
1.749999999930025
 20
0.2499999999899956
 30
0.0
 11
0.6107617305925146
 21
0.2499999999899956
 31
0.0
  0
LINE
  5
20F
330
38
100
AcDbEntity
  8
5
  6
VERDECKT
 62
   214
100
AcDbLine
 10
0.6107617305925146
 20
-0.2499999999899956
 30
0.0
 11
1.749999999930025
 21
-0.2499999999899956
 31
0.0
  0
ENDBLK
  5
210
330
38
100
AcDbEntity
  8
0
  6
ByBlock
 62
     0
100
AcDbBlockEnd
  0
BLOCK
  5
211
330
39
100
AcDbEntity
  8
0
100
AcDbBlockBegin
  2
M25-KOPF_8
 70
     0
 71
     1
 10
0.0
 20
0.0
 30
0.0
  3
M25-KOPF_8
  1

  0
LINE
  5
212
330
39
100
AcDbEntity
  8
5
  6
AUSGEZOGEN
 62
    14
100
AcDbLine
 10
1.49999999994003
 20
2.166666666580113
 30
0.0
 11
1.49999999994003
 21
-2.166666666580113
 31
0.0
  0
LINE
  5
213
330
39
100
AcDbEntity
  8
5
  6
AUSGEZOGEN
 62
    14
100
AcDbLine
 10
-0.0000000000003979
 20
2.333333333239806
 30
0.0
 11
1.49999999994003
 21
2.166666666580113
 31
0.0
  0
LINE
  5
214
330
39
100
AcDbEntity
  8
5
  6
AUSGEZOGEN
 62
    14
100
AcDbLine
 10
1.49999999994003
 20
-2.166666666580113
 30
0.0
 11
-0.0000000000003979
 21
-2.333333333240261
 31
0.0
  0
ARC
  5
215
330
39
100
AcDbEntity
  8
5
  6
AUSGEZOGEN
 62
    14
100
AcDbCircle
 10
-2.944444444326961
 20
0.0
 30
0.0
 40
4.944444444246812
100
AcDbArc
 50
2.898213389674822
 51
25.98923358383257
  0
ARC
  5
216
330
39
100
AcDbEntity
  8
5
  6
AUSGEZOGEN
 62
    14
100
AcDbCircle
 10
-2.944444444326961
 20
0.0
 30
0.0
 40
4.944444444246812
100
AcDbArc
 50
334.0107664161674
 51
357.1017866103251
  0
LINE
  5
217
330
39
100
AcDbEntity
  8
5
  6
AUSGEZOGEN
 62
    14
100
AcDbLine
 10
1.999999999920021
 20
0.2499999999899956
 30
0.0
 11
1.749999999930025
 21
0.2499999999899956
 31
0.0
  0
LINE
  5
218
330
39
100
AcDbEntity
  8
5
  6
AUSGEZOGEN
 62
    14
100
AcDbLine
 10
1.993675730623237
 20
-0.2499999999899956
 30
0.0
 11
1.749999999930025
 21
-0.2499999999899956
 31
0.0
  0
LINE
  5
219
330
39
100
AcDbEntity
  8
5
  6
AUSGEZOGEN
 62
    14
100
AcDbLine
 10
1.749999999930025
 20
-0.2499999999899956
 30
0.0
 11
1.749999999930025
 21
0.2499999999899956
 31
0.0
  0
LINE
  5
21A
330
39
100
AcDbEntity
  8
5
  6
VERDECKT
 62
   214
100
AcDbLine
 10
1.710633759601307
 20
1.666666666600121
 30
0.0
 11
0.4166666666499737
 21
0.0
 31
0.0
  0
LINE
  5
21B
330
39
100
AcDbEntity
  8
5
  6
VERDECKT
 62
   214
100
AcDbLine
 10
0.4166666666499737
 20
0.0
 30
0.0
 11
1.710633759601307
 21
-1.666666666600121
 31
0.0
  0
LINE
  5
21C
330
39
100
AcDbEntity
  8
5
  6
VERDECKT
 62
   214
100
AcDbLine
 10
0.6107617305925146
 20
0.2499999999899956
 30
0.0
 11
0.6107617305925146
 21
-0.2499999999899956
 31
0.0
  0
LINE
  5
21D
330
39
100
AcDbEntity
  8
5
  6
VERDECKT
 62
   214
100
AcDbLine
 10
1.749999999930025
 20
0.2499999999899956
 30
0.0
 11
0.6107617305925146
 21
0.2499999999899956
 31
0.0
  0
LINE
  5
21E
330
39
100
AcDbEntity
  8
5
  6
VERDECKT
 62
   214
100
AcDbLine
 10
0.6107617305925146
 20
-0.2499999999899956
 30
0.0
 11
1.749999999930025
 21
-0.2499999999899956
 31
0.0
  0
ENDBLK
  5
21F
330
39
100
AcDbEntity
  8
0
  6
ByBlock
 62
     0
100
AcDbBlockEnd
  0
BLOCK
  5
220
330
3A
100
AcDbEntity
  8
0
100
AcDbBlockBegin
  2
M3D_9
 70
     0
 71
     1
 10
0.0
 20
0.0
 30
0.0
  3
M3D_9
  1

  0
LINE
  5
221
330
3A
100
AcDbEntity
  8
5
  6
AUSGEZOGEN
 62
    14
100
AcDbLine
 10
0.7216878364870354
 20
1.25
 30
0.0
 11
-0.7216878364870354
 21
1.25
 31
0.0
  0
LINE
  5
222
330
3A
100
AcDbEntity
  8
5
  6
AUSGEZOGEN
 62
    14
100
AcDbLine
 10
-0.7216878364870354
 20
1.25
 30
0.0
 11
-1.44337567297407
 21
0.0
 31
0.0
  0
LINE
  5
223
330
3A
100
AcDbEntity
  8
5
  6
AUSGEZOGEN
 62
    14
100
AcDbLine
 10
-1.44337567297407
 20
0.0
 30
0.0
 11
-0.7216878364870354
 21
-1.25
 31
0.0
  0
LINE
  5
224
330
3A
100
AcDbEntity
  8
5
  6
AUSGEZOGEN
 62
    14
100
AcDbLine
 10
-0.7216878364870354
 20
-1.25
 30
0.0
 11
0.7216878364870354
 21
-1.25
 31
0.0
  0
LINE
  5
225
330
3A
100
AcDbEntity
  8
5
  6
AUSGEZOGEN
 62
    14
100
AcDbLine
 10
0.7216878364870354
 20
-1.25
 30
0.0
 11
1.44337567297407
 21
0.0
 31
0.0
  0
LINE
  5
226
330
3A
100
AcDbEntity
  8
5
  6
AUSGEZOGEN
 62
    14
100
AcDbLine
 10
1.44337567297407
 20
0.0
 30
0.0
 11
0.7216878364870354
 21
1.25
 31
0.0
  0
CIRCLE
  5
227
330
3A
100
AcDbEntity
  8
1
  6
AUSGEZOGEN
 62
    14
100
AcDbCircle
 10
0.0
 20
0.0
 30
0.0
 40
2.75
  0
ENDBLK
  5
228
330
3A
100
AcDbEntity
  8
0
  6
ByBlock
 62
     0
100
AcDbBlockEnd
  0
BLOCK
  5
229
330
3B
100
AcDbEntity
  8
0
100
AcDbBlockBegin
  2
M3D_10
 70
     0
 71
     1
 10
0.0
 20
0.0
 30
0.0
  3
M3D_10
  1

  0
LINE
  5
22A
330
3B
100
AcDbEntity
  8
5
  6
AUSGEZOGEN
 62
    14
100
AcDbLine
 10
0.7216878364870354
 20
1.25
 30
0.0
 11
-0.7216878364870354
 21
1.25
 31
0.0
  0
LINE
  5
22B
330
3B
100
AcDbEntity
  8
5
  6
AUSGEZOGEN
 62
    14
100
AcDbLine
 10
-0.7216878364870354
 20
1.25
 30
0.0
 11
-1.44337567297407
 21
0.0
 31
0.0
  0
LINE
  5
22C
330
3B
100
AcDbEntity
  8
5
  6
AUSGEZOGEN
 62
    14
100
AcDbLine
 10
-1.44337567297407
 20
0.0
 30
0.0
 11
-0.7216878364870354
 21
-1.25
 31
0.0
  0
LINE
  5
22D
330
3B
100
AcDbEntity
  8
5
  6
AUSGEZOGEN
 62
    14
100
AcDbLine
 10
-0.7216878364870354
 20
-1.25
 30
0.0
 11
0.7216878364870354
 21
-1.25
 31
0.0
  0
LINE
  5
22E
330
3B
100
AcDbEntity
  8
5
  6
AUSGEZOGEN
 62
    14
100
AcDbLine
 10
0.7216878364870354
 20
-1.25
 30
0.0
 11
1.44337567297407
 21
0.0
 31
0.0
  0
LINE
  5
22F
330
3B
100
AcDbEntity
  8
5
  6
AUSGEZOGEN
 62
    14
100
AcDbLine
 10
1.44337567297407
 20
0.0
 30
0.0
 11
0.7216878364870354
 21
1.25
 31
0.0
  0
CIRCLE
  5
230
330
3B
100
AcDbEntity
  8
1
  6
AUSGEZOGEN
 62
    14
100
AcDbCircle
 10
0.0
 20
0.0
 30
0.0
 40
2.75
  0
ENDBLK
  5
231
330
3B
100
AcDbEntity
  8
0
  6
ByBlock
 62
     0
100
AcDbBlockEnd
  0
BLOCK
  5
232
330
3C
100
AcDbEntity
  8
0
100
AcDbBlockBegin
  2
25X8_11
 70
     0
 71
     1
 10
0.0
 20
0.0
 30
0.0
  3
25X8_11
  1

  0
LINE
  5
233
330
3C
100
AcDbEntity
  8
10
  6
AUSGEZOGEN
 62
    14
100
AcDbLine
 10
-0.0333333341999378
 20
-1.499999999399847
 30
0.0
 11
-4.366666665799925
 21
-1.499999999399847
 31
0.0
  0
LINE
  5
234
330
3C
100
AcDbEntity
  8
10
  6
AUSGEZOGEN
 62
    14
100
AcDbLine
 10
0.1333333323999568
 20
-0.0000000000001137
 30
0.0
 11
-0.0333333341999378
 21
-1.499999999399847
 31
0.0
  0
LINE
  5
235
330
3C
100
AcDbEntity
  8
10
  6
AUSGEZOGEN
 62
    14
100
AcDbLine
 10
-4.366666665799925
 20
-1.499999999399847
 30
0.0
 11
-4.533333332400047
 21
-0.0000000000001137
 31
0.0
  0
ARC
  5
236
330
3C
100
AcDbEntity
  8
10
  6
AUSGEZOGEN
 62
    14
100
AcDbCircle
 10
-2.199999999999931
 20
2.944444443265979
 30
0.0
 40
4.944444442466314
100
AcDbArc
 50
272.8982133896737
 51
295.9892335838334
  0
ARC
  5
237
330
3C
100
AcDbEntity
  8
10
  6
AUSGEZOGEN
 62
    14
100
AcDbCircle
 10
-2.200000000000159
 20
2.944444443265979
 30
0.0
 40
4.944444442466314
100
AcDbArc
 50
244.0107664161665
 51
267.1017866103262
  0
LINE
  5
238
330
3C
100
AcDbEntity
  8
10
  6
AUSGEZOGEN
 62
    14
100
AcDbLine
 10
-1.950000000099976
 20
-1.999999999199758
 30
0.0
 11
-1.950000000099976
 21
-1.749999999299802
 31
0.0
  0
LINE
  5
239
330
3C
100
AcDbEntity
  8
10
  6
AUSGEZOGEN
 62
    14
100
AcDbLine
 10
-2.449999999899887
 20
-1.993675729905703
 30
0.0
 11
-2.449999999899887
 21
-1.749999999299802
 31
0.0
  0
LINE
  5
23A
330
3C
100
AcDbEntity
  8
10
  6
AUSGEZOGEN
 62
    14
100
AcDbLine
 10
-2.449999999899887
 20
-1.749999999299802
 30
0.0
 11
-1.950000000099976
 21
-1.749999999299802
 31
0.0
  0
LINE
  5
23B
330
3C
100
AcDbEntity
  8
10
  6
VERDECKT
 62
   214
100
AcDbLine
 10
-0.5333333340000764
 20
-1.710633758985864
 30
0.0
 11
-2.199999999999931
 21
-0.4166666664997365
 31
0.0
  0
LINE
  5
23C
330
3C
100
AcDbEntity
  8
10
  6
VERDECKT
 62
   214
100
AcDbLine
 10
-2.199999999999931
 20
-0.4166666664997365
 30
0.0
 11
-3.866666666000014
 21
-1.710633758985864
 31
0.0
  0
LINE
  5
23D
330
3C
100
AcDbEntity
  8
10
  6
VERDECKT
 62
   214
100
AcDbLine
 10
-1.950000000099976
 20
-0.6107617303729285
 30
0.0
 11
-2.449999999899887
 21
-0.6107617303729285
 31
0.0
  0
LINE
  5
23E
330
3C
100
AcDbEntity
  8
10
  6
VERDECKT
 62
   214
100
AcDbLine
 10
-1.950000000099976
 20
-1.749999999299802
 30
0.0
 11
-1.950000000100203
 21
-0.6107617303729285
 31
0.0
  0
LINE
  5
23F
330
3C
100
AcDbEntity
  8
10
  6
VERDECKT
 62
   214
100
AcDbLine
 10
-2.449999999899887
 20
-0.6107617303729285
 30
0.0
 11
-2.449999999899887
 21
-1.749999999299802
 31
0.0
  0
LINE
  5
240
330
3C
100
AcDbEntity
  8
10
  6
AUSGEZOGEN
 62
    14
100
AcDbLine
 10
0.1333333323999568
 20
-0.0000000000001137
 30
0.0
 11
-4.533333332400047
 21
-0.0000000000001137
 31
0.0
  0
ENDBLK
  5
241
330
3C
100
AcDbEntity
  8
0
  6
ByBlock
 62
     0
100
AcDbBlockEnd
  0
BLOCK
  5
242
330
3D
100
AcDbEntity
  8
0
100
AcDbBlockBegin
  2
25X8_12
 70
     0
 71
     1
 10
0.0
 20
0.0
 30
0.0
  3
25X8_12
  1

  0
LINE
  5
243
330
3D
100
AcDbEntity
  8
10
  6
AUSGEZOGEN
 62
    14
100
AcDbLine
 10
-0.0333333341999378
 20
-1.499999999399847
 30
0.0
 11
-4.366666665799925
 21
-1.499999999399847
 31
0.0
  0
LINE
  5
244
330
3D
100
AcDbEntity
  8
10
  6
AUSGEZOGEN
 62
    14
100
AcDbLine
 10
0.1333333323999568
 20
-0.0000000000001137
 30
0.0
 11
-0.0333333341999378
 21
-1.499999999399847
 31
0.0
  0
LINE
  5
245
330
3D
100
AcDbEntity
  8
10
  6
AUSGEZOGEN
 62
    14
100
AcDbLine
 10
-4.366666665799925
 20
-1.499999999399847
 30
0.0
 11
-4.533333332400047
 21
-0.0000000000001137
 31
0.0
  0
ARC
  5
246
330
3D
100
AcDbEntity
  8
10
  6
AUSGEZOGEN
 62
    14
100
AcDbCircle
 10
-2.199999999999931
 20
2.944444443265979
 30
0.0
 40
4.944444442466314
100
AcDbArc
 50
272.8982133896737
 51
295.9892335838334
  0
ARC
  5
247
330
3D
100
AcDbEntity
  8
10
  6
AUSGEZOGEN
 62
    14
100
AcDbCircle
 10
-2.200000000000159
 20
2.944444443265979
 30
0.0
 40
4.944444442466314
100
AcDbArc
 50
244.0107664161665
 51
267.1017866103262
  0
LINE
  5
248
330
3D
100
AcDbEntity
  8
10
  6
AUSGEZOGEN
 62
    14
100
AcDbLine
 10
-1.950000000099976
 20
-1.999999999199758
 30
0.0
 11
-1.950000000099976
 21
-1.749999999299802
 31
0.0
  0
LINE
  5
249
330
3D
100
AcDbEntity
  8
10
  6
AUSGEZOGEN
 62
    14
100
AcDbLine
 10
-2.449999999899887
 20
-1.993675729905703
 30
0.0
 11
-2.449999999899887
 21
-1.749999999299802
 31
0.0
  0
LINE
  5
24A
330
3D
100
AcDbEntity
  8
10
  6
AUSGEZOGEN
 62
    14
100
AcDbLine
 10
-2.449999999899887
 20
-1.749999999299802
 30
0.0
 11
-1.950000000099976
 21
-1.749999999299802
 31
0.0
  0
LINE
  5
24B
330
3D
100
AcDbEntity
  8
10
  6
VERDECKT
 62
   214
100
AcDbLine
 10
-0.5333333340000764
 20
-1.710633758985864
 30
0.0
 11
-2.199999999999931
 21
-0.4166666664997365
 31
0.0
  0
LINE
  5
24C
330
3D
100
AcDbEntity
  8
10
  6
VERDECKT
 62
   214
100
AcDbLine
 10
-2.199999999999931
 20
-0.4166666664997365
 30
0.0
 11
-3.866666666000014
 21
-1.710633758985864
 31
0.0
  0
LINE
  5
24D
330
3D
100
AcDbEntity
  8
10
  6
VERDECKT
 62
   214
100
AcDbLine
 10
-1.950000000099976
 20
-0.6107617303729285
 30
0.0
 11
-2.449999999899887
 21
-0.6107617303729285
 31
0.0
  0
LINE
  5
24E
330
3D
100
AcDbEntity
  8
10
  6
VERDECKT
 62
   214
100
AcDbLine
 10
-1.950000000099976
 20
-1.749999999299802
 30
0.0
 11
-1.950000000100203
 21
-0.6107617303729285
 31
0.0
  0
LINE
  5
24F
330
3D
100
AcDbEntity
  8
10
  6
VERDECKT
 62
   214
100
AcDbLine
 10
-2.449999999899887
 20
-0.6107617303729285
 30
0.0
 11
-2.449999999899887
 21
-1.749999999299802
 31
0.0
  0
LINE
  5
250
330
3D
100
AcDbEntity
  8
10
  6
AUSGEZOGEN
 62
    14
100
AcDbLine
 10
0.1333333323999568
 20
-0.0000000000001137
 30
0.0
 11
-4.533333332400047
 21
-0.0000000000001137
 31
0.0
  0
ENDBLK
  5
251
330
3D
100
AcDbEntity
  8
0
  6
ByBlock
 62
     0
100
AcDbBlockEnd
  0
BLOCK
  5
252
330
3E
100
AcDbEntity
  8
0
100
AcDbBlockBegin
  2
ZEICHNUNGS-LOGO UND ADR_13
 70
     0
 71
     1
 10
0.0
 20
0.0
 30
0.0
  3
ZEICHNUNGS-LOGO UND ADR_13
  1

  0
TEXT
  5
253
330
3E
100
AcDbEntity
  8
1
  6
AUSGEZOGEN
 62
    14
100
AcDbText
 10
-3.839109861060705
 20
-22.58623165929011
 30
0.0
 40
2.729166666666666
  1
 
 41
0.6058252427184466
100
AcDbText
  0
TEXT
  5
254
330
3E
100
AcDbEntity
  8
1
  6
AUSGEZOGEN
 62
    14
100
AcDbText
 10
-15.31144319439408
 20
-26.99529314796327
 30
0.0
 40
2.729166666666666
  1
 
 41
0.6058252427184466
100
AcDbText
  0
ENDBLK
  5
255
330
3E
100
AcDbEntity
  8
0
  6
ByBlock
 62
     0
100
AcDbBlockEnd
  0
BLOCK
  5
256
330
3F
100
AcDbEntity
  8
0
100
AcDbBlockBegin
  2
ZEICHNUNGS-LOGO UND ADR_14
 70
     0
 71
     1
 10
0.0
 20
0.0
 30
0.0
  3
ZEICHNUNGS-LOGO UND ADR_14
  1

  0
TEXT
  5
257
330
3F
100
AcDbEntity
  8
1
  6
AUSGEZOGEN
 62
    14
100
AcDbText
 10
-3.839109861060705
 20
-22.58623165929011
 30
0.0
 40
2.729166666666666
  1
 
 41
0.6058252427184466
100
AcDbText
  0
TEXT
  5
258
330
3F
100
AcDbEntity
  8
1
  6
AUSGEZOGEN
 62
    14
100
AcDbText
 10
-15.31144319439408
 20
-26.99529314796281
 30
0.0
 40
2.729166666666666
  1
 
 41
0.6058252427184466
100
AcDbText
  0
ENDBLK
  5
259
330
3F
100
AcDbEntity
  8
0
  6
ByBlock
 62
     0
100
AcDbBlockEnd
  0
BLOCK
  5
25A
330
40
100
AcDbEntity
  8
0
100
AcDbBlockBegin
  2
ZEICHNUNGS-LOGO UND ADR_15
 70
     0
 71
     1
 10
0.0
 20
0.0
 30
0.0
  3
ZEICHNUNGS-LOGO UND ADR_15
  1

  0
TEXT
  5
25B
330
40
100
AcDbEntity
  8
1
  6
AUSGEZOGEN
 62
    14
100
AcDbText
 10
-3.839109861060478
 20
-22.58623165929011
 30
0.0
 40
2.729166666666666
  1
 
 41
0.6058252427184466
100
AcDbText
  0
TEXT
  5
25C
330
40
100
AcDbEntity
  8
1
  6
AUSGEZOGEN
 62
    14
100
AcDbText
 10
-15.31144319439386
 20
-26.99529314796327
 30
0.0
 40
2.729166666666666
  1
 
 41
0.6058252427184466
100
AcDbText
  0
ENDBLK
  5
25D
330
40
100
AcDbEntity
  8
0
  6
ByBlock
 62
     0
100
AcDbBlockEnd
  0
BLOCK
  5
25E
330
41
100
AcDbEntity
  8
0
100
AcDbBlockBegin
  2
A2_16
 70
     0
 71
     1
 10
0.0
 20
0.0
 30
0.0
  3
A2_16
  1

  0
LINE
  5
25F
330
41
100
AcDbEntity
  8
0
  6
AUSGEZOGEN
 62
   134
100
AcDbLine
 10
-583.0
 20
409.0
 30
0.0
 11
-583.0
 21
0.0
 31
0.0
  0
LINE
  5
260
330
41
100
AcDbEntity
  8
0
  6
AUSGEZOGEN
 62
   134
100
AcDbLine
 10
0.0
 20
409.0
 30
0.0
 11
-583.0
 21
409.0
 31
0.0
  0
LINE
  5
261
330
41
100
AcDbEntity
  8
0
  6
AUSGEZOGEN
 62
   134
100
AcDbLine
 10
0.0
 20
0.0
 30
0.0
 11
0.0
 21
409.0
 31
0.0
  0
LINE
  5
262
330
41
100
AcDbEntity
  8
0
  6
AUSGEZOGEN
 62
   134
100
AcDbLine
 10
-583.0
 20
0.0
 30
0.0
 11
0.0
 21
0.0
 31
0.0
  0
LINE
  5
263
330
41
100
AcDbEntity
  8
0
  6
AUSGEZOGEN
 62
     9
100
AcDbLine
 10
-578.0
 20
404.0
 30
0.0
 11
-578.0
 21
5.0
 31
0.0
  0
LINE
  5
264
330
41
100
AcDbEntity
  8
0
  6
AUSGEZOGEN
 62
     9
100
AcDbLine
 10
-578.0
 20
5.0
 30
0.0
 11
-215.0
 21
5.0
 31
0.0
  0
LINE
  5
265
330
41
100
AcDbEntity
  8
0
  6
AUSGEZOGEN
 62
     9
100
AcDbLine
 10
-5.0
 20
76.03785705566406
 30
0.0
 11
-5.0
 21
404.0
 31
0.0
  0
LINE
  5
266
330
41
100
AcDbEntity
  8
0
  6
AUSGEZOGEN
 62
     9
100
AcDbLine
 10
-5.0
 20
404.0
 30
0.0
 11
-578.0
 21
404.0
 31
0.0
  0
LINE
  5
267
330
41
100
AcDbEntity
  8
0
  6
AUSGEZOGEN
 62
     9
100
AcDbLine
 10
-526.7999992370605
 20
5.0
 30
0.0
 11
-526.7999992370605
 21
0.0
 31
0.0
  0
LINE
  5
268
330
41
100
AcDbEntity
  8
0
  6
AUSGEZOGEN
 62
     9
100
AcDbLine
 10
-526.7999992370605
 20
409.0
 30
0.0
 11
-526.7999992370605
 21
404.0
 31
0.0
  0
LINE
  5
269
330
41
100
AcDbEntity
  8
0
  6
AUSGEZOGEN
 62
     9
100
AcDbLine
 10
-474.599998474121
 20
5.0
 30
0.0
 11
-474.599998474121
 21
0.0
 31
0.0
  0
LINE
  5
26A
330
41
100
AcDbEntity
  8
0
  6
AUSGEZOGEN
 62
     9
100
AcDbLine
 10
-474.599998474121
 20
409.0
 30
0.0
 11
-474.599998474121
 21
404.0
 31
0.0
  0
LINE
  5
26B
330
41
100
AcDbEntity
  8
0
  6
AUSGEZOGEN
 62
     9
100
AcDbLine
 10
-422.3999938964843
 20
5.0
 30
0.0
 11
-422.3999938964843
 21
0.0
 31
0.0
  0
LINE
  5
26C
330
41
100
AcDbEntity
  8
0
  6
AUSGEZOGEN
 62
     9
100
AcDbLine
 10
-422.3999938964843
 20
409.0
 30
0.0
 11
-422.3999938964843
 21
404.0
 31
0.0
  0
LINE
  5
26D
330
41
100
AcDbEntity
  8
0
  6
AUSGEZOGEN
 62
     9
100
AcDbLine
 10
-370.1999969482422
 20
5.0
 30
0.0
 11
-370.1999969482422
 21
0.0
 31
0.0
  0
LINE
  5
26E
330
41
100
AcDbEntity
  8
0
  6
AUSGEZOGEN
 62
     9
100
AcDbLine
 10
-370.1999969482422
 20
409.0
 30
0.0
 11
-370.1999969482422
 21
404.0
 31
0.0
  0
LINE
  5
26F
330
41
100
AcDbEntity
  8
0
  6
AUSGEZOGEN
 62
     9
100
AcDbLine
 10
-318.0
 20
5.0
 30
0.0
 11
-318.0
 21
0.0
 31
0.0
  0
LINE
  5
270
330
41
100
AcDbEntity
  8
0
  6
AUSGEZOGEN
 62
     9
100
AcDbLine
 10
-318.0
 20
409.0
 30
0.0
 11
-318.0
 21
404.0
 31
0.0
  0
LINE
  5
271
330
41
100
AcDbEntity
  8
0
  6
AUSGEZOGEN
 62
     9
100
AcDbLine
 10
-265.7999877929687
 20
5.0
 30
0.0
 11
-265.7999877929687
 21
0.0
 31
0.0
  0
LINE
  5
272
330
41
100
AcDbEntity
  8
0
  6
AUSGEZOGEN
 62
     9
100
AcDbLine
 10
-265.7999877929687
 20
409.0
 30
0.0
 11
-265.7999877929687
 21
404.0
 31
0.0
  0
LINE
  5
273
330
41
100
AcDbEntity
  8
0
  6
AUSGEZOGEN
 62
     9
100
AcDbLine
 10
-213.5999755859375
 20
409.0
 30
0.0
 11
-213.5999755859375
 21
404.0
 31
0.0
  0
LINE
  5
274
330
41
100
AcDbEntity
  8
0
  6
AUSGEZOGEN
 62
     9
100
AcDbLine
 10
-161.3999633789062
 20
409.0
 30
0.0
 11
-161.3999633789062
 21
404.0
 31
0.0
  0
LINE
  5
275
330
41
100
AcDbEntity
  8
0
  6
AUSGEZOGEN
 62
     9
100
AcDbLine
 10
-109.1999511718749
 20
409.0
 30
0.0
 11
-109.1999511718749
 21
404.0
 31
0.0
  0
LINE
  5
276
330
41
100
AcDbEntity
  8
0
  6
AUSGEZOGEN
 62
     9
100
AcDbLine
 10
-56.99993896484375
 20
409.0
 30
0.0
 11
-56.99993896484375
 21
404.0
 31
0.0
  0
LINE
  5
277
330
41
100
AcDbEntity
  8
0
  6
AUSGEZOGEN
 62
     9
100
AcDbLine
 10
-578.0
 20
355.0
 30
0.0
 11
-583.0
 21
355.0
 31
0.0
  0
LINE
  5
278
330
41
100
AcDbEntity
  8
0
  6
AUSGEZOGEN
 62
     9
100
AcDbLine
 10
0.0
 20
355.0
 30
0.0
 11
-5.0
 21
355.0
 31
0.0
  0
LINE
  5
279
330
41
100
AcDbEntity
  8
0
  6
AUSGEZOGEN
 62
     9
100
AcDbLine
 10
-578.0
 20
305.0
 30
0.0
 11
-583.0
 21
305.0
 31
0.0
  0
LINE
  5
27A
330
41
100
AcDbEntity
  8
0
  6
AUSGEZOGEN
 62
     9
100
AcDbLine
 10
0.0
 20
305.0
 30
0.0
 11
-5.0
 21
305.0
 31
0.0
  0
LINE
  5
27B
330
41
100
AcDbEntity
  8
0
  6
AUSGEZOGEN
 62
     9
100
AcDbLine
 10
-578.0
 20
255.0
 30
0.0
 11
-583.0
 21
255.0
 31
0.0
  0
LINE
  5
27C
330
41
100
AcDbEntity
  8
0
  6
AUSGEZOGEN
 62
     9
100
AcDbLine
 10
0.0
 20
255.0
 30
0.0
 11
-5.0
 21
255.0
 31
0.0
  0
LINE
  5
27D
330
41
100
AcDbEntity
  8
0
  6
AUSGEZOGEN
 62
     9
100
AcDbLine
 10
-578.0
 20
205.0
 30
0.0
 11
-583.0
 21
205.0
 31
0.0
  0
LINE
  5
27E
330
41
100
AcDbEntity
  8
0
  6
AUSGEZOGEN
 62
     9
100
AcDbLine
 10
0.0
 20
205.0
 30
0.0
 11
-5.0
 21
205.0
 31
0.0
  0
LINE
  5
27F
330
41
100
AcDbEntity
  8
0
  6
AUSGEZOGEN
 62
     9
100
AcDbLine
 10
-578.0
 20
155.0
 30
0.0
 11
-583.0
 21
155.0
 31
0.0
  0
LINE
  5
280
330
41
100
AcDbEntity
  8
0
  6
AUSGEZOGEN
 62
     9
100
AcDbLine
 10
0.0
 20
155.0
 30
0.0
 11
-5.0
 21
155.0
 31
0.0
  0
LINE
  5
281
330
41
100
AcDbEntity
  8
0
  6
AUSGEZOGEN
 62
     9
100
AcDbLine
 10
-578.0
 20
105.0
 30
0.0
 11
-583.0
 21
105.0
 31
0.0
  0
LINE
  5
282
330
41
100
AcDbEntity
  8
0
  6
AUSGEZOGEN
 62
     9
100
AcDbLine
 10
0.0
 20
105.0
 30
0.0
 11
-5.0
 21
105.0
 31
0.0
  0
LINE
  5
283
330
41
100
AcDbEntity
  8
0
  6
AUSGEZOGEN
 62
     9
100
AcDbLine
 10
-578.0
 20
55.0
 30
0.0
 11
-583.0
 21
55.0
 31
0.0
  0
TEXT
  5
284
330
41
100
AcDbEntity
  8
0
  6
AUSGEZOGEN
 62
     9
100
AcDbText
 10
-580.6113452911376
 20
29.38534778356552
 30
0.0
 40
3.0
  1
A
 41
0.7333333492279053
100
AcDbText
  0
TEXT
  5
285
330
41
100
AcDbEntity
  8
0
  6
AUSGEZOGEN
 62
     9
100
AcDbText
 10
-580.6196455955505
 20
80.18481296300889
 30
0.0
 40
3.0
  1
B
 41
0.7333333492279053
100
AcDbText
  0
TEXT
  5
286
330
41
100
AcDbEntity
  8
0
  6
AUSGEZOGEN
 62
     9
100
AcDbText
 10
-580.4854574203491
 20
129.3247436881065
 30
0.0
 40
3.0
  1
C
 41
0.7333333492279053
100
AcDbText
  0
TEXT
  5
287
330
41
100
AcDbEntity
  8
0
  6
AUSGEZOGEN
 62
     9
100
AcDbText
 10
-580.590594291687
 20
178.8923553824424
 30
0.0
 40
3.0
  1
D
 41
0.7333333492279053
100
AcDbText
  0
TEXT
  5
288
330
41
100
AcDbEntity
  8
0
  6
AUSGEZOGEN
 62
     9
100
AcDbText
 10
-580.590594291687
 20
227.9782928824424
 30
0.0
 40
3.0
  1
E
 41
0.7333333492279053
100
AcDbText
  0
TEXT
  5
289
330
41
100
AcDbEntity
  8
0
  6
AUSGEZOGEN
 62
     9
100
AcDbText
 10
-580.594744682312
 20
278.087072789669
 30
0.0
 40
3.0
  1
F
 41
0.7333333492279053
100
AcDbText
  0
TEXT
  5
28A
330
41
100
AcDbEntity
  8
0
  6
AUSGEZOGEN
 62
     9
100
AcDbText
 10
-580.4854574203491
 20
327.2851318717002
 30
0.0
 40
3.0
  1
G
 41
0.7333333492279053
100
AcDbText
  0
TEXT
  5
28B
330
41
100
AcDbEntity
  8
0
  6
AUSGEZOGEN
 62
     9
100
AcDbText
 10
-580.4896073341369
 20
378.5676636099815
 30
0.0
 40
3.0
  1
H
 41
0.7333333492279053
100
AcDbText
  0
TEXT
  5
28C
330
41
100
AcDbEntity
  8
0
  6
AUSGEZOGEN
 62
     9
100
AcDbText
 10
-554.1824302673339
 20
405.0107788443565
 30
0.0
 40
3.0
  1
11
 41
0.7333333492279053
100
AcDbText
  0
TEXT
  5
28D
330
41
100
AcDbEntity
  8
0
  6
AUSGEZOGEN
 62
     9
100
AcDbText
 10
-502.2606887817382
 20
405.0206360220909
 30
0.0
 40
3.0
  1
10
 41
0.7333333492279053
100
AcDbText
  0
TEXT
  5
28E
330
41
100
AcDbEntity
  8
0
  6
AUSGEZOGEN
 62
     9
100
AcDbText
 10
-450.4920196533203
 20
405.0275329947472
 30
0.0
 40
3.0
  1
9
 41
0.7333333492279053
100
AcDbText
  0
TEXT
  5
28F
330
41
100
AcDbEntity
  8
0
  6
AUSGEZOGEN
 62
     9
100
AcDbText
 10
-398.5835418701171
 20
404.9378723502159
 30
0.0
 40
3.0
  1
8
 41
0.7333333492279053
100
AcDbText
  0
TEXT
  5
290
330
41
100
AcDbEntity
  8
0
  6
AUSGEZOGEN
 62
     9
100
AcDbText
 10
-347.3121490478515
 20
404.995031774044
 30
0.0
 40
3.0
  1
7
 41
0.7333333492279053
100
AcDbText
  0
TEXT
  5
291
330
41
100
AcDbEntity
  8
0
  6
AUSGEZOGEN
 62
     9
100
AcDbText
 10
-293.8182983398437
 20
404.9762939810753
 30
0.0
 40
3.0
  1
6
 41
0.7333333492279053
100
AcDbText
  0
TEXT
  5
292
330
41
100
AcDbEntity
  8
0
  6
AUSGEZOGEN
 62
     9
100
AcDbText
 10
-242.0319213867187
 20
404.9615234732628
 30
0.0
 40
3.0
  1
5
 41
0.7333333492279053
100
AcDbText
  0
TEXT
  5
293
330
41
100
AcDbEntity
  8
0
  6
AUSGEZOGEN
 62
     9
100
AcDbText
 10
-188.8374023437499
 20
405.0275329947472
 30
0.0
 40
3.0
  1
4
 41
0.7333333492279053
100
AcDbText
  0
TEXT
  5
294
330
41
100
AcDbEntity
  8
0
  6
AUSGEZOGEN
 62
     9
100
AcDbText
 10
-136.4395141601562
 20
404.9762939810753
 30
0.0
 40
3.0
  1
3
 41
0.7333333492279053
100
AcDbText
  0
TEXT
  5
295
330
41
100
AcDbEntity
  8
0
  6
AUSGEZOGEN
 62
     9
100
AcDbText
 10
-83.61032104492187
 20
405.0255798697471
 30
0.0
 40
3.0
  1
2
 41
0.7333333492279053
100
AcDbText
  0
TEXT
  5
296
330
41
100
AcDbEntity
  8
0
  6
AUSGEZOGEN
 62
     9
100
AcDbText
 10
-32.27197265625
 20
405.0295166373253
 30
0.0
 40
3.0
  1
1
 41
0.7333333492279053
100
AcDbText
  0
TEXT
  5
297
330
41
100
AcDbEntity
  8
0
  6
AUSGEZOGEN
 62
     9
100
AcDbText
 10
-3.9488525390625
 20
378.7365173697471
 30
0.0
 40
3.0
  1
H
 41
0.7333333492279053
100
AcDbText
  0
TEXT
  5
298
330
41
100
AcDbEntity
  8
0
  6
AUSGEZOGEN
 62
     9
100
AcDbText
 10
-3.9447021484375
 20
328.4533142447471
 30
0.0
 40
3.0
  1
G
 41
0.7333333492279053
100
AcDbText
  0
TEXT
  5
299
330
41
100
AcDbEntity
  8
0
  6
AUSGEZOGEN
 62
     9
100
AcDbText
 10
-4.0360107421875
 20
279.087805211544
 30
0.0
 40
3.0
  1
F
 41
0.7333333492279053
100
AcDbText
  0
TEXT
  5
29A
330
41
100
AcDbEntity
  8
0
  6
AUSGEZOGEN
 62
     9
100
AcDbText
 10
-3.9405517578125
 20
228.0820984244346
 30
0.0
 40
3.0
  1
E
 41
0.7333333492279053
100
AcDbText
  0
TEXT
  5
29B
330
41
100
AcDbEntity
  8
0
  6
AUSGEZOGEN
 62
     9
100
AcDbText
 10
-4.0277099609375
 20
176.4507812857627
 30
0.0
 40
3.0
  1
D
 41
0.7333333492279053
100
AcDbText
  0
TEXT
  5
29C
330
41
100
AcDbEntity
  8
0
  6
AUSGEZOGEN
 62
     9
100
AcDbText
 10
-4.0360107421875
 20
128.0818085074424
 30
0.0
 40
3.0
  1
C
 41
0.7333333492279053
100
AcDbText
  0
TEXT
  5
29D
330
41
100
AcDbEntity
  8
0
  6
AUSGEZOGEN
 62
     9
100
AcDbText
 10
-3.9737548828125
 20
80.48931735754013
 30
0.0
 40
3.0
  1
B
 41
0.7333333492279053
100
AcDbText
  0
TEXT
  5
29E
330
41
100
AcDbEntity
  8
0
  6
AUSGEZOGEN
 62
     9
100
AcDbText
 10
-554.5625228881836
 20
1.020645558834075
 30
0.0
 40
3.0
  1
11
 41
0.7333333492279053
100
AcDbText
  0
TEXT
  5
29F
330
41
100
AcDbEntity
  8
0
  6
AUSGEZOGEN
 62
     9
100
AcDbText
 10
-502.9115753173828
 20
1.011778771877288
 30
0.0
 40
3.0
  1
10
 41
0.7333333492279053
100
AcDbText
  0
TEXT
  5
2A0
330
41
100
AcDbEntity
  8
0
  6
AUSGEZOGEN
 62
     9
100
AcDbText
 10
-449.7466125488281
 20
1.008822858333587
 30
0.0
 40
3.0
  1
9
 41
0.7333333492279053
100
AcDbText
  0
TEXT
  5
2A1
330
41
100
AcDbEntity
  8
0
  6
AUSGEZOGEN
 62
     9
100
AcDbText
 10
-398.8887939453125
 20
0.9497098326683044
 30
0.0
 40
3.0
  1
8
 41
0.7333333492279053
100
AcDbText
  0
TEXT
  5
2A2
330
41
100
AcDbEntity
  8
0
  6
AUSGEZOGEN
 62
     9
100
AcDbText
 10
-345.3516082763671
 20
1.047246396541595
 30
0.0
 40
3.0
  1
7
 41
0.7333333492279053
100
AcDbText
  0
TEXT
  5
2A3
330
41
100
AcDbEntity
  8
0
  6
AUSGEZOGEN
 62
     9
100
AcDbText
 10
-293.4588928222656
 20
0.9871482253074645
 30
0.0
 40
3.0
  1
6
 41
0.7333333492279053
100
AcDbText
  0
TEXT
  5
2A4
330
41
100
AcDbEntity
  8
0
  6
AUSGEZOGEN
 62
     9
100
AcDbText
 10
-241.9846496582031
 20
0.9871481895446779
 30
0.0
 40
3.0
  1
5
 41
0.7333333492279053
100
AcDbText
  0
LINE
  5
2A5
330
41
100
AcDbEntity
  8
0
  6
AUSGEZOGEN
 62
     9
100
AcDbLine
 10
-578.0
 20
31.09948348999023
 30
0.0
 11
-215.0
 21
31.09948348999023
 31
0.0
  0
LINE
  5
2A6
330
41
100
AcDbEntity
  8
0
  6
AUSGEZOGEN
 62
     9
100
AcDbLine
 10
-578.0
 20
21.11319351196289
 30
0.0
 11
-215.0
 21
21.11319351196289
 31
0.0
  0
LINE
  5
2A7
330
41
100
AcDbEntity
  8
0
  6
AUSGEZOGEN
 62
     9
100
AcDbLine
 10
-578.0
 20
11.12688064575195
 30
0.0
 11
-215.0
 21
11.12688064575195
 31
0.0
  0
LINE
  5
2A8
330
41
100
AcDbEntity
  8
0
  6
AUSGEZOGEN
 62
     9
100
AcDbLine
 10
-215.0
 20
36.09264755249023
 30
0.0
 11
-578.0
 21
36.09264755249023
 31
0.0
  0
LINE
  5
2A9
330
41
100
AcDbEntity
  8
0
  6
AUSGEZOGEN
 62
     9
100
AcDbLine
 10
-215.0
 20
16.12003707885742
 30
0.0
 11
-578.0
 21
16.12003707885742
 31
0.0
  0
LINE
  5
2AA
330
41
100
AcDbEntity
  8
0
  6
AUSGEZOGEN
 62
     9
100
AcDbLine
 10
-215.0
 20
26.10633468627929
 30
0.0
 11
-577.4446048736572
 21
26.10633468627929
 31
0.0
  0
TEXT
  5
2AB
330
41
100
AcDbEntity
  8
0
  6
AUSGEZOGEN
 62
     9
100
AcDbText
 10
-575.4273014068603
 20
32.52983245849609
 30
0.0
 40
2.0
  1
neu
 41
0.7000000029802323
100
AcDbText
  0
TEXT
  5
2AC
330
41
100
AcDbEntity
  8
0
  6
AUSGEZOGEN
 62
     9
100
AcDbText
 10
-575.4273014068603
 20
27.39182434082031
 30
0.0
 40
2.0
  1
alt
 41
0.7000000029802323
100
AcDbText
  0
TEXT
  5
2AD
330
41
100
AcDbEntity
  8
0
  6
AUSGEZOGEN
 62
     9
100
AcDbText
 10
-575.4273014068603
 20
22.50444183349609
 30
0.0
 40
2.0
  1
Feld
 41
0.7000000029802323
100
AcDbText
  0
TEXT
  5
2AE
330
41
100
AcDbEntity
  8
0
  6
AUSGEZOGEN
 62
     9
100
AcDbText
 10
-575.4273014068603
 20
17.49174652099609
 30
0.0
 40
2.0
  1
Dat. Name
 41
0.7000000029802323
100
AcDbText
  0
TEXT
  5
2AF
330
41
100
AcDbEntity
  8
0
  6
AUSGEZOGEN
 62
     9
100
AcDbText
 10
-575.4273014068603
 20
12.60436782836914
 30
0.0
 40
2.0
  1
Mitteil. Nr
 41
0.7000000029802323
100
AcDbText
  0
TEXT
  5
2B0
330
41
100
AcDbEntity
  8
0
  6
AUSGEZOGEN
 62
     9
100
AcDbText
 10
-575.4273014068603
 20
7.090398406982421
 30
0.0
 40
2.0
  1
Änd. Buchst
 41
0.7000000029802323
100
AcDbText
  0
LINE
  5
2B1
330
41
100
AcDbEntity
  8
0
  6
AUSGEZOGEN
 62
   134
100
AcDbLine
 10
-215.0
 20
75.0
 30
0.0
 11
0.0
 21
75.0
 31
0.0
  0
LINE
  5
2B2
330
41
100
AcDbEntity
  8
0
  6
AUSGEZOGEN
 62
   134
100
AcDbLine
 10
0.0
 20
75.0
 30
0.0
 11
0.0
 21
0.0
 31
0.0
  0
LINE
  5
2B3
330
41
100
AcDbEntity
  8
0
  6
AUSGEZOGEN
 62
   134
100
AcDbLine
 10
-215.0
 20
0.0
 30
0.0
 11
0.0
 21
0.0
 31
0.0
  0
LINE
  5
2B4
330
41
100
AcDbEntity
  8
0
  6
AUSGEZOGEN
 62
     9
100
AcDbLine
 10
-85.0
 20
71.0
 30
0.0
 11
0.0
 21
71.0
 31
0.0
  0
LINE
  5
2B5
330
41
100
AcDbEntity
  8
0
  6
AUSGEZOGEN
 62
     9
100
AcDbLine
 10
-85.0
 20
64.0
 30
0.0
 11
0.0
 21
64.0
 31
0.0
  0
LINE
  5
2B6
330
41
100
AcDbEntity
  8
0
  6
AUSGEZOGEN
 62
    14
100
AcDbLine
 10
-186.0
 20
57.0
 30
0.0
 11
0.0
 21
57.0
 31
0.0
  0
LINE
  5
2B7
330
41
100
AcDbEntity
  8
0
  6
AUSGEZOGEN
 62
     9
100
AcDbLine
 10
-85.0
 20
50.0
 30
0.0
 11
0.0
 21
50.0
 31
0.0
  0
LINE
  5
2B8
330
41
100
AcDbEntity
  8
0
  6
AUSGEZOGEN
 62
    14
100
AcDbLine
 10
-85.0
 20
41.0
 30
0.0
 11
0.0
 21
41.0
 31
0.0
  0
LINE
  5
2B9
330
41
100
AcDbEntity
  8
0
  6
AUSGEZOGEN
 62
    14
100
AcDbLine
 10
-85.0
 20
19.0
 30
0.0
 11
0.0
 21
19.0
 31
0.0
  0
LINE
  5
2BA
330
41
100
AcDbEntity
  8
0
  6
AUSGEZOGEN
 62
     9
100
AcDbLine
 10
-127.0
 20
6.0
 30
0.0
 11
0.0
 21
6.0
 31
0.0
  0
LINE
  5
2BB
330
41
100
AcDbEntity
  8
0
  6
AUSGEZOGEN
 62
    14
100
AcDbLine
 10
-85.0
 20
75.0
 30
0.0
 11
-85.0
 21
0.0
 31
0.0
  0
LINE
  5
2BC
330
41
100
AcDbEntity
  8
0
  6
AUSGEZOGEN
 62
    14
100
AcDbLine
 10
-12.0
 20
19.0
 30
0.0
 11
-12.0
 21
6.0
 31
0.0
  0
LINE
  5
2BD
330
41
100
AcDbEntity
  8
0
  6
AUSGEZOGEN
 62
     9
100
AcDbLine
 10
-42.0
 20
6.0
 30
0.0
 11
-42.0
 21
0.0
 31
0.0
  0
LINE
  5
2BE
330
41
100
AcDbEntity
  8
0
  6
AUSGEZOGEN
 62
     9
100
AcDbLine
 10
-15.5
 20
71.0
 30
0.0
 11
-15.5
 21
57.0
 31
0.0
  0
LINE
  5
2BF
330
41
100
AcDbEntity
  8
0
  6
AUSGEZOGEN
 62
     9
100
AcDbLine
 10
-31.0
 20
71.0
 30
0.0
 11
-31.0
 21
57.0
 31
0.0
  0
LINE
  5
2C0
330
41
100
AcDbEntity
  8
0
  6
AUSGEZOGEN
 62
     9
100
AcDbLine
 10
-46.5
 20
71.0
 30
0.0
 11
-46.5
 21
57.0
 31
0.0
  0
LINE
  5
2C1
330
41
100
AcDbEntity
  8
0
  6
AUSGEZOGEN
 62
     9
100
AcDbLine
 10
-62.0
 20
71.0
 30
0.0
 11
-62.0
 21
57.0
 31
0.0
  0
LINE
  5
2C2
330
41
100
AcDbEntity
  8
0
  6
AUSGEZOGEN
 62
    14
100
AcDbLine
 10
-127.0
 20
75.0
 30
0.0
 11
-127.0
 21
0.0
 31
0.0
  0
LINE
  5
2C3
330
41
100
AcDbEntity
  8
0
  6
AUSGEZOGEN
 62
    14
100
AcDbLine
 10
-85.0
 20
41.0
 30
0.0
 11
-186.0
 21
41.0
 31
0.0
  0
LINE
  5
2C4
330
41
100
AcDbEntity
  8
0
  6
AUSGEZOGEN
 62
     9
100
AcDbLine
 10
-85.0
 20
36.59999084472656
 30
0.0
 11
-127.0
 21
36.59999084472656
 31
0.0
  0
LINE
  5
2C5
330
41
100
AcDbEntity
  8
0
  6
AUSGEZOGEN
 62
     9
100
AcDbLine
 10
-85.0
 20
32.19999694824219
 30
0.0
 11
-186.0
 21
32.19999694824219
 31
0.0
  0
LINE
  5
2C6
330
41
100
AcDbEntity
  8
0
  6
AUSGEZOGEN
 62
     9
100
AcDbLine
 10
-85.0
 20
27.79998779296875
 30
0.0
 11
-127.0
 21
27.79998779296875
 31
0.0
  0
LINE
  5
2C7
330
41
100
AcDbEntity
  8
0
  6
AUSGEZOGEN
 62
     9
100
AcDbLine
 10
-85.0
 20
23.39999389648437
 30
0.0
 11
-127.0
 21
23.39999389648437
 31
0.0
  0
LINE
  5
2C8
330
41
100
AcDbEntity
  8
0
  6
AUSGEZOGEN
 62
     9
100
AcDbLine
 10
-85.0
 20
18.99998474121093
 30
0.0
 11
-186.0
 21
18.99998474121093
 31
0.0
  0
LINE
  5
2C9
330
41
100
AcDbEntity
  8
0
  6
AUSGEZOGEN
 62
     9
100
AcDbLine
 10
-85.0
 20
14.59999084472656
 30
0.0
 11
-186.0
 21
14.59999084472656
 31
0.0
  0
LINE
  5
2CA
330
41
100
AcDbEntity
  8
0
  6
AUSGEZOGEN
 62
     9
100
AcDbLine
 10
-117.0
 20
41.0
 30
0.0
 11
-117.0
 21
23.39999389648437
 31
0.0
  0
LINE
  5
2CB
330
41
100
AcDbEntity
  8
0
  6
AUSGEZOGEN
 62
     9
100
AcDbLine
 10
-102.0
 20
41.0
 30
0.0
 11
-102.0
 21
14.59999084472656
 31
0.0
  0
LINE
  5
2CC
330
41
100
AcDbEntity
  8
0
  6
AUSGEZOGEN
 62
    14
100
AcDbLine
 10
-186.0
 20
75.0
 30
0.0
 11
-186.0
 21
0.0
 31
0.0
  0
LINE
  5
2CD
330
41
100
AcDbEntity
  8
0
  6
AUSGEZOGEN
 62
     9
100
AcDbLine
 10
-127.0
 20
10.19998168945312
 30
0.0
 11
-186.0
 21
10.19998168945312
 31
0.0
  0
LINE
  5
2CE
330
41
100
AcDbEntity
  8
0
  6
AUSGEZOGEN
 62
     9
100
AcDbLine
 10
-141.7499999999999
 20
28.49455261230469
 30
0.0
 11
-141.7499999999999
 21
10.19998168945312
 31
0.0
  0
LINE
  5
2CF
330
41
100
AcDbEntity
  8
0
  6
AUSGEZOGEN
 62
     9
100
AcDbLine
 10
-156.4999999999999
 20
28.17271423339843
 30
0.0
 11
-156.4999999999999
 21
10.19998168945312
 31
0.0
  0
LINE
  5
2D0
330
41
100
AcDbEntity
  8
0
  6
AUSGEZOGEN
 62
     9
100
AcDbLine
 10
-171.25
 20
32.19999694824219
 30
0.0
 11
-171.25
 21
10.19998168945312
 31
0.0
  0
LINE
  5
2D1
330
41
100
AcDbEntity
  8
0
  6
AUSGEZOGEN
 62
    14
100
AcDbLine
 10
-215.0
 20
65.14999389648437
 30
0.0
 11
-186.0
 21
65.14999389648437
 31
0.0
  0
LINE
  5
2D2
330
41
100
AcDbEntity
  8
0
  6
AUSGEZOGEN
 62
    14
100
AcDbLine
 10
-215.0
 20
55.30000305175781
 30
0.0
 11
-186.0
 21
55.30000305175781
 31
0.0
  0
LINE
  5
2D3
330
41
100
AcDbEntity
  8
0
  6
AUSGEZOGEN
 62
    14
100
AcDbLine
 10
-215.0
 20
45.44999694824219
 30
0.0
 11
-186.0
 21
45.44999694824219
 31
0.0
  0
LINE
  5
2D4
330
41
100
AcDbEntity
  8
0
  6
AUSGEZOGEN
 62
    14
100
AcDbLine
 10
-215.0
 20
35.60000610351562
 30
0.0
 11
-186.0
 21
35.60000610351562
 31
0.0
  0
LINE
  5
2D5
330
41
100
AcDbEntity
  8
0
  6
AUSGEZOGEN
 62
    14
100
AcDbLine
 10
-215.0
 20
25.75
 30
0.0
 11
-186.0
 21
25.75
 31
0.0
  0
LINE
  5
2D6
330
41
100
AcDbEntity
  8
0
  6
AUSGEZOGEN
 62
    14
100
AcDbLine
 10
-215.0
 20
15.90000915527343
 30
0.0
 11
-186.0
 21
15.90000915527343
 31
0.0
  0
LINE
  5
2D7
330
41
100
AcDbEntity
  8
0
  6
AUSGEZOGEN
 62
    14
100
AcDbLine
 10
-215.0
 20
6.050003051757812
 30
0.0
 11
-186.0
 21
6.050003051757812
 31
0.0
  0
LINE
  5
2D8
330
41
100
AcDbEntity
  8
0
  6
AUSGEZOGEN
 62
    14
100
AcDbLine
 10
-198.0
 20
75.0
 30
0.0
 11
-198.0
 21
0.0
 31
0.0
  0
LINE
  5
2D9
330
41
100
AcDbEntity
  8
0
  6
AUSGEZOGEN
 62
     9
100
AcDbLine
 10
-198.0
 20
70.07499694824218
 30
0.0
 11
-186.0
 21
70.07499694824218
 31
0.0
  0
LINE
  5
2DA
330
41
100
AcDbEntity
  8
0
  6
AUSGEZOGEN
 62
     9
100
AcDbLine
 10
-198.0
 20
60.22499084472656
 30
0.0
 11
-186.0
 21
60.22499084472656
 31
0.0
  0
LINE
  5
2DB
330
41
100
AcDbEntity
  8
0
  6
AUSGEZOGEN
 62
     9
100
AcDbLine
 10
-198.0
 20
50.375
 30
0.0
 11
-186.0
 21
50.375
 31
0.0
  0
LINE
  5
2DC
330
41
100
AcDbEntity
  8
0
  6
AUSGEZOGEN
 62
     9
100
AcDbLine
 10
-198.0
 20
40.52499389648438
 30
0.0
 11
-186.0
 21
40.52499389648438
 31
0.0
  0
LINE
  5
2DD
330
41
100
AcDbEntity
  8
0
  6
AUSGEZOGEN
 62
     9
100
AcDbLine
 10
-198.0
 20
30.67500305175781
 30
0.0
 11
-186.0
 21
30.67500305175781
 31
0.0
  0
LINE
  5
2DE
330
41
100
AcDbEntity
  8
0
  6
AUSGEZOGEN
 62
     9
100
AcDbLine
 10
-198.0
 20
20.82501220703125
 30
0.0
 11
-186.0
 21
20.82501220703125
 31
0.0
  0
LINE
  5
2DF
330
41
100
AcDbEntity
  8
0
  6
AUSGEZOGEN
 62
     9
100
AcDbLine
 10
-198.0
 20
10.97500610351562
 30
0.0
 11
-186.0
 21
10.97500610351562
 31
0.0
  0
TEXT
  5
2E0
330
41
100
AcDbEntity
  8
0
  6
AUSGEZOGEN
 62
     9
100
AcDbText
 10
-94.96307373046875
 20
37.4515394449234
 30
0.0
 40
2.299999952316284
  1
Name
 41
0.7826086911452065
100
AcDbText
  0
TEXT
  5
2E1
330
41
100
AcDbEntity
  8
0
  6
AUSGEZOGEN
 62
     9
100
AcDbText
 10
-113.3741455078125
 20
37.26396315097808
 30
0.0
 40
2.299999952316284
  1
Datum
 41
0.7826086911452065
100
AcDbText
  0
TEXT
  5
2E2
330
41
100
AcDbEntity
  8
0
  6
AUSGEZOGEN
 62
     9
100
AcDbText
 10
-126.2693481445312
 20
33.14894239902496
 30
0.0
 40
2.299999952316284
  1
Bearb.
 41
0.6521739395219127
100
AcDbText
  0
TEXT
  5
2E3
330
41
100
AcDbEntity
  8
0
  6
AUSGEZOGEN
 62
     9
100
AcDbText
 10
-126.2693481445312
 20
29.20994703769684
 30
0.0
 40
2.299999952316284
  1
Gepr.
 41
0.6521739395219127
100
AcDbText
  0
TEXT
  5
2E4
330
41
100
AcDbEntity
  8
0
  6
AUSGEZOGEN
 62
     9
100
AcDbText
 10
-126.2467651367187
 20
24.84672491550445
 30
0.0
 40
2.299999952316284
  1
Norm
 41
0.6521739395219127
100
AcDbText
  0
TEXT
  5
2E5
330
41
100
AcDbEntity
  8
0
  6
AUSGEZOGEN
 62
     9
100
AcDbText
 10
-40.697509765625
 20
2.625488209724426
 30
0.0
 40
2.299999952316284
  1
(Ers.d.:)
 41
0.6956521987013651
100
AcDbText
  0
TEXT
  5
2E6
330
41
100
AcDbEntity
  8
0
  6
AUSGEZOGEN
 62
     9
100
AcDbText
 10
-83.49755859374999
 20
2.625488209724426
 30
0.0
 40
2.299999952316284
  1
(Ers.f.:)
 41
0.6956521987013651
100
AcDbText
  0
TEXT
  5
2E7
330
41
100
AcDbEntity
  8
0
  6
AUSGEZOGEN
 62
     9
100
AcDbText
 10
-126.2975463867187
 20
2.625488209724426
 30
0.0
 40
2.299999952316284
  1
(Urspr.)
 41
0.6956521987013651
100
AcDbText
  0
TEXT
  5
2E8
330
41
100
AcDbEntity
  8
0
  6
AUSGEZOGEN
 62
     9
100
AcDbText
 10
-83.21746826171875
 20
51.9617919921875
 30
0.0
 40
2.5
  1
Maßstab:
 41
0.7199999809265137
100
AcDbText
  0
TEXT
  5
2E9
330
41
100
AcDbEntity
  8
0
  6
AUSGEZOGEN
 62
     9
100
AcDbText
 10
-83.21746826171875
 20
45.9617919921875
 30
0.0
 40
2.5
  1
Werkstoff
 41
0.7199999809265137
100
AcDbText
  0
TEXT
  5
2EA
330
41
100
AcDbEntity
  8
0
  6
AUSGEZOGEN
 62
     9
100
AcDbText
 10
-83.21746826171875
 20
41.96179199218749
 30
0.0
 40
2.5
  1
Rohteil-Nr.
 41
0.7199999809265137
100
AcDbText
  0
TEXT
  5
2EB
330
41
100
AcDbEntity
  8
0
  6
AUSGEZOGEN
 62
     9
100
AcDbText
 10
-126.2467651367187
 20
20.44671576023101
 30
0.0
 40
2.299999952316284
  1
VDE-gepr. Konstr
 41
0.6521739395219127
100
AcDbText
  0
TEXT
  5
2EC
330
41
100
AcDbEntity
  8
0
  6
AUSGEZOGEN
 62
     9
100
AcDbText
 10
-126.2467651367187
 20
16.04672186374664
 30
0.0
 40
2.299999952316284
  1
VDE-gepr. Norm
 41
0.6521739395219127
100
AcDbText
  0
TEXT
  5
2ED
330
41
100
AcDbEntity
  8
0
  6
AUSGEZOGEN
 62
     9
100
AcDbText
 10
-83.65960693359374
 20
71.88078460693358
 30
0.0
 40
2.0
  1
Symbole für die Oberflächenbeschaffenheit
 41
0.9000000357627868
100
AcDbText
  0
TEXT
  5
2EE
330
41
100
AcDbEntity
  8
0
  6
AUSGEZOGEN
 62
     9
100
AcDbText
 10
-84.01879882812499
 20
59.25633392333985
 30
0.0
 40
2.0
  1
DIN ISO 4763
 41
0.8500000238418579
100
AcDbText
  0
LINE
  5
2EF
330
41
100
AcDbEntity
  8
0
  6
AUSGEZOGEN
 62
     9
100
AcDbLine
 10
-39.98028564453125
 20
57.0
 30
0.0
 11
-39.98028564453125
 21
50.0
 31
0.0
  0
LINE
  5
2F0
330
41
100
AcDbEntity
  8
0
  6
AUSGEZOGEN
 62
     9
100
AcDbLine
 10
-17.92303466796875
 20
54.66740417480469
 30
0.0
 11
-17.92303466796875
 21
52.16740417480469
 31
0.0
  0
LINE
  5
2F1
330
41
100
AcDbEntity
  8
0
  6
STRICHPUNKT
 62
    54
100
AcDbLine
 10
-8.120361328125
 20
53.41740417480469
 30
0.0
 11
-3.120361328125
 21
53.41740417480469
 31
0.0
  0
LINE
  5
2F2
330
41
100
AcDbEntity
  8
0
  6
STRICHPUNKT
 62
    54
100
AcDbLine
 10
-17.92303466796875
 20
53.41740417480469
 30
0.0
 11
-12.92303466796875
 21
53.41740417480469
 31
0.0
  0
LINE
  5
2F3
330
41
100
AcDbEntity
  8
0
  6
AUSGEZOGEN
 62
     9
100
AcDbLine
 10
-12.92303466796875
 20
55.84162902832031
 30
0.0
 11
-12.92303466796875
 21
50.99317932128906
 31
0.0
  0
LINE
  5
2F4
330
41
100
AcDbEntity
  8
0
  6
AUSGEZOGEN
 62
     9
100
AcDbLine
 10
-12.92303466796875
 20
55.84162902832031
 30
0.0
 11
-17.92303466796875
 21
54.66740417480469
 31
0.0
  0
LINE
  5
2F5
330
41
100
AcDbEntity
  8
0
  6
AUSGEZOGEN
 62
     9
100
AcDbLine
 10
-12.92303466796875
 20
50.99317932128906
 30
0.0
 11
-17.92303466796875
 21
52.16740417480469
 31
0.0
  0
CIRCLE
  5
2F6
330
41
100
AcDbEntity
  8
0
  6
AUSGEZOGEN
 62
     9
100
AcDbCircle
 10
-5.620361328125
 20
53.41740417480469
 30
0.0
 40
2.5
  0
CIRCLE
  5
2F7
330
41
100
AcDbEntity
  8
0
  6
AUSGEZOGEN
 62
     9
100
AcDbCircle
 10
-5.620361328125
 20
53.41740417480469
 30
0.0
 40
1.25
  0
LINE
  5
2F8
330
41
100
AcDbEntity
  8
0
  6
STRICHPUNKT
 62
    54
100
AcDbLine
 10
-5.620361328125
 20
55.91740417480469
 30
0.0
 11
-5.620361328125
 21
50.91740417480469
 31
0.0
  0
LINE
  5
2F9
330
41
100
AcDbEntity
  8
0
  6
AUSGEZOGEN
 62
     9
100
AcDbLine
 10
-54.8507080078125
 20
64.92915344238281
 30
0.0
 11
-56.2940673828125
 21
67.42915344238281
 31
0.0
  0
LINE
  5
2FA
330
41
100
AcDbEntity
  8
0
  6
AUSGEZOGEN
 62
     9
100
AcDbLine
 10
-54.8507080078125
 20
64.92915344238281
 30
0.0
 11
-51.96392822265625
 21
69.92915344238281
 31
0.0
  0
LINE
  5
2FB
330
41
100
AcDbEntity
  8
0
  6
AUSGEZOGEN
 62
     9
100
AcDbLine
 10
-55.30621337890625
 20
57.86512756347656
 30
0.0
 11
-56.74957275390625
 21
60.36512756347656
 31
0.0
  0
LINE
  5
2FC
330
41
100
AcDbEntity
  8
0
  6
AUSGEZOGEN
 62
     9
100
AcDbLine
 10
-55.30621337890625
 20
57.86512756347656
 30
0.0
 11
-52.41943359375
 21
62.86512756347656
 31
0.0
  0
LINE
  5
2FD
330
41
100
AcDbEntity
  8
0
  6
AUSGEZOGEN
 62
     9
100
AcDbLine
 10
-44.26019287109375
 20
57.86512756347656
 30
0.0
 11
-45.70355224609374
 21
60.36512756347656
 31
0.0
  0
LINE
  5
2FE
330
41
100
AcDbEntity
  8
0
  6
AUSGEZOGEN
 62
     9
100
AcDbLine
 10
-44.26019287109375
 20
57.86512756347656
 30
0.0
 11
-41.37341308593749
 21
62.86512756347656
 31
0.0
  0
LINE
  5
2FF
330
41
100
AcDbEntity
  8
0
  6
AUSGEZOGEN
 62
     9
100
AcDbLine
 10
-45.70355224609374
 20
60.36512756347656
 30
0.0
 11
-42.8167724609375
 21
60.36512756347656
 31
0.0
  0
LINE
  5
300
330
41
100
AcDbEntity
  8
0
  6
AUSGEZOGEN
 62
     9
100
AcDbLine
 10
-41.37341308593749
 20
62.86512756347656
 30
0.0
 11
-33.426513671875
 21
62.86512756347656
 31
0.0
  0
TEXT
  5
301
330
41
100
AcDbEntity
  8
0
  6
AUSGEZOGEN
 62
     9
100
AcDbText
 10
-41.4739990234375
 20
59.61050720214844
 30
0.0
 40
1.5
  1
Rz25
 41
0.8666666746139526
100
AcDbText
  0
LINE
  5
302
330
41
100
AcDbEntity
  8
0
  6
AUSGEZOGEN
 62
     9
100
AcDbLine
 10
-28.8868408203125
 20
57.75119018554687
 30
0.0
 11
-30.3302001953125
 21
60.25119018554687
 31
0.0
  0
LINE
  5
303
330
41
100
AcDbEntity
  8
0
  6
AUSGEZOGEN
 62
     9
100
AcDbLine
 10
-28.8868408203125
 20
57.75119018554687
 30
0.0
 11
-26.00006103515625
 21
62.75119018554687
 31
0.0
  0
LINE
  5
304
330
41
100
AcDbEntity
  8
0
  6
AUSGEZOGEN
 62
     9
100
AcDbLine
 10
-30.3302001953125
 20
60.25119018554687
 30
0.0
 11
-27.44342041015625
 21
60.25119018554687
 31
0.0
  0
LINE
  5
305
330
41
100
AcDbEntity
  8
0
  6
AUSGEZOGEN
 62
     9
100
AcDbLine
 10
-26.00006103515625
 20
62.75119018554687
 30
0.0
 11
-18.05316162109375
 21
62.75119018554687
 31
0.0
  0
TEXT
  5
306
330
41
100
AcDbEntity
  8
0
  6
AUSGEZOGEN
 62
     9
100
AcDbText
 10
-26.10064697265625
 20
59.49656982421875
 30
0.0
 40
1.5
  1
Rz6,3
 41
0.8666666746139526
100
AcDbText
  0
LINE
  5
307
330
41
100
AcDbEntity
  8
0
  6
AUSGEZOGEN
 62
     9
100
AcDbLine
 10
-13.0579833984375
 20
57.75119018554687
 30
0.0
 11
-14.5013427734375
 21
60.25119018554687
 31
0.0
  0
LINE
  5
308
330
41
100
AcDbEntity
  8
0
  6
AUSGEZOGEN
 62
     9
100
AcDbLine
 10
-13.0579833984375
 20
57.75119018554687
 30
0.0
 11
-10.17120361328125
 21
62.75119018554687
 31
0.0
  0
LINE
  5
309
330
41
100
AcDbEntity
  8
0
  6
AUSGEZOGEN
 62
     9
100
AcDbLine
 10
-14.5013427734375
 20
60.25119018554687
 30
0.0
 11
-11.61456298828124
 21
60.25119018554687
 31
0.0
  0
LINE
  5
30A
330
41
100
AcDbEntity
  8
0
  6
AUSGEZOGEN
 62
     9
100
AcDbLine
 10
-10.17120361328125
 20
62.75119018554687
 30
0.0
 11
-2.22430419921875
 21
62.75119018554687
 31
0.0
  0
TEXT
  5
30B
330
41
100
AcDbEntity
  8
0
  6
AUSGEZOGEN
 62
     9
100
AcDbText
 10
-10.27178955078124
 20
59.49656984210014
 30
0.0
 40
1.5
  1
Rz2,5
 41
0.8666666746139526
100
AcDbText
  0
LINE
  5
30C
330
41
100
AcDbEntity
  8
0
  6
AUSGEZOGEN
 62
     9
100
AcDbLine
 10
-7.81964111328125
 20
64.92915344238281
 30
0.0
 11
-9.26300048828125
 21
67.42915344238281
 31
0.0
  0
LINE
  5
30D
330
41
100
AcDbEntity
  8
0
  6
AUSGEZOGEN
 62
     9
100
AcDbLine
 10
-7.81964111328125
 20
64.92915344238281
 30
0.0
 11
-4.932861328125
 21
69.92915344238281
 31
0.0
  0
LINE
  5
30E
330
41
100
AcDbEntity
  8
0
  6
AUSGEZOGEN
 62
     9
100
AcDbLine
 10
-23.64849853515625
 20
64.92915344238281
 30
0.0
 11
-25.09185791015625
 21
67.42915344238281
 31
0.0
  0
LINE
  5
30F
330
41
100
AcDbEntity
  8
0
  6
AUSGEZOGEN
 62
     9
100
AcDbLine
 10
-23.64849853515625
 20
64.92915344238281
 30
0.0
 11
-20.76171875
 21
69.92915344238281
 31
0.0
  0
LINE
  5
310
330
41
100
AcDbEntity
  8
0
  6
AUSGEZOGEN
 62
     9
100
AcDbLine
 10
-39.1357421875
 20
64.92915344238281
 30
0.0
 11
-40.5791015625
 21
67.42915344238281
 31
0.0
  0
LINE
  5
311
330
41
100
AcDbEntity
  8
0
  6
AUSGEZOGEN
 62
     9
100
AcDbLine
 10
-39.1357421875
 20
64.92915344238281
 30
0.0
 11
-36.24896240234375
 21
69.92915344238281
 31
0.0
  0
CIRCLE
  5
312
330
41
100
AcDbEntity
  8
0
  6
AUSGEZOGEN
 62
     9
100
AcDbCircle
 10
-54.84625244140625
 20
66.95063781738281
 30
0.0
 40
1.0
  0
CIRCLE
  5
313
330
41
100
AcDbEntity
  8
0
  6
AUSGEZOGEN
 62
     9
100
AcDbCircle
 10
-55.2982177734375
 20
60.03184509277343
 30
0.0
 40
1.0
  0
TEXT
  5
314
330
41
100
AcDbEntity
  8
0
  6
AUSGEZOGEN
 62
     9
100
AcDbText
 10
-39.90234375
 20
67.19925079345703
 30
0.0
 40
2.0
  1
w
 41
0.7999999821186066
100
AcDbText
  0
TEXT
  5
315
330
41
100
AcDbEntity
  8
0
  6
AUSGEZOGEN
 62
     9
100
AcDbText
 10
-24.2171630859375
 20
67.4444595336914
 30
0.0
 40
2.0
  1
x
 41
0.7999999821186066
100
AcDbText
  0
TEXT
  5
316
330
41
100
AcDbEntity
  8
0
  6
AUSGEZOGEN
 62
     9
100
AcDbText
 10
-8.409423828125
 20
67.4444595336914
 30
0.0
 40
2.0
  1
y
 41
0.7999999821186066
100
AcDbText
  0
TEXT
  5
317
330
41
100
AcDbEntity
  8
0
  6
AUSGEZOGEN
 62
     9
100
AcDbText
 10
-9.7740478515625
 20
15.31469669938087
 30
0.0
 40
2.299999952316284
  1
Blatt
 41
0.6956521987013651
100
AcDbText
  0
TEXT
  5
318
330
41
100
AcDbEntity
  8
0
  6
AUSGEZOGEN
 62
     9
100
AcDbText
 10
-4.7576904296875
 20
7.397430807352066
 30
0.0
 40
2.299999952316284
  1
Bl.
 41
0.6956521987013651
100
AcDbText
  0
TEXT
  5
319
330
41
100
AcDbEntity
  8
0
  6
AUSGEZOGEN
 62
     9
100
AcDbText
 10
-183.556396484375
 20
68.1602767944336
 30
0.0
 40
3.0
  1
Für diese Zeichnung behalten
 41
0.6333333253860474
100
AcDbText
  0
TEXT
  5
31A
330
41
100
AcDbEntity
  8
0
  6
AUSGEZOGEN
 62
     9
100
AcDbText
 10
-183.556396484375
 20
63.3602767944336
 30
0.0
 40
3.0
  1
wir uns alle Rechte vor.
 41
0.6333333253860474
100
AcDbText
  0
TEXT
  5
31B
330
41
100
AcDbEntity
  8
0
  6
AUSGEZOGEN
 62
     9
100
AcDbText
 10
-164.8905029296875
 20
29.18658599853515
 30
0.0
 40
2.0
  1
Nennmaßbereich  (mm)
 41
0.8500000238418579
100
AcDbText
  0
TEXT
  5
31C
330
41
100
AcDbEntity
  8
0
  6
AUSGEZOGEN
 62
     9
100
AcDbText
 10
-182.3128662109374
 20
15.91395530700683
 30
0.0
 40
2.0
  1
fein
 41
0.7500000149011612
100
AcDbText
  0
TEXT
  5
31D
330
41
100
AcDbEntity
  8
0
  6
AUSGEZOGEN
 62
     9
100
AcDbText
 10
-183.8898315429687
 20
11.39082298278808
 30
0.0
 40
2.0
  1
mittel
 41
0.7500000149011612
100
AcDbText
  0
TEXT
  5
31E
330
41
100
AcDbEntity
  8
0
  6
AUSGEZOGEN
 62
     9
100
AcDbText
 10
-185.0853271484375
 20
5.03837547302246
 30
0.0
 40
2.0
  1
"fein" für Bohrungen u. Lochmittenabstand
 41
0.7000000029802323
100
AcDbText
  0
TEXT
  5
31F
330
41
100
AcDbEntity
  8
0
  6
AUSGEZOGEN
 62
     9
100
AcDbText
 10
-185.0853271484375
 20
1.83837547302246
 30
0.0
 40
2.0
  1
"mittel" für alle anderen Maße
 41
0.7000000029802323
100
AcDbText
  0
TEXT
  5
320
330
41
100
AcDbEntity
  8
0
  6
AUSGEZOGEN
 62
     9
100
AcDbText
 10
-164.1904296874999
 20
15.70356712341308
 30
0.0
 40
2.0
  1
0,1
 41
0.8000000119209289
100
AcDbText
  0
TEXT
  5
321
330
41
100
AcDbEntity
  8
0
  6
AUSGEZOGEN
 62
     9
100
AcDbText
 10
-149.3793945312499
 20
15.59838829040527
 30
0.0
 40
2.0
  1
0,15
 41
0.8000000119209289
100
AcDbText
  0
TEXT
  5
322
330
41
100
AcDbEntity
  8
0
  6
AUSGEZOGEN
 62
     9
100
AcDbText
 10
-135.4104614257812
 20
15.90002403259277
 30
0.0
 40
2.0
  1
0,2
 41
0.8000000119209289
100
AcDbText
  0
TEXT
  5
323
330
41
100
AcDbEntity
  8
0
  6
AUSGEZOGEN
 62
     9
100
AcDbText
 10
-135.186279296875
 20
11.60119590759277
 30
0.0
 40
2.0
  1
0,5
 41
0.8000000119209289
100
AcDbText
  0
TEXT
  5
324
330
41
100
AcDbEntity
  8
0
  6
AUSGEZOGEN
 62
     9
100
AcDbText
 10
-149.3515625
 20
11.39082298278808
 30
0.0
 40
2.0
  1
0,3
 41
0.8000000119209289
100
AcDbText
  0
TEXT
  5
325
330
41
100
AcDbEntity
  8
0
  6
AUSGEZOGEN
 62
     9
100
AcDbText
 10
-164.5263671875
 20
11.39082298278808
 30
0.0
 40
2.0
  1
0,2
 41
0.8000000119209289
100
AcDbText
  0
LINE
  5
326
330
41
100
AcDbEntity
  8
0
  6
AUSGEZOGEN
 62
     9
100
AcDbLine
 10
-167.5855102539062
 20
13.42669677734375
 30
0.0
 11
-167.5855102539062
 21
11.98603820800781
 31
0.0
  0
LINE
  5
327
330
41
100
AcDbEntity
  8
0
  6
AUSGEZOGEN
 62
     9
100
AcDbLine
 10
-168.3058471679687
 20
12.70635986328125
 30
0.0
 11
-166.865234375
 21
12.70635986328125
 31
0.0
  0
LINE
  5
328
330
41
100
AcDbEntity
  8
0
  6
AUSGEZOGEN
 62
     9
100
AcDbLine
 10
-168.3058471679687
 20
11.51724243164062
 30
0.0
 11
-166.865234375
 21
11.51724243164062
 31
0.0
  0
LINE
  5
329
330
41
100
AcDbEntity
  8
0
  6
AUSGEZOGEN
 62
     9
100
AcDbLine
 10
-152.8222045898437
 20
13.30757141113281
 30
0.0
 11
-152.8222045898437
 21
11.86691284179687
 31
0.0
  0
LINE
  5
32A
330
41
100
AcDbEntity
  8
0
  6
AUSGEZOGEN
 62
     9
100
AcDbLine
 10
-153.5425415039062
 20
12.58723449707031
 30
0.0
 11
-152.1018676757812
 21
12.58723449707031
 31
0.0
  0
LINE
  5
32B
330
41
100
AcDbEntity
  8
0
  6
AUSGEZOGEN
 62
     9
100
AcDbLine
 10
-153.5425415039062
 20
11.39811706542968
 30
0.0
 11
-152.1018676757812
 21
11.39811706542968
 31
0.0
  0
LINE
  5
32C
330
41
100
AcDbEntity
  8
0
  6
AUSGEZOGEN
 62
     9
100
AcDbLine
 10
-152.703125
 20
17.71505737304687
 30
0.0
 11
-152.703125
 21
16.27439880371093
 31
0.0
  0
LINE
  5
32D
330
41
100
AcDbEntity
  8
0
  6
AUSGEZOGEN
 62
     9
100
AcDbLine
 10
-153.4234619140625
 20
16.99472045898437
 30
0.0
 11
-151.9827880859375
 21
16.99472045898437
 31
0.0
  0
LINE
  5
32E
330
41
100
AcDbEntity
  8
0
  6
AUSGEZOGEN
 62
     9
100
AcDbLine
 10
-153.4234619140625
 20
15.80560302734375
 30
0.0
 11
-151.9827880859375
 21
15.80560302734375
 31
0.0
  0
LINE
  5
32F
330
41
100
AcDbEntity
  8
0
  6
AUSGEZOGEN
 62
     9
100
AcDbLine
 10
-138.5350952148437
 20
17.71505737304687
 30
0.0
 11
-138.5350952148437
 21
16.27439880371093
 31
0.0
  0
LINE
  5
330
330
41
100
AcDbEntity
  8
0
  6
AUSGEZOGEN
 62
     9
100
AcDbLine
 10
-139.2554321289062
 20
16.99472045898437
 30
0.0
 11
-137.8147583007812
 21
16.99472045898437
 31
0.0
  0
LINE
  5
331
330
41
100
AcDbEntity
  8
0
  6
AUSGEZOGEN
 62
     9
100
AcDbLine
 10
-139.2554321289062
 20
15.80560302734375
 30
0.0
 11
-137.8147583007812
 21
15.80560302734375
 31
0.0
  0
LINE
  5
332
330
41
100
AcDbEntity
  8
0
  6
AUSGEZOGEN
 62
     9
100
AcDbLine
 10
-138.416015625
 20
13.30757141113281
 30
0.0
 11
-138.416015625
 21
11.86691284179687
 31
0.0
  0
LINE
  5
333
330
41
100
AcDbEntity
  8
0
  6
AUSGEZOGEN
 62
     9
100
AcDbLine
 10
-139.1363525390625
 20
12.58723449707031
 30
0.0
 11
-137.6956787109375
 21
12.58723449707031
 31
0.0
  0
LINE
  5
334
330
41
100
AcDbEntity
  8
0
  6
AUSGEZOGEN
 62
     9
100
AcDbLine
 10
-139.1363525390625
 20
11.39811706542968
 30
0.0
 11
-137.6956787109375
 21
11.39811706542968
 31
0.0
  0
LINE
  5
335
330
41
100
AcDbEntity
  8
0
  6
AUSGEZOGEN
 62
     9
100
AcDbLine
 10
-167.4664916992187
 20
17.59593200683593
 30
0.0
 11
-167.4664916992187
 21
16.15528869628906
 31
0.0
  0
LINE
  5
336
330
41
100
AcDbEntity
  8
0
  6
AUSGEZOGEN
 62
     9
100
AcDbLine
 10
-168.1868286132812
 20
16.8756103515625
 30
0.0
 11
-166.7461547851562
 21
16.8756103515625
 31
0.0
  0
LINE
  5
337
330
41
100
AcDbEntity
  8
0
  6
AUSGEZOGEN
 62
     9
100
AcDbLine
 10
-168.1868286132812
 20
15.68649291992187
 30
0.0
 11
-166.7461547851562
 21
15.68649291992187
 31
0.0
  0
TEXT
  5
338
330
41
100
AcDbEntity
  8
0
  6
AUSGEZOGEN
 62
     9
100
AcDbText
 10
-182.5210571289062
 20
37.70758056640625
 30
0.0
 40
2.5
  1
   Zulässige Abweichung
 41
0.7599999904632569
100
AcDbText
  0
TEXT
  5
339
330
41
100
AcDbEntity
  8
0
  6
AUSGEZOGEN
 62
     9
100
AcDbText
 10
-182.5210571289062
 20
33.70758056640625
 30
0.0
 40
2.5
  1
für Maße ohne Toleranzangabe
 41
0.7599999904632569
100
AcDbText
  0
TEXT
  5
33A
330
41
100
AcDbEntity
  8
0
  6
AUSGEZOGEN
 62
     9
100
AcDbText
 10
-183.9574584960937
 20
51.31889343261718
 30
0.0
 40
2.5
  1
Unbemaßte Radien    R =   mm
 41
0.7599999904632569
100
AcDbText
  0
TEXT
  5
33B
330
41
100
AcDbEntity
  8
0
  6
AUSGEZOGEN
 62
     9
100
AcDbText
 10
-183.9574584960937
 20
47.31889343261719
 30
0.0
 40
2.5
  1
Bearbeitungszugabe  Z =   mm
 41
0.7599999904632569
100
AcDbText
  0
TEXT
  5
33C
330
41
100
AcDbEntity
  8
0
  6
AUSGEZOGEN
 62
     9
100
AcDbText
 10
-183.9574584960937
 20
43.31889343261718
 30
0.0
 40
2.5
  1
Alle Kanten entgratet
 41
0.7599999904632569
100
AcDbText
  0
TEXT
  5
33D
330
41
100
AcDbEntity
  8
0
  6
AUSGEZOGEN
 62
     9
100
AcDbText
 10
-185.2591857910156
 20
27.75071868896484
 30
0.0
 40
2.0
  1
Genauig-
 41
0.8500000238418579
100
AcDbText
  0
TEXT
  5
33E
330
41
100
AcDbEntity
  8
0
  6
AUSGEZOGEN
 62
     9
100
AcDbText
 10
-185.2591857910156
 20
24.55071868896484
 30
0.0
 40
2.0
  1
 keits-
 41
0.8500000238418579
100
AcDbText
  0
TEXT
  5
33F
330
41
100
AcDbEntity
  8
0
  6
AUSGEZOGEN
 62
     9
100
AcDbText
 10
-185.2591857910156
 20
21.35071868896484
 30
0.0
 40
2.0
  1
  grad
 41
0.8500000238418579
100
AcDbText
  0
TEXT
  5
340
330
41
100
AcDbEntity
  8
0
  6
AUSGEZOGEN
 62
     9
100
AcDbText
 10
-154.9282836914062
 20
23.38236961364746
 30
0.0
 40
2.0
  1
über30
 41
0.8500000238418579
100
AcDbText
  0
TEXT
  5
341
330
41
100
AcDbEntity
  8
0
  6
AUSGEZOGEN
 62
     9
100
AcDbText
 10
-154.9282836914062
 20
20.18236961364746
 30
0.0
 40
2.0
  1
bis 120
 41
0.8500000238418579
100
AcDbText
  0
TEXT
  5
342
330
41
100
AcDbEntity
  8
0
  6
AUSGEZOGEN
 62
     9
100
AcDbText
 10
-141.208984375
 20
23.47502098083496
 30
0.0
 40
2.0
  1
über 120
 41
0.8500000238418579
100
AcDbText
  0
TEXT
  5
343
330
41
100
AcDbEntity
  8
0
  6
AUSGEZOGEN
 62
     9
100
AcDbText
 10
-168.3252258300781
 20
20.22669944763183
 30
0.0
 40
2.0
  1
bis 30
 41
0.8500000238418579
100
AcDbText
  0
TEXT
  5
344
330
41
100
AcDbEntity
  8
0
  6
AUSGEZOGEN
 62
     9
100
AcDbText
 10
-83.85766601562499
 20
68.27705535888672
 30
0.0
 40
2.0
  1
Symbol in der
 41
0.8500000238418579
100
AcDbText
  0
TEXT
  5
345
330
41
100
AcDbEntity
  8
0
  6
AUSGEZOGEN
 62
     9
100
AcDbText
 10
-83.85766601562499
 20
65.07705535888671
 30
0.0
 40
2.0
  1
Zeichnung
 41
0.8500000238418579
100
AcDbText
  0
TEXT
  5
346
330
41
100
AcDbEntity
  8
0
  6
AUSGEZOGEN
 62
     9
100
AcDbText
 10
-39.38946533203125
 20
54.14639434814453
 30
0.0
 40
2.0
  1
Projektions-
 41
0.8500000238418579
100
AcDbText
  0
TEXT
  5
347
330
41
100
AcDbEntity
  8
0
  6
AUSGEZOGEN
 62
     9
100
AcDbText
 10
-39.38946533203125
 20
50.94639434814453
 30
0.0
 40
2.0
  1
Methode 1
 41
0.8500000238418579
100
AcDbText
  0
LINE
  5
348
330
41
100
AcDbEntity
  8
0
  6
AUSGEZOGEN
 62
   134
100
AcDbLine
 10
-215.0
 20
75.0
 30
0.0
 11
-215.0
 21
0.0
 31
0.0
  0
TEXT
  5
349
330
41
100
AcDbEntity
  8
0
  6
AUSGEZOGEN
 62
     9
100
AcDbText
 10
-211.5203857421875
 20
1.494354152679443
 30
0.0
 40
3.0
  1
Paßmaß
 41
0.5666666825612387
100
AcDbText
  0
TEXT
  5
34A
330
41
100
AcDbEntity
  8
0
  6
AUSGEZOGEN
 62
     9
100
AcDbText
 10
-197.1044616699218
 20
1.494354152679443
 30
0.0
 40
3.0
  1
Abmaß
 41
0.5666666825612387
100
AcDbText
  0
LINE
  5
34B
330
41
100
AcDbEntity
  8
0
  6
AUSGEZOGEN
 62
     9
100
AcDbLine
 10
-550.5127646567951
 20
36.02345657348632
 30
0.0
 11
-550.5127646567951
 21
5.0
 31
0.0
  0
LINE
  5
34C
330
41
100
AcDbEntity
  8
0
  6
PUNKT3
 62
     9
100
AcDbLine
 10
-379.0
 20
409.0
 30
0.0
 11
-379.0
 21
404.0
 31
0.0
  0
LINE
  5
34D
330
41
100
AcDbEntity
  8
0
  6
PUNKT3
 62
     9
100
AcDbLine
 10
-187.0
 20
409.0
 30
0.0
 11
-187.0
 21
404.0
 31
0.0
  0
LINE
  5
34E
330
41
100
AcDbEntity
  8
0
  6
PUNKT3
 62
     9
100
AcDbLine
 10
-5.0
 20
292.0
 30
0.0
 11
0.0
 21
292.0
 31
0.0
  0
TEXT
  5
34F
330
41
100
AcDbEntity
  8
0
  6
AUSGEZOGEN
 62
     9
100
AcDbText
 10
-115.9162104537783
 20
33.19758253669577
 30
0.0
 40
2.0
  1
14.08.02
 41
0.8000000268220901
100
AcDbText
  0
TEXT
  5
350
330
41
100
AcDbEntity
  8
0
  6
AUSGEZOGEN
 62
     9
100
AcDbText
 10
-100.8785230395749
 20
33.19758253669577
 30
0.0
 40
2.0
  1
Richter
 41
0.8000000268220901
100
AcDbText
  0
TEXT
  5
351
330
41
100
AcDbEntity
  8
0
  6
AUSGEZOGEN
 62
    94
100
AcDbText
 10
-83.24172915871907
 20
32.91910684384015
 30
0.0
 40
5.0
  1
DSD 022 S/E
 41
0.6800000190734864
100
AcDbText
  0
TEXT
  5
352
330
41
100
AcDbEntity
  8
0
  6
AUSGEZOGEN
 62
    94
100
AcDbText
 10
-83.42737962062278
 20
22.7083314391341
 30
0.0
 40
5.0
  1
Maßblatt
 41
0.6800000190734864
100
AcDbText
  0
TEXT
  5
353
330
41
100
AcDbEntity
  8
0
  6
AUSGEZOGEN
 62
    94
100
AcDbText
 10
-83.52020485157471
 20
10.08410002967934
 30
0.0
 40
5.0
  1
M022S001A
 41
0.6800000190734864
100
AcDbText
  0
TEXT
  5
354
330
41
100
AcDbEntity
  8
0
  6
AUSGEZOGEN
 62
    14
100
AcDbText
 10
-66.44036235643
 20
51.76262872707038
 30
0.0
 40
3.0
  1
1 : 1
 41
0.7333333492279053
100
AcDbText
  0
TEXT
  5
355
330
41
100
AcDbEntity
  8
0
  6
AUSGEZOGEN
 62
    14
100
AcDbText
 10
-61.79910080883633
 20
43.50118317235378
 30
0.0
 40
3.0
  1
 
 41
0.7333333492279053
100
AcDbText
  0
LINE
  5
356
330
41
100
AcDbEntity
  8
2
  6
AUSGEZOGEN
 62
     9
100
AcDbLine
 10
-588.4999999999999
 20
414.5
 30
0.0
 11
-588.4999999999999
 21
-5.5
 31
0.0
  0
LINE
  5
357
330
41
100
AcDbEntity
  8
2
  6
AUSGEZOGEN
 62
     9
100
AcDbLine
 10
5.5
 20
414.5
 30
0.0
 11
-588.4999999999999
 21
414.5
 31
0.0
  0
LINE
  5
358
330
41
100
AcDbEntity
  8
2
  6
AUSGEZOGEN
 62
     9
100
AcDbLine
 10
5.5
 20
-5.5
 30
0.0
 11
5.5
 21
414.5
 31
0.0
  0
LINE
  5
359
330
41
100
AcDbEntity
  8
2
  6
AUSGEZOGEN
 62
     9
100
AcDbLine
 10
-588.4999999999999
 20
-5.5
 30
0.0
 11
5.5
 21
-5.5
 31
0.0
  0
TEXT
  5
35A
330
41
100
AcDbEntity
  8
1
  6
AUSGEZOGEN
 62
    14
100
AcDbText
 10
-123.410281553398
 20
52.00208333333339
 30
0.0
 40
2.729166666666666
  1
Baum³ller N³rnberg
 41
0.6058252427184466
100
AcDbText
  0
TEXT
  5
35B
330
41
100
AcDbEntity
  8
1
  6
AUSGEZOGEN
 62
    14
100
AcDbText
 10
-111.8612961165048
 20
47.63541666666673
 30
0.0
 40
2.729166666666666
  1
GmbH
 41
0.6058252427184466
100
AcDbText
  0
TEXT
  5
35C
330
41
100
AcDbEntity
  8
1
  6
AUSGEZOGEN
 62
    14
100
AcDbText
 10
-125.931713592233
 20
43.26875000000006
 30
0.0
 40
2.729166666666666
  1
37581 Bad Gandersheim
 41
0.6058252427184466
100
AcDbText
  0
TEXT
  5
35D
330
41
100
AcDbEntity
  8
1
  6
AUSGEZOGEN
 62
    14
100
AcDbText
 10
-88.83910986106059
 20
52.41376834071
 30
0.0
 40
2.729166666666666
  1
 
 41
0.6058252427184466
100
AcDbText
  0
TEXT
  5
35E
330
41
100
AcDbEntity
  8
1
  6
AUSGEZOGEN
 62
    14
100
AcDbText
 10
-100.3114431943939
 20
48.00470685203684
 30
0.0
 40
2.729166666666666
  1
 
 41
0.6058252427184466
100
AcDbText
  0
ENDBLK
  5
35F
330
41
100
AcDbEntity
  8
0
  6
ByBlock
 62
     0
100
AcDbBlockEnd
  0
BLOCK
  5
360
330
42
100
AcDbEntity
  8
0
100
AcDbBlockBegin
  2
*D17
 70
     1
 71
     1
 10
0.0
 20
0.0
 30
0.0
  3
*D17
  1

  0
LINE
  5
6FF
330
42
100
AcDbEntity
  8
5
  6
AUSGEZOGEN
 62
     0
370
    -2
100
AcDbLine
 10
497.7083622415269
 20
223.239528861284
 30
0.0
 11
523.4980125454897
 21
223.239528861284
 31
0.0
  0
LINE
  5
700
330
42
100
AcDbEntity
  8
5
  6
AUSGEZOGEN
 62
     0
370
    -2
100
AcDbLine
 10
497.7083622415269
 20
178.239528861284
 30
0.0
 11
523.4980125454897
 21
178.239528861284
 31
0.0
  0
LINE
  5
701
330
42
100
AcDbEntity
  8
5
  6
AUSGEZOGEN
 62
     0
370
    -2
100
AcDbLine
 10
521.7880125454896
 20
220.239528861284
 30
0.0
 11
521.7880125454896
 21
203.7461955279507
 31
0.0
  0
LINE
  5
702
330
42
100
AcDbEntity
  8
5
  6
AUSGEZOGEN
 62
     0
370
    -2
100
AcDbLine
 10
521.7880125454896
 20
181.239528861284
 30
0.0
 11
521.7880125454896
 21
197.7328621946173
 31
0.0
  0
SOLID
  5
703
330
42
100
AcDbEntity
  8
5
  6
AUSGEZOGEN
 62
     0
370
     0
100
AcDbTrace
 10
521.2880125454896
 20
220.239528861284
 30
0.0
 11
522.2880125454897
 21
220.239528861284
 31
0.0
 12
521.7880125454896
 22
223.239528861284
 32
0.0
 13
521.7880125454896
 23
223.239528861284
 33
0.0
  0
SOLID
  5
704
330
42
100
AcDbEntity
  8
5
  6
AUSGEZOGEN
 62
     0
370
     0
100
AcDbTrace
 10
521.2880125454896
 20
181.239528861284
 30
0.0
 11
522.2880125454897
 21
181.239528861284
 31
0.0
 12
521.7880125454896
 22
178.239528861284
 32
0.0
 13
521.7880125454896
 23
178.239528861284
 33
0.0
  0
MTEXT
  5
705
330
42
100
AcDbEntity
  8
5
  6
AUSGEZOGEN
 62
    54
100
AcDbMText
 10
521.7880125454896
 20
200.7395288612841
 30
0.0
 40
3.5
 41
0.0
 71
     5
 72
     1
  1
\A1;45
 11
0.0000000000000001
 21
1.0
 31
0.0
 73
     1
 44
1.0
  0
POINT
  5
706
330
42
100
AcDbEntity
  8
Defpoints
  6
AUSGEZOGEN
 62
     0
370
     0
100
AcDbPoint
 10
497.6083622415269
 20
223.239528861284
 30
0.0
  0
POINT
  5
707
330
42
100
AcDbEntity
  8
Defpoints
  6
AUSGEZOGEN
 62
     0
370
     0
100
AcDbPoint
 10
497.6083622415269
 20
178.239528861284
 30
0.0
  0
POINT
  5
708
330
42
100
AcDbEntity
  8
Defpoints
  6
AUSGEZOGEN
 62
     0
370
     0
100
AcDbPoint
 10
521.7880125454896
 20
178.239528861284
 30
0.0
  0
ENDBLK
  5
367
330
42
100
AcDbEntity
  8
0
  6
ByBlock
 62
     0
100
AcDbBlockEnd
  0
BLOCK
  5
368
330
43
100
AcDbEntity
  8
0
100
AcDbBlockBegin
  2
*D18
 70
     1
 71
     1
 10
0.0
 20
0.0
 30
0.0
  3
*D18
  1

  0
LINE
  5
725
330
43
100
AcDbEntity
  8
5
  6
AUSGEZOGEN
 62
     0
370
    -2
100
AcDbLine
 10
454.1485793228038
 20
179.6797459425607
 30
0.0
 11
454.1485793228038
 21
161.0711878312074
 31
0.0
  0
LINE
  5
726
330
43
100
AcDbEntity
  8
5
  6
AUSGEZOGEN
 62
     0
370
    -2
100
AcDbLine
 10
499.1485793228037
 20
179.6797459425607
 30
0.0
 11
499.1485793228037
 21
161.0711878312074
 31
0.0
  0
LINE
  5
727
330
43
100
AcDbEntity
  8
5
  6
AUSGEZOGEN
 62
     0
370
    -2
100
AcDbLine
 10
457.1485793228037
 20
162.7811878312074
 30
0.0
 11
496.1485793228038
 21
162.7811878312074
 31
0.0
  0
MTEXT
  5
728
330
43
100
AcDbEntity
  8
5
  6
AUSGEZOGEN
 62
    54
100
AcDbMText
 10
475.9877835595966
 20
165.9283713789552
 30
0.0
 40
3.5
 41
0.0
 71
     5
 72
     1
  1
\A1;45
 73
     1
 44
1.0
  0
SOLID
  5
729
330
43
100
AcDbEntity
  8
5
  6
AUSGEZOGEN
 62
     0
370
     0
100
AcDbTrace
 10
457.1485793228037
 20
163.2811878312074
 30
0.0
 11
457.1485793228037
 21
162.2811878312074
 31
0.0
 12
454.1485793228038
 22
162.7811878312074
 32
0.0
 13
454.1485793228038
 23
162.7811878312074
 33
0.0
  0
SOLID
  5
72A
330
43
100
AcDbEntity
  8
5
  6
AUSGEZOGEN
 62
     0
370
     0
100
AcDbTrace
 10
496.1485793228038
 20
163.2811878312074
 30
0.0
 11
496.1485793228038
 21
162.2811878312074
 31
0.0
 12
499.1485793228037
 22
162.7811878312074
 32
0.0
 13
499.1485793228037
 23
162.7811878312074
 33
0.0
  0
POINT
  5
72B
330
43
100
AcDbEntity
  8
Defpoints
  6
AUSGEZOGEN
 62
     0
370
     0
100
AcDbPoint
 10
454.1485793228038
 20
179.7797459425607
 30
0.0
  0
POINT
  5
72C
330
43
100
AcDbEntity
  8
Defpoints
  6
AUSGEZOGEN
 62
     0
370
     0
100
AcDbPoint
 10
499.1485793228037
 20
179.7797459425607
 30
0.0
  0
POINT
  5
72D
330
43
100
AcDbEntity
  8
Defpoints
  6
AUSGEZOGEN
 62
     0
370
     0
100
AcDbPoint
 10
499.1485793228037
 20
162.7811878312074
 30
0.0
  0
ENDBLK
  5
36F
330
43
100
AcDbEntity
  8
0
  6
ByBlock
 62
     0
100
AcDbBlockEnd
  0
BLOCK
  5
370
330
44
100
AcDbEntity
  8
0
100
AcDbBlockBegin
  2
*D19
 70
     1
 71
     1
 10
0.0
 20
0.0
 30
0.0
  3
*D19
  1

  0
LINE
  5
7A9
330
44
100
AcDbEntity
  8
5
  6
AUSGEZOGEN
 62
     0
370
    -2
100
AcDbLine
 10
502.7652329698613
 20
193.8889520768347
 30
0.0
 11
502.3625090132855
 21
192.3301341224836
 31
0.0
  0
LINE
  5
7AA
330
44
100
AcDbEntity
  8
5
  6
AUSGEZOGEN
 62
     0
370
    -2
100
AcDbLine
 10
450.5319256757463
 20
207.5901056457332
 30
0.0
 11
450.9346496323215
 21
209.1489236000821
 31
0.0
  0
LINE
  5
7AB
330
44
100
AcDbEntity
  8
5
  6
AUSGEZOGEN
 62
     0
370
    -2
100
AcDbLine
 10
499.8856171516067
 20
194.7361903781743
 30
0.0
 11
453.4115414940004
 21
206.7428673443914
 31
0.0
  0
MTEXT
  5
7AC
330
44
100
AcDbEntity
  8
5
  6
AUSGEZOGEN
 62
    54
100
AcDbMText
 10
468.2421224168445
 20
205.4222034697533
 30
0.0
 40
3.5
 41
0.0
 71
     5
 72
     1
  1
\A1;%%c54
 11
0.9682099095334761
 21
-0.2501391034628095
 31
0.0
 73
     1
 44
1.0
  0
SOLID
  5
7AD
330
44
100
AcDbEntity
  8
5
  6
AUSGEZOGEN
 62
     0
370
     0
100
AcDbTrace
 10
500.0106867033381
 20
195.2202953329411
 30
0.0
 11
499.7605475998752
 21
194.2520854234076
 31
0.0
 12
502.7902468802071
 22
193.9857730677857
 32
0.0
 13
502.7902468802071
 23
193.9857730677857
 33
0.0
  0
SOLID
  5
7AE
330
44
100
AcDbEntity
  8
5
  6
AUSGEZOGEN
 62
     0
370
     0
100
AcDbTrace
 10
453.5366110457318
 20
207.2269722991581
 30
0.0
 11
453.286471942269
 21
206.2587623896246
 31
0.0
 12
450.5069117654
 22
207.4932846547799
 32
0.0
 13
450.5069117654
 23
207.4932846547799
 33
0.0
  0
POINT
  5
7AF
330
44
100
AcDbEntity
  8
Defpoints
  6
AUSGEZOGEN
 62
     0
370
     0
100
AcDbPoint
 10
502.7902468802077
 20
193.9857730677881
 30
0.0
  0
POINT
  5
7B0
330
44
100
AcDbEntity
  8
Defpoints
  6
AUSGEZOGEN
 62
     0
370
     0
100
AcDbPoint
 10
450.5069117654
 20
207.4932846547798
 30
0.0
  0
POINT
  5
7B1
330
44
100
AcDbEntity
  8
Defpoints
  6
AUSGEZOGEN
 62
     0
370
     0
100
AcDbPoint
 10
450.5069117654
 20
207.4932846547799
 30
0.0
  0
ENDBLK
  5
375
330
44
100
AcDbEntity
  8
0
  6
ByBlock
 62
     0
100
AcDbBlockEnd
  0
BLOCK
  5
376
330
45
100
AcDbEntity
  8
0
100
AcDbBlockBegin
  2
*D20
 70
     1
 71
     1
 10
0.0
 20
0.0
 30
0.0
  3
*D20
  1

  0
LINE
  5
650
330
45
100
AcDbEntity
  8
5
  6
AUSGEZOGEN
 62
     0
370
    -2
100
AcDbLine
 10
499.5006696599897
 20
223.5916191984699
 30
0.0
 11
527.5595989698681
 21
251.6505485083481
 31
0.0
  0
LINE
  5
651
330
45
100
AcDbEntity
  8
5
  6
AUSGEZOGEN
 62
     0
370
    -2
100
AcDbLine
 10
476.6485793228038
 20
260.043805511382
 30
0.0
 11
476.6485793228038
 21
272.7385833204053
 31
0.0
  0
ARC
  5
652
330
45
100
AcDbEntity
  8
5
  6
AUSGEZOGEN
 62
     0
370
    -2
100
AcDbCircle
 10
476.6485793228037
 20
200.739528861284
 30
0.0
 40
70.28905445912139
100
AcDbArc
 50
47.44562100328053
 51
64.09701317093591
  0
ARC
  5
653
330
45
100
AcDbEntity
  8
5
  6
AUSGEZOGEN
 62
     0
370
    -2
100
AcDbCircle
 10
476.6485793228037
 20
200.739528861284
 30
0.0
 40
70.28905445912139
100
AcDbArc
 50
70.90515262728536
 51
87.55437899671932
  0
SOLID
  5
654
330
45
100
AcDbEntity
  8
5
  6
AUSGEZOGEN
 62
     0
370
     0
100
AcDbTrace
 10
524.5302670831663
 20
252.877981094506
 30
0.0
 11
523.8384113101366
 21
252.1559453687101
 31
0.0
 12
526.350446374039
 22
250.4413959125191
 32
0.0
 13
526.350446374039
 23
250.4413959125191
 33
0.0
  0
SOLID
  5
655
330
45
100
AcDbEntity
  8
5
  6
AUSGEZOGEN
 62
     0
370
     0
100
AcDbTrace
 10
479.6372258982199
 20
270.4646758392939
 30
0.0
 11
479.6585663474767
 21
271.4644481059754
 31
0.0
 12
476.6485793228037
 22
271.0285833204053
 32
0.0
 13
476.6485793228037
 23
271.0285833204053
 33
0.0
  0
MTEXT
  5
656
330
45
100
AcDbEntity
  8
5
  6
AUSGEZOGEN
 62
    54
100
AcDbMText
 10
503.547035940917
 20
265.6781476356373
 30
0.0
 40
3.5
 41
0.0
 71
     5
 72
     1
  1
\A1;45°
 11
0.9197348710598767
 21
-0.3925401469359178
 31
0.0
 73
     1
 44
1.0
  0
POINT
  5
657
330
45
100
AcDbEntity
  8
Defpoints
  6
AUSGEZOGEN
 62
     0
370
     0
100
AcDbPoint
 10
476.6485793228037
 20
200.739528861284
 30
0.0
  0
POINT
  5
658
330
45
100
AcDbEntity
  8
Defpoints
  6
AUSGEZOGEN
 62
     0
370
     0
100
AcDbPoint
 10
499.4299589818711
 20
223.5209085203512
 30
0.0
  0
POINT
  5
659
330
45
100
AcDbEntity
  8
Defpoints
  6
AUSGEZOGEN
 62
     0
370
     0
100
AcDbPoint
 10
476.6485793228038
 20
259.943805511382
 30
0.0
  0
POINT
  5
65A
330
45
100
AcDbEntity
  8
Defpoints
  6
AUSGEZOGEN
 62
     0
370
     0
100
AcDbPoint
 10
511.7931065523645
 20
261.6116356308709
 30
0.0
  0
ENDBLK
  5
37D
330
45
100
AcDbEntity
  8
0
  6
ByBlock
 62
     0
100
AcDbBlockEnd
  0
BLOCK
  5
37E
330
46
100
AcDbEntity
  8
0
100
AcDbBlockBegin
  2
*D21
 70
     1
 71
     1
 10
0.0
 20
0.0
 30
0.0
  3
*D21
  1

  0
LINE
  5
796
330
46
100
AcDbEntity
  8
5
  6
AUSGEZOGEN
 62
     0
370
    -2
100
AcDbLine
 10
457.456696230767
 20
217.6314119533208
 30
0.0
 11
432.0591591666678
 21
217.6314119533208
 31
0.0
  0
LINE
  5
797
330
46
100
AcDbEntity
  8
5
  6
AUSGEZOGEN
 62
     0
370
    -2
100
AcDbLine
 10
457.456696230767
 20
222.0314119533207
 30
0.0
 11
432.0591591666678
 21
222.0314119533207
 31
0.0
  0
LINE
  5
798
330
46
100
AcDbEntity
  8
5
  6
AUSGEZOGEN
 62
     0
370
    -2
100
AcDbLine
 10
433.7691591666677
 20
214.6314119533208
 30
0.0
 11
433.7691591666677
 21
211.6314119533208
 31
0.0
  0
LINE
  5
799
330
46
100
AcDbEntity
  8
5
  6
AUSGEZOGEN
 62
     0
370
    -2
100
AcDbLine
 10
433.7691591666677
 20
225.0314119533207
 30
0.0
 11
433.7691591666677
 21
228.0314119533207
 31
0.0
  0
MTEXT
  5
79A
330
46
100
AcDbEntity
  8
5
  6
AUSGEZOGEN
 62
    54
100
AcDbMText
 10
433.684556547797
 20
206.8114338147822
 30
0.0
 40
3.5
 41
0.0
 71
     5
 72
     1
  1
\A1;4.4
 11
0.0000000000000001
 21
1.0
 31
0.0
 73
     1
 44
1.0
  0
SOLID
  5
79B
330
46
100
AcDbEntity
  8
5
  6
AUSGEZOGEN
 62
     0
370
     0
100
AcDbTrace
 10
433.2691591666677
 20
214.6314119533208
 30
0.0
 11
434.2691591666677
 21
214.6314119533208
 31
0.0
 12
433.7691591666677
 22
217.6314119533208
 32
0.0
 13
433.7691591666677
 23
217.6314119533208
 33
0.0
  0
SOLID
  5
79C
330
46
100
AcDbEntity
  8
5
  6
AUSGEZOGEN
 62
     0
370
     0
100
AcDbTrace
 10
433.2691591666677
 20
225.0314119533207
 30
0.0
 11
434.2691591666677
 21
225.0314119533207
 31
0.0
 12
433.7691591666677
 22
222.0314119533207
 32
0.0
 13
433.7691591666677
 23
222.0314119533207
 33
0.0
  0
POINT
  5
79D
330
46
100
AcDbEntity
  8
Defpoints
  6
AUSGEZOGEN
 62
     0
370
     0
100
AcDbPoint
 10
457.5566962307671
 20
217.6314119533208
 30
0.0
  0
POINT
  5
79E
330
46
100
AcDbEntity
  8
Defpoints
  6
AUSGEZOGEN
 62
     0
370
     0
100
AcDbPoint
 10
457.5566962307671
 20
222.0314119533207
 30
0.0
  0
POINT
  5
79F
330
46
100
AcDbEntity
  8
Defpoints
  6
AUSGEZOGEN
 62
     0
370
     0
100
AcDbPoint
 10
433.7691591666677
 20
222.0314119533207
 30
0.0
  0
ENDBLK
  5
387
330
46
100
AcDbEntity
  8
0
  6
ByBlock
 62
     0
100
AcDbBlockEnd
  0
BLOCK
  5
388
330
47
100
AcDbEntity
  8
0
100
AcDbBlockBegin
  2
*D22
 70
     1
 71
     1
 10
0.0
 20
0.0
 30
0.0
  3
*D22
  1

  0
LINE
  5
618
330
47
100
AcDbEntity
  8
5
  6
AUSGEZOGEN
 62
     0
370
    -2
100
AcDbLine
 10
450.6871698484538
 20
228.239528861284
 30
0.0
 11
424.9056746183167
 21
228.239528861284
 31
0.0
  0
LINE
  5
619
330
47
100
AcDbEntity
  8
5
  6
AUSGEZOGEN
 62
     0
370
    -2
100
AcDbLine
 10
450.6871698484537
 20
173.239528861284
 30
0.0
 11
424.9056746183167
 21
173.239528861284
 31
0.0
  0
LINE
  5
61A
330
47
100
AcDbEntity
  8
5
  6
AUSGEZOGEN
 62
     0
370
    -2
100
AcDbLine
 10
426.6156746183167
 20
225.239528861284
 30
0.0
 11
426.6156746183167
 21
203.7461955279507
 31
0.0
  0
LINE
  5
61B
330
47
100
AcDbEntity
  8
5
  6
AUSGEZOGEN
 62
     0
370
    -2
100
AcDbLine
 10
426.6156746183167
 20
176.239528861284
 30
0.0
 11
426.6156746183167
 21
197.7328621946173
 31
0.0
  0
SOLID
  5
61C
330
47
100
AcDbEntity
  8
5
  6
AUSGEZOGEN
 62
     0
370
     0
100
AcDbTrace
 10
426.1156746183166
 20
225.239528861284
 30
0.0
 11
427.1156746183167
 21
225.239528861284
 31
0.0
 12
426.6156746183167
 22
228.239528861284
 32
0.0
 13
426.6156746183167
 23
228.239528861284
 33
0.0
  0
SOLID
  5
61D
330
47
100
AcDbEntity
  8
5
  6
AUSGEZOGEN
 62
     0
370
     0
100
AcDbTrace
 10
426.1156746183166
 20
176.239528861284
 30
0.0
 11
427.1156746183167
 21
176.239528861284
 31
0.0
 12
426.6156746183167
 22
173.239528861284
 32
0.0
 13
426.6156746183167
 23
173.239528861284
 33
0.0
  0
MTEXT
  5
61E
330
47
100
AcDbEntity
  8
5
  6
AUSGEZOGEN
 62
    54
100
AcDbMText
 10
426.6156746183166
 20
200.7395288612841
 30
0.0
 40
3.5
 41
0.0
 71
     5
 72
     1
  1
\A1;55
 11
0.0000000000000001
 21
1.0
 31
0.0
 73
     1
 44
1.0
  0
POINT
  5
61F
330
47
100
AcDbEntity
  8
Defpoints
  6
AUSGEZOGEN
 62
     0
370
     0
100
AcDbPoint
 10
450.7871698484539
 20
228.239528861284
 30
0.0
  0
POINT
  5
620
330
47
100
AcDbEntity
  8
Defpoints
  6
AUSGEZOGEN
 62
     0
370
     0
100
AcDbPoint
 10
450.7871698484536
 20
173.239528861284
 30
0.0
  0
POINT
  5
621
330
47
100
AcDbEntity
  8
Defpoints
  6
AUSGEZOGEN
 62
     0
370
     0
100
AcDbPoint
 10
426.6156746183167
 20
173.239528861284
 30
0.0
  0
ENDBLK
  5
38F
330
47
100
AcDbEntity
  8
0
  6
ByBlock
 62
     0
100
AcDbBlockEnd
  0
BLOCK
  5
390
330
48
100
AcDbEntity
  8
0
100
AcDbBlockBegin
  2
*D23
 70
     1
 71
     1
 10
0.0
 20
0.0
 30
0.0
  3
*D23
  1

  0
LINE
  5
737
330
48
100
AcDbEntity
  8
5
  6
AUSGEZOGEN
 62
     0
370
    -2
100
AcDbLine
 10
449.1485793228037
 20
174.778119386934
 30
0.0
 11
449.1485793228037
 21
152.2068159149336
 31
0.0
  0
LINE
  5
738
330
48
100
AcDbEntity
  8
5
  6
AUSGEZOGEN
 62
     0
370
    -2
100
AcDbLine
 10
504.1485793228038
 20
174.778119386934
 30
0.0
 11
504.1485793228038
 21
152.2068159149336
 31
0.0
  0
LINE
  5
739
330
48
100
AcDbEntity
  8
5
  6
AUSGEZOGEN
 62
     0
370
    -2
100
AcDbLine
 10
452.1485793228038
 20
153.9168159149336
 30
0.0
 11
501.1485793228038
 21
153.9168159149336
 31
0.0
  0
MTEXT
  5
73A
330
48
100
AcDbEntity
  8
5
  6
AUSGEZOGEN
 62
    54
100
AcDbMText
 10
476.5836037759363
 20
156.7991443991353
 30
0.0
 40
3.5
 41
0.0
 71
     5
 72
     1
  1
\A1;55
 73
     1
 44
1.0
  0
SOLID
  5
73B
330
48
100
AcDbEntity
  8
5
  6
AUSGEZOGEN
 62
     0
370
     0
100
AcDbTrace
 10
452.1485793228038
 20
154.4168159149336
 30
0.0
 11
452.1485793228038
 21
153.4168159149336
 31
0.0
 12
449.1485793228037
 22
153.9168159149336
 32
0.0
 13
449.1485793228037
 23
153.9168159149336
 33
0.0
  0
SOLID
  5
73C
330
48
100
AcDbEntity
  8
5
  6
AUSGEZOGEN
 62
     0
370
     0
100
AcDbTrace
 10
501.1485793228038
 20
154.4168159149336
 30
0.0
 11
501.1485793228038
 21
153.4168159149336
 31
0.0
 12
504.1485793228038
 22
153.9168159149336
 32
0.0
 13
504.1485793228038
 23
153.9168159149336
 33
0.0
  0
POINT
  5
73D
330
48
100
AcDbEntity
  8
Defpoints
  6
AUSGEZOGEN
 62
     0
370
     0
100
AcDbPoint
 10
449.1485793228037
 20
174.878119386934
 30
0.0
  0
POINT
  5
73E
330
48
100
AcDbEntity
  8
Defpoints
  6
AUSGEZOGEN
 62
     0
370
     0
100
AcDbPoint
 10
504.1485793228038
 20
174.878119386934
 30
0.0
  0
POINT
  5
73F
330
48
100
AcDbEntity
  8
Defpoints
  6
AUSGEZOGEN
 62
     0
370
     0
100
AcDbPoint
 10
504.1485793228038
 20
153.9168159149336
 30
0.0
  0
ENDBLK
  5
397
330
48
100
AcDbEntity
  8
0
  6
ByBlock
 62
     0
100
AcDbBlockEnd
  0
BLOCK
  5
398
330
49
100
AcDbEntity
  8
0
100
AcDbBlockBegin
  2
*D24
 70
     1
 71
     1
 10
0.0
 20
0.0
 30
0.0
  3
*D24
  1

  0
LINE
  5
749
330
49
100
AcDbEntity
  8
3
  6
AUSGEZOGEN
 62
     0
370
    -2
100
AcDbLine
 10
438.8985793228037
 20
200.639528861284
 30
0.0
 11
438.8985793228037
 21
145.8225409909455
 31
0.0
  0
LINE
  5
74A
330
49
100
AcDbEntity
  8
3
  6
AUSGEZOGEN
 62
     0
370
    -2
100
AcDbLine
 10
514.3985793228038
 20
200.639528861284
 30
0.0
 11
514.3985793228038
 21
145.8225409909455
 31
0.0
  0
LINE
  5
74B
330
49
100
AcDbEntity
  8
3
  6
AUSGEZOGEN
 62
     0
370
    -2
100
AcDbLine
 10
441.8985793228038
 20
147.5325409909455
 30
0.0
 11
511.3985793228038
 21
147.5325409909455
 31
0.0
  0
MTEXT
  5
74C
330
49
100
AcDbEntity
  8
3
  6
AUSGEZOGEN
 62
    54
100
AcDbMText
 10
476.7822088450507
 20
150.2499156297126
 30
0.0
 40
3.5
 41
0.0
 71
     5
 72
     1
  1
\A1;%%c75.5
 73
     1
 44
1.0
  0
SOLID
  5
74D
330
49
100
AcDbEntity
  8
3
  6
AUSGEZOGEN
 62
     0
370
     0
100
AcDbTrace
 10
441.8985793228038
 20
148.0325409909455
 30
0.0
 11
441.8985793228038
 21
147.0325409909455
 31
0.0
 12
438.8985793228037
 22
147.5325409909455
 32
0.0
 13
438.8985793228037
 23
147.5325409909455
 33
0.0
  0
SOLID
  5
74E
330
49
100
AcDbEntity
  8
3
  6
AUSGEZOGEN
 62
     0
370
     0
100
AcDbTrace
 10
511.3985793228038
 20
148.0325409909455
 30
0.0
 11
511.3985793228038
 21
147.0325409909455
 31
0.0
 12
514.3985793228038
 22
147.5325409909455
 32
0.0
 13
514.3985793228038
 23
147.5325409909455
 33
0.0
  0
POINT
  5
74F
330
49
100
AcDbEntity
  8
Defpoints
  6
AUSGEZOGEN
 62
     0
370
     0
100
AcDbPoint
 10
438.8985793228037
 20
200.739528861284
 30
0.0
  0
POINT
  5
750
330
49
100
AcDbEntity
  8
Defpoints
  6
AUSGEZOGEN
 62
     0
370
     0
100
AcDbPoint
 10
514.3985793228038
 20
200.739528861284
 30
0.0
  0
POINT
  5
751
330
49
100
AcDbEntity
  8
Defpoints
  6
AUSGEZOGEN
 62
     0
370
     0
100
AcDbPoint
 10
514.3985793228038
 20
147.5325409909455
 30
0.0
  0
ENDBLK
  5
39F
330
49
100
AcDbEntity
  8
0
  6
ByBlock
 62
     0
100
AcDbBlockEnd
  0
BLOCK
  5
3A0
330
4A
100
AcDbEntity
  8
0
100
AcDbBlockBegin
  2
*D25
 70
     1
 71
     1
 10
0.0
 20
0.0
 30
0.0
  3
*D25
  1

  0
LINE
  5
5E7
330
4A
100
AcDbEntity
  8
1
  6
AUSGEZOGEN
 62
     0
370
    -2
100
AcDbLine
 10
74.92167878170082
 20
260.2395288612842
 30
0.0
 11
54.71708176287363
 21
260.2395288612842
 31
0.0
  0
LINE
  5
5E8
330
4A
100
AcDbEntity
  8
1
  6
AUSGEZOGEN
 62
     0
370
    -2
100
AcDbLine
 10
69.98294208506476
 20
200.739528861284
 30
0.0
 11
54.71708176287362
 21
200.739528861284
 31
0.0
  0
LINE
  5
5E9
330
4A
100
AcDbEntity
  8
1
  6
AUSGEZOGEN
 62
     0
370
    -2
100
AcDbLine
 10
56.42708176287364
 20
257.2395288612842
 30
0.0
 11
56.42708176287364
 21
235.8295288612841
 31
0.0
  0
LINE
  5
5EA
330
4A
100
AcDbEntity
  8
1
  6
AUSGEZOGEN
 62
     0
370
    -2
100
AcDbLine
 10
56.42708176287363
 20
203.739528861284
 30
0.0
 11
56.42708176287364
 21
225.1495288612841
 31
0.0
  0
SOLID
  5
5EB
330
4A
100
AcDbEntity
  8
1
  6
AUSGEZOGEN
 62
     0
370
     0
100
AcDbTrace
 10
55.92708176287363
 20
257.2395288612842
 30
0.0
 11
56.92708176287363
 21
257.2395288612842
 31
0.0
 12
56.42708176287364
 22
260.2395288612842
 32
0.0
 13
56.42708176287364
 23
260.2395288612842
 33
0.0
  0
SOLID
  5
5EC
330
4A
100
AcDbEntity
  8
1
  6
AUSGEZOGEN
 62
     0
370
     0
100
AcDbTrace
 10
55.92708176287363
 20
203.739528861284
 30
0.0
 11
56.92708176287363
 21
203.739528861284
 31
0.0
 12
56.42708176287363
 22
200.739528861284
 32
0.0
 13
56.42708176287363
 23
200.739528861284
 33
0.0
  0
MTEXT
  5
5ED
330
4A
100
AcDbEntity
  8
1
  6
AUSGEZOGEN
 62
    54
100
AcDbMText
 10
56.4270817628736
 20
230.4895288612841
 30
0.0
 40
3.5
 41
0.0
 71
     5
 72
     1
  1
\A1;59.5
 11
0.0000000000000001
 21
1.0
 31
0.0
 73
     1
 44
1.0
  0
POINT
  5
5EE
330
4A
100
AcDbEntity
  8
Defpoints
  6
AUSGEZOGEN
 62
     0
370
     0
100
AcDbPoint
 10
75.02167878170081
 20
260.2395288612842
 30
0.0
  0
POINT
  5
5EF
330
4A
100
AcDbEntity
  8
Defpoints
  6
AUSGEZOGEN
 62
     0
370
     0
100
AcDbPoint
 10
70.08294208506476
 20
200.739528861284
 30
0.0
  0
POINT
  5
5F0
330
4A
100
AcDbEntity
  8
Defpoints
  6
AUSGEZOGEN
 62
     0
370
     0
100
AcDbPoint
 10
56.42708176287363
 20
200.739528861284
 30
0.0
  0
ENDBLK
  5
3A7
330
4A
100
AcDbEntity
  8
0
  6
ByBlock
 62
     0
100
AcDbBlockEnd
  0
BLOCK
  5
3A8
330
4B
100
AcDbEntity
  8
0
100
AcDbBlockBegin
  2
*D26
 70
     1
 71
     1
 10
0.0
 20
0.0
 30
0.0
  3
*D26
  1

  0
LINE
  5
82F
330
4B
100
AcDbEntity
  8
5
  6
AUSGEZOGEN
 62
     0
370
    -2
100
AcDbLine
 10
256.4899316164979
 20
180.639528861284
 30
0.0
 11
256.4899316164979
 21
163.2711458151756
 31
0.0
  0
LINE
  5
830
330
4B
100
AcDbEntity
  8
5
  6
AUSGEZOGEN
 62
     0
370
    -2
100
AcDbLine
 10
258.9899316164979
 20
178.139528861284
 30
0.0
 11
258.9899316164979
 21
163.2711458151756
 31
0.0
  0
LINE
  5
831
330
4B
100
AcDbEntity
  8
5
  6
AUSGEZOGEN
 62
     0
370
    -2
100
AcDbLine
 10
253.4899316164979
 20
164.9811458151756
 30
0.0
 11
250.4899316164979
 21
164.9811458151756
 31
0.0
  0
LINE
  5
832
330
4B
100
AcDbEntity
  8
5
  6
AUSGEZOGEN
 62
     0
370
    -2
100
AcDbLine
 10
261.9899316164979
 20
164.9811458151756
 30
0.0
 11
264.9899316164979
 21
164.9811458151756
 31
0.0
  0
MTEXT
  5
833
330
4B
100
AcDbEntity
  8
5
  6
AUSGEZOGEN
 62
    54
100
AcDbMText
 10
269.8590186649969
 20
165.0177557249012
 30
0.0
 40
3.5
 41
0.0
 71
     5
 72
     1
  1
\A1;2.5
 73
     1
 44
1.0
  0
SOLID
  5
834
330
4B
100
AcDbEntity
  8
5
  6
AUSGEZOGEN
 62
     0
370
     0
100
AcDbTrace
 10
253.4899316164979
 20
165.4811458151756
 30
0.0
 11
253.4899316164979
 21
164.4811458151756
 31
0.0
 12
256.4899316164979
 22
164.9811458151756
 32
0.0
 13
256.4899316164979
 23
164.9811458151756
 33
0.0
  0
SOLID
  5
835
330
4B
100
AcDbEntity
  8
5
  6
AUSGEZOGEN
 62
     0
370
     0
100
AcDbTrace
 10
261.9899316164979
 20
165.4811458151756
 30
0.0
 11
261.9899316164979
 21
164.4811458151756
 31
0.0
 12
258.9899316164979
 22
164.9811458151756
 32
0.0
 13
258.9899316164979
 23
164.9811458151756
 33
0.0
  0
POINT
  5
836
330
4B
100
AcDbEntity
  8
Defpoints
  6
AUSGEZOGEN
 62
     0
370
     0
100
AcDbPoint
 10
256.4899316164979
 20
180.739528861284
 30
0.0
  0
POINT
  5
837
330
4B
100
AcDbEntity
  8
Defpoints
  6
AUSGEZOGEN
 62
     0
370
     0
100
AcDbPoint
 10
258.9899316164979
 20
178.239528861284
 30
0.0
  0
POINT
  5
838
330
4B
100
AcDbEntity
  8
Defpoints
  6
AUSGEZOGEN
 62
     0
370
     0
100
AcDbPoint
 10
258.9899316164979
 20
164.9811458151756
 30
0.0
  0
ENDBLK
  5
3B1
330
4B
100
AcDbEntity
  8
0
  6
ByBlock
 62
     0
100
AcDbBlockEnd
  0
BLOCK
  5
3B2
330
4C
100
AcDbEntity
  8
0
100
AcDbBlockBegin
  2
*D27
 70
     1
 71
     1
 10
0.0
 20
0.0
 30
0.0
  3
*D27
  1

  0
LINE
  5
81C
330
4C
100
AcDbEntity
  8
5
  6
AUSGEZOGEN
 62
     0
370
    -2
100
AcDbLine
 10
258.9899316164979
 20
178.139528861284
 30
0.0
 11
258.9899316164979
 21
154.1279763696118
 31
0.0
  0
LINE
  5
81D
330
4C
100
AcDbEntity
  8
5
  6
AUSGEZOGEN
 62
     0
370
    -2
100
AcDbLine
 10
238.9899316164979
 20
196.439528861284
 30
0.0
 11
238.9899316164979
 21
154.1279763696118
 31
0.0
  0
LINE
  5
81E
330
4C
100
AcDbEntity
  8
5
  6
AUSGEZOGEN
 62
     0
370
    -2
100
AcDbLine
 10
255.9899316164979
 20
155.8379763696118
 30
0.0
 11
241.9899316164979
 21
155.8379763696118
 31
0.0
  0
MTEXT
  5
81F
330
4C
100
AcDbEntity
  8
5
  6
AUSGEZOGEN
 62
    54
100
AcDbMText
 10
248.9191947436613
 20
158.5794451875643
 30
0.0
 40
3.5
 41
0.0
 71
     5
 72
     1
  1
\A1;20
 73
     1
 44
1.0
  0
SOLID
  5
820
330
4C
100
AcDbEntity
  8
5
  6
AUSGEZOGEN
 62
     0
370
     0
100
AcDbTrace
 10
255.9899316164979
 20
156.3379763696118
 30
0.0
 11
255.9899316164979
 21
155.3379763696118
 31
0.0
 12
258.9899316164979
 22
155.8379763696118
 32
0.0
 13
258.9899316164979
 23
155.8379763696118
 33
0.0
  0
SOLID
  5
821
330
4C
100
AcDbEntity
  8
5
  6
AUSGEZOGEN
 62
     0
370
     0
100
AcDbTrace
 10
241.9899316164979
 20
156.3379763696118
 30
0.0
 11
241.9899316164979
 21
155.3379763696118
 31
0.0
 12
238.9899316164979
 22
155.8379763696118
 32
0.0
 13
238.9899316164979
 23
155.8379763696118
 33
0.0
  0
POINT
  5
822
330
4C
100
AcDbEntity
  8
Defpoints
  6
AUSGEZOGEN
 62
     0
370
     0
100
AcDbPoint
 10
258.9899316164979
 20
178.239528861284
 30
0.0
  0
POINT
  5
823
330
4C
100
AcDbEntity
  8
Defpoints
  6
AUSGEZOGEN
 62
     0
370
     0
100
AcDbPoint
 10
238.9899316164979
 20
196.539528861284
 30
0.0
  0
POINT
  5
824
330
4C
100
AcDbEntity
  8
Defpoints
  6
AUSGEZOGEN
 62
     0
370
     0
100
AcDbPoint
 10
238.9899316164979
 20
155.8379763696118
 30
0.0
  0
ENDBLK
  5
3B9
330
4C
100
AcDbEntity
  8
0
  6
ByBlock
 62
     0
100
AcDbBlockEnd
  0
BLOCK
  5
3BA
330
4D
100
AcDbEntity
  8
0
100
AcDbBlockBegin
  2
*D28
 70
     1
 71
     1
 10
0.0
 20
0.0
 30
0.0
  3
*D28
  1

  0
LINE
  5
809
330
4D
100
AcDbEntity
  8
5
  6
AUSGEZOGEN
 62
     0
370
    -2
100
AcDbLine
 10
239.1899316164979
 20
196.239528861284
 30
0.0
 11
221.8434533691991
 21
196.239528861284
 31
0.0
  0
LINE
  5
80A
330
4D
100
AcDbEntity
  8
5
  6
AUSGEZOGEN
 62
     0
370
    -2
100
AcDbLine
 10
239.1899316164979
 20
205.239528861284
 30
0.0
 11
221.8434533691991
 21
205.239528861284
 31
0.0
  0
LINE
  5
80B
330
4D
100
AcDbEntity
  8
5
  6
AUSGEZOGEN
 62
     0
370
    -2
100
AcDbLine
 10
223.5534533691991
 20
193.239528861284
 30
0.0
 11
223.553453369199
 21
190.239528861284
 31
0.0
  0
LINE
  5
80C
330
4D
100
AcDbEntity
  8
5
  6
AUSGEZOGEN
 62
     0
370
    -2
100
AcDbLine
 10
223.5534533691991
 20
208.239528861284
 30
0.0
 11
223.5534533691991
 21
211.239528861284
 31
0.0
  0
MTEXT
  5
80D
330
4D
100
AcDbEntity
  8
5
  6
AUSGEZOGEN
 62
    54
100
AcDbMText
 10
223.3484493963151
 20
200.8308604681119
 30
0.0
 40
3.5
 41
0.0
 71
     5
 72
     1
  1
\A1;%%c9
 11
0.0000000000000001
 21
1.0
 31
0.0
 73
     1
 44
1.0
  0
SOLID
  5
80E
330
4D
100
AcDbEntity
  8
5
  6
AUSGEZOGEN
 62
     0
370
     0
100
AcDbTrace
 10
223.0534533691991
 20
193.239528861284
 30
0.0
 11
224.0534533691991
 21
193.239528861284
 31
0.0
 12
223.5534533691991
 22
196.239528861284
 32
0.0
 13
223.5534533691991
 23
196.239528861284
 33
0.0
  0
SOLID
  5
80F
330
4D
100
AcDbEntity
  8
5
  6
AUSGEZOGEN
 62
     0
370
     0
100
AcDbTrace
 10
223.0534533691991
 20
208.239528861284
 30
0.0
 11
224.0534533691991
 21
208.239528861284
 31
0.0
 12
223.5534533691991
 22
205.239528861284
 32
0.0
 13
223.5534533691991
 23
205.239528861284
 33
0.0
  0
POINT
  5
810
330
4D
100
AcDbEntity
  8
Defpoints
  6
AUSGEZOGEN
 62
     0
370
     0
100
AcDbPoint
 10
239.2899316164979
 20
196.239528861284
 30
0.0
  0
POINT
  5
811
330
4D
100
AcDbEntity
  8
Defpoints
  6
AUSGEZOGEN
 62
     0
370
     0
100
AcDbPoint
 10
239.2899316164979
 20
205.239528861284
 30
0.0
  0
POINT
  5
812
330
4D
100
AcDbEntity
  8
Defpoints
  6
AUSGEZOGEN
 62
     0
370
     0
100
AcDbPoint
 10
223.5534533691991
 20
205.239528861284
 30
0.0
  0
ENDBLK
  5
3C2
330
4D
100
AcDbEntity
  8
0
  6
ByBlock
 62
     0
100
AcDbBlockEnd
  0
BLOCK
  5
3C3
330
4E
100
AcDbEntity
  8
0
100
AcDbBlockBegin
  2
*D29
 70
     1
 71
     1
 10
0.0
 20
0.0
 30
0.0
  3
*D29
  1

  0
LINE
  5
6B0
330
4E
100
AcDbEntity
  8
5
  6
AUSGEZOGEN
 62
     0
370
    -2
100
AcDbLine
 10
256.3899316164979
 20
180.739528861284
 30
0.0
 11
214.9663509013524
 21
180.739528861284
 31
0.0
  0
LINE
  5
6B1
330
4E
100
AcDbEntity
  8
5
  6
AUSGEZOGEN
 62
     0
370
    -2
100
AcDbLine
 10
256.3899316164979
 20
220.739528861284
 30
0.0
 11
214.9663509013524
 21
220.739528861284
 31
0.0
  0
LINE
  5
6B2
330
4E
100
AcDbEntity
  8
5
  6
AUSGEZOGEN
 62
     0
370
    -2
100
AcDbLine
 10
216.6763509013524
 20
183.739528861284
 30
0.0
 11
216.6763509013524
 21
196.274528861284
 31
0.0
  0
LINE
  5
6B3
330
4E
100
AcDbEntity
  8
5
  6
AUSGEZOGEN
 62
     0
370
    -2
100
AcDbLine
 10
216.6763509013524
 20
217.739528861284
 30
0.0
 11
216.6763509013524
 21
205.204528861284
 31
0.0
  0
SOLID
  5
6B4
330
4E
100
AcDbEntity
  8
5
  6
AUSGEZOGEN
 62
     0
370
     0
100
AcDbTrace
 10
216.1763509013524
 20
183.739528861284
 30
0.0
 11
217.1763509013524
 21
183.739528861284
 31
0.0
 12
216.6763509013524
 22
180.739528861284
 32
0.0
 13
216.6763509013524
 23
180.739528861284
 33
0.0
  0
SOLID
  5
6B5
330
4E
100
AcDbEntity
  8
5
  6
AUSGEZOGEN
 62
     0
370
     0
100
AcDbTrace
 10
216.1763509013524
 20
217.739528861284
 30
0.0
 11
217.1763509013524
 21
217.739528861284
 31
0.0
 12
216.6763509013524
 22
220.739528861284
 32
0.0
 13
216.6763509013524
 23
220.739528861284
 33
0.0
  0
MTEXT
  5
6B6
330
4E
100
AcDbEntity
  8
5
  6
AUSGEZOGEN
 62
    54
100
AcDbMText
 10
216.6763509013523
 20
200.7395288612841
 30
0.0
 40
3.5
 41
0.0
 71
     5
 72
     1
  1
\A1;%%c40
 11
0.0000000000000001
 21
1.0
 31
0.0
 73
     1
 44
1.0
  0
POINT
  5
6B7
330
4E
100
AcDbEntity
  8
Defpoints
  6
AUSGEZOGEN
 62
     0
370
     0
100
AcDbPoint
 10
256.4899316164979
 20
180.739528861284
 30
0.0
  0
POINT
  5
6B8
330
4E
100
AcDbEntity
  8
Defpoints
  6
AUSGEZOGEN
 62
     0
370
     0
100
AcDbPoint
 10
256.4899316164979
 20
220.739528861284
 30
0.0
  0
POINT
  5
6B9
330
4E
100
AcDbEntity
  8
Defpoints
  6
AUSGEZOGEN
 62
     0
370
     0
100
AcDbPoint
 10
216.6763509013524
 20
220.739528861284
 30
0.0
  0
ENDBLK
  5
3CB
330
4E
100
AcDbEntity
  8
0
  6
ByBlock
 62
     0
100
AcDbBlockEnd
  0
BLOCK
  5
3CC
330
4F
100
AcDbEntity
  8
0
100
AcDbBlockBegin
  2
*D30
 70
     1
 71
     1
 10
0.0
 20
0.0
 30
0.0
  3
*D30
  1

  0
LINE
  5
8A5
330
4F
100
AcDbEntity
  8
5
  6
AUSGEZOGEN
 62
     0
370
    -2
100
AcDbLine
 10
258.9899316164979
 20
178.139528861284
 30
0.0
 11
258.9899316164979
 21
154.1279763696118
 31
0.0
  0
LINE
  5
8A6
330
4F
100
AcDbEntity
  8
5
  6
AUSGEZOGEN
 62
     0
370
    -2
100
AcDbLine
 10
357.3399316164977
 20
174.139528861284
 30
0.0
 11
357.3399316164977
 21
154.1279763696118
 31
0.0
  0
LINE
  5
8A7
330
4F
100
AcDbEntity
  8
5
  6
AUSGEZOGEN
 62
     0
370
    -2
100
AcDbLine
 10
261.9899316164979
 20
155.8379763696118
 30
0.0
 11
354.3399316164977
 21
155.8379763696118
 31
0.0
  0
MTEXT
  5
8A8
330
4F
100
AcDbEntity
  8
5
  6
AUSGEZOGEN
 62
    54
100
AcDbMText
 10
306.5037084402522
 20
158.9818389700232
 30
0.0
 40
3.5
 41
0.0
 71
     5
 72
     1
  1
\A1;K, K1
 73
     1
 44
1.0
  0
SOLID
  5
8A9
330
4F
100
AcDbEntity
  8
5
  6
AUSGEZOGEN
 62
     0
370
     0
100
AcDbTrace
 10
261.9899316164979
 20
156.3379763696118
 30
0.0
 11
261.9899316164979
 21
155.3379763696118
 31
0.0
 12
258.9899316164979
 22
155.8379763696118
 32
0.0
 13
258.9899316164979
 23
155.8379763696118
 33
0.0
  0
SOLID
  5
8AA
330
4F
100
AcDbEntity
  8
5
  6
AUSGEZOGEN
 62
     0
370
     0
100
AcDbTrace
 10
354.3399316164977
 20
156.3379763696118
 30
0.0
 11
354.3399316164977
 21
155.3379763696118
 31
0.0
 12
357.3399316164977
 22
155.8379763696118
 32
0.0
 13
357.3399316164977
 23
155.8379763696118
 33
0.0
  0
POINT
  5
8AB
330
4F
100
AcDbEntity
  8
Defpoints
  6
AUSGEZOGEN
 62
     0
370
     0
100
AcDbPoint
 10
258.9899316164979
 20
178.239528861284
 30
0.0
  0
POINT
  5
8AC
330
4F
100
AcDbEntity
  8
Defpoints
  6
AUSGEZOGEN
 62
     0
370
     0
100
AcDbPoint
 10
357.3399316164977
 20
174.239528861284
 30
0.0
  0
POINT
  5
8AD
330
4F
100
AcDbEntity
  8
Defpoints
  6
AUSGEZOGEN
 62
     0
370
     0
100
AcDbPoint
 10
357.3399316164977
 20
155.8379763696118
 30
0.0
  0
ENDBLK
  5
3D3
330
4F
100
AcDbEntity
  8
0
  6
ByBlock
 62
     0
100
AcDbBlockEnd
  0
BLOCK
  5
3D4
330
50
100
AcDbEntity
  8
0
100
AcDbBlockBegin
  2
*D31
 70
     1
 71
     1
 10
0.0
 20
0.0
 30
0.0
  3
*D31
  1

  0
LINE
  5
854
330
50
100
AcDbEntity
  8
5
  6
AUSGEZOGEN
 62
     0
370
    -2
100
AcDbLine
 10
371.8399316164977
 20
237.6895288612842
 30
0.0
 11
371.8399316164977
 21
154.1279763696118
 31
0.0
  0
LINE
  5
855
330
50
100
AcDbEntity
  8
5
  6
AUSGEZOGEN
 62
     0
370
    -2
100
AcDbLine
 10
357.3399316164977
 20
174.139528861284
 30
0.0
 11
357.3399316164977
 21
154.1279763696118
 31
0.0
  0
LINE
  5
856
330
50
100
AcDbEntity
  8
5
  6
AUSGEZOGEN
 62
     0
370
    -2
100
AcDbLine
 10
368.8399316164977
 20
155.8379763696118
 30
0.0
 11
360.3399316164977
 21
155.8379763696118
 31
0.0
  0
MTEXT
  5
857
330
50
100
AcDbEntity
  8
5
  6
AUSGEZOGEN
 62
    54
100
AcDbMText
 10
364.2895671274227
 20
159.1830363621523
 30
0.0
 40
3.5
 41
0.0
 71
     5
 72
     1
  1
\A1;14.5
 73
     1
 44
1.0
  0
SOLID
  5
858
330
50
100
AcDbEntity
  8
5
  6
AUSGEZOGEN
 62
     0
370
     0
100
AcDbTrace
 10
368.8399316164977
 20
156.3379763696118
 30
0.0
 11
368.8399316164977
 21
155.3379763696118
 31
0.0
 12
371.8399316164977
 22
155.8379763696118
 32
0.0
 13
371.8399316164977
 23
155.8379763696118
 33
0.0
  0
SOLID
  5
859
330
50
100
AcDbEntity
  8
5
  6
AUSGEZOGEN
 62
     0
370
     0
100
AcDbTrace
 10
360.3399316164977
 20
156.3379763696118
 30
0.0
 11
360.3399316164977
 21
155.3379763696118
 31
0.0
 12
357.3399316164977
 22
155.8379763696118
 32
0.0
 13
357.3399316164977
 23
155.8379763696118
 33
0.0
  0
POINT
  5
85A
330
50
100
AcDbEntity
  8
Defpoints
  6
AUSGEZOGEN
 62
     0
370
     0
100
AcDbPoint
 10
371.8399316164977
 20
237.7895288612842
 30
0.0
  0
POINT
  5
85B
330
50
100
AcDbEntity
  8
Defpoints
  6
AUSGEZOGEN
 62
     0
370
     0
100
AcDbPoint
 10
357.3399316164977
 20
174.239528861284
 30
0.0
  0
POINT
  5
85C
330
50
100
AcDbEntity
  8
Defpoints
  6
AUSGEZOGEN
 62
     0
370
     0
100
AcDbPoint
 10
357.3399316164977
 20
155.8379763696118
 30
0.0
  0
ENDBLK
  5
3DB
330
50
100
AcDbEntity
  8
0
  6
ByBlock
 62
     0
100
AcDbBlockEnd
  0
BLOCK
  5
3DC
330
51
100
AcDbEntity
  8
0
100
AcDbBlockBegin
  2
*D32
 70
     1
 71
     1
 10
0.0
 20
0.0
 30
0.0
  3
*D32
  1

  0
LINE
  5
7F5
330
51
100
AcDbEntity
  8
5
  6
AUSGEZOGEN
 62
     0
370
    -2
100
AcDbLine
 10
240.9899316164979
 20
206.5395288612839
 30
0.0
 11
240.9899316164979
 21
215.194960841577
 31
0.0
  0
LINE
  5
7F6
330
51
100
AcDbEntity
  8
5
  6
AUSGEZOGEN
 62
     0
370
    -2
100
AcDbLine
 10
238.9899316164979
 20
205.0395288612839
 30
0.0
 11
238.9899316164979
 21
215.194960841577
 31
0.0
  0
LINE
  5
7F7
330
51
100
AcDbEntity
  8
5
  6
AUSGEZOGEN
 62
     0
370
    -2
100
AcDbLine
 10
243.9899316164979
 20
213.484960841577
 30
0.0
 11
246.9899316164979
 21
213.484960841577
 31
0.0
  0
LINE
  5
7F8
330
51
100
AcDbEntity
  8
5
  6
AUSGEZOGEN
 62
     0
370
    -2
100
AcDbLine
 10
235.9899316164979
 20
213.484960841577
 30
0.0
 11
232.9899316164979
 21
213.484960841577
 31
0.0
  0
MTEXT
  5
7F9
330
51
100
AcDbEntity
  8
5
  6
AUSGEZOGEN
 62
    54
100
AcDbMText
 10
233.4156722106559
 20
216.5242440307949
 30
0.0
 40
3.5
 41
0.0
 71
     5
 72
     1
  1
\A1;2
 73
     1
 44
1.0
  0
SOLID
  5
7FA
330
51
100
AcDbEntity
  8
5
  6
AUSGEZOGEN
 62
     0
370
     0
100
AcDbTrace
 10
243.9899316164979
 20
213.984960841577
 30
0.0
 11
243.9899316164979
 21
212.984960841577
 31
0.0
 12
240.9899316164979
 22
213.484960841577
 32
0.0
 13
240.9899316164979
 23
213.484960841577
 33
0.0
  0
SOLID
  5
7FB
330
51
100
AcDbEntity
  8
5
  6
AUSGEZOGEN
 62
     0
370
     0
100
AcDbTrace
 10
235.9899316164979
 20
213.984960841577
 30
0.0
 11
235.9899316164979
 21
212.984960841577
 31
0.0
 12
238.9899316164979
 22
213.484960841577
 32
0.0
 13
238.9899316164979
 23
213.484960841577
 33
0.0
  0
POINT
  5
7FC
330
51
100
AcDbEntity
  8
Defpoints
  6
AUSGEZOGEN
 62
     0
370
     0
100
AcDbPoint
 10
240.9899316164979
 20
206.4395288612839
 30
0.0
  0
POINT
  5
7FD
330
51
100
AcDbEntity
  8
Defpoints
  6
AUSGEZOGEN
 62
     0
370
     0
100
AcDbPoint
 10
238.9899316164979
 20
204.9395288612839
 30
0.0
  0
POINT
  5
7FE
330
51
100
AcDbEntity
  8
Defpoints
  6
AUSGEZOGEN
 62
     0
370
     0
100
AcDbPoint
 10
238.9899316164979
 20
213.484960841577
 30
0.0
  0
ENDBLK
  5
3E5
330
51
100
AcDbEntity
  8
0
  6
ByBlock
 62
     0
100
AcDbBlockEnd
  0
BLOCK
  5
3E6
330
52
100
AcDbEntity
  8
0
100
AcDbBlockBegin
  2
*D33
 70
     1
 71
     1
 10
0.0
 20
0.0
 30
0.0
  3
*D33
  1

  0
LINE
  5
7E2
330
52
100
AcDbEntity
  8
5
  6
AUSGEZOGEN
 62
     0
370
    -2
100
AcDbLine
 10
240.9899316164979
 20
206.5395288612839
 30
0.0
 11
240.9899316164979
 21
215.194960841577
 31
0.0
  0
LINE
  5
7E3
330
52
100
AcDbEntity
  8
5
  6
AUSGEZOGEN
 62
     0
370
    -2
100
AcDbLine
 10
254.9899316164979
 20
206.5395288612839
 30
0.0
 11
254.9899316164979
 21
215.194960841577
 31
0.0
  0
LINE
  5
7E4
330
52
100
AcDbEntity
  8
5
  6
AUSGEZOGEN
 62
     0
370
    -2
100
AcDbLine
 10
243.9899316164979
 20
213.484960841577
 30
0.0
 11
251.9899316164979
 21
213.484960841577
 31
0.0
  0
MTEXT
  5
7E5
330
52
100
AcDbEntity
  8
5
  6
AUSGEZOGEN
 62
    54
100
AcDbMText
 10
248.1138164510077
 20
216.5242440307949
 30
0.0
 40
3.5
 41
0.0
 71
     5
 72
     1
  1
\A1;14
 73
     1
 44
1.0
  0
SOLID
  5
7E6
330
52
100
AcDbEntity
  8
5
  6
AUSGEZOGEN
 62
     0
370
     0
100
AcDbTrace
 10
243.9899316164979
 20
213.984960841577
 30
0.0
 11
243.9899316164979
 21
212.984960841577
 31
0.0
 12
240.9899316164979
 22
213.484960841577
 32
0.0
 13
240.9899316164979
 23
213.484960841577
 33
0.0
  0
SOLID
  5
7E7
330
52
100
AcDbEntity
  8
5
  6
AUSGEZOGEN
 62
     0
370
     0
100
AcDbTrace
 10
251.9899316164979
 20
213.984960841577
 30
0.0
 11
251.9899316164979
 21
212.984960841577
 31
0.0
 12
254.9899316164979
 22
213.484960841577
 32
0.0
 13
254.9899316164979
 23
213.484960841577
 33
0.0
  0
POINT
  5
7E8
330
52
100
AcDbEntity
  8
Defpoints
  6
AUSGEZOGEN
 62
     0
370
     0
100
AcDbPoint
 10
240.9899316164979
 20
206.4395288612839
 30
0.0
  0
POINT
  5
7E9
330
52
100
AcDbEntity
  8
Defpoints
  6
AUSGEZOGEN
 62
     0
370
     0
100
AcDbPoint
 10
254.9899316164979
 20
206.4395288612839
 30
0.0
  0
POINT
  5
7EA
330
52
100
AcDbEntity
  8
Defpoints
  6
AUSGEZOGEN
 62
     0
370
     0
100
AcDbPoint
 10
254.9899316164979
 20
213.484960841577
 30
0.0
  0
ENDBLK
  5
3ED
330
52
100
AcDbEntity
  8
0
  6
ByBlock
 62
     0
100
AcDbBlockEnd
  0
BLOCK
  5
3EE
330
53
100
AcDbEntity
  8
0
100
AcDbBlockBegin
  2
*D34
 70
     1
 71
     1
 10
0.0
 20
0.0
 30
0.0
  3
*D34
  1

  0
LINE
  5
782
330
53
100
AcDbEntity
  8
5
  6
AUSGEZOGEN
 62
     0
370
    -2
100
AcDbLine
 10
475.1485793228038
 20
206.5395288612839
 30
0.0
 11
475.1485793228038
 21
210.0439272207042
 31
0.0
  0
LINE
  5
783
330
53
100
AcDbEntity
  8
5
  6
AUSGEZOGEN
 62
     0
370
    -2
100
AcDbLine
 10
478.1485793228037
 20
206.5395288612839
 30
0.0
 11
478.1485793228037
 21
210.0439272207042
 31
0.0
  0
LINE
  5
784
330
53
100
AcDbEntity
  8
5
  6
AUSGEZOGEN
 62
     0
370
    -2
100
AcDbLine
 10
472.1485793228038
 20
208.3339272207042
 30
0.0
 11
469.1485793228038
 21
208.3339272207042
 31
0.0
  0
LINE
  5
785
330
53
100
AcDbEntity
  8
5
  6
AUSGEZOGEN
 62
     0
370
    -2
100
AcDbLine
 10
481.1485793228038
 20
208.3339272207042
 30
0.0
 11
484.1485793228038
 21
208.3339272207042
 31
0.0
  0
MTEXT
  5
786
330
53
100
AcDbEntity
  8
5
  6
AUSGEZOGEN
 62
    54
100
AcDbMText
 10
482.9390177472289
 20
210.97912384807
 30
0.0
 40
3.5
 41
0.0
 71
     5
 72
     1
  1
\A1;3
 73
     1
 44
1.0
  0
SOLID
  5
787
330
53
100
AcDbEntity
  8
5
  6
AUSGEZOGEN
 62
     0
370
     0
100
AcDbTrace
 10
472.1485793228038
 20
208.8339272207042
 30
0.0
 11
472.1485793228038
 21
207.8339272207042
 31
0.0
 12
475.1485793228038
 22
208.3339272207042
 32
0.0
 13
475.1485793228038
 23
208.3339272207042
 33
0.0
  0
SOLID
  5
788
330
53
100
AcDbEntity
  8
5
  6
AUSGEZOGEN
 62
     0
370
     0
100
AcDbTrace
 10
481.1485793228038
 20
208.8339272207042
 30
0.0
 11
481.1485793228038
 21
207.8339272207042
 31
0.0
 12
478.1485793228037
 22
208.3339272207042
 32
0.0
 13
478.1485793228037
 23
208.3339272207042
 33
0.0
  0
POINT
  5
789
330
53
100
AcDbEntity
  8
Defpoints
  6
AUSGEZOGEN
 62
     0
370
     0
100
AcDbPoint
 10
475.1485793228038
 20
206.4395288612839
 30
0.0
  0
POINT
  5
78A
330
53
100
AcDbEntity
  8
Defpoints
  6
AUSGEZOGEN
 62
     0
370
     0
100
AcDbPoint
 10
478.1485793228037
 20
206.4395288612839
 30
0.0
  0
POINT
  5
78B
330
53
100
AcDbEntity
  8
Defpoints
  6
AUSGEZOGEN
 62
     0
370
     0
100
AcDbPoint
 10
478.1485793228037
 20
208.3339272207042
 30
0.0
  0
ENDBLK
  5
3F7
330
53
100
AcDbEntity
  8
0
  6
ByBlock
 62
     0
100
AcDbBlockEnd
  0
BLOCK
  5
3F8
330
54
100
AcDbEntity
  8
0
100
AcDbBlockBegin
  2
*D35
 70
     1
 71
     1
 10
0.0
 20
0.0
 30
0.0
  3
*D35
  1

  0
LINE
  5
7D0
330
54
100
AcDbEntity
  8
5
  6
AUSGEZOGEN
 62
     0
370
    -2
100
AcDbLine
 10
318.4399316164976
 20
228.339528861284
 30
0.0
 11
318.4399316164976
 21
238.9640188901745
 31
0.0
  0
LINE
  5
7D1
330
54
100
AcDbEntity
  8
5
  6
AUSGEZOGEN
 62
     0
370
    -2
100
AcDbLine
 10
258.9899316164979
 20
223.339528861284
 30
0.0
 11
258.9899316164979
 21
238.9640188901745
 31
0.0
  0
LINE
  5
7D2
330
54
100
AcDbEntity
  8
5
  6
AUSGEZOGEN
 62
     0
370
    -2
100
AcDbLine
 10
315.4399316164977
 20
237.2540188901745
 30
0.0
 11
261.9899316164979
 21
237.2540188901745
 31
0.0
  0
MTEXT
  5
7D3
330
54
100
AcDbEntity
  8
5
  6
AUSGEZOGEN
 62
    54
100
AcDbMText
 10
289.1880860010253
 20
241.0703048327659
 30
0.0
 40
3.5
 41
0.0
 71
     5
 72
     1
  1
\A1;59
 73
     1
 44
1.0
  0
SOLID
  5
7D4
330
54
100
AcDbEntity
  8
5
  6
AUSGEZOGEN
 62
     0
370
     0
100
AcDbTrace
 10
315.4399316164977
 20
237.7540188901745
 30
0.0
 11
315.4399316164977
 21
236.7540188901745
 31
0.0
 12
318.4399316164976
 22
237.2540188901745
 32
0.0
 13
318.4399316164976
 23
237.2540188901745
 33
0.0
  0
SOLID
  5
7D5
330
54
100
AcDbEntity
  8
5
  6
AUSGEZOGEN
 62
     0
370
     0
100
AcDbTrace
 10
261.9899316164979
 20
237.7540188901745
 30
0.0
 11
261.9899316164979
 21
236.7540188901745
 31
0.0
 12
258.9899316164979
 22
237.2540188901745
 32
0.0
 13
258.9899316164979
 23
237.2540188901745
 33
0.0
  0
POINT
  5
7D6
330
54
100
AcDbEntity
  8
Defpoints
  6
AUSGEZOGEN
 62
     0
370
     0
100
AcDbPoint
 10
318.4399316164976
 20
228.239528861284
 30
0.0
  0
POINT
  5
7D7
330
54
100
AcDbEntity
  8
Defpoints
  6
AUSGEZOGEN
 62
     0
370
     0
100
AcDbPoint
 10
258.9899316164979
 20
223.239528861284
 30
0.0
  0
POINT
  5
7D8
330
54
100
AcDbEntity
  8
Defpoints
  6
AUSGEZOGEN
 62
     0
370
     0
100
AcDbPoint
 10
258.9899316164979
 20
237.2540188901745
 30
0.0
  0
ENDBLK
  5
3FF
330
54
100
AcDbEntity
  8
0
  6
ByBlock
 62
     0
100
AcDbBlockEnd
  0
BLOCK
  5
400
330
55
100
AcDbEntity
  8
0
100
AcDbBlockBegin
  2
*D36
 70
     1
 71
     1
 10
0.0
 20
0.0
 30
0.0
  3
*D36
  1

  0
LINE
  5
65B
330
55
100
AcDbEntity
  8
3
  6
AUSGEZOGEN
 62
     0
370
    -2
100
AcDbLine
 10
499.5006696599898
 20
223.5916191984699
 30
0.0
 11
532.9313472627291
 21
257.0222968012085
 31
0.0
  0
LINE
  5
65C
330
55
100
AcDbEntity
  8
3
  6
AUSGEZOGEN
 62
     0
370
    -2
100
AcDbLine
 10
453.7334312723453
 20
223.6546769117425
 30
0.0
 11
420.3658113828788
 21
257.0222968012095
 31
0.0
  0
ARC
  5
65D
330
55
100
AcDbEntity
  8
3
  6
AUSGEZOGEN
 62
     0
370
    -2
100
AcDbCircle
 10
476.6485793228034
 20
200.739528861284
 30
0.0
 40
77.88585374853972
100
AcDbArc
 50
47.20704990380852
 51
84.5413995739371
  0
ARC
  5
65E
330
55
100
AcDbEntity
  8
3
  6
AUSGEZOGEN
 62
     0
370
    -2
100
AcDbCircle
 10
476.6485793228034
 20
200.739528861284
 30
0.0
 40
77.88585374853972
100
AcDbArc
 50
95.43229517578877
 51
132.7929500961904
  0
SOLID
  5
65F
330
55
100
AcDbEntity
  8
3
  6
AUSGEZOGEN
 62
     0
370
     0
100
AcDbTrace
 10
529.9070921061167
 20
258.2535135818955
 30
0.0
 11
529.2137346089106
 21
257.5329198121
 31
0.0
 12
531.7221946669002
 22
255.8131442053796
 32
0.0
 13
531.7221946669002
 23
255.8131442053796
 33
0.0
  0
SOLID
  5
660
330
55
100
AcDbEntity
  8
3
  6
AUSGEZOGEN
 62
     0
370
     0
100
AcDbTrace
 10
424.0834240366975
 20
257.532919812101
 30
0.0
 11
423.3900665394914
 21
258.2535135818965
 31
0.0
 12
421.5749639787078
 22
255.8131442053805
 32
0.0
 13
421.5749639787078
 23
255.8131442053805
 33
0.0
  0
MTEXT
  5
661
330
55
100
AcDbEntity
  8
3
  6
AUSGEZOGEN
 62
    54
100
AcDbMText
 10
476.6485793228041
 20
278.6253826098237
 30
0.0
 40
3.5
 41
0.0
 71
     5
 72
     1
  1
\A1;4x90°
 11
0.998720466733655
 21
0.0505710324920318
 31
0.0
 73
     1
 44
1.0
  0
POINT
  5
662
330
55
100
AcDbEntity
  8
Defpoints
  6
AUSGEZOGEN
 62
     0
370
     0
100
AcDbPoint
 10
476.6485793228034
 20
200.739528861284
 30
0.0
  0
POINT
  5
663
330
55
100
AcDbEntity
  8
Defpoints
  6
AUSGEZOGEN
 62
     0
370
     0
100
AcDbPoint
 10
499.4299589818711
 20
223.5209085203513
 30
0.0
  0
POINT
  5
664
330
55
100
AcDbEntity
  8
Defpoints
  6
AUSGEZOGEN
 62
     0
370
     0
100
AcDbPoint
 10
453.8041419504639
 20
223.5839662336238
 30
0.0
  0
POINT
  5
665
330
55
100
AcDbEntity
  8
Defpoints
  6
AUSGEZOGEN
 62
     0
370
     0
100
AcDbPoint
 10
496.8069216169958
 20
275.9714864995716
 30
0.0
  0
ENDBLK
  5
407
330
55
100
AcDbEntity
  8
0
  6
ByBlock
 62
     0
100
AcDbBlockEnd
  0
BLOCK
  5
408
330
56
100
AcDbEntity
  8
0
100
AcDbBlockBegin
  2
*D37
 70
     1
 71
     1
 10
0.0
 20
0.0
 30
0.0
  3
*D37
  1

  0
LINE
  5
75C
330
56
100
AcDbEntity
  8
5
  6
AUSGEZOGEN
 62
     0
370
    -2
100
AcDbLine
 10
476.7485793228038
 20
196.239528861284
 30
0.0
 11
513.6979411709435
 21
196.239528861284
 31
0.0
  0
LINE
  5
75D
330
56
100
AcDbEntity
  8
5
  6
AUSGEZOGEN
 62
     0
370
    -2
100
AcDbLine
 10
478.2485793228038
 20
206.4395288612839
 30
0.0
 11
513.6979411709435
 21
206.4395288612839
 31
0.0
  0
LINE
  5
75E
330
56
100
AcDbEntity
  8
5
  6
AUSGEZOGEN
 62
     0
370
    -2
100
AcDbLine
 10
511.9879411709436
 20
199.239528861284
 30
0.0
 11
511.9879411709436
 21
203.4395288612839
 31
0.0
  0
MTEXT
  5
75F
330
56
100
AcDbEntity
  8
5
  6
AUSGEZOGEN
 62
    54
100
AcDbMText
 10
508.5592820408447
 20
201.2545124346661
 30
0.0
 40
3.5
 41
0.0
 71
     5
 72
     1
  1
\A1;10.2
 11
0.0000000000000001
 21
1.0
 31
0.0
 73
     1
 44
1.0
  0
SOLID
  5
760
330
56
100
AcDbEntity
  8
5
  6
AUSGEZOGEN
 62
     0
370
     0
100
AcDbTrace
 10
511.4879411709436
 20
199.239528861284
 30
0.0
 11
512.4879411709435
 21
199.239528861284
 31
0.0
 12
511.9879411709436
 22
196.239528861284
 32
0.0
 13
511.9879411709436
 23
196.239528861284
 33
0.0
  0
SOLID
  5
761
330
56
100
AcDbEntity
  8
5
  6
AUSGEZOGEN
 62
     0
370
     0
100
AcDbTrace
 10
511.4879411709436
 20
203.4395288612839
 30
0.0
 11
512.4879411709435
 21
203.4395288612839
 31
0.0
 12
511.9879411709436
 22
206.4395288612839
 32
0.0
 13
511.9879411709436
 23
206.4395288612839
 33
0.0
  0
POINT
  5
762
330
56
100
AcDbEntity
  8
Defpoints
  6
AUSGEZOGEN
 62
     0
370
     0
100
AcDbPoint
 10
476.6485793228038
 20
196.239528861284
 30
0.0
  0
POINT
  5
763
330
56
100
AcDbEntity
  8
Defpoints
  6
AUSGEZOGEN
 62
     0
370
     0
100
AcDbPoint
 10
478.1485793228037
 20
206.4395288612839
 30
0.0
  0
POINT
  5
764
330
56
100
AcDbEntity
  8
Defpoints
  6
AUSGEZOGEN
 62
     0
370
     0
100
AcDbPoint
 10
511.9879411709436
 20
206.4395288612839
 30
0.0
  0
ENDBLK
  5
40F
330
56
100
AcDbEntity
  8
0
  6
ByBlock
 62
     0
100
AcDbBlockEnd
  0
BLOCK
  5
461
330
45F
100
AcDbEntity
  8
0
370
     0
100
AcDbBlockBegin
  2
GENAXEH
 70
     0
 10
0.0
 20
0.0
 30
0.0
  3
GENAXEH
  1

  0
LINE
  5
460
330
45F
100
AcDbEntity
  8
0
100
AcDbLine
 10
-1.0
 20
0.0
 30
0.0
 11
1.0
 21
0.0
 31
0.0
  0
ENDBLK
  5
462
330
45F
100
AcDbEntity
  8
0
370
     0
100
AcDbBlockEnd
  0
BLOCK
  5
59B
330
4E8
100
AcDbEntity
  8
0
370
     0
100
AcDbBlockBegin
  2
METRIC_C
 70
     2
 10
0.0
 20
0.0
 30
0.0
  3
METRIC_C
  1

  0
LINE
  5
4E9
330
4E8
100
AcDbEntity
  8
BORDER
  6
Continuous
100
AcDbLine
 10
0.0
 20
425.806403616429
 30
0.0
 11
558.8
 21
425.806403616429
 31
0.0
  0
LINE
  5
4EA
330
4E8
100
AcDbEntity
  8
BORDER
100
AcDbLine
 10
12.7
 20
13.05640361642906
 30
0.0
 11
546.1
 21
13.05640361642906
 31
0.0
  0
LINE
  5
4EB
330
4E8
100
AcDbEntity
  8
BORDER
100
AcDbLine
 10
12.7
 20
406.756403616429
 30
0.0
 11
546.1
 21
406.756403616429
 31
0.0
  0
ATTDEF
  5
4EC
330
4E8
100
AcDbEntity
  8
TITLE BLOCK
  6
Continuous
100
AcDbText
 10
442.5949999999999
 20
41.63140361642906
 30
0.0
 40
2.566953004259999
  1

  7
STANDARD
100
AcDbAttributeDefinition
  3
Drawn by
  2
GEN-TITLE-NAME{5}
 70
     0
1001
GENIUS_GENBLLY_14
1000
BOR2
  0
ATTDEF
  5
4ED
330
4E8
100
AcDbEntity
  8
TITLE BLOCK
  6
Continuous
100
AcDbText
 10
442.5949999999999
 20
35.28140361642906
 30
0.0
 40
2.566953004259999
  1

  7
STANDARD
100
AcDbAttributeDefinition
  3
Check by
  2
GEN-TITLE-CHKM{5}
 70
     0
1001
GENIUS_GENBLLY_14
1000
BOR2
  0
ATTDEF
  5
4EE
330
4E8
100
AcDbEntity
  8
TITLE BLOCK
  6
Continuous
100
AcDbText
 10
442.5949999999999
 20
28.93140361642906
 30
0.0
 40
2.566953004259999
  1

  7
STANDARD
100
AcDbAttributeDefinition
  3
Approved by
  2
GEN-TITLE-APPM{5}
 70
     0
1001
GENIUS_GENBLLY_14
1000
BOR2
1001
GENIUS_GENTRA_14
1002
{
1070
     3
1000
GENTRAPR,%s,(GENMSG gentitus 73)
1000
Approved by
1000
gb
1070
     0
1002
}
  0
LINE
  5
4EF
330
4E8
100
AcDbEntity
  8
TITLE BLOCK
  6
Continuous
100
AcDbLine
 10
396.2312723140906
 20
27.02640361642906
 30
0.0
 11
546.1
 21
27.02640361642906
 31
0.0
  0
LINE
  5
4F0
330
4E8
100
AcDbEntity
  8
TITLE BLOCK
  6
Continuous
100
AcDbLine
 10
433.7098248608992
 20
33.37640361642906
 30
0.0
 11
546.1
 21
33.37640361642906
 31
0.0
  0
LINE
  5
4F1
330
4E8
100
AcDbEntity
  8
TITLE BLOCK
  6
Continuous
100
AcDbLine
 10
433.7098248608992
 20
39.72640361642906
 30
0.0
 11
546.1
 21
39.72640361642906
 31
0.0
  0
LINE
  5
4F2
330
4E8
100
AcDbEntity
  8
TITLE BLOCK
  6
Continuous
100
AcDbLine
 10
433.7098248608992
 20
46.07640361642906
 30
0.0
 11
546.1
 21
46.07640361642906
 31
0.0
  0
LINE
  5
4F3
330
4E8
100
AcDbEntity
  8
TITLE BLOCK
  6
Continuous
100
AcDbLine
 10
323.8499999999999
 20
63.85640361642907
 30
0.0
 11
546.1
 21
63.85640361642907
 31
0.0
  0
TEXT
  5
4F4
330
4E8
100
AcDbEntity
  8
TITLE BLOCK
  6
Continuous
100
AcDbText
 10
437.0500486115596
 20
53.59895048557155
 30
0.0
 40
2.566953004259999
  1
  DRAWING
 50
0.09999996
  7
AE
100
AcDbText
  0
TEXT
  5
4F5
330
4E8
100
AcDbEntity
  8
TITLE BLOCK
  6
Continuous
100
AcDbText
 10
437.0500486115596
 20
58.91728567531223
 30
0.0
 40
2.566953004259999
  1
DO NOT SCALE
 50
0.09999996
  7
AE
100
AcDbText
  0
LINE
  5
4F6
330
4E8
100
AcDbEntity
  8
BORDER
  6
Continuous
100
AcDbLine
 10
0.0
 20
0.2456391960479891
 30
0.0
 11
0.0
 21
425.806403616429
 31
0.0
  0
LINE
  5
4F7
330
4E8
100
AcDbEntity
  8
BORDER
100
AcDbLine
 10
12.7
 20
13.05640361642906
 30
0.0
 11
12.7
 21
406.756403616429
 31
0.0
  0
TEXT
  5
4F8
330
4E8
100
AcDbEntity
  8
BORDER
100
AcDbText
 10
4.535779599999938
 20
45.44139345642906
 30
0.0
 40
5.079999745999999
  1
A
  7
AE
100
AcDbText
  0
LINE
  5
4F9
330
4E8
100
AcDbEntity
  8
BORDER
100
AcDbLine
 10
2.540152400000012
 20
209.906380756429
 30
0.0
 11
7.620076200000005
 21
209.906380756429
 31
0.0
  0
LINE
  5
4FA
330
4E8
100
AcDbEntity
  8
BORDER
100
AcDbLine
 10
7.620457199999946
 20
207.365860056429
 30
0.0
 11
12.70038099999994
 21
209.905821956429
 31
0.0
  0
TEXT
  5
4FB
330
4E8
100
AcDbEntity
  8
BORDER
100
AcDbText
 10
4.535779599999938
 20
153.391393456429
 30
0.0
 40
5.079999745999999
  1
B
  7
AE
100
AcDbText
  0
LINE
  5
4FC
330
4E8
100
AcDbEntity
  8
BORDER
100
AcDbLine
 10
2.540152400000012
 20
101.956403616429
 30
0.0
 11
12.7
 21
101.956403616429
 31
0.0
  0
LINE
  5
4FD
330
4E8
100
AcDbEntity
  8
BORDER
100
AcDbLine
 10
7.620863600000003
 20
212.445806716429
 30
0.0
 11
12.70076199999997
 21
209.905870216429
 31
0.0
  0
LINE
  5
4FE
330
4E8
100
AcDbEntity
  8
BORDER
100
AcDbLine
 10
7.620457199999946
 20
207.3662232764291
 30
0.0
 11
7.620457199999946
 21
212.446147076429
 31
0.0
  0
TEXT
  5
4FF
330
4E8
100
AcDbEntity
  8
BORDER
100
AcDbText
 10
68.03577959999994
 20
0.991403108429065
 30
0.0
 40
5.079999745999999
  1
4
  7
AE
100
AcDbText
  0
LINE
  5
500
330
4E8
100
AcDbEntity
  8
BORDER
100
AcDbLine
 10
139.7
 20
2.896402600429065
 30
0.0
 11
139.7
 21
13.05640361642906
 31
0.0
  0
TEXT
  5
501
330
4E8
100
AcDbEntity
  8
BORDER
100
AcDbText
 10
207.7357287999999
 20
0.991403108429065
 30
0.0
 40
5.079999745999999
  1
3
  7
AE
100
AcDbText
  0
TEXT
  5
502
330
4E8
100
AcDbEntity
  8
BORDER
100
AcDbText
 10
345.0077199399999
 20
2.463397116429065
 30
0.0
 40
1.016
  1
FULL SIZE   50   02
 50
0.0999999600000013
 41
0.7749084200000001
  7
AE
100
AcDbText
  0
TEXT
  5
503
330
4E8
100
AcDbEntity
  8
TITLE BLOCK
  6
Continuous
100
AcDbText
 10
352.3879941939002
 20
15.34301838387497
 30
0.0
 40
1.928801505622495
  1
REVISION
 50
0.09999996
  7
AE
100
AcDbText
  0
LINE
  5
504
330
4E8
100
AcDbEntity
  8
TITLE BLOCK
  6
Continuous
100
AcDbLine
 10
323.8499999999999
 20
19.40640361642906
 30
0.0
 11
396.2312723140906
 21
19.40640361642906
 31
0.0
  0
LINE
  5
505
330
4E8
100
AcDbEntity
  8
TITLE BLOCK
  6
Continuous
100
AcDbLine
 10
323.8499999999999
 20
38.45640361642906
 30
0.0
 11
396.2312723140906
 21
38.45640361642906
 31
0.0
  0
LINE
  5
506
330
4E8
100
AcDbEntity
  8
TITLE BLOCK
  6
Continuous
100
AcDbLine
 10
323.8499999999999
 20
44.80640361642906
 30
0.0
 11
396.2312723140906
 21
44.80640361642906
 31
0.0
  0
LINE
  5
507
330
4E8
100
AcDbEntity
  8
TITLE BLOCK
  6
Continuous
100
AcDbLine
 10
323.8499999999999
 20
51.15640361642906
 30
0.0
 11
396.2312723140906
 21
51.15640361642906
 31
0.0
  0
LINE
  5
508
330
4E8
100
AcDbEntity
  8
TITLE BLOCK
  6
Continuous
100
AcDbLine
 10
323.8499999999999
 20
57.50640361642906
 30
0.0
 11
396.2312723140906
 21
57.50640361642906
 31
0.0
  0
LINE
  5
509
330
4E8
100
AcDbEntity
  8
TITLE BLOCK
  6
Continuous
100
AcDbLine
 10
323.8499999999999
 20
32.10640361642906
 30
0.0
 11
396.2312723140906
 21
32.10640361642906
 31
0.0
  0
LINE
  5
50A
330
4E8
100
AcDbEntity
  8
TITLE BLOCK
  6
Continuous
100
AcDbLine
 10
323.8499999999999
 20
25.75640361642906
 30
0.0
 11
396.2312723140906
 21
25.75640361642906
 31
0.0
  0
LINE
  5
50B
330
4E8
100
AcDbEntity
  8
BORDER
  6
LS
100
AcDbLine
 10
347.4720330199999
 20
8.230402092429063
 30
0.0
 11
347.4720330199999
 21
11.78640336242906
 31
0.0
  0
LINE
  5
50C
330
4E8
100
AcDbEntity
  8
BORDER
  6
LS
100
AcDbLine
 10
350.01204064
 20
8.230402092429063
 30
0.0
 11
350.01204064
 21
11.78640336242906
 31
0.0
  0
LINE
  5
50D
330
4E8
100
AcDbEntity
  8
BORDER
  6
LS
100
AcDbLine
 10
352.5520508
 20
8.230402092429063
 30
0.0
 11
352.5520508
 21
11.78640336242906
 31
0.0
  0
LINE
  5
50E
330
4E8
100
AcDbEntity
  8
BORDER
  6
LS
100
AcDbLine
 10
347.98004318
 20
10.26240336242906
 30
0.0
 11
347.98004318
 21
11.78640336242906
 31
0.0
  0
LINE
  5
50F
330
4E8
100
AcDbEntity
  8
BORDER
  6
LS
100
AcDbLine
 10
348.48805588
 20
9.246402600429064
 30
0.0
 11
348.48805588
 21
11.78640336242906
 31
0.0
  0
LINE
  5
510
330
4E8
100
AcDbEntity
  8
BORDER
  6
LS
100
AcDbLine
 10
348.99606604
 20
9.246402600429064
 30
0.0
 11
348.99606604
 21
11.78640336242906
 31
0.0
  0
LINE
  5
511
330
4E8
100
AcDbEntity
  8
BORDER
  6
LS
100
AcDbLine
 10
349.50405334
 20
10.26240336242906
 30
0.0
 11
349.50405334
 21
11.78640336242906
 31
0.0
  0
LINE
  5
512
330
4E8
100
AcDbEntity
  8
BORDER
  6
LS
100
AcDbLine
 10
350.5200533399999
 20
10.26240336242906
 30
0.0
 11
350.5200533399999
 21
11.78640336242906
 31
0.0
  0
LINE
  5
513
330
4E8
100
AcDbEntity
  8
BORDER
  6
LS
100
AcDbLine
 10
351.0280660399999
 20
9.246402600429064
 30
0.0
 11
351.0280660399999
 21
11.78640336242906
 31
0.0
  0
LINE
  5
514
330
4E8
100
AcDbEntity
  8
BORDER
  6
LS
100
AcDbLine
 10
351.5360761999999
 20
9.246402600429064
 30
0.0
 11
351.5360761999999
 21
11.78640336242906
 31
0.0
  0
LINE
  5
515
330
4E8
100
AcDbEntity
  8
BORDER
  6
LS
100
AcDbLine
 10
352.0440634999999
 20
10.26240336242906
 30
0.0
 11
352.0440634999999
 21
11.78640336242906
 31
0.0
  0
LINE
  5
516
330
4E8
100
AcDbEntity
  8
BORDER
  6
LS
100
AcDbLine
 10
353.0600634999999
 20
10.26240336242906
 30
0.0
 11
353.0600634999999
 21
11.78640336242906
 31
0.0
  0
LINE
  5
517
330
4E8
100
AcDbEntity
  8
BORDER
  6
LS
100
AcDbLine
 10
353.5680736599999
 20
9.246402600429064
 30
0.0
 11
353.5680736599999
 21
11.78640336242906
 31
0.0
  0
LINE
  5
518
330
4E8
100
AcDbEntity
  8
BORDER
  6
LS
100
AcDbLine
 10
342.3920127
 20
8.230402092429063
 30
0.0
 11
342.3920127
 21
11.78640336242906
 31
0.0
  0
LINE
  5
519
330
4E8
100
AcDbEntity
  8
BORDER
  6
LS
100
AcDbLine
 10
344.9320228599999
 20
8.230402092429063
 30
0.0
 11
344.9320228599999
 21
11.78640336242906
 31
0.0
  0
LINE
  5
51A
330
4E8
100
AcDbEntity
  8
BORDER
  6
LS
100
AcDbLine
 10
340.36001524
 20
10.26240336242906
 30
0.0
 11
340.36001524
 21
11.78640336242906
 31
0.0
  0
LINE
  5
51B
330
4E8
100
AcDbEntity
  8
BORDER
  6
LS
100
AcDbLine
 10
340.8680253999999
 20
9.246402600429064
 30
0.0
 11
340.8680253999999
 21
11.78640336242906
 31
0.0
  0
LINE
  5
51C
330
4E8
100
AcDbEntity
  8
BORDER
  6
LS
100
AcDbLine
 10
341.3760380999999
 20
9.246402600429064
 30
0.0
 11
341.3760380999999
 21
11.78640336242906
 31
0.0
  0
LINE
  5
51D
330
4E8
100
AcDbEntity
  8
BORDER
  6
LS
100
AcDbLine
 10
341.8840254
 20
10.26240336242906
 30
0.0
 11
341.8840254
 21
11.78640336242906
 31
0.0
  0
LINE
  5
51E
330
4E8
100
AcDbEntity
  8
BORDER
  6
LS
100
AcDbLine
 10
342.9000228599999
 20
10.26240336242906
 30
0.0
 11
342.9000228599999
 21
11.78640336242906
 31
0.0
  0
LINE
  5
51F
330
4E8
100
AcDbEntity
  8
BORDER
  6
LS
100
AcDbLine
 10
343.40803556
 20
9.246402600429064
 30
0.0
 11
343.40803556
 21
11.78640336242906
 31
0.0
  0
LINE
  5
520
330
4E8
100
AcDbEntity
  8
BORDER
  6
LS
100
AcDbLine
 10
343.9160482599999
 20
9.246402600429064
 30
0.0
 11
343.9160482599999
 21
11.78640336242906
 31
0.0
  0
LINE
  5
521
330
4E8
100
AcDbEntity
  8
BORDER
  6
LS
100
AcDbLine
 10
344.4240355599999
 20
10.26240336242906
 30
0.0
 11
344.4240355599999
 21
11.78640336242906
 31
0.0
  0
LINE
  5
522
330
4E8
100
AcDbEntity
  8
BORDER
  6
LS
100
AcDbLine
 10
345.4400330199999
 20
10.26240336242906
 30
0.0
 11
345.4400330199999
 21
11.78640336242906
 31
0.0
  0
LINE
  5
523
330
4E8
100
AcDbEntity
  8
BORDER
  6
LS
100
AcDbLine
 10
345.9480457199999
 20
9.246402600429064
 30
0.0
 11
345.9480457199999
 21
11.78640336242906
 31
0.0
  0
LINE
  5
524
330
4E8
100
AcDbEntity
  8
BORDER
  6
LS
100
AcDbLine
 10
346.4560558799999
 20
9.246402600429064
 30
0.0
 11
346.4560558799999
 21
11.78640336242906
 31
0.0
  0
LINE
  5
525
330
4E8
100
AcDbEntity
  8
BORDER
  6
LS
100
AcDbLine
 10
346.9640431799999
 20
10.26240336242906
 30
0.0
 11
346.9640431799999
 21
11.78640336242906
 31
0.0
  0
TEXT
  5
526
330
4E8
100
AcDbEntity
  8
BORDER
100
AcDbText
 10
349.2881025399999
 20
4.673135394429065
 30
0.0
 40
2.031999491999999
  1
4
 50
0.0999999600000013
  7
AE
100
AcDbText
  0
TEXT
  5
527
330
4E8
100
AcDbEntity
  8
BORDER
100
AcDbText
 10
339.1280644399999
 20
3.149135394429065
 30
0.0
 40
2.031999491999999
  1
0
 50
0.0999999600000013
  7
AE
100
AcDbText
  0
TEXT
  5
528
330
4E8
100
AcDbEntity
  8
BORDER
100
AcDbText
 10
344.20808476
 20
4.673135394429065
 30
0.0
 40
2.031999491999999
  1
2
 50
0.0999999600000013
  7
AE
100
AcDbText
  0
TEXT
  5
529
330
4E8
100
AcDbEntity
  8
BORDER
100
AcDbText
 10
325.34215602
 20
0.988240300429066
 30
0.0
 40
5.079999745999999
  1
2
 50
0.0999999600000013
  7
AE
100
AcDbText
  0
LINE
  5
52A
330
4E8
100
AcDbEntity
  8
BORDER
  6
LS
100
AcDbLine
 10
339.8520025399999
 20
6.706402092429064
 30
0.0
 11
339.8520025399999
 21
11.78640336242906
 31
0.0
  0
LINE
  5
52B
330
4E8
100
AcDbEntity
  8
BORDER
100
AcDbLine
 10
276.8600508
 20
7.976414538429065
 30
0.0
 11
279.4000507999999
 21
13.05640361642906
 31
0.0
  0
LINE
  5
52C
330
4E8
100
AcDbEntity
  8
BORDER
100
AcDbLine
 10
279.4000761999999
 20
13.05638837642906
 30
0.0
 11
281.9400761999999
 21
7.976408442429065
 31
0.0
  0
LINE
  5
52D
330
4E8
100
AcDbEntity
  8
BORDER
100
AcDbLine
 10
276.8600253999999
 20
7.976402346429065
 30
0.0
 11
281.9399999999999
 21
7.976402346429065
 31
0.0
  0
LINE
  5
52E
330
4E8
100
AcDbEntity
  8
BORDER
100
AcDbLine
 10
279.4
 20
2.896401076429066
 30
0.0
 11
279.4
 21
7.976402346429065
 31
0.0
  0
LINE
  5
52F
330
4E8
100
AcDbEntity
  8
BORDER
100
AcDbLine
 10
279.4
 20
2.896401076429066
 30
0.0
 11
279.4
 21
7.976402346429065
 31
0.0
  0
LINE
  5
530
330
4E8
100
AcDbEntity
  8
TITLE BLOCK
  6
Continuous
100
AcDbLine
 10
353.06
 20
19.40640361642906
 30
0.0
 11
353.06
 21
63.85640361642907
 31
0.0
  0
TEXT
  5
531
330
4E8
100
AcDbEntity
  8
TITLE BLOCK
  6
Continuous
100
AcDbText
 10
326.0913501590238
 20
21.7012888945138
 30
0.0
 40
1.959662772596353
  1
NO.
 50
0.09999996
  7
AE
100
AcDbText
  0
LINE
  5
532
330
4E8
100
AcDbEntity
  8
TITLE BLOCK
  6
Continuous
100
AcDbLine
 10
323.8499999999999
 20
13.05553211761991
 30
0.0
 11
323.8499999999999
 21
63.85640361642907
 31
0.0
  0
LINE
  5
533
330
4E8
100
AcDbEntity
  8
TITLE BLOCK
  6
Continuous
100
AcDbLine
 10
332.7399999999999
 20
19.40640361642906
 30
0.0
 11
332.7399999999999
 21
63.85640361642907
 31
0.0
  0
TEXT
  5
534
330
4E8
100
AcDbEntity
  8
TITLE BLOCK
  6
Continuous
100
AcDbText
 10
340.3949001676238
 20
21.71673912463373
 30
0.0
 40
1.928801505622495
  1
DATE
 50
0.09999996
  7
AE
100
AcDbText
  0
LINE
  5
535
330
4E8
100
AcDbEntity
  8
BORDER
  6
LS
100
AcDbLine
 10
385.5721523999999
 20
8.230402092429063
 30
0.0
 11
385.5721523999999
 21
11.78640336242906
 31
0.0
  0
LINE
  5
536
330
4E8
100
AcDbEntity
  8
BORDER
  6
LS
100
AcDbLine
 10
380.49213462
 20
8.230402092429063
 30
0.0
 11
380.49213462
 21
11.78640336242906
 31
0.0
  0
LINE
  5
537
330
4E8
100
AcDbEntity
  8
BORDER
  6
LS
100
AcDbLine
 10
375.4121142999999
 20
8.230402092429063
 30
0.0
 11
375.4121142999999
 21
11.78640336242906
 31
0.0
  0
LINE
  5
538
330
4E8
100
AcDbEntity
  8
BORDER
  6
LS
100
AcDbLine
 10
370.3321193799999
 20
8.230402092429063
 30
0.0
 11
370.3321193799999
 21
11.78640336242906
 31
0.0
  0
LINE
  5
539
330
4E8
100
AcDbEntity
  8
BORDER
  6
LS
100
AcDbLine
 10
364.74411176
 20
10.26240336242906
 30
0.0
 11
364.74411176
 21
11.78640336242906
 31
0.0
  0
LINE
  5
53A
330
4E8
100
AcDbEntity
  8
BORDER
  6
LS
100
AcDbLine
 10
357.6320711199999
 20
8.230402092429063
 30
0.0
 11
357.6320711199999
 21
11.78640336242906
 31
0.0
  0
LINE
  5
53B
330
4E8
100
AcDbEntity
  8
BORDER
  6
LS
100
AcDbLine
 10
360.17208128
 20
8.230402092429063
 30
0.0
 11
360.17208128
 21
11.78640336242906
 31
0.0
  0
LINE
  5
53C
330
4E8
100
AcDbEntity
  8
BORDER
  6
LS
100
AcDbLine
 10
362.7120888999999
 20
8.230402092429063
 30
0.0
 11
362.7120888999999
 21
11.78640336242906
 31
0.0
  0
LINE
  5
53D
330
4E8
100
AcDbEntity
  8
BORDER
  6
LS
100
AcDbLine
 10
363.2201015999999
 20
10.26240336242906
 30
0.0
 11
363.2201015999999
 21
11.78640336242906
 31
0.0
  0
LINE
  5
53E
330
4E8
100
AcDbEntity
  8
BORDER
  6
LS
100
AcDbLine
 10
363.7281142999999
 20
9.246402600429064
 30
0.0
 11
363.7281142999999
 21
11.78640336242906
 31
0.0
  0
LINE
  5
53F
330
4E8
100
AcDbEntity
  8
BORDER
  6
LS
100
AcDbLine
 10
364.2361244599999
 20
9.246402600429064
 30
0.0
 11
364.2361244599999
 21
11.78640336242906
 31
0.0
  0
LINE
  5
540
330
4E8
100
AcDbEntity
  8
BORDER
  6
LS
100
AcDbLine
 10
356.1080838199999
 20
9.246402600429064
 30
0.0
 11
356.1080838199999
 21
11.78640336242906
 31
0.0
  0
LINE
  5
541
330
4E8
100
AcDbEntity
  8
BORDER
  6
LS
100
AcDbLine
 10
356.6160965199999
 20
9.246402600429064
 30
0.0
 11
356.6160965199999
 21
11.78640336242906
 31
0.0
  0
LINE
  5
542
330
4E8
100
AcDbEntity
  8
BORDER
  6
LS
100
AcDbLine
 10
357.1240838199999
 20
10.26240336242906
 30
0.0
 11
357.1240838199999
 21
11.78640336242906
 31
0.0
  0
LINE
  5
543
330
4E8
100
AcDbEntity
  8
BORDER
  6
LS
100
AcDbLine
 10
358.1400812799999
 20
10.26240336242906
 30
0.0
 11
358.1400812799999
 21
11.78640336242906
 31
0.0
  0
LINE
  5
544
330
4E8
100
AcDbEntity
  8
BORDER
  6
LS
100
AcDbLine
 10
358.6480939799999
 20
9.246402600429064
 30
0.0
 11
358.6480939799999
 21
11.78640336242906
 31
0.0
  0
LINE
  5
545
330
4E8
100
AcDbEntity
  8
BORDER
  6
LS
100
AcDbLine
 10
359.15610668
 20
9.246402600429064
 30
0.0
 11
359.15610668
 21
11.78640336242906
 31
0.0
  0
LINE
  5
546
330
4E8
100
AcDbEntity
  8
BORDER
  6
LS
100
AcDbLine
 10
359.66409398
 20
10.26240336242906
 30
0.0
 11
359.66409398
 21
11.78640336242906
 31
0.0
  0
LINE
  5
547
330
4E8
100
AcDbEntity
  8
BORDER
  6
LS
100
AcDbLine
 10
360.6800914399999
 20
10.26240336242906
 30
0.0
 11
360.6800914399999
 21
11.78640336242906
 31
0.0
  0
LINE
  5
548
330
4E8
100
AcDbEntity
  8
BORDER
  6
LS
100
AcDbLine
 10
361.18810414
 20
9.246402600429064
 30
0.0
 11
361.18810414
 21
11.78640336242906
 31
0.0
  0
LINE
  5
549
330
4E8
100
AcDbEntity
  8
BORDER
  6
LS
100
AcDbLine
 10
361.6961142999999
 20
9.246402600429064
 30
0.0
 11
361.6961142999999
 21
11.78640336242906
 31
0.0
  0
LINE
  5
54A
330
4E8
100
AcDbEntity
  8
BORDER
  6
LS
100
AcDbLine
 10
362.2041015999999
 20
10.26240336242906
 30
0.0
 11
362.2041015999999
 21
11.78640336242906
 31
0.0
  0
LINE
  5
54B
330
4E8
100
AcDbEntity
  8
BORDER
  6
LS
100
AcDbLine
 10
355.0920609599999
 20
8.230402092429063
 30
0.0
 11
355.0920609599999
 21
11.78640336242906
 31
0.0
  0
LINE
  5
54C
330
4E8
100
AcDbEntity
  8
BORDER
  6
LS
100
AcDbLine
 10
354.0760863599999
 20
9.246402600429064
 30
0.0
 11
354.0760863599999
 21
11.78640336242906
 31
0.0
  0
LINE
  5
54D
330
4E8
100
AcDbEntity
  8
BORDER
  6
LS
100
AcDbLine
 10
354.58407366
 20
10.26240336242906
 30
0.0
 11
354.58407366
 21
11.78640336242906
 31
0.0
  0
LINE
  5
54E
330
4E8
100
AcDbEntity
  8
BORDER
  6
LS
100
AcDbLine
 10
355.60007366
 20
10.26240336242906
 30
0.0
 11
355.60007366
 21
11.78640336242906
 31
0.0
  0
TEXT
  5
54F
330
4E8
100
AcDbEntity
  8
BORDER
100
AcDbText
 10
415.3280644399999
 20
3.149135394429065
 30
0.0
 40
2.031999491999999
  1
3
 50
0.0999999600000013
  7
AE
100
AcDbText
  0
TEXT
  5
550
330
4E8
100
AcDbEntity
  8
BORDER
100
AcDbText
 10
389.9280644399999
 20
3.149135394429065
 30
0.0
 40
2.031999491999999
  1
2
 50
0.0999999600000013
  7
AE
100
AcDbText
  0
TEXT
  5
551
330
4E8
100
AcDbEntity
  8
BORDER
100
AcDbText
 10
384.8482143
 20
4.673135394429065
 30
0.0
 40
2.031999491999999
  1
8
 50
0.0999999600000013
  7
AE
100
AcDbText
  0
TEXT
  5
552
330
4E8
100
AcDbEntity
  8
BORDER
100
AcDbText
 10
374.6881762
 20
4.673135394429065
 30
0.0
 40
2.031999491999999
  1
4
 50
0.0999999600000013
  7
AE
100
AcDbText
  0
TEXT
  5
553
330
4E8
100
AcDbEntity
  8
BORDER
100
AcDbText
 10
364.5280644399999
 20
3.149135394429065
 30
0.0
 40
2.031999491999999
  1
1
 50
0.0999999600000013
  7
AE
100
AcDbText
  0
TEXT
  5
554
330
4E8
100
AcDbEntity
  8
BORDER
100
AcDbText
 10
369.60818128
 20
4.673135394429065
 30
0.0
 40
2.031999491999999
  1
2
 50
0.0999999600000013
  7
AE
100
AcDbText
  0
TEXT
  5
555
330
4E8
100
AcDbEntity
  8
BORDER
100
AcDbText
 10
379.7681939799999
 20
4.673135394429065
 30
0.0
 40
2.031999491999999
  1
6
 50
0.0999999600000013
  7
AE
100
AcDbText
  0
TEXT
  5
556
330
4E8
100
AcDbEntity
  8
BORDER
100
AcDbText
 10
359.4481431799999
 20
4.673135394429065
 30
0.0
 40
2.031999491999999
  1
8
 50
0.0999999600000013
  7
AE
100
AcDbText
  0
TEXT
  5
557
330
4E8
100
AcDbEntity
  8
BORDER
100
AcDbText
 10
354.36812286
 20
4.673135394429065
 30
0.0
 40
2.031999491999999
  1
6
 50
0.0999999600000013
  7
AE
100
AcDbText
  0
LINE
  5
558
330
4E8
100
AcDbEntity
  8
BORDER
  6
LS
100
AcDbLine
 10
416.05200254
 20
6.706402092429064
 30
0.0
 11
416.05200254
 21
11.78640336242906
 31
0.0
  0
LINE
  5
559
330
4E8
100
AcDbEntity
  8
BORDER
  6
LS
100
AcDbLine
 10
365.2520025399999
 20
6.706402092429064
 30
0.0
 11
365.2520025399999
 21
11.78640336242906
 31
0.0
  0
LINE
  5
55A
330
4E8
100
AcDbEntity
  8
BORDER
  6
LS
100
AcDbLine
 10
390.6520025399999
 20
6.706402092429064
 30
0.0
 11
390.6520025399999
 21
11.78640336242906
 31
0.0
  0
TEXT
  5
55B
330
4E8
100
AcDbEntity
  8
TITLE BLOCK
  6
Continuous
100
AcDbText
 10
434.34
 20
43.53640361642905
 30
0.0
 40
1.928801505622495
  1
DR
 50
0.09999996
  7
AE
100
AcDbText
  0
TEXT
  5
55C
330
4E8
100
AcDbEntity
  8
TITLE BLOCK
  6
Continuous
100
AcDbText
 10
434.34
 20
40.36140361642906
 30
0.0
 40
1.928801505622495
  1
BY
 50
0.09999996
  7
AE
100
AcDbText
  0
TEXT
  5
55D
330
4E8
100
AcDbEntity
  8
TITLE BLOCK
  6
Continuous
100
AcDbText
 10
434.4974894630538
 20
34.01140361642905
 30
0.0
 40
1.928801505622495
  1
BY
 50
0.09999996
  7
AE
100
AcDbText
  0
TEXT
  5
55E
330
4E8
100
AcDbEntity
  8
TITLE BLOCK
  6
Continuous
100
AcDbText
 10
434.34
 20
37.18640361642905
 30
0.0
 40
1.928801505622495
  1
CHK
 50
0.09999996
  7
AE
100
AcDbText
  0
TEXT
  5
55F
330
4E8
100
AcDbEntity
  8
TITLE BLOCK
  6
Continuous
100
AcDbText
 10
434.5939999999999
 20
30.83640361642906
 30
0.0
 40
1.928801505622495
  1
APPD
 50
0.09999996
  7
AE
100
AcDbText
  0
TEXT
  5
560
330
4E8
100
AcDbEntity
  8
TITLE BLOCK
  6
Continuous
100
AcDbText
 10
434.34
 20
27.66140361642907
 30
0.0
 40
1.928801505622495
  1
BY
 50
0.09999996
  7
AE
100
AcDbText
  0
TEXT
  5
561
330
4E8
100
AcDbEntity
  8
TITLE BLOCK
  6
Continuous
100
AcDbText
 10
397.5099999999999
 20
23.21640361642906
 30
0.0
 40
1.928801505622495
  1
DRAWING NAME
 50
0.09999996
  7
AE
100
AcDbText
  0
TEXT
  5
562
330
4E8
100
AcDbEntity
  8
TITLE BLOCK
  6
Continuous
100
AcDbText
 10
396.6209999999999
 20
60.04640361642906
 30
0.0
 40
1.639481230787539
  1
NOTICE: This drawing or material
 50
0.09999996
 41
0.7005041199999999
  7
AE
100
AcDbText
  0
LINE
  5
563
330
4E8
100
AcDbEntity
  8
TITLE BLOCK
  6
Continuous
100
AcDbLine
 10
433.7098248608992
 20
28.29640361642907
 30
0.0
 11
433.7098248608992
 21
63.85640361642907
 31
0.0
  0
LINE
  5
564
330
4E8
100
AcDbEntity
  8
TITLE BLOCK
  6
Continuous
100
AcDbLine
 10
396.2312723140906
 20
13.05553211761991
 30
0.0
 11
396.2312723140906
 21
63.85640361642907
 31
0.0
  0
TEXT
  5
565
330
4E8
100
AcDbEntity
  8
TITLE BLOCK
  6
Continuous
100
AcDbText
 10
396.7809578592263
 20
43.69512345296911
 30
0.0
 40
1.639481230787539
  1
reproduced, will be used only for
 50
0.09999996
 41
0.6799434399999999
  7
AE
100
AcDbText
  0
TEXT
  5
566
330
4E8
100
AcDbEntity
  8
TITLE BLOCK
  6
Continuous
100
AcDbText
 10
397.1326561753694
 20
30.71039712514257
 30
0.0
 40
1.639481230787539
  1
consent of G & L Motion Control Inc..
 50
0.09999996
 41
0.79688752
  7
AE
100
AcDbText
  0
TEXT
  5
567
330
4E8
100
AcDbEntity
  8
TITLE BLOCK
  6
Continuous
100
AcDbText
 10
396.719470974786
 20
34.26666663583747
 30
0.0
 40
1.639481230787539
  1
as authorized by specific written
 50
0.09999996
 41
0.6799434399999999
  7
AE
100
AcDbText
  0
TEXT
  5
568
330
4E8
100
AcDbEntity
  8
TITLE BLOCK
  6
Continuous
100
AcDbText
 10
396.7205683862122
 20
37.36167305738174
 30
0.0
 40
1.639481230787539
  1
used or disclosed to anyone except
 50
0.09999996
 41
0.6605569100000001
  7
AE
100
AcDbText
  0
TEXT
  5
569
330
4E8
100
AcDbEntity
  8
TITLE BLOCK
  6
Continuous
100
AcDbText
 10
396.6374737647244
 20
40.62062735704644
 30
0.0
 40
1.639481230787539
  1
your information, and will not be
 50
0.09999996
 41
0.6799434399999999
  7
AE
100
AcDbText
  0
TEXT
  5
56A
330
4E8
100
AcDbEntity
  8
TITLE BLOCK
  6
Continuous
100
AcDbText
 10
396.7561485223225
 20
47.02579652888414
 30
0.0
 40
1.639481230787539
  1
will not be copied or otherwise
 50
0.09999996
 41
0.72234601
  7
AE
100
AcDbText
  0
TEXT
  5
56B
330
4E8
100
AcDbEntity
  8
TITLE BLOCK
  6
Continuous
100
AcDbText
 10
396.6078289587201
 20
50.35656023922454
 30
0.0
 40
1.639481230787539
  1
in confidence on condition that it
 50
0.09999996
 41
0.6605569100000001
  7
AE
100
AcDbText
  0
TEXT
  5
56C
330
4E8
100
AcDbEntity
  8
TITLE BLOCK
  6
Continuous
100
AcDbText
 10
396.5639569974307
 20
56.93593122720363
 30
0.0
 40
1.639481230787539
  1
contains proprietary information
 50
0.09999996
 41
0.7005041199999999
  7
AE
100
AcDbText
  0
TEXT
  5
56D
330
4E8
100
AcDbEntity
  8
TITLE BLOCK
  6
Continuous
100
AcDbText
 10
396.7092145871849
 20
53.59497971747735
 30
0.0
 40
1.639481230787539
  1
of G & L Motion Control Inc., is submitted
 50
0.09999996
 41
0.6799434399999999
  7
AE
100
AcDbText
  0
ATTDEF
  5
56E
330
4E8
100
AcDbEntity
  8
TITLE BLOCK
  6
Continuous
100
AcDbText
 10
399.5328167271718
 20
15.32015091637034
 30
0.0
 40
4.059999999999999
  1

 41
0.8
  7
STANDARD
100
AcDbAttributeDefinition
  3
Drawing Name
  2
GEN-TITLE-DES1{15.54}
 70
     0
1001
GENIUS_GENBLLY_14
1000
BOR5
  0
TEXT
  5
56F
330
4E8
100
AcDbEntity
  8
BORDER
100
AcDbText
 10
4.535779599999938
 20
369.291403616429
 30
0.0
 40
5.079999745999999
  1
D
  7
AE
100
AcDbText
  0
LINE
  5
570
330
4E8
100
AcDbEntity
  8
BORDER
100
AcDbLine
 10
2.540152400000012
 20
317.856403616429
 30
0.0
 11
12.7
 21
317.856403616429
 31
0.0
  0
TEXT
  5
571
330
4E8
100
AcDbEntity
  8
BORDER
100
AcDbText
 10
4.535779599999938
 20
261.341403616429
 30
0.0
 40
5.079999745999999
  1
C
  7
AE
100
AcDbText
  0
TEXT
  5
572
330
4E8
100
AcDbEntity
  8
BORDER
100
AcDbText
 10
68.03577959999994
 20
413.7412512164289
 30
0.0
 40
5.079999745999999
  1
4
  7
AE
100
AcDbText
  0
LINE
  5
573
330
4E8
100
AcDbEntity
  8
BORDER
100
AcDbLine
 10
139.7
 20
406.756403616429
 30
0.0
 11
139.7
 21
416.916251216429
 31
0.0
  0
TEXT
  5
574
330
4E8
100
AcDbEntity
  8
BORDER
100
AcDbText
 10
207.7357287999999
 20
413.7412512164289
 30
0.0
 40
5.079999745999999
  1
3
  7
AE
100
AcDbText
  0
TEXT
  5
575
330
4E8
100
AcDbEntity
  8
BORDER
100
AcDbText
 10
347.43572118
 20
413.7412512164289
 30
0.0
 40
5.079999745999999
  1
2
  7
AE
100
AcDbText
  0
LINE
  5
576
330
4E8
100
AcDbEntity
  8
BORDER
100
AcDbLine
 10
276.8602793999999
 20
411.835946416429
 30
0.0
 11
279.4003809999999
 21
406.7560226164291
 31
0.0
  0
LINE
  5
577
330
4E8
100
AcDbEntity
  8
BORDER
100
AcDbLine
 10
276.8600253999999
 20
411.8363274164289
 30
0.0
 11
281.9399999999999
 21
411.8363274164289
 31
0.0
  0
LINE
  5
578
330
4E8
100
AcDbEntity
  8
BORDER
100
AcDbLine
 10
279.4002793999999
 20
406.756403616429
 30
0.0
 11
281.940254
 21
411.8363274164289
 31
0.0
  0
LINE
  5
579
330
4E8
100
AcDbEntity
  8
BORDER
100
AcDbLine
 10
276.8600253999999
 20
411.8363274164289
 30
0.0
 11
281.9399999999999
 21
411.8363274164289
 31
0.0
  0
LINE
  5
57A
330
4E8
100
AcDbEntity
  8
BORDER
100
AcDbLine
 10
279.4
 20
411.8363274164289
 30
0.0
 11
279.4
 21
416.916251216429
 31
0.0
  0
LINE
  5
57B
330
4E8
100
AcDbEntity
  8
BORDER
100
AcDbLine
 10
419.0999999999999
 20
406.756403616429
 30
0.0
 11
419.0999999999999
 21
416.916251216429
 31
0.0
  0
LINE
  5
57C
330
4E8
100
AcDbEntity
  8
BORDER
  6
Continuous
100
AcDbLine
 10
558.8
 20
0.2456391960479891
 30
0.0
 11
558.8
 21
425.806403616429
 31
0.0
  0
LINE
  5
57D
330
4E8
100
AcDbEntity
  8
BORDER
100
AcDbLine
 10
546.1
 20
13.05640361642906
 30
0.0
 11
546.1
 21
406.756403616429
 31
0.0
  0
ATTDEF
  5
57E
330
4E8
100
AcDbEntity
  8
TITLE BLOCK
  6
Continuous
100
AcDbText
 10
530.8599999999999
 20
28.93140361642906
 30
0.0
 40
2.999484585477809
  1

 41
0.8
  7
STANDARD
100
AcDbAttributeDefinition
  3
Sheet of
  2
GEN-TITLE-SHEET-OF{2.62}
 70
     0
1001
GENIUS_GENBLLY_14
1000
BOR3
  0
ATTDEF
  5
57F
330
4E8
100
AcDbEntity
  8
TITLE BLOCK
  6
Continuous
100
AcDbText
 10
520.6999999999999
 20
28.93140361642906
 30
0.0
 40
2.999484585477809
  1

 41
0.8
  7
STANDARD
100
AcDbAttributeDefinition
  3
Sheet
  2
GEN-TITLE-SHEET{2.62}
 70
     0
1001
GENIUS_GENBLLY_14
1000
BOR3
  0
TEXT
  5
580
330
4E8
100
AcDbEntity
  8
BORDER
100
AcDbText
 10
550.635715084
 20
45.44139345642906
 30
0.0
 40
5.079999745999999
  1
A
  7
AE
100
AcDbText
  0
TEXT
  5
581
330
4E8
100
AcDbEntity
  8
BORDER
100
AcDbText
 10
487.1357211799999
 20
0.991403108429065
 30
0.0
 40
5.079999745999999
  1
1
  7
AE
100
AcDbText
  0
TEXT
  5
582
330
4E8
100
AcDbEntity
  8
TITLE BLOCK
  6
Continuous
100
AcDbText
 10
509.905
 20
37.18640361642905
 30
0.0
 40
1.928801505622495
  1
DATE
 50
0.09999996
  7
AE
100
AcDbText
  0
TEXT
  5
583
330
4E8
100
AcDbEntity
  8
TITLE BLOCK
  6
Continuous
100
AcDbText
 10
509.905
 20
30.83640361642906
 30
0.0
 40
1.928801505622495
  1
SHEET   OF
 50
0.09999996
  7
AE
100
AcDbText
  0
ATTDEF
  5
584
330
4E8
100
AcDbEntity
  8
TITLE BLOCK
  6
Continuous
100
AcDbText
 10
481.3299999999999
 20
28.93140361642906
 30
0.0
 40
2.566953004259999
  1

 41
0.8
  7
STANDARD
100
AcDbAttributeDefinition
  3
Material
  2
GEN-TITLE-MAT{11.15}
 70
     0
1001
GENIUS_GENBLLY_14
1000
BOR3
  0
ATTDEF
  5
585
330
4E8
100
AcDbEntity
  8
TITLE BLOCK
  6
Continuous
100
AcDbText
 10
481.3299999999999
 20
35.28140361642906
 30
0.0
 40
2.566953004259999
  1

  7
STANDARD
100
AcDbAttributeDefinition
  3
Machine
  2
GEN-TITLE-MACH{5}
 70
     0
1001
GENIUS_GENBLLY_14
1000
BOR2
  0
ATTDEF
  5
586
330
4E8
100
AcDbEntity
  8
TITLE BLOCK
  6
Continuous
100
AcDbText
 10
481.3299999999999
 20
41.63140361642906
 30
0.0
 40
2.566953004259999
  1

  7
STANDARD
100
AcDbAttributeDefinition
  3
Ref. No.
  2
GEN-TITLE-REF{5}
 70
     0
1001
GENIUS_GENBLLY_14
1000
BOR2
  0
TEXT
  5
587
330
4E8
100
AcDbEntity
  8
TITLE BLOCK
  6
Continuous
100
AcDbText
 10
472.44
 20
30.83640361642906
 30
0.0
 40
1.928801505622495
  1
MATL
 50
0.09999996
  7
AE
100
AcDbText
  0
TEXT
  5
588
330
4E8
100
AcDbEntity
  8
TITLE BLOCK
  6
Continuous
100
AcDbText
 10
472.44
 20
37.18640361642905
 30
0.0
 40
1.928801505622495
  1
MACH
 50
0.09999996
  7
AE
100
AcDbText
  0
TEXT
  5
589
330
4E8
100
AcDbEntity
  8
TITLE BLOCK
  6
Continuous
100
AcDbText
 10
472.44
 20
43.53640361642905
 30
0.0
 40
1.928801505622495
  1
REF
 50
0.09999996
  7
AE
100
AcDbText
  0
TEXT
  5
58A
330
4E8
100
AcDbEntity
  8
TITLE BLOCK
  6
Continuous
100
AcDbText
 10
472.44
 20
23.21640361642906
 30
0.0
 40
1.928801505622495
  1
DRAWING NUMBER
 50
0.09999996
  7
AE
100
AcDbText
  0
LINE
  5
58B
330
4E8
100
AcDbEntity
  8
TITLE BLOCK
  6
Continuous
100
AcDbLine
 10
471.1699999999999
 20
13.05553211761991
 30
0.0
 11
471.1699999999999
 21
63.85640361642907
 31
0.0
  0
LINE
  5
58C
330
4E8
100
AcDbEntity
  8
TITLE BLOCK
  6
Continuous
100
AcDbLine
 10
508.6669324040948
 20
27.02640361642905
 30
0.0
 11
508.6669324040939
 21
39.72640361642906
 31
0.0
  0
ATTDEF
  5
58D
330
4E8
100
AcDbEntity
  8
TITLE BLOCK
  6
Continuous
100
AcDbText
 10
518.7949999999998
 20
35.28140361642906
 30
0.0
 40
2.566953004259999
  1

  7
STANDARD
100
AcDbAttributeDefinition
  3
Date
  2
GEN-TITLE-PLOT{5}
 70
     0
1001
GENIUS_GENBLLY_14
1000
BOR2
  0
ATTDEF
  5
58E
330
4E8
100
AcDbEntity
  8
TITLE BLOCK
  6
Continuous
100
AcDbText
 10
474.6631418566855
 20
15.59640361642906
 30
0.0
 40
4.059999999999999
  1

 41
0.8
  7
STANDARD
100
AcDbAttributeDefinition
  3
Drawing Number
  2
GEN-TITLE-NR{13.37}
 70
     0
1001
GENIUS_GENBLLY_14
1000
BOR5
  0
LINE
  5
58F
330
4E8
100
AcDbEntity
  8
BORDER
100
AcDbLine
 10
551.1800800099999
 20
209.906403616429
 30
0.0
 11
556.26000254
 21
209.906403616429
 31
0.0
  0
LINE
  5
590
330
4E8
100
AcDbEntity
  8
BORDER
100
AcDbLine
 10
546.100287528
 20
209.905943876429
 30
0.0
 11
551.1801813559999
 21
207.365981976429
 31
0.0
  0
TEXT
  5
591
330
4E8
100
AcDbEntity
  8
BORDER
100
AcDbText
 10
550.635715084
 20
153.391393456429
 30
0.0
 40
5.079999745999999
  1
B
  7
AE
100
AcDbText
  0
LINE
  5
592
330
4E8
100
AcDbEntity
  8
BORDER
100
AcDbLine
 10
546.0999878079998
 20
209.905966736429
 30
0.0
 11
551.1798907799998
 21
212.445905776429
 31
0.0
  0
LINE
  5
593
330
4E8
100
AcDbEntity
  8
BORDER
100
AcDbLine
 10
551.1800800099999
 20
207.366248676429
 30
0.0
 11
551.1800800099999
 21
212.446169936429
 31
0.0
  0
TEXT
  5
594
330
4E8
100
AcDbEntity
  8
BORDER
100
AcDbText
 10
550.635715084
 20
369.291403616429
 30
0.0
 40
5.079999745999999
  1
D
  7
AE
100
AcDbText
  0
LINE
  5
595
330
4E8
100
AcDbEntity
  8
BORDER
100
AcDbLine
 10
546.1
 20
317.856403616429
 30
0.0
 11
556.2600010159997
 21
317.856403616429
 31
0.0
  0
TEXT
  5
596
330
4E8
100
AcDbEntity
  8
BORDER
100
AcDbText
 10
550.635715084
 20
261.341403616429
 30
0.0
 40
5.079999745999999
  1
C
  7
AE
100
AcDbText
  0
TEXT
  5
597
330
4E8
100
AcDbEntity
  8
BORDER
100
AcDbText
 10
487.1357211799999
 20
413.7412512164289
 30
0.0
 40
5.079999745999999
  1
1
  7
AE
100
AcDbText
  0
LINE
  5
598
330
4E8
100
AcDbEntity
  8
BORDER
  6
Continuous
 62
    15
100
AcDbLine
 10
0.0
 20
0.2456391960479891
 30
0.0
 11
558.8
 21
0.2456391960479891
 31
0.0
  0
MTEXT
  5
599
330
4E8
100
AcDbEntity
  8
BORDER
  6
Continuous
100
AcDbMText
 10
508.0784807513111
 20
60.04640361642906
 30
0.0
 40
3.174999999999999
 41
67.64020000000001
 71
     2
 72
     5
  1
{\fArial|b0|i0|c0|p34;\C1;G & L Motion Control Inc.}
  7
STANDARD
 73
     1
 44
1.0
  0
MTEXT
  5
59A
330
4E8
100
AcDbEntity
  8
BORDER
  6
Continuous
100
AcDbMText
 10
508.1048658720428
 20
51.87433048398901
 30
0.0
 40
1.999996
 41
72.6948
 71
     5
 72
     1
  1
{\Fromans.shx;\C9;672 South Military Road\PFond du Lac, Wisconsin 54936 U.S.A.}
  7
STANDARD
 73
     1
 44
1.0
  0
ENDBLK
  5
59C
330
4E8
100
AcDbEntity
  8
0
370
     0
100
AcDbBlockEnd
  0
ENDSEC
  0
SECTION
  2
ENTITIES
  0
INSERT
  5
57
330
A
100
AcDbEntity
  8
0
  6
AUSGEZOGEN
 62
     9
100
AcDbBlockReference
  2
M25-KOPF_1
 10
500.3485793228037
 20
230.239528861284
 30
0.0
 50
90.0
  0
INSERT
  5
58
330
A
100
AcDbEntity
  8
0
  6
AUSGEZOGEN
 62
     9
100
AcDbBlockReference
  2
M25-KOPF_2
 10
480.3485793228037
 20
230.239528861284
 30
0.0
 50
90.0
  0
INSERT
  5
59
330
A
100
AcDbEntity
  8
0
  6
AUSGEZOGEN
 62
     9
100
AcDbBlockReference
  2
M25-KOPF_3
 10
452.9485793228038
 20
230.2395288612844
 30
0.0
 41
-1.0
 50
270.0
  0
INSERT
  5
5A
330
A
100
AcDbEntity
  8
0
  6
AUSGEZOGEN
 62
     9
100
AcDbBlockReference
  2
M25-KOPF_4
 10
472.9485793228037
 20
230.2395288612844
 30
0.0
 41
-1.0
 50
270.0
  0
INSERT
  5
5B
330
A
100
AcDbEntity
  8
0
  6
AUSGEZOGEN
 62
     9
100
AcDbBlockReference
  2
M25-KOPF_5
 10
124.9216787817007
 20
230.239528861284
 30
0.0
 50
90.0
  0
INSERT
  5
5C
330
A
100
AcDbEntity
  8
0
  6
AUSGEZOGEN
 62
     9
100
AcDbBlockReference
  2
M25-KOPF_6
 10
104.9216787817007
 20
230.239528861284
 30
0.0
 50
90.0
  0
INSERT
  5
5D
330
A
100
AcDbEntity
  8
0
  6
AUSGEZOGEN
 62
     9
100
AcDbBlockReference
  2
M25-KOPF_7
 10
77.52167878170081
 20
230.2395288612844
 30
0.0
 41
-1.0
 50
270.0
  0
INSERT
  5
5E
330
A
100
AcDbEntity
  8
0
  6
AUSGEZOGEN
 62
     9
100
AcDbBlockReference
  2
M25-KOPF_8
 10
97.52167878170082
 20
230.2395288612844
 30
0.0
 41
-1.0
 50
270.0
  0
INSERT
  5
5F
330
A
100
AcDbEntity
  8
0
  6
AUSGEZOGEN
 62
     9
100
AcDbBlockReference
  2
M3D_9
 10
80.06147308333726
 20
221.8998666363104
 30
0.0
  0
INSERT
  5
60
330
A
100
AcDbEntity
  8
0
  6
AUSGEZOGEN
 62
     9
100
AcDbBlockReference
  2
M3D_10
 10
122.4878799545298
 20
179.4734597651174
 30
0.0
  0
INSERT
  5
61
330
A
100
AcDbEntity
  8
0
  6
AUSGEZOGEN
 62
     9
100
AcDbBlockReference
  2
25X8_11
 10
346.5399316164978
 20
229.739528861284
 30
0.0
 50
180.0
  0
INSERT
  5
62
330
A
100
AcDbEntity
  8
0
  6
AUSGEZOGEN
 62
     9
100
AcDbBlockReference
  2
25X8_12
 10
326.7399316164978
 20
229.739528861284
 30
0.0
 50
180.0
  0
INSERT
  5
63
330
A
100
AcDbEntity
  8
0
  6
AUSGEZOGEN
 62
     9
100
AcDbBlockReference
  2
ZEICHNUNGS-LOGO UND ADR_13
 10
540.2034674249022
 20
954.4018222941941
 30
0.0
 41
0.5
 42
0.5
 43
0.5
  0
INSERT
  5
64
330
A
100
AcDbEntity
  8
1
  6
AUSGEZOGEN
 62
    14
100
AcDbBlockReference
  2
ZEICHNUNGS-LOGO UND ADR_14
 10
539.9593100143464
 20
953.7760832066243
 30
0.0
 41
0.5
 42
0.5
 43
0.5
  0
INSERT
  5
65
330
A
100
AcDbEntity
  8
1
  6
AUSGEZOGEN
 62
    14
100
AcDbBlockReference
  2
ZEICHNUNGS-LOGO UND ADR_15
 10
540.1344906134327
 20
953.5202247626903
 30
0.0
 41
0.5
 42
0.5
 43
0.5
  0
LINE
  5
67
330
A
100
AcDbEntity
  8
3
  6
STRICHPUNKT
 62
    54
100
AcDbLine
 10
444.7831484318108
 20
200.739528861284
 30
0.0
 11
506.302541983188
 21
200.739528861284
 31
0.0
  0
LINE
  5
68
330
A
100
AcDbEntity
  8
3
  6
STRICHPUNKT
 62
    54
100
AcDbLine
 10
476.6485793228038
 20
174.39178422467
 30
0.0
 11
476.6485793228038
 21
259.943805511382
 31
0.0
  0
LINE
  5
69
330
A
100
AcDbEntity
  8
1
  6
AUSGEZOGEN
 62
    14
100
AcDbLine
 10
455.6887964040806
 20
223.239528861284
 30
0.0
 11
497.6083622415269
 21
223.239528861284
 31
0.0
  0
LINE
  5
6A
330
A
100
AcDbEntity
  8
1
  6
AUSGEZOGEN
 62
    14
100
AcDbLine
 10
499.1485793228037
 20
179.7797459425607
 30
0.0
 11
499.1485793228037
 21
221.6993117800071
 31
0.0
  0
LINE
  5
6B
330
A
100
AcDbEntity
  8
1
  6
AUSGEZOGEN
 62
    14
100
AcDbLine
 10
454.1485793228038
 20
179.7797459425607
 30
0.0
 11
454.1485793228038
 21
221.6993117800071
 31
0.0
  0
LINE
  5
6C
330
A
100
AcDbEntity
  8
1
  6
AUSGEZOGEN
 62
    14
100
AcDbLine
 10
455.6887964040806
 20
178.239528861284
 30
0.0
 11
497.6083622415269
 21
178.239528861284
 31
0.0
  0
ARC
  5
6D
330
A
100
AcDbEntity
  8
1
  6
AUSGEZOGEN
 62
    14
100
AcDbCircle
 10
476.6485793228038
 20
200.739528861284
 30
0.0
 40
30.75
100
AcDbArc
 50
132.9702839317431
 51
137.0297160682568
  0
ARC
  5
6E
330
A
100
AcDbEntity
  8
1
  6
AUSGEZOGEN
 62
    14
100
AcDbCircle
 10
476.6485793228038
 20
200.739528861284
 30
0.0
 40
30.75
100
AcDbArc
 50
42.97028393174318
 51
47.0297160682569
  0
ARC
  5
6F
330
A
100
AcDbEntity
  8
1
  6
AUSGEZOGEN
 62
    14
100
AcDbCircle
 10
476.6485793228038
 20
200.739528861284
 30
0.0
 40
30.75
100
AcDbArc
 50
312.9702839317431
 51
317.0297160682567
  0
ARC
  5
70
330
A
100
AcDbEntity
  8
1
  6
AUSGEZOGEN
 62
    14
100
AcDbCircle
 10
476.6485793228038
 20
200.739528861284
 30
0.0
 40
30.75
100
AcDbArc
 50
222.9702839317431
 51
227.0297160682568
  0
CIRCLE
  5
71
330
A
100
AcDbEntity
  8
1
  6
AUSGEZOGEN
 62
    14
100
AcDbCircle
 10
476.6485793228038
 20
200.739528861284
 30
0.0
 40
14.0
  0
CIRCLE
  5
72
330
A
100
AcDbEntity
  8
1
  6
AUSGEZOGEN
 62
    14
100
AcDbCircle
 10
476.6485793228038
 20
200.739528861284
 30
0.0
 40
20.0
  0
CIRCLE
  5
73
330
A
100
AcDbEntity
  8
1
  6
AUSGEZOGEN
 62
    14
100
AcDbCircle
 10
495.7404624148406
 20
181.6476457692472
 30
0.0
 40
2.2
  0
CIRCLE
  5
74
330
A
100
AcDbEntity
  8
1
  6
AUSGEZOGEN
 62
    14
100
AcDbCircle
 10
457.556696230767
 20
181.6476457692472
 30
0.0
 40
2.2
  0
CIRCLE
  5
75
330
A
100
AcDbEntity
  8
1
  6
AUSGEZOGEN
 62
    14
100
AcDbCircle
 10
457.5566962307671
 20
219.8314119533207
 30
0.0
 40
2.2
  0
CIRCLE
  5
76
330
A
100
AcDbEntity
  8
1
  6
AUSGEZOGEN
 62
    14
100
AcDbCircle
 10
495.7404624148406
 20
219.8314119533207
 30
0.0
 40
2.2
  0
CIRCLE
  5
77
330
A
100
AcDbEntity
  8
3
  6
STRICHPUNKT
 62
    54
100
AcDbCircle
 10
476.6485793228038
 20
200.739528861284
 30
0.0
 40
26.99999999999997
  0
LINE
  5
78
330
A
100
AcDbEntity
  8
3
  6
STRICHPUNKT
 62
    54
100
AcDbLine
 10
453.1831769360385
 20
177.2741264745186
 30
0.0
 11
461.3339461917551
 21
185.4248957302353
 31
0.0
  0
LINE
  5
79
330
A
100
AcDbEntity
  8
3
  6
STRICHPUNKT
 62
    54
100
AcDbLine
 10
461.4512664973683
 20
215.9368416867193
 30
0.0
 11
453.8041419504639
 21
223.5839662336238
 31
0.0
  0
LINE
  5
7A
330
A
100
AcDbEntity
  8
3
  6
STRICHPUNKT
 62
    54
100
AcDbLine
 10
499.4299589818711
 20
223.5209085203513
 30
0.0
 11
491.8749786589113
 21
215.9659281973915
 31
0.0
  0
LINE
  5
7B
330
A
100
AcDbEntity
  8
3
  6
STRICHPUNKT
 62
    54
100
AcDbLine
 10
491.8082685922817
 20
185.5798395918061
 30
0.0
 11
499.5003813334447
 21
177.8877268506431
 31
0.0
  0
CIRCLE
  5
7C
330
A
100
AcDbEntity
  8
1
  6
AUSGEZOGEN
 62
    14
100
AcDbCircle
 10
476.6485793228038
 20
200.739528861284
 30
0.0
 40
4.5
  0
CIRCLE
  5
7D
330
A
100
AcDbEntity
  8
1
  6
AUSGEZOGEN
 62
    14
100
AcDbCircle
 10
476.6485793228038
 20
200.739528861284
 30
0.0
 40
4.0
  0
DIMENSION
  5
7E
330
A
100
AcDbEntity
  8
5
  6
AUSGEZOGEN
 62
    54
100
AcDbDimension
  2
*D17
 10
521.7880125454896
 20
178.239528861284
 30
0.0
 11
521.7880125454896
 21
200.7395288612841
 31
0.0
 70
    32
  1
45
 71
     5
 42
45.0
 53
90.0
  3
DIMS0
100
AcDbAlignedDimension
 13
497.6083622415269
 23
223.239528861284
 33
0.0
 14
497.6083622415269
 24
178.239528861284
 34
0.0
 50
270.0
100
AcDbRotatedDimension
1001
ACAD
1000
DSTYLE
1002
{
1070
    77
1070
     3
1070
   271
1070
     1
1002
}
  0
DIMENSION
  5
7F
330
A
100
AcDbEntity
  8
5
  6
AUSGEZOGEN
 62
    54
100
AcDbDimension
  2
*D18
 10
499.1485793228037
 20
162.7811878312074
 30
0.0
 11
475.9877835595966
 21
165.9283713789552
 31
0.0
 70
   160
  1
45
 71
     5
 42
45.0
  3
DIMS0
100
AcDbAlignedDimension
 13
454.1485793228038
 23
179.7797459425607
 33
0.0
 14
499.1485793228037
 24
179.7797459425607
 34
0.0
100
AcDbRotatedDimension
1001
ACAD
1000
DSTYLE
1002
{
1070
   271
1070
     1
1070
   279
1070
     2
1002
}
  0
DIMENSION
  5
80
330
A
100
AcDbEntity
  8
5
  6
AUSGEZOGEN
 62
    54
100
AcDbDimension
  2
*D19
 10
450.5069117654
 20
207.4932846547799
 30
0.0
 11
468.2421224168445
 21
205.4222034697533
 31
0.0
 70
   160
  1
%%c54
 71
     5
 42
53.99999999999995
 53
-14.48574376192854
  3
DIMS0
100
AcDbAlignedDimension
 13
502.7902468802076
 23
193.9857730677881
 33
0.0
 14
450.5069117654
 24
207.4932846547798
 34
0.0
 50
165.5142562380687
100
AcDbRotatedDimension
1001
ACAD
1000
DSTYLE
1002
{
1070
   271
1070
     1
1070
   279
1070
     2
1002
}
  0
DIMENSION
  5
81
330
A
100
AcDbEntity
  8
5
  6
AUSGEZOGEN
 62
    54
100
AcDbDimension
  2
*D20
 10
511.7931065523645
 20
261.6116356308709
 30
0.0
 11
503.547035940917
 21
265.6781476356373
 31
0.0
 70
    37
  1
45°
 71
     5
 42
0.7853981633974502
 53
-23.11264737662826
  3
DIMS0
100
AcDb3PointAngularDimension
 13
499.4299589818711
 23
223.5209085203513
 33
0.0
 14
476.6485793228038
 24
259.943805511382
 34
0.0
 15
476.6485793228038
 25
200.739528861284
 35
0.0
1001
ACAD
1000
DSTYLE
1002
{
1070
   271
1070
     1
1002
}
  0
LINE
  5
82
330
A
100
AcDbEntity
  8
1
  6
AUSGEZOGEN
 62
    14
100
AcDbLine
 10
449.1485793228037
 20
174.878119386934
 30
0.0
 11
449.1485793228037
 21
226.600938335634
 31
0.0
  0
LINE
  5
83
330
A
100
AcDbEntity
  8
1
  6
AUSGEZOGEN
 62
    14
100
AcDbLine
 10
504.1485793228038
 20
174.878119386934
 30
0.0
 11
504.1485793228038
 21
226.600938335634
 31
0.0
  0
LINE
  5
84
330
A
100
AcDbEntity
  8
1
  6
AUSGEZOGEN
 62
    14
100
AcDbLine
 10
476.6485793228038
 20
228.239528861284
 30
0.0
 11
501.4023669117769
 21
228.239528861284
 31
0.0
  0
LINE
  5
85
330
A
100
AcDbEntity
  8
1
  6
AUSGEZOGEN
 62
    14
100
AcDbLine
 10
450.4485793228037
 20
228.239528861284
 30
0.0
 11
476.6485793228038
 21
228.239528861284
 31
0.0
  0
LINE
  5
86
330
A
100
AcDbEntity
  8
1
  6
AUSGEZOGEN
 62
    14
100
AcDbLine
 10
450.7871698484538
 20
173.239528861284
 30
0.0
 11
476.6485793228038
 21
173.239528861284
 31
0.0
  0
LINE
  5
87
330
A
100
AcDbEntity
  8
1
  6
AUSGEZOGEN
 62
    14
100
AcDbLine
 10
476.6485793228038
 20
173.239528861284
 30
0.0
 11
502.5099887971538
 21
173.239528861284
 31
0.0
  0
LINE
  5
88
330
A
100
AcDbEntity
  8
1
  6
AUSGEZOGEN
 62
    14
100
AcDbLine
 10
490.3485793228038
 20
228.239528861284
 30
0.0
 11
502.8485793228037
 21
228.239528861284
 31
0.0
  0
LINE
  5
89
330
A
100
AcDbEntity
  8
1
  6
AUSGEZOGEN
 62
    14
100
AcDbLine
 10
490.3485793228038
 20
228.239528861284
 30
0.0
 11
476.0985793228038
 21
228.239528861284
 31
0.0
  0
LINE
  5
8A
330
A
100
AcDbEntity
  8
5
  6
AUSGEZOGEN
 62
    14
100
AcDbLine
 10
477.8485793228037
 20
228.239528861284
 30
0.0
 11
477.8485793228038
 21
260.2395288612838
 31
0.0
  0
LINE
  5
8B
330
A
100
AcDbEntity
  8
5
  6
AUSGEZOGEN
 62
    14
100
AcDbLine
 10
502.8485793228037
 20
228.239528861284
 30
0.0
 11
502.8485793228037
 21
260.2395288612838
 31
0.0
  0
LINE
  5
8C
330
A
100
AcDbEntity
  8
5
  6
AUSGEZOGEN
 62
    14
100
AcDbLine
 10
502.8485793228037
 20
260.2395288612838
 30
0.0
 11
477.8485793228038
 21
260.2395288612838
 31
0.0
  0
LINE
  5
8D
330
A
100
AcDbEntity
  8
1
  6
AUSGEZOGEN
 62
    14
100
AcDbLine
 10
477.8485793228037
 20
230.239528861284
 30
0.0
 11
502.8485793228037
 21
230.239528861284
 31
0.0
  0
LINE
  5
8E
330
A
100
AcDbEntity
  8
5
  6
AUSGEZOGEN
 62
    14
100
AcDbLine
 10
480.3485793228037
 20
231.9895288612142
 30
0.0
 11
480.3485793228039
 21
260.2395288612838
 31
0.0
  0
LINE
  5
8F
330
A
100
AcDbEntity
  8
5
  6
AUSGEZOGEN
 62
    14
100
AcDbLine
 10
500.3485793228037
 20
231.9895288612142
 30
0.0
 11
500.3485793228037
 21
260.2395288612838
 31
0.0
  0
ARC
  5
90
330
A
100
AcDbEntity
  8
1
  6
AUSGEZOGEN
 62
    14
100
AcDbCircle
 10
476.6485793228038
 20
200.739528861284
 30
0.0
 40
37.75
100
AcDbArc
 50
43.24114786635811
 51
46.75885213364204
  0
ARC
  5
91
330
A
100
AcDbEntity
  8
1
  6
AUSGEZOGEN
 62
    14
100
AcDbCircle
 10
476.6485793228038
 20
200.739528861284
 30
0.0
 40
37.75
100
AcDbArc
 50
133.2411478663581
 51
136.758852133642
  0
ARC
  5
92
330
A
100
AcDbEntity
  8
1
  6
AUSGEZOGEN
 62
    14
100
AcDbCircle
 10
476.6485793228038
 20
200.739528861284
 30
0.0
 40
37.75
100
AcDbArc
 50
223.2411478663581
 51
226.758852133642
  0
ARC
  5
93
330
A
100
AcDbEntity
  8
1
  6
AUSGEZOGEN
 62
    14
100
AcDbCircle
 10
476.6485793228038
 20
200.739528861284
 30
0.0
 40
37.75
100
AcDbArc
 50
313.2411478663581
 51
316.758852133642
  0
LINE
  5
94
330
A
100
AcDbEntity
  8
5
  6
AUSGEZOGEN
 62
    14
100
AcDbLine
 10
475.4485793228037
 20
230.239528861284
 30
0.0
 11
475.4485793228037
 21
260.2395288612842
 31
0.0
  0
LINE
  5
95
330
A
100
AcDbEntity
  8
5
  6
AUSGEZOGEN
 62
    14
100
AcDbLine
 10
450.4485793228037
 20
230.239528861284
 30
0.0
 11
450.4485793228037
 21
260.2395288612842
 31
0.0
  0
LINE
  5
96
330
A
100
AcDbEntity
  8
5
  6
AUSGEZOGEN
 62
    14
100
AcDbLine
 10
450.4485793228037
 20
260.2395288612842
 30
0.0
 11
475.4485793228037
 21
260.2395288612842
 31
0.0
  0
LINE
  5
97
330
A
100
AcDbEntity
  8
1
  6
AUSGEZOGEN
 62
    14
100
AcDbLine
 10
450.4485793228037
 20
228.239528861284
 30
0.0
 11
450.4485793228037
 21
230.239528861284
 31
0.0
  0
LINE
  5
98
330
A
100
AcDbEntity
  8
1
  6
AUSGEZOGEN
 62
    14
100
AcDbLine
 10
475.4485793228037
 20
228.239528861284
 30
0.0
 11
475.4485793228037
 21
230.239528861284
 31
0.0
  0
LINE
  5
99
330
A
100
AcDbEntity
  8
1
  6
AUSGEZOGEN
 62
    14
100
AcDbLine
 10
475.4485793228037
 20
230.239528861284
 30
0.0
 11
450.4485793228037
 21
230.239528861284
 31
0.0
  0
LINE
  5
9A
330
A
100
AcDbEntity
  8
5
  6
AUSGEZOGEN
 62
    14
100
AcDbLine
 10
472.9485793228037
 20
231.9895288612144
 30
0.0
 11
472.9485793228037
 21
260.2395288612838
 31
0.0
  0
LINE
  5
9B
330
A
100
AcDbEntity
  8
5
  6
AUSGEZOGEN
 62
    14
100
AcDbLine
 10
452.9485793228038
 20
231.9895288612144
 30
0.0
 11
452.9485793228038
 21
260.2395288612838
 31
0.0
  0
LINE
  5
9C
330
A
100
AcDbEntity
  8
3
  6
STRICHPUNKT
 62
    54
100
AcDbLine
 10
490.3485793228038
 20
221.6664084096976
 30
0.0
 11
490.3485793228038
 21
264.7779200593308
 31
0.0
  0
LINE
  5
9D
330
A
100
AcDbEntity
  8
3
  6
STRICHPUNKT
 62
    54
100
AcDbLine
 10
480.3485793228037
 20
234.4476300570456
 30
0.0
 11
480.3485793228037
 21
226.3651020122356
 31
0.0
  0
LINE
  5
9E
330
A
100
AcDbEntity
  8
3
  6
STRICHPUNKT
 62
    54
100
AcDbLine
 10
500.3485793228037
 20
234.1426289987509
 30
0.0
 11
500.3485793228037
 21
226.517602541383
 31
0.0
  0
LINE
  5
9F
330
A
100
AcDbEntity
  8
3
  6
STRICHPUNKT
 62
    54
100
AcDbLine
 10
472.9485793228037
 20
234.4476300570458
 30
0.0
 11
472.9485793228037
 21
226.3651020122358
 31
0.0
  0
LINE
  5
A0
330
A
100
AcDbEntity
  8
3
  6
STRICHPUNKT
 62
    54
100
AcDbLine
 10
452.9485793228038
 20
234.1426289987512
 30
0.0
 11
452.9485793228038
 21
226.5176025413832
 31
0.0
  0
LINE
  5
A1
330
A
100
AcDbEntity
  8
3
  6
STRICHPUNKT
 62
    54
100
AcDbLine
 10
462.9485793228038
 20
221.6664084096976
 30
0.0
 11
462.9485793228038
 21
264.7779200593308
 31
0.0
  0
DIMENSION
  5
A2
330
A
100
AcDbEntity
  8
5
  6
AUSGEZOGEN
 62
    54
100
AcDbDimension
  2
*D21
 10
433.7691591666677
 20
222.0314119533207
 30
0.0
 11
433.684556547797
 21
206.8114338147822
 31
0.0
 70
   160
  1
4.4
 71
     5
 42
4.399999999999863
 53
90.0
  3
DIMS0
100
AcDbAlignedDimension
 13
457.5566962307671
 23
217.6314119533208
 33
0.0
 14
457.5566962307671
 24
222.0314119533207
 34
0.0
 50
90.0
100
AcDbRotatedDimension
1001
ACAD
1000
DSTYLE
1002
{
1070
   271
1070
     2
1070
   279
1070
     2
1002
}
  0
DIMENSION
  5
A3
330
A
100
AcDbEntity
  8
5
  6
AUSGEZOGEN
 62
    54
100
AcDbDimension
  2
*D22
 10
426.6156746183167
 20
173.239528861284
 30
0.0
 11
426.6156746183166
 21
200.7395288612841
 31
0.0
 70
    32
  1
55
 71
     5
 42
55.0
 53
90.0
  3
DIMS0
100
AcDbAlignedDimension
 13
450.7871698484539
 23
228.239528861284
 33
0.0
 14
450.7871698484536
 24
173.239528861284
 34
0.0
 50
270.0
100
AcDbRotatedDimension
1001
ACAD
1000
DSTYLE
1002
{
1070
   271
1070
     2
1002
}
  0
DIMENSION
  5
A4
330
A
100
AcDbEntity
  8
5
  6
AUSGEZOGEN
 62
    54
100
AcDbDimension
  2
*D23
 10
504.1485793228038
 20
153.9168159149336
 30
0.0
 11
476.5836037759363
 21
156.7991443991353
 31
0.0
 70
   160
  1
55
 71
     5
 42
55.0
  3
DIMS0
100
AcDbAlignedDimension
 13
449.1485793228037
 23
174.878119386934
 33
0.0
 14
504.1485793228038
 24
174.878119386934
 34
0.0
100
AcDbRotatedDimension
1001
ACAD
1000
DSTYLE
1002
{
1070
   271
1070
     2
1070
   279
1070
     2
1002
}
  0
CIRCLE
  5
A5
330
A
100
AcDbEntity
  8
3
  6
STRICHPUNKT
 62
    54
100
AcDbCircle
 10
476.6485793228038
 20
200.739528861284
 30
0.0
 40
37.75
  0
DIMENSION
  5
A6
330
A
100
AcDbEntity
  8
3
  6
AUSGEZOGEN
 62
    54
100
AcDbDimension
  2
*D24
 10
514.3985793228038
 20
147.5325409909455
 30
0.0
 11
476.7822088450507
 21
150.2499156297126
 31
0.0
 70
   160
  1
%%c75.5
 71
     5
 42
75.5
  3
DIMS0
100
AcDbAlignedDimension
 13
438.8985793228037
 23
200.739528861284
 33
0.0
 14
514.3985793228038
 24
200.739528861284
 34
0.0
100
AcDbRotatedDimension
1001
ACAD
1000
DSTYLE
1002
{
1070
   271
1070
     2
1070
   279
1070
     2
1002
}
  0
LINE
  5
A7
330
A
100
AcDbEntity
  8
1
  6
AUSGEZOGEN
 62
    14
100
AcDbLine
 10
73.7216787817008
 20
174.878119386934
 30
0.0
 11
73.7216787817008
 21
226.600938335634
 31
0.0
  0
LINE
  5
A8
330
A
100
AcDbEntity
  8
1
  6
AUSGEZOGEN
 62
    14
100
AcDbLine
 10
128.7216787817007
 20
174.878119386934
 30
0.0
 11
128.7216787817007
 21
226.600938335634
 31
0.0
  0
LINE
  5
A9
330
A
100
AcDbEntity
  8
1
  6
AUSGEZOGEN
 62
    14
100
AcDbLine
 10
101.2216787817008
 20
228.239528861284
 30
0.0
 11
125.9754663706739
 21
228.239528861284
 31
0.0
  0
LINE
  5
AA
330
A
100
AcDbEntity
  8
1
  6
AUSGEZOGEN
 62
    14
100
AcDbLine
 10
75.02167878170081
 20
228.239528861284
 30
0.0
 11
101.2216787817008
 21
228.239528861284
 31
0.0
  0
LINE
  5
AB
330
A
100
AcDbEntity
  8
1
  6
AUSGEZOGEN
 62
    14
100
AcDbLine
 10
75.36026930735073
 20
173.239528861284
 30
0.0
 11
101.2216787817008
 21
173.239528861284
 31
0.0
  0
LINE
  5
AC
330
A
100
AcDbEntity
  8
1
  6
AUSGEZOGEN
 62
    14
100
AcDbLine
 10
101.2216787817008
 20
173.239528861284
 30
0.0
 11
127.0830882560508
 21
173.239528861284
 31
0.0
  0
LINE
  5
AD
330
A
100
AcDbEntity
  8
3
  6
STRICHPUNKT
 62
    54
100
AcDbLine
 10
70.08294208506476
 20
200.739528861284
 30
0.0
 11
132.6477524785702
 21
200.739528861284
 31
0.0
  0
LINE
  5
AE
330
A
100
AcDbEntity
  8
1
  6
AUSGEZOGEN
 62
    14
100
AcDbLine
 10
114.9216787817007
 20
228.239528861284
 30
0.0
 11
127.4216787817007
 21
228.239528861284
 31
0.0
  0
LINE
  5
AF
330
A
100
AcDbEntity
  8
3
  6
STRICHPUNKT
 62
    54
100
AcDbLine
 10
114.9216787817007
 20
221.6664084096976
 30
0.0
 11
114.9216787817007
 21
264.7779200593308
 31
0.0
  0
LINE
  5
B0
330
A
100
AcDbEntity
  8
1
  6
AUSGEZOGEN
 62
    14
100
AcDbLine
 10
114.9216787817007
 20
228.2395288612838
 30
0.0
 11
100.6716787817008
 21
228.2395288612838
 31
0.0
  0
LINE
  5
B1
330
A
100
AcDbEntity
  8
5
  6
AUSGEZOGEN
 62
    14
100
AcDbLine
 10
102.4216787817007
 20
228.239528861284
 30
0.0
 11
102.4216787817007
 21
260.2395288612838
 31
0.0
  0
LINE
  5
B2
330
A
100
AcDbEntity
  8
5
  6
AUSGEZOGEN
 62
    14
100
AcDbLine
 10
127.4216787817007
 20
228.239528861284
 30
0.0
 11
127.4216787817007
 21
260.2395288612838
 31
0.0
  0
LINE
  5
B3
330
A
100
AcDbEntity
  8
5
  6
AUSGEZOGEN
 62
    14
100
AcDbLine
 10
127.4216787817007
 20
260.2395288612838
 30
0.0
 11
102.4216787817007
 21
260.2395288612838
 31
0.0
  0
LINE
  5
B4
330
A
100
AcDbEntity
  8
3
  6
STRICHPUNKT
 62
    54
100
AcDbLine
 10
104.9216787817007
 20
234.4476300570456
 30
0.0
 11
104.9216787817007
 21
226.3651020122356
 31
0.0
  0
LINE
  5
B5
330
A
100
AcDbEntity
  8
3
  6
STRICHPUNKT
 62
    54
100
AcDbLine
 10
124.9216787817007
 20
234.1426289987509
 30
0.0
 11
124.9216787817007
 21
226.517602541383
 31
0.0
  0
LINE
  5
B6
330
A
100
AcDbEntity
  8
1
  6
AUSGEZOGEN
 62
    14
100
AcDbLine
 10
102.4216787817007
 20
230.239528861284
 30
0.0
 11
127.4216787817007
 21
230.239528861284
 31
0.0
  0
LINE
  5
B7
330
A
100
AcDbEntity
  8
5
  6
AUSGEZOGEN
 62
    14
100
AcDbLine
 10
104.9216787817007
 20
252.8221045562397
 30
0.0
 11
104.9216787817007
 21
260.2395288612838
 31
0.0
  0
LINE
  5
B8
330
A
100
AcDbEntity
  8
5
  6
AUSGEZOGEN
 62
    14
100
AcDbLine
 10
104.9216787817007
 20
231.9895288612142
 30
0.0
 11
104.9216787817007
 21
243.656953166328
 31
0.0
  0
LINE
  5
B9
330
A
100
AcDbEntity
  8
5
  6
AUSGEZOGEN
 62
    14
100
AcDbLine
 10
124.9216787817007
 20
252.8221045562397
 30
0.0
 11
124.9216787817007
 21
260.2395288612838
 31
0.0
  0
LINE
  5
BA
330
A
100
AcDbEntity
  8
5
  6
AUSGEZOGEN
 62
    14
100
AcDbLine
 10
124.9216787817007
 20
231.9895288612142
 30
0.0
 11
124.9216787817007
 21
243.656953166328
 31
0.0
  0
LINE
  5
BB
330
A
100
AcDbEntity
  8
5
  6
STRICHPUNKT
 62
    54
100
AcDbLine
 10
130.2298055006296
 20
248.2395288612838
 30
0.0
 11
99.6919272490485
 21
248.2395288612838
 31
0.0
  0
CIRCLE
  5
BC
330
A
100
AcDbEntity
  8
5
  6
AUSGEZOGEN
 62
    14
100
AcDbCircle
 10
114.9216787817007
 20
248.2395288612838
 30
0.0
 40
11.0
  0
ARC
  5
BD
330
A
100
AcDbEntity
  8
1
  6
AUSGEZOGEN
 62
    14
100
AcDbCircle
 10
101.2216787817008
 20
200.739528861284
 30
0.0
 40
37.75
100
AcDbArc
 50
43.24114786635811
 51
46.75885213364204
  0
ARC
  5
BE
330
A
100
AcDbEntity
  8
1
  6
AUSGEZOGEN
 62
    14
100
AcDbCircle
 10
101.2216787817008
 20
200.739528861284
 30
0.0
 40
37.75
100
AcDbArc
 50
133.2411478663581
 51
136.758852133642
  0
ARC
  5
BF
330
A
100
AcDbEntity
  8
1
  6
AUSGEZOGEN
 62
    14
100
AcDbCircle
 10
101.2216787817008
 20
200.739528861284
 30
0.0
 40
37.75
100
AcDbArc
 50
223.2411478663581
 51
226.758852133642
  0
ARC
  5
C0
330
A
100
AcDbEntity
  8
1
  6
AUSGEZOGEN
 62
    14
100
AcDbCircle
 10
101.2216787817008
 20
200.739528861284
 30
0.0
 40
37.75
100
AcDbArc
 50
313.2411478663581
 51
316.758852133642
  0
LINE
  5
C1
330
A
100
AcDbEntity
  8
3
  6
STRICHPUNKT
 62
    54
100
AcDbLine
 10
101.2216787817008
 20
168.3369086093396
 30
0.0
 11
101.2216787817008
 21
263.7981129763845
 31
0.0
  0
LINE
  5
C2
330
A
100
AcDbEntity
  8
5
  6
AUSGEZOGEN
 62
    14
100
AcDbLine
 10
100.0216787817008
 20
230.239528861284
 30
0.0
 11
100.0216787817008
 21
260.2395288612842
 31
0.0
  0
LINE
  5
C3
330
A
100
AcDbEntity
  8
5
  6
AUSGEZOGEN
 62
    14
100
AcDbLine
 10
75.02167878170081
 20
230.239528861284
 30
0.0
 11
75.02167878170081
 21
260.2395288612842
 31
0.0
  0
LINE
  5
C4
330
A
100
AcDbEntity
  8
5
  6
AUSGEZOGEN
 62
    14
100
AcDbLine
 10
75.02167878170081
 20
260.2395288612842
 30
0.0
 11
100.0216787817008
 21
260.2395288612842
 31
0.0
  0
LINE
  5
C5
330
A
100
AcDbEntity
  8
3
  6
STRICHPUNKT
 62
    54
100
AcDbLine
 10
97.52167878170082
 20
234.4476300570458
 30
0.0
 11
97.52167878170082
 21
226.3651020122358
 31
0.0
  0
LINE
  5
C6
330
A
100
AcDbEntity
  8
3
  6
STRICHPUNKT
 62
    54
100
AcDbLine
 10
77.52167878170081
 20
234.1426289987512
 30
0.0
 11
77.52167878170081
 21
226.5176025413832
 31
0.0
  0
LINE
  5
C7
330
A
100
AcDbEntity
  8
1
  6
AUSGEZOGEN
 62
    14
100
AcDbLine
 10
75.02167878170081
 20
228.239528861284
 30
0.0
 11
75.02167878170081
 21
230.239528861284
 31
0.0
  0
LINE
  5
C8
330
A
100
AcDbEntity
  8
1
  6
AUSGEZOGEN
 62
    14
100
AcDbLine
 10
100.0216787817008
 20
228.239528861284
 30
0.0
 11
100.0216787817008
 21
230.239528861284
 31
0.0
  0
LINE
  5
C9
330
A
100
AcDbEntity
  8
1
  6
AUSGEZOGEN
 62
    14
100
AcDbLine
 10
100.0216787817008
 20
230.239528861284
 30
0.0
 11
75.02167878170081
 21
230.239528861284
 31
0.0
  0
LINE
  5
CA
330
A
100
AcDbEntity
  8
5
  6
AUSGEZOGEN
 62
    14
100
AcDbLine
 10
97.52167878170082
 20
252.8221045562399
 30
0.0
 11
97.52167878170082
 21
260.2395288612842
 31
0.0
  0
LINE
  5
CB
330
A
100
AcDbEntity
  8
5
  6
AUSGEZOGEN
 62
    14
100
AcDbLine
 10
97.52167878170082
 20
231.9895288612144
 30
0.0
 11
97.52167878170082
 21
243.6569531663283
 31
0.0
  0
LINE
  5
CC
330
A
100
AcDbEntity
  8
5
  6
AUSGEZOGEN
 62
    14
100
AcDbLine
 10
77.52167878170081
 20
252.8221045562399
 30
0.0
 11
77.52167878170081
 21
260.2395288612842
 31
0.0
  0
LINE
  5
CD
330
A
100
AcDbEntity
  8
5
  6
AUSGEZOGEN
 62
    14
100
AcDbLine
 10
77.52167878170081
 20
231.9895288612144
 30
0.0
 11
77.52167878170081
 21
243.6569531663283
 31
0.0
  0
LINE
  5
CE
330
A
100
AcDbEntity
  8
5
  6
STRICHPUNKT
 62
    54
100
AcDbLine
 10
70.89749477170045
 20
248.239528861284
 30
0.0
 11
102.1244848228673
 21
248.2395288612842
 31
0.0
  0
CIRCLE
  5
CF
330
A
100
AcDbEntity
  8
5
  6
AUSGEZOGEN
 62
    14
100
AcDbCircle
 10
87.52167878170082
 20
248.2395288612842
 30
0.0
 40
11.0
  0
DIMENSION
  5
D0
330
A
100
AcDbEntity
  8
1
  6
AUSGEZOGEN
 62
    54
100
AcDbDimension
  2
*D25
 10
56.42708176287363
 20
200.739528861284
 30
0.0
 11
56.4270817628736
 21
230.4895288612841
 31
0.0
 70
    32
  1
59.5
 71
     5
 42
59.50000000000023
 53
90.0
  3
DIMS0
100
AcDbAlignedDimension
 13
75.02167878170081
 23
260.2395288612842
 33
0.0
 14
70.08294208506476
 24
200.739528861284
 34
0.0
 50
270.0
100
AcDbRotatedDimension
1001
ACAD
1000
DSTYLE
1002
{
1070
   271
1070
     2
1002
}
  0
LINE
  5
D1
330
A
100
AcDbEntity
  8
3
  6
STRICHPUNKT
 62
    54
100
AcDbLine
 10
87.52167878170087
 20
221.6664084096976
 30
0.0
 11
87.52167878170087
 21
264.7779200593308
 31
0.0
  0
CIRCLE
  5
D2
330
A
100
AcDbEntity
  8
5
  6
AUSGEZOGEN
 62
    14
100
AcDbCircle
 10
87.52167878170082
 20
248.2395288612842
 30
0.0
 40
9.5
  0
CIRCLE
  5
D3
330
A
100
AcDbEntity
  8
1
  6
AUSGEZOGEN
 62
    14
100
AcDbCircle
 10
90.92440767669819
 20
252.7433640750168
 30
0.0
 40
1.5
  0
CIRCLE
  5
D4
330
A
100
AcDbEntity
  8
1
  6
AUSGEZOGEN
 62
    14
100
AcDbCircle
 10
92.24807894865723
 20
245.0010673622139
 30
0.0
 40
1.5
  0
CIRCLE
  5
D5
330
A
100
AcDbEntity
  8
1
  6
AUSGEZOGEN
 62
    14
100
AcDbCircle
 10
85.25153079687385
 20
242.3573562895496
 30
0.0
 40
1.5
  0
CIRCLE
  5
D6
330
A
100
AcDbEntity
  8
1
  6
AUSGEZOGEN
 62
    14
100
AcDbCircle
 10
81.09142108500265
 20
251.7362360473352
 30
0.0
 40
1.5
  0
CIRCLE
  5
D7
330
A
100
AcDbEntity
  8
1
  6
AUSGEZOGEN
 62
    14
100
AcDbCircle
 10
85.31456276220529
 20
253.3098735905878
 30
0.0
 40
1.5
  0
CIRCLE
  5
D8
330
A
100
AcDbEntity
  8
1
  6
AUSGEZOGEN
 62
    14
100
AcDbCircle
 10
86.57520206883289
 20
247.4559419296881
 30
0.0
 40
1.5
  0
CIRCLE
  5
D9
330
A
100
AcDbEntity
  8
5
  6
AUSGEZOGEN
 62
    14
100
AcDbCircle
 10
114.778010281584
 20
248.239528861284
 30
0.0
 40
9.5
  0
CIRCLE
  5
DA
330
A
100
AcDbEntity
  8
1
  6
AUSGEZOGEN
 62
    14
100
AcDbCircle
 10
117.6917436822367
 20
242.4516792555757
 30
0.0
 40
1.0
  0
CIRCLE
  5
DB
330
A
100
AcDbEntity
  8
1
  6
AUSGEZOGEN
 62
    14
100
AcDbCircle
 10
120.7854763958225
 20
245.606901972312
 30
0.0
 40
1.0
  0
CIRCLE
  5
DC
330
A
100
AcDbEntity
  8
1
  6
AUSGEZOGEN
 62
    14
100
AcDbCircle
 10
121.0487727969786
 20
251.7858797925871
 30
0.0
 40
1.0
  0
CIRCLE
  5
DD
330
A
100
AcDbEntity
  8
1
  6
AUSGEZOGEN
 62
    14
100
AcDbCircle
 10
116.638558077612
 20
254.020829216942
 30
0.0
 40
1.0
  0
CIRCLE
  5
DE
330
A
100
AcDbEntity
  8
1
  6
AUSGEZOGEN
 62
    14
100
AcDbCircle
 10
110.9776854527533
 20
254.2180306367379
 30
0.0
 40
1.0
  0
CIRCLE
  5
DF
330
A
100
AcDbEntity
  8
1
  6
AUSGEZOGEN
 62
    14
100
AcDbCircle
 10
108.6738419426364
 20
250.8656065002057
 30
0.0
 40
1.0
  0
CIRCLE
  5
E0
330
A
100
AcDbEntity
  8
1
  6
AUSGEZOGEN
 62
    14
100
AcDbCircle
 10
109.0687865443707
 20
245.9355710053052
 30
0.0
 40
1.0
  0
CIRCLE
  5
E1
330
A
100
AcDbEntity
  8
1
  6
AUSGEZOGEN
 62
    14
100
AcDbCircle
 10
111.7675746562219
 20
242.6488806753718
 30
0.0
 40
1.0
  0
CIRCLE
  5
E2
330
A
100
AcDbEntity
  8
1
  6
AUSGEZOGEN
 62
    14
100
AcDbCircle
 10
113.1498807622919
 20
247.1845133306801
 30
0.0
 40
1.0
  0
CIRCLE
  5
E3
330
A
100
AcDbEntity
  8
1
  6
AUSGEZOGEN
 62
    14
100
AcDbCircle
 10
113.0182325617139
 20
250.7998726936071
 30
0.0
 40
1.0
  0
CIRCLE
  5
E4
330
A
100
AcDbEntity
  8
1
  6
AUSGEZOGEN
 62
    14
100
AcDbCircle
 10
117.1651508799245
 20
250.0110670144231
 30
0.0
 40
1.0
  0
CIRCLE
  5
E5
330
A
100
AcDbEntity
  8
1
  6
AUSGEZOGEN
 62
    14
100
AcDbCircle
 10
116.704382177901
 20
245.4754343591146
 30
0.0
 40
1.0
  0
LINE
  5
E6
330
A
100
AcDbEntity
  8
1
  6
AUSGEZOGEN
 62
    14
100
AcDbLine
 10
74.7216787817008
 20
175.2775473987189
 30
0.0
 11
74.7216787817008
 21
226.2015103238488
 31
0.0
  0
ARC
  5
E7
330
A
100
AcDbEntity
  8
1
  6
AUSGEZOGEN
 62
    14
100
AcDbCircle
 10
101.2216787817008
 20
200.739528861284
 30
0.0
 40
36.75
100
AcDbArc
 50
223.855583058655
 51
226.1444169413448
  0
LINE
  5
E8
330
A
100
AcDbEntity
  8
1
  6
AUSGEZOGEN
 62
    14
100
AcDbLine
 10
75.7596973191358
 20
174.239528861284
 30
0.0
 11
101.2216787817008
 21
174.239528861284
 31
0.0
  0
LINE
  5
E9
330
A
100
AcDbEntity
  8
1
  6
AUSGEZOGEN
 62
    14
100
AcDbLine
 10
101.2216787817008
 20
174.239528861284
 30
0.0
 11
126.6836602442657
 21
174.239528861284
 31
0.0
  0
ARC
  5
EA
330
A
100
AcDbEntity
  8
1
  6
AUSGEZOGEN
 62
    14
100
AcDbCircle
 10
101.2216787817008
 20
200.739528861284
 30
0.0
 40
36.75
100
AcDbArc
 50
313.8555830586551
 51
316.144416941345
  0
LINE
  5
EB
330
A
100
AcDbEntity
  8
1
  6
AUSGEZOGEN
 62
    14
100
AcDbLine
 10
127.7216787817007
 20
175.2775473987189
 30
0.0
 11
127.7216787817007
 21
226.2015103238488
 31
0.0
  0
ARC
  5
EC
330
A
100
AcDbEntity
  8
1
  6
AUSGEZOGEN
 62
    14
100
AcDbCircle
 10
101.2216787817008
 20
200.739528861284
 30
0.0
 40
36.75
100
AcDbArc
 50
43.85558305865503
 51
46.14441694134511
  0
LINE
  5
ED
330
A
100
AcDbEntity
  8
1
  6
AUSGEZOGEN
 62
    14
100
AcDbLine
 10
101.2216787817008
 20
227.239528861284
 30
0.0
 11
126.6836602442656
 21
227.239528861284
 31
0.0
  0
LINE
  5
EE
330
A
100
AcDbEntity
  8
1
  6
AUSGEZOGEN
 62
    14
100
AcDbLine
 10
75.75969731913597
 20
227.239528861284
 30
0.0
 11
101.2216787817008
 21
227.239528861284
 31
0.0
  0
ARC
  5
EF
330
A
100
AcDbEntity
  8
1
  6
AUSGEZOGEN
 62
    14
100
AcDbCircle
 10
101.2216787817008
 20
200.739528861284
 30
0.0
 40
36.75
100
AcDbArc
 50
133.8555830586548
 51
136.1444169413449
  0
LINE
  5
F0
330
A
100
AcDbEntity
  8
1
  6
AUSGEZOGEN
 62
    14
100
AcDbLine
 10
75.3602693073509
 20
228.239528861284
 30
0.0
 11
75.75969731913597
 21
227.239528861284
 31
0.0
  0
LINE
  5
F1
330
A
100
AcDbEntity
  8
1
  6
AUSGEZOGEN
 62
    14
100
AcDbLine
 10
73.7216787817008
 20
226.600938335634
 30
0.0
 11
74.7216787817008
 21
226.2015103238488
 31
0.0
  0
LINE
  5
F2
330
A
100
AcDbEntity
  8
1
  6
AUSGEZOGEN
 62
    14
100
AcDbLine
 10
127.0830882560507
 20
228.239528861284
 30
0.0
 11
126.6836602442656
 21
227.239528861284
 31
0.0
  0
LINE
  5
F3
330
A
100
AcDbEntity
  8
1
  6
AUSGEZOGEN
 62
    14
100
AcDbLine
 10
127.7216787817007
 20
226.2015103238488
 30
0.0
 11
128.7216787817007
 21
226.600938335634
 31
0.0
  0
LINE
  5
F4
330
A
100
AcDbEntity
  8
1
  6
AUSGEZOGEN
 62
    14
100
AcDbLine
 10
74.7216787817008
 20
175.2775473987189
 30
0.0
 11
73.7216787817008
 21
174.878119386934
 31
0.0
  0
LINE
  5
F5
330
A
100
AcDbEntity
  8
1
  6
AUSGEZOGEN
 62
    14
100
AcDbLine
 10
75.7596973191358
 20
174.239528861284
 30
0.0
 11
75.36026930735073
 21
173.239528861284
 31
0.0
  0
LINE
  5
F6
330
A
100
AcDbEntity
  8
1
  6
AUSGEZOGEN
 62
    14
100
AcDbLine
 10
126.6836602442657
 20
174.239528861284
 30
0.0
 11
127.0830882560508
 21
173.239528861284
 31
0.0
  0
LINE
  5
F7
330
A
100
AcDbEntity
  8
1
  6
AUSGEZOGEN
 62
    14
100
AcDbLine
 10
127.7216787817007
 20
175.2775473987189
 30
0.0
 11
128.7216787817007
 21
174.878119386934
 31
0.0
  0
LINE
  5
F8
330
A
100
AcDbEntity
  8
3
  6
STRICHPUNKT
 62
    54
100
AcDbLine
 10
120.0035743736672
 20
181.9576332693177
 30
0.0
 11
125.1058281536762
 21
176.8553794893086
 31
0.0
  0
ARC
  5
F9
330
A
100
AcDbEntity
  8
3
  6
STRICHPUNKT
 62
    54
100
AcDbCircle
 10
101.2216787817008
 20
200.739528861284
 30
0.0
 40
30.00000000000002
100
AcDbArc
 50
127.4436139649294
 51
142.5751437718674
  0
ARC
  5
FA
330
A
100
AcDbEntity
  8
3
  6
STRICHPUNKT
 62
    54
100
AcDbCircle
 10
101.2216787817008
 20
200.739528861284
 30
0.0
 40
30.00000000000002
100
AcDbArc
 50
308.1266626795045
 51
322.8914357119295
  0
LINE
  5
FB
330
A
100
AcDbEntity
  8
3
  6
STRICHPUNKT
 62
    54
100
AcDbLine
 10
77.26656334520919
 20
224.6946442977762
 30
0.0
 11
83.00215128695702
 21
218.9590563560282
 31
0.0
  0
CIRCLE
  5
FC
330
A
100
AcDbEntity
  8
1
  6
AUSGEZOGEN
 62
    14
100
AcDbCircle
 10
80.06147308333714
 20
221.8998666363104
 30
0.0
 40
3.0
  0
CIRCLE
  5
FD
330
A
100
AcDbEntity
  8
1
  6
AUSGEZOGEN
 62
    14
100
AcDbCircle
 10
122.4878799545297
 20
179.4734597651174
 30
0.0
 40
3.0
  0
CIRCLE
  5
FE
330
A
100
AcDbEntity
  8
0
  6
ByBlock
 62
     0
100
AcDbCircle
 10
120.1664652346208
 20
244.550343758985
 30
0.0
 40
0.5
  0
POLYLINE
  5
FF
330
A
100
AcDbEntity
  8
0
  6
AUSGEZOGEN
 62
     9
100
AcDb2dPolyline
 66
     1
 10
0.0
 20
0.0
 30
0.0
  0
VERTEX
  5
100
330
FF
100
AcDbEntity
  8
0
  6
AUSGEZOGEN
 62
     9
100
AcDbVertex
100
AcDb2dVertex
 10
120.1664652346208
 20
244.550343758985
 30
0.0
  0
VERTEX
  5
101
330
FF
100
AcDbEntity
  8
0
  6
AUSGEZOGEN
 62
     9
100
AcDbVertex
100
AcDb2dVertex
 10
144.0936444456955
 20
287.8245856049036
 30
0.0
  0
VERTEX
  5
102
330
FF
100
AcDbEntity
  8
0
  6
AUSGEZOGEN
 62
     9
100
AcDbVertex
100
AcDb2dVertex
 10
194.1763520735618
 20
287.8245856049036
 30
0.0
  0
SEQEND
  5
103
330
FF
100
AcDbEntity
  8
0
  6
AUSGEZOGEN
 62
     9
  0
TEXT
  5
105
330
A
100
AcDbEntity
  8
4
  6
AUSGEZOGEN
 62
    94
100
AcDbText
 10
145.3797798089992
 20
290.3418174777484
 30
0.0
 40
5.0
  1
Connector Encoder
 41
0.6800000190734864
100
AcDbText
  0
CIRCLE
  5
106
330
A
100
AcDbEntity
  8
0
  6
ByBlock
 62
     0
100
AcDbCircle
 10
82.22715532741437
 20
249.8052491083112
 30
0.0
 40
0.5
  0
POLYLINE
  5
107
330
A
100
AcDbEntity
  8
0
  6
AUSGEZOGEN
 62
     9
100
AcDb2dPolyline
 66
     1
 10
0.0
 20
0.0
 30
0.0
  0
VERTEX
  5
108
330
107
100
AcDbEntity
  8
0
  6
AUSGEZOGEN
 62
     9
100
AcDbVertex
100
AcDb2dVertex
 10
82.22715532741437
 20
249.8052491083112
 30
0.0
  0
VERTEX
  5
109
330
107
100
AcDbEntity
  8
0
  6
AUSGEZOGEN
 62
     9
100
AcDbVertex
100
AcDb2dVertex
 10
20.55167023109891
 20
290.051735892169
 30
0.0
  0
VERTEX
  5
10A
330
107
100
AcDbEntity
  8
0
  6
AUSGEZOGEN
 62
     9
100
AcDbVertex
100
AcDb2dVertex
 10
108.5773644975942
 20
290.051735892169
 30
0.0
  0
SEQEND
  5
10B
330
107
100
AcDbEntity
  8
0
  6
AUSGEZOGEN
 62
     9
  0
TEXT
  5
10D
330
A
100
AcDbEntity
  8
4
  6
AUSGEZOGEN
 62
    94
100
AcDbText
 10
25.28120797279348
 20
292.1683525415506
 30
0.0
 40
5.0
  1
Connector Motor / Brake
 41
0.6800000190734864
100
AcDbText
  0
LINE
  5
10E
330
A
100
AcDbEntity
  8
1
  6
AUSGEZOGEN
 62
    14
100
AcDbLine
 10
268.4399316164979
 20
223.239528861284
 30
0.0
 11
318.4399316164976
 21
223.239528861284
 31
0.0
  0
LINE
  5
10F
330
A
100
AcDbEntity
  8
1
  6
AUSGEZOGEN
 62
    14
100
AcDbLine
 10
268.4399316164979
 20
178.239528861284
 30
0.0
 11
318.4399316164976
 21
178.239528861284
 31
0.0
  0
LINE
  5
110
330
A
100
AcDbEntity
  8
3
  6
STRICHPUNKT
 62
    54
100
AcDbLine
 10
237.6804538531203
 20
200.739528861284
 30
0.0
 11
364.3595329491997
 21
200.739528861284
 31
0.0
  0
LINE
  5
111
330
A
100
AcDbEntity
  8
1
  6
AUSGEZOGEN
 62
    14
100
AcDbLine
 10
268.4399316164979
 20
200.739528861284
 30
0.0
 11
268.4399316164979
 21
223.239528861284
 31
0.0
  0
LINE
  5
112
330
A
100
AcDbEntity
  8
1
  6
AUSGEZOGEN
 62
    14
100
AcDbLine
 10
268.4399316164979
 20
200.739528861284
 30
0.0
 11
268.4399316164979
 21
178.239528861284
 31
0.0
  0
LINE
  5
113
330
A
100
AcDbEntity
  8
1
  6
AUSGEZOGEN
 62
    14
100
AcDbLine
 10
256.4899316164979
 20
200.739528861284
 30
0.0
 11
256.4899316164979
 21
220.739528861284
 31
0.0
  0
LINE
  5
114
330
A
100
AcDbEntity
  8
1
  6
AUSGEZOGEN
 62
    14
100
AcDbLine
 10
256.4899316164979
 20
180.739528861284
 30
0.0
 11
256.4899316164979
 21
200.739528861284
 31
0.0
  0
LINE
  5
115
330
A
100
AcDbEntity
  8
1
  6
AUSGEZOGEN
 62
    14
100
AcDbLine
 10
256.4899316164979
 20
220.739528861284
 30
0.0
 11
258.9899316164979
 21
220.739528861284
 31
0.0
  0
LINE
  5
116
330
A
100
AcDbEntity
  8
1
  6
AUSGEZOGEN
 62
    14
100
AcDbLine
 10
256.4899316164979
 20
180.739528861284
 30
0.0
 11
258.9899316164979
 21
180.739528861284
 31
0.0
  0
LINE
  5
117
330
A
100
AcDbEntity
  8
1
  6
AUSGEZOGEN
 62
    14
100
AcDbLine
 10
258.9899316164979
 20
178.239528861284
 30
0.0
 11
258.9899316164979
 21
200.739528861284
 31
0.0
  0
LINE
  5
118
330
A
100
AcDbEntity
  8
1
  6
AUSGEZOGEN
 62
    14
100
AcDbLine
 10
258.9899316164979
 20
200.739528861284
 30
0.0
 11
258.9899316164979
 21
223.239528861284
 31
0.0
  0
LINE
  5
119
330
A
100
AcDbEntity
  8
1
  6
AUSGEZOGEN
 62
    14
100
AcDbLine
 10
258.9899316164979
 20
178.239528861284
 30
0.0
 11
318.4399316164976
 21
178.239528861284
 31
0.0
  0
LINE
  5
11A
330
A
100
AcDbEntity
  8
1
  6
AUSGEZOGEN
 62
    14
100
AcDbLine
 10
258.9899316164979
 20
223.239528861284
 30
0.0
 11
318.4399316164976
 21
223.239528861284
 31
0.0
  0
LINE
  5
11B
330
A
100
AcDbEntity
  8
1
  6
AUSGEZOGEN
 62
    14
100
AcDbLine
 10
318.4399316164976
 20
178.239528861284
 30
0.0
 11
318.4399316164976
 21
223.239528861284
 31
0.0
  0
LINE
  5
11C
330
A
100
AcDbEntity
  8
1
  6
AUSGEZOGEN
 62
    14
100
AcDbLine
 10
239.2899316164979
 20
205.239528861284
 30
0.0
 11
256.4899316164979
 21
205.239528861284
 31
0.0
  0
LINE
  5
11D
330
A
100
AcDbEntity
  8
1
  6
AUSGEZOGEN
 62
    14
100
AcDbLine
 10
239.2899316164979
 20
196.239528861284
 30
0.0
 11
256.4899316164979
 21
196.239528861284
 31
0.0
  0
LINE
  5
11E
330
A
100
AcDbEntity
  8
1
  6
AUSGEZOGEN
 62
    14
100
AcDbLine
 10
238.9899316164979
 20
204.9395288612839
 30
0.0
 11
238.9899316164979
 21
196.539528861284
 31
0.0
  0
LINE
  5
11F
330
A
100
AcDbEntity
  8
1
  6
AUSGEZOGEN
 62
    14
100
AcDbLine
 10
239.2899316164979
 20
205.239528861284
 30
0.0
 11
239.2899316164979
 21
196.239528861284
 31
0.0
  0
LINE
  5
120
330
A
100
AcDbEntity
  8
1
  6
AUSGEZOGEN
 62
    14
100
AcDbLine
 10
239.2899316164979
 20
205.239528861284
 30
0.0
 11
238.9899316164979
 21
204.9395288612839
 31
0.0
  0
LINE
  5
121
330
A
100
AcDbEntity
  8
1
  6
AUSGEZOGEN
 62
    14
100
AcDbLine
 10
239.2899316164979
 20
196.239528861284
 30
0.0
 11
238.9899316164979
 21
196.539528861284
 31
0.0
  0
DIMENSION
  5
122
330
A
100
AcDbEntity
  8
5
  6
AUSGEZOGEN
 62
    54
100
AcDbDimension
  2
*D26
 10
258.9899316164979
 20
164.9811458151756
 30
0.0
 11
269.8590186649969
 21
165.0177557249012
 31
0.0
 70
   160
  1
2.5
 71
     5
 42
2.5
  3
DIMS0
100
AcDbAlignedDimension
 13
256.4899316164979
 23
180.739528861284
 33
0.0
 14
258.9899316164979
 24
178.239528861284
 34
0.0
100
AcDbRotatedDimension
1001
ACAD
1000
DSTYLE
1002
{
1070
   271
1070
     2
1070
   279
1070
     2
1002
}
  0
DIMENSION
  5
123
330
A
100
AcDbEntity
  8
5
  6
AUSGEZOGEN
 62
    54
100
AcDbDimension
  2
*D27
 10
238.9899316164979
 20
155.8379763696118
 30
0.0
 11
248.9191947436613
 21
158.5794451875643
 31
0.0
 70
   160
  1
20
 71
     5
 42
20.0
  3
DIMS0
100
AcDbAlignedDimension
 13
258.9899316164979
 23
178.239528861284
 33
0.0
 14
238.9899316164979
 24
196.539528861284
 34
0.0
 50
180.0
100
AcDbRotatedDimension
1001
ACAD
1000
DSTYLE
1002
{
1070
   271
1070
     1
1070
   279
1070
     2
1002
}
  0
DIMENSION
  5
124
330
A
100
AcDbEntity
  8
5
  6
AUSGEZOGEN
 62
    54
100
AcDbDimension
  2
*D28
 10
223.5534533691991
 20
205.239528861284
 30
0.0
 11
223.3484493963151
 21
200.8308604681119
 31
0.0
 70
   160
  1
%%c9
 71
     5
 42
9.0
 53
90.0
  3
DIMS0
100
AcDbAlignedDimension
 13
239.2899316164979
 23
196.239528861284
 33
0.0
 14
239.2899316164979
 24
205.239528861284
 34
0.0
 50
90.0
100
AcDbRotatedDimension
1001
ACAD
1000
DSTYLE
1002
{
1070
   271
1070
     1
1070
   279
1070
     2
1002
}
  0
DIMENSION
  5
125
330
A
100
AcDbEntity
  8
5
  6
AUSGEZOGEN
 62
    54
100
AcDbDimension
  2
*D29
 10
216.6763509013524
 20
220.739528861284
 30
0.0
 11
216.6763509013523
 21
200.7395288612841
 31
0.0
 70
    32
  1
%%c40
 71
     5
 42
40.0
 53
90.0
  3
DIMS0
100
AcDbAlignedDimension
 13
256.4899316164979
 23
180.739528861284
 33
0.0
 14
256.4899316164979
 24
220.739528861284
 34
0.0
 50
90.0
100
AcDbRotatedDimension
1001
ACAD
1000
DSTYLE
1002
{
1070
   271
1070
     1
1002
}
  0
LINE
  5
126
330
A
100
AcDbEntity
  8
1
  6
AUSGEZOGEN
 62
    14
100
AcDbLine
 10
268.4399316164979
 20
215.739528861284
 30
0.0
 11
318.4399316164976
 21
215.739528861284
 31
0.0
  0
LINE
  5
127
330
A
100
AcDbEntity
  8
1
  6
AUSGEZOGEN
 62
    14
100
AcDbLine
 10
268.4399316164979
 20
185.739528861284
 30
0.0
 11
318.4399316164976
 21
185.739528861284
 31
0.0
  0
LINE
  5
128
330
A
100
AcDbEntity
  8
1
  6
AUSGEZOGEN
 62
    14
100
AcDbLine
 10
318.4399316164976
 20
219.729528861284
 30
0.0
 11
318.4399316164976
 21
228.239528861284
 31
0.0
  0
LINE
  5
129
330
A
100
AcDbEntity
  8
1
  6
AUSGEZOGEN
 62
    14
100
AcDbLine
 10
318.4399316164976
 20
181.749528861284
 30
0.0
 11
318.4399316164976
 21
173.239528861284
 31
0.0
  0
LINE
  5
12A
330
A
100
AcDbEntity
  8
1
  6
AUSGEZOGEN
 62
    14
100
AcDbLine
 10
353.3399316164977
 20
173.239528861284
 30
0.0
 11
353.3399316164977
 21
228.239528861284
 31
0.0
  0
LINE
  5
12B
330
A
100
AcDbEntity
  8
1
  6
AUSGEZOGEN
 62
    14
100
AcDbLine
 10
357.3399316164977
 20
174.239528861284
 30
0.0
 11
357.3399316164977
 21
227.239528861284
 31
0.0
  0
LINE
  5
12C
330
A
100
AcDbEntity
  8
1
  6
AUSGEZOGEN
 62
    14
100
AcDbLine
 10
318.4399316164976
 20
228.239528861284
 30
0.0
 11
351.3399316164977
 21
228.239528861284
 31
0.0
  0
LINE
  5
12D
330
A
100
AcDbEntity
  8
1
  6
AUSGEZOGEN
 62
    14
100
AcDbLine
 10
318.4399316164976
 20
173.239528861284
 30
0.0
 11
356.3399316164977
 21
173.239528861284
 31
0.0
  0
LINE
  5
12E
330
A
100
AcDbEntity
  8
1
  6
AUSGEZOGEN
 62
    14
100
AcDbLine
 10
351.3399316164977
 20
228.239528861284
 30
0.0
 11
356.3399316164977
 21
228.239528861284
 31
0.0
  0
LINE
  5
12F
330
A
100
AcDbEntity
  8
3
  6
STRICHPUNKT
 62
    54
100
AcDbLine
 10
338.8399316164977
 20
267.7906610207467
 30
0.0
 11
338.8399316164977
 21
222.739528861284
 31
0.0
  0
LINE
  5
130
330
A
100
AcDbEntity
  8
1
  6
AUSGEZOGEN
 62
    14
100
AcDbLine
 10
342.8399316164977
 20
229.739528861284
 30
0.0
 11
351.3399316164977
 21
229.739528861284
 31
0.0
  0
LINE
  5
131
330
A
100
AcDbEntity
  8
1
  6
AUSGEZOGEN
 62
    14
100
AcDbLine
 10
326.3399316164977
 20
229.739528861284
 30
0.0
 11
334.8399316164977
 21
229.739528861284
 31
0.0
  0
LINE
  5
132
330
A
100
AcDbEntity
  8
1
  6
AUSGEZOGEN
 62
    14
100
AcDbLine
 10
326.3399316164977
 20
228.239528861284
 30
0.0
 11
326.3399316164977
 21
229.739528861284
 31
0.0
  0
LINE
  5
133
330
A
100
AcDbEntity
  8
1
  6
AUSGEZOGEN
 62
    14
100
AcDbLine
 10
351.3399316164977
 20
228.239528861284
 30
0.0
 11
351.3399316164977
 21
229.739528861284
 31
0.0
  0
LINE
  5
134
330
A
100
AcDbEntity
  8
3
  6
STRICHPUNKT
 62
    54
100
AcDbLine
 10
348.7399316164976
 20
224.739528861284
 30
0.0
 11
348.7399316164976
 21
233.7830545502463
 31
0.0
  0
LINE
  5
135
330
A
100
AcDbEntity
  8
3
  6
STRICHPUNKT
 62
    54
100
AcDbLine
 10
328.9399316164976
 20
224.739528861284
 30
0.0
 11
328.9399316164976
 21
233.1333033516464
 31
0.0
  0
LINE
  5
136
330
A
100
AcDbEntity
  8
1
  6
AUSGEZOGEN
 62
    14
100
AcDbLine
 10
334.8399316164977
 20
260.239528861284
 30
0.0
 11
334.8399316164977
 21
229.739528861284
 31
0.0
  0
LINE
  5
137
330
A
100
AcDbEntity
  8
1
  6
AUSGEZOGEN
 62
    14
100
AcDbLine
 10
342.8399316164977
 20
260.239528861284
 30
0.0
 11
342.8399316164977
 21
229.739528861284
 31
0.0
  0
LINE
  5
138
330
A
100
AcDbEntity
  8
1
  6
AUSGEZOGEN
 62
    14
100
AcDbLine
 10
327.8399316164978
 20
260.239528861284
 30
0.0
 11
349.8399316164977
 21
260.239528861284
 31
0.0
  0
LINE
  5
139
330
A
100
AcDbEntity
  8
1
  6
AUSGEZOGEN
 62
    14
100
AcDbLine
 10
349.8399316164977
 20
237.0395288612842
 30
0.0
 11
349.8399316164977
 21
231.6156166339289
 31
0.0
  0
LINE
  5
13A
330
A
100
AcDbEntity
  8
1
  6
AUSGEZOGEN
 62
    14
100
AcDbLine
 10
349.8399316164977
 20
260.239528861284
 30
0.0
 11
349.8399316164977
 21
259.0395288612842
 31
0.0
  0
LINE
  5
13B
330
A
100
AcDbEntity
  8
1
  6
AUSGEZOGEN
 62
    14
100
AcDbLine
 10
327.8399316164978
 20
260.239528861284
 30
0.0
 11
327.8399316164978
 21
231.6156166339289
 31
0.0
  0
LINE
  5
13C
330
A
100
AcDbEntity
  8
1
  6
AUSGEZOGEN
 62
    14
100
AcDbLine
 10
359.3399316164977
 20
259.0395288612842
 30
0.0
 11
360.3399316164977
 21
259.0395288612842
 31
0.0
  0
LINE
  5
13D
330
A
100
AcDbEntity
  8
1
  6
AUSGEZOGEN
 62
    14
100
AcDbLine
 10
349.8399316164977
 20
259.0395288612842
 30
0.0
 11
357.8399316164977
 21
259.0395288612842
 31
0.0
  0
LINE
  5
13E
330
A
100
AcDbEntity
  8
3
  6
STRICHPUNKT
 62
    54
100
AcDbLine
 10
340.9486515444248
 20
248.0395288612842
 30
0.0
 11
379.0936699386118
 21
248.0395288612842
 31
0.0
  0
LINE
  5
13F
330
A
100
AcDbEntity
  8
1
  6
AUSGEZOGEN
 62
    14
100
AcDbLine
 10
359.3399316164977
 20
237.0395288612842
 30
0.0
 11
360.3399316164977
 21
237.0395288612842
 31
0.0
  0
LINE
  5
140
330
A
100
AcDbEntity
  8
1
  6
AUSGEZOGEN
 62
    14
100
AcDbLine
 10
349.8399316164977
 20
237.0395288612842
 30
0.0
 11
357.8399316164977
 21
237.0395288612842
 31
0.0
  0
LINE
  5
141
330
A
100
AcDbEntity
  8
1
  6
AUSGEZOGEN
 62
    14
100
AcDbLine
 10
371.8399316164977
 20
258.2895288612842
 30
0.0
 11
371.8399316164977
 21
237.7895288612842
 31
0.0
  0
LINE
  5
142
330
A
100
AcDbEntity
  8
1
  6
AUSGEZOGEN
 62
    14
100
AcDbLine
 10
349.8399316164977
 20
259.0395288612842
 30
0.0
 11
342.8399316164977
 21
252.0395288612842
 31
0.0
  0
LINE
  5
143
330
A
100
AcDbEntity
  8
1
  6
AUSGEZOGEN
 62
    14
100
AcDbLine
 10
342.8399316164977
 20
244.0395288612842
 30
0.0
 11
349.8399316164977
 21
237.0395288612842
 31
0.0
  0
LINE
  5
144
330
A
100
AcDbEntity
  8
1
  6
AUSGEZOGEN
 62
    14
100
AcDbLine
 10
351.2399316164976
 20
252.4395288612838
 30
0.0
 11
351.2399316164976
 21
243.6395288612836
 31
0.0
  0
LINE
  5
145
330
A
100
AcDbEntity
  8
1
  6
AUSGEZOGEN
 62
    14
100
AcDbLine
 10
346.2399316164976
 20
252.4395288612838
 30
0.0
 11
346.2399316164976
 21
243.6395288612836
 31
0.0
  0
ELLIPSE
  5
146
330
A
100
AcDbEntity
  8
1
  6
AUSGEZOGEN
 62
    14
100
AcDbEllipse
 10
348.7399316164976
 20
252.4395288612838
 30
0.0
 11
-0.0000000000000006
 21
-3.0
 31
0.0
210
0.0
220
0.0
230
1.0
 40
0.8333333333333333
 41
-4.712388980384689
 42
-1.570796326794896
  0
ELLIPSE
  5
147
330
A
100
AcDbEntity
  8
1
  6
AUSGEZOGEN
 62
    14
100
AcDbEllipse
 10
348.7399316164976
 20
243.6395288612836
 30
0.0
 11
-0.0000000000000006
 21
-3.0
 31
0.0
210
0.0
220
0.0
230
1.0
 40
0.8333333333333333
 41
-1.570796326794896
 42
1.570796326794896
  0
LINE
  5
148
330
A
100
AcDbEntity
  8
1
  6
AUSGEZOGEN
 62
    14
100
AcDbLine
 10
357.8399316164977
 20
259.0395288612842
 30
0.0
 11
357.8399316164977
 21
237.0395288612842
 31
0.0
  0
LINE
  5
149
330
A
100
AcDbEntity
  8
1
  6
AUSGEZOGEN
 62
    14
100
AcDbLine
 10
359.3399316164977
 20
259.0395288612842
 30
0.0
 11
359.3399316164977
 21
237.0395288612842
 31
0.0
  0
ARC
  5
14A
330
A
100
AcDbEntity
  8
1
  6
AUSGEZOGEN
 62
    14
100
AcDbCircle
 10
358.5899316164977
 20
259.0395288612842
 30
0.0
 40
0.7499999999999853
100
AcDbArc
 50
359.9999999999957
 51
90.00000000000868
  0
ARC
  5
14B
330
A
100
AcDbEntity
  8
1
  6
AUSGEZOGEN
 62
    14
100
AcDbCircle
 10
358.5899316164975
 20
259.0395288612842
 30
0.0
 40
0.7499999999999853
100
AcDbArc
 50
89.99999999999131
 51
180.0000000000043
  0
ARC
  5
14C
330
A
100
AcDbEntity
  8
1
  6
AUSGEZOGEN
 62
    14
100
AcDbCircle
 10
358.5899316164977
 20
237.0395288612842
 30
0.0
 40
0.7499999999999853
100
AcDbArc
 50
269.9999999999913
 51
0.0000000000043425
  0
ARC
  5
14D
330
A
100
AcDbEntity
  8
1
  6
AUSGEZOGEN
 62
    14
100
AcDbCircle
 10
358.5899316164975
 20
237.0395288612842
 30
0.0
 40
0.7499999999999853
100
AcDbArc
 50
179.9999999999956
 51
270.0000000000086
  0
LINE
  5
14E
330
A
100
AcDbEntity
  8
1
  6
AUSGEZOGEN
 62
    14
100
AcDbLine
 10
360.3399316164977
 20
259.0395288612842
 30
0.0
 11
360.3399316164977
 21
237.0395288612842
 31
0.0
  0
LINE
  5
14F
330
A
100
AcDbEntity
  8
1
  6
AUSGEZOGEN
 62
    14
100
AcDbLine
 10
360.3399316164977
 20
258.7895288612842
 30
0.0
 11
371.3399316164977
 21
258.7895288612842
 31
0.0
  0
LINE
  5
150
330
A
100
AcDbEntity
  8
1
  6
AUSGEZOGEN
 62
    14
100
AcDbLine
 10
360.3399316164977
 20
237.2895288612842
 30
0.0
 11
371.3399316164977
 21
237.2895288612842
 31
0.0
  0
LINE
  5
151
330
A
100
AcDbEntity
  8
1
  6
AUSGEZOGEN
 62
    14
100
AcDbLine
 10
365.8399316164977
 20
258.7895288612842
 30
0.0
 11
365.8399316164977
 21
237.2895288612842
 31
0.0
  0
LINE
  5
152
330
A
100
AcDbEntity
  8
1
  6
AUSGEZOGEN
 62
    14
100
AcDbLine
 10
366.3399316164977
 20
258.7895288612842
 30
0.0
 11
366.3399316164977
 21
237.2895288612842
 31
0.0
  0
LINE
  5
153
330
A
100
AcDbEntity
  8
1
  6
AUSGEZOGEN
 62
    14
100
AcDbLine
 10
366.8399316164977
 20
258.7895288612842
 30
0.0
 11
366.8399316164977
 21
237.2895288612842
 31
0.0
  0
LINE
  5
154
330
A
100
AcDbEntity
  8
1
  6
AUSGEZOGEN
 62
    14
100
AcDbLine
 10
367.3399316164978
 20
258.7895288612842
 30
0.0
 11
367.3399316164978
 21
237.2895288612842
 31
0.0
  0
LINE
  5
155
330
A
100
AcDbEntity
  8
1
  6
AUSGEZOGEN
 62
    14
100
AcDbLine
 10
367.8399316164977
 20
258.7895288612842
 30
0.0
 11
367.8399316164977
 21
237.2895288612842
 31
0.0
  0
LINE
  5
156
330
A
100
AcDbEntity
  8
1
  6
AUSGEZOGEN
 62
    14
100
AcDbLine
 10
368.3399316164977
 20
258.7895288612842
 30
0.0
 11
368.3399316164977
 21
237.2895288612842
 31
0.0
  0
LINE
  5
157
330
A
100
AcDbEntity
  8
1
  6
AUSGEZOGEN
 62
    14
100
AcDbLine
 10
368.8399316164977
 20
258.7895288612842
 30
0.0
 11
368.8399316164977
 21
237.2895288612842
 31
0.0
  0
LINE
  5
158
330
A
100
AcDbEntity
  8
1
  6
AUSGEZOGEN
 62
    14
100
AcDbLine
 10
369.3399316164978
 20
258.7895288612842
 30
0.0
 11
369.3399316164978
 21
237.2895288612842
 31
0.0
  0
LINE
  5
159
330
A
100
AcDbEntity
  8
1
  6
AUSGEZOGEN
 62
    14
100
AcDbLine
 10
369.8399316164977
 20
258.7895288612842
 30
0.0
 11
369.8399316164977
 21
237.2895288612842
 31
0.0
  0
LINE
  5
15A
330
A
100
AcDbEntity
  8
1
  6
AUSGEZOGEN
 62
    14
100
AcDbLine
 10
370.3399316164977
 20
258.7895288612842
 30
0.0
 11
370.3399316164977
 21
237.2895288612842
 31
0.0
  0
LINE
  5
15B
330
A
100
AcDbEntity
  8
1
  6
AUSGEZOGEN
 62
    14
100
AcDbLine
 10
370.8399316164977
 20
258.7895288612842
 30
0.0
 11
370.8399316164977
 21
237.2895288612842
 31
0.0
  0
LINE
  5
15C
330
A
100
AcDbEntity
  8
1
  6
AUSGEZOGEN
 62
    14
100
AcDbLine
 10
371.3399316164977
 20
258.7895288612842
 30
0.0
 11
371.3399316164977
 21
237.2895288612842
 31
0.0
  0
LINE
  5
15D
330
A
100
AcDbEntity
  8
1
  6
AUSGEZOGEN
 62
    14
100
AcDbLine
 10
371.3399316164977
 20
258.7895288612842
 30
0.0
 11
371.8399316164977
 21
258.2895288612842
 31
0.0
  0
LINE
  5
15E
330
A
100
AcDbEntity
  8
1
  6
AUSGEZOGEN
 62
    14
100
AcDbLine
 10
371.3399316164977
 20
237.2895288612842
 30
0.0
 11
371.8399316164977
 21
237.7895288612842
 31
0.0
  0
LINE
  5
15F
330
A
100
AcDbEntity
  8
1
  6
AUSGEZOGEN
 62
    14
100
AcDbLine
 10
357.3399316164977
 20
174.239528861284
 30
0.0
 11
356.3399316164977
 21
173.239528861284
 31
0.0
  0
LINE
  5
160
330
A
100
AcDbEntity
  8
1
  6
AUSGEZOGEN
 62
    14
100
AcDbLine
 10
357.3399316164977
 20
227.239528861284
 30
0.0
 11
356.3399316164977
 21
228.239528861284
 31
0.0
  0
LINE
  5
161
330
A
100
AcDbEntity
  8
1
  6
AUSGEZOGEN
 62
    14
100
AcDbLine
 10
356.3399316164977
 20
228.239528861284
 30
0.0
 11
356.3399316164977
 21
173.239528861284
 31
0.0
  0
DIMENSION
  5
162
330
A
100
AcDbEntity
  8
5
  6
AUSGEZOGEN
 62
    54
100
AcDbDimension
  2
*D30
 10
357.3399316164977
 20
155.8379763696118
 30
0.0
 11
306.5037084402522
 21
158.9818389700232
 31
0.0
 70
   160
  1
K, K1
 71
     5
 42
98.34999999999986
  3
DIMS0
100
AcDbAlignedDimension
 13
258.9899316164979
 23
178.239528861284
 33
0.0
 14
357.3399316164977
 24
174.239528861284
 34
0.0
100
AcDbRotatedDimension
1001
ACAD
1000
DSTYLE
1002
{
1070
   271
1070
     2
1070
   279
1070
     2
1002
}
  0
DIMENSION
  5
163
330
A
100
AcDbEntity
  8
5
  6
AUSGEZOGEN
 62
    54
100
AcDbDimension
  2
*D31
 10
357.3399316164977
 20
155.8379763696118
 30
0.0
 11
364.2895671274227
 21
159.1830363621523
 31
0.0
 70
   160
  1
14.5
 71
     5
 42
14.5
  3
DIMS0
100
AcDbAlignedDimension
 13
371.8399316164977
 23
237.7895288612842
 33
0.0
 14
357.3399316164977
 24
174.239528861284
 34
0.0
 50
180.0
100
AcDbRotatedDimension
1001
ACAD
1000
DSTYLE
1002
{
1070
   271
1070
     2
1070
   279
1070
     2
1002
}
  0
LINE
  5
164
330
A
100
AcDbEntity
  8
1
  6
AUSGEZOGEN
 62
    14
100
AcDbLine
 10
269.2989332564018
 20
210.739528861284
 30
0.0
 11
269.2989332564018
 21
190.739528861284
 31
0.0
  0
LINE
  5
165
330
A
100
AcDbEntity
  8
1
  6
AUSGEZOGEN
 62
    14
100
AcDbLine
 10
271.2989332564018
 20
188.739528861284
 30
0.0
 11
315.2989332564018
 21
188.739528861284
 31
0.0
  0
LINE
  5
166
330
A
100
AcDbEntity
  8
1
  6
AUSGEZOGEN
 62
    14
100
AcDbLine
 10
317.2989332564018
 20
210.739528861284
 30
0.0
 11
317.2989332564018
 21
190.739528861284
 31
0.0
  0
LINE
  5
167
330
A
100
AcDbEntity
  8
1
  6
AUSGEZOGEN
 62
    14
100
AcDbLine
 10
271.2989332564018
 20
212.739528861284
 30
0.0
 11
315.2989332564018
 21
212.739528861284
 31
0.0
  0
LINE
  5
168
330
A
100
AcDbEntity
  8
1
  6
AUSGEZOGEN
 62
    14
100
AcDbLine
 10
269.2989332564018
 20
200.739528861284
 30
0.0
 11
317.2989332564018
 21
200.739528861284
 31
0.0
  0
LINE
  5
169
330
A
100
AcDbEntity
  8
1
  6
AUSGEZOGEN
 62
    14
100
AcDbLine
 10
291.6463486156091
 20
204.739528861284
 30
0.0
 11
317.2989332564018
 21
204.739528861284
 31
0.0
  0
LINE
  5
16A
330
A
100
AcDbEntity
  8
1
  6
AUSGEZOGEN
 62
    14
100
AcDbLine
 10
291.6463486156091
 20
208.739528861284
 30
0.0
 11
317.2989332564018
 21
208.739528861284
 31
0.0
  0
LINE
  5
16B
330
A
100
AcDbEntity
  8
1
  6
AUSGEZOGEN
 62
    14
100
AcDbLine
 10
269.2989332564018
 20
196.739528861284
 30
0.0
 11
317.2989332564018
 21
196.739528861284
 31
0.0
  0
LINE
  5
16C
330
A
100
AcDbEntity
  8
1
  6
AUSGEZOGEN
 62
    14
100
AcDbLine
 10
269.2989332564018
 20
192.739528861284
 30
0.0
 11
317.2989332564018
 21
192.739528861284
 31
0.0
  0
LINE
  5
16D
330
A
100
AcDbEntity
  8
1
  6
AUSGEZOGEN
 62
    14
100
AcDbLine
 10
285.2989332564018
 20
200.739528861284
 30
0.0
 11
285.2989332564018
 21
188.739528861284
 31
0.0
  0
TEXT
  5
16E
330
A
100
AcDbEntity
  8
1
  6
AUSGEZOGEN
 62
    14
100
AcDbText
 10
283.8173992486527
 20
189.7395288612839
 30
0.0
 40
2.0
  1
A
 41
0.4409722149372101
  7
ARIAL
100
AcDbText
  0
TEXT
  5
16F
330
A
100
AcDbEntity
  8
1
  6
AUSGEZOGEN
 62
    14
100
AcDbText
 10
282.4502603902127
 20
197.7395288612839
 30
0.0
 40
2.0
  1
kW
 41
0.4409722149372101
  7
ARIAL
100
AcDbText
  0
LINE
  5
170
330
A
100
AcDbEntity
  8
1
  6
AUSGEZOGEN
 62
    14
100
AcDbLine
 10
291.6463486156091
 20
212.739528861284
 30
0.0
 11
291.6463486156091
 21
200.739528861284
 31
0.0
  0
TEXT
  5
171
330
A
100
AcDbEntity
  8
1
  6
AUSGEZOGEN
 62
    14
100
AcDbText
 10
292.083525184561
 20
201.7395288612839
 30
0.0
 40
2.0
  1
Id.-No.:
 41
0.4409722089767456
  7
ARIAL
100
AcDbText
  0
TEXT
  5
172
330
A
100
AcDbEntity
  8
1
  6
AUSGEZOGEN
 62
    14
100
AcDbText
 10
292.164360849762
 20
209.7395288612839
 30
0.0
 40
2.0
  1
Ser.-No.:
 41
0.4409722089767456
  7
ARIAL
100
AcDbText
  0
TEXT
  5
173
330
A
100
AcDbEntity
  8
1
  6
AUSGEZOGEN
 62
    14
100
AcDbText
 10
292.0872115472997
 20
205.7395288612839
 30
0.0
 40
2.0
  1
Typ: DSD
 41
0.4409722089767456
  7
ARIAL
100
AcDbText
  0
LINE
  5
174
330
A
100
AcDbEntity
  8
1
  6
AUSGEZOGEN
 62
    14
100
AcDbLine
 10
297.90286389224
 20
200.739528861284
 30
0.0
 11
297.90286389224
 21
188.739528861284
 31
0.0
  0
ARC
  5
175
330
A
100
AcDbEntity
  8
1
  6
AUSGEZOGEN
 62
    14
100
AcDbCircle
 10
315.2989332564018
 20
210.739528861284
 30
0.0
 40
2.0
100
AcDbArc
 50
0.0
 51
90.0
  0
ARC
  5
176
330
A
100
AcDbEntity
  8
1
  6
AUSGEZOGEN
 62
    14
100
AcDbCircle
 10
271.2989332564018
 20
210.739528861284
 30
0.0
 40
2.0
100
AcDbArc
 50
90.0
 51
180.0
  0
ARC
  5
177
330
A
100
AcDbEntity
  8
1
  6
AUSGEZOGEN
 62
    14
100
AcDbCircle
 10
271.2989332564018
 20
190.739528861284
 30
0.0
 40
2.0
100
AcDbArc
 50
180.0
 51
270.0
  0
ARC
  5
178
330
A
100
AcDbEntity
  8
1
  6
AUSGEZOGEN
 62
    14
100
AcDbCircle
 10
315.2989332564018
 20
190.739528861284
 30
0.0
 40
2.0
100
AcDbArc
 50
270.0
 51
0.0
  0
TEXT
  5
179
330
A
100
AcDbEntity
  8
1
  6
AUSGEZOGEN
 62
    14
100
AcDbText
 10
270.5489332564018
 20
197.7395288612839
 30
0.0
 40
2.0
  1
P=
 41
0.4409722089767456
  7
ARIAL
100
AcDbText
  0
TEXT
  5
17A
330
A
100
AcDbEntity
  8
1
  6
AUSGEZOGEN
 62
    14
100
AcDbText
 10
270.5489332564018
 20
189.7395288612839
 30
0.0
 40
2.0
  1
Io=
 41
0.4409722089767456
  7
ARIAL
100
AcDbText
  0
TEXT
  5
17B
330
A
100
AcDbEntity
  8
1
  6
AUSGEZOGEN
 62
    14
100
AcDbText
 10
285.7128633637697
 20
193.7395288612839
 30
0.0
 40
2.0
  1
U=
 41
0.4409722149372101
  7
ARIAL
100
AcDbText
  0
TEXT
  5
17C
330
A
100
AcDbEntity
  8
1
  6
AUSGEZOGEN
 62
    14
100
AcDbText
 10
308.2338144366977
 20
197.7395288612839
 30
0.0
 40
2.0
  1
Ins.-Cl. F
 41
0.4409722149372101
  7
ARIAL
100
AcDbText
  0
TEXT
  5
17D
330
A
100
AcDbEntity
  8
1
  6
AUSGEZOGEN
 62
    14
100
AcDbText
 10
298.5842867095252
 20
197.7395288612839
 30
0.0
 40
2.0
  1
VDE 0530
 41
0.4409722149372101
  7
ARIAL
100
AcDbText
  0
TEXT
  5
17E
330
A
100
AcDbEntity
  8
1
  6
AUSGEZOGEN
 62
    14
100
AcDbText
 10
292.1629260489139
 20
189.7395288612839
 30
0.0
 40
2.0
  1
S
 41
0.4409722149372101
  7
ARIAL
100
AcDbText
  0
LINE
  5
17F
330
A
100
AcDbEntity
  8
1
  6
AUSGEZOGEN
 62
    14
100
AcDbLine
 10
291.6463486156091
 20
192.739528861284
 30
0.0
 11
291.6463486156091
 21
188.739528861284
 31
0.0
  0
TEXT
  5
180
330
A
100
AcDbEntity
  8
1
  6
AUSGEZOGEN
 62
    14
100
AcDbText
 10
285.8231475323601
 20
189.7395288612839
 30
0.0
 40
2.0
  1
IP
 41
0.4409722089767456
  7
ARIAL
100
AcDbText
  0
LINE
  5
181
330
A
100
AcDbEntity
  8
1
  6
AUSGEZOGEN
 62
    14
100
AcDbLine
 10
307.1961538164948
 20
200.739528861284
 30
0.0
 11
307.1961538164948
 21
196.739528861284
 31
0.0
  0
TEXT
  5
182
330
A
100
AcDbEntity
  8
1
  6
AUSGEZOGEN
 62
    14
100
AcDbText
 10
270.2478876577915
 20
193.7395288612839
 30
0.0
 40
2.0
  1
Mo=
 41
0.4409722149372101
  7
ARIAL
100
AcDbText
  0
TEXT
  5
183
330
A
100
AcDbEntity
  8
1
  6
AUSGEZOGEN
 62
    14
100
AcDbText
 10
282.4139537662178
 20
193.7395288612839
 30
0.0
 40
2.0
  1
Nm
 41
0.4409722149372101
  7
ARIAL
100
AcDbText
  0
TEXT
  5
184
330
A
100
AcDbEntity
  8
1
  6
AUSGEZOGEN
 62
    14
100
AcDbText
 10
285.7493791717018
 20
197.7395288612839
 30
0.0
 40
2.0
  1
n=
 41
0.4409722089767456
  7
ARIAL
100
AcDbText
  0
TEXT
  5
185
330
A
100
AcDbEntity
  8
1
  6
AUSGEZOGEN
 62
    14
100
AcDbText
 10
293.5045472706415
 20
197.7395288612839
 30
0.0
 40
2.0
  1
min
 41
0.4409722149372101
  7
ARIAL
100
AcDbText
  0
TEXT
  5
186
330
A
100
AcDbEntity
  8
1
  6
AUSGEZOGEN
 62
    14
100
AcDbText
 10
296.2200789902426
 20
198.9148038601018
 30
0.0
 40
1.222940870908461
  1
-1
 41
0.5312124813462212
  7
ARIAL
100
AcDbText
  0
TEXT
  5
187
330
A
100
AcDbEntity
  8
1
  6
AUSGEZOGEN
 62
    14
100
AcDbText
 10
293.8537777799823
 20
193.7395288612839
 30
0.0
 40
2.0
  1
VDC
 41
0.4409722149372101
  7
ARIAL
100
AcDbText
  0
LINE
  5
188
330
A
100
AcDbEntity
  8
1
  6
AUSGEZOGEN
 62
    14
100
AcDbLine
 10
240.9899316164979
 20
206.4395288612839
 30
0.0
 11
254.9899316164979
 21
206.4395288612839
 31
0.0
  0
LINE
  5
189
330
A
100
AcDbEntity
  8
1
  6
AUSGEZOGEN
 62
    14
100
AcDbLine
 10
240.9899316164979
 20
205.239528861284
 30
0.0
 11
240.9899316164979
 21
206.4395288612839
 31
0.0
  0
LINE
  5
18A
330
A
100
AcDbEntity
  8
1
  6
AUSGEZOGEN
 62
    14
100
AcDbLine
 10
254.9899316164979
 20
205.239528861284
 30
0.0
 11
254.9899316164979
 21
206.4395288612839
 31
0.0
  0
LINE
  5
18B
330
A
100
AcDbEntity
  8
1
  6
AUSGEZOGEN
 62
    14
100
AcDbLine
 10
478.1485793228037
 20
206.4395288612839
 30
0.0
 11
475.1485793228038
 21
206.4395288612839
 31
0.0
  0
LINE
  5
18C
330
A
100
AcDbEntity
  8
1
  6
AUSGEZOGEN
 62
    14
100
AcDbLine
 10
475.1485793228038
 20
204.9821695484033
 30
0.0
 11
475.1485793228038
 21
206.4395288612839
 31
0.0
  0
LINE
  5
18D
330
A
100
AcDbEntity
  8
1
  6
AUSGEZOGEN
 62
    14
100
AcDbLine
 10
478.1485793228037
 20
204.9821695484033
 30
0.0
 11
478.1485793228037
 21
206.4395288612839
 31
0.0
  0
DIMENSION
  5
18E
330
A
100
AcDbEntity
  8
5
  6
AUSGEZOGEN
 62
    54
100
AcDbDimension
  2
*D32
 10
238.9899316164979
 20
213.484960841577
 30
0.0
 11
233.4156722106559
 21
216.5242440307949
 31
0.0
 70
   160
  1
2
 71
     5
 42
2.0
  3
DIMS0
100
AcDbAlignedDimension
 13
240.9899316164979
 23
206.4395288612839
 33
0.0
 14
238.9899316164979
 24
204.9395288612839
 34
0.0
 50
180.0
100
AcDbRotatedDimension
1001
ACAD
1000
DSTYLE
1002
{
1070
   271
1070
     2
1070
   279
1070
     2
1002
}
  0
DIMENSION
  5
18F
330
A
100
AcDbEntity
  8
5
  6
AUSGEZOGEN
 62
    54
100
AcDbDimension
  2
*D33
 10
254.9899316164979
 20
213.484960841577
 30
0.0
 11
248.1138164510077
 21
216.5242440307949
 31
0.0
 70
   160
  1
14
 71
     5
 42
14.0
  3
DIMS0
100
AcDbAlignedDimension
 13
240.9899316164979
 23
206.4395288612839
 33
0.0
 14
254.9899316164979
 24
206.4395288612839
 34
0.0
100
AcDbRotatedDimension
1001
ACAD
1000
DSTYLE
1002
{
1070
   271
1070
     2
1070
   279
1070
     2
1002
}
  0
DIMENSION
  5
190
330
A
100
AcDbEntity
  8
5
  6
AUSGEZOGEN
 62
    54
100
AcDbDimension
  2
*D34
 10
478.1485793228037
 20
208.3339272207042
 30
0.0
 11
482.9390177472289
 21
210.97912384807
 31
0.0
 70
   160
  1
3
 71
     5
 42
3.0
  3
DIMS0
100
AcDbAlignedDimension
 13
475.1485793228038
 23
206.4395288612839
 33
0.0
 14
478.1485793228037
 24
206.4395288612839
 34
0.0
100
AcDbRotatedDimension
1001
ACAD
1000
DSTYLE
1002
{
1070
   271
1070
     2
1070
   279
1070
     2
1002
}
  0
TEXT
  5
191
330
A
100
AcDbEntity
  8
5
  6
AUSGEZOGEN
 62
     9
100
AcDbText
 10
195.2416228831071
 20
210.7183285497213
 30
0.0
 40
2.0
  1
  0
 41
0.7000000029802323
100
AcDbText
  0
TEXT
  5
192
330
A
100
AcDbEntity
  8
5
  6
AUSGEZOGEN
 62
     9
100
AcDbText
 10
195.3384627878923
 20
206.8428250096823
 30
0.0
 40
2.0
  1
- 9
 41
0.7000000029802323
100
AcDbText
  0
TEXT
  5
194
330
A
100
AcDbEntity
  8
5
  6
AUSGEZOGEN
 62
   214
100
AcDbText
 10
177.788007948888
 20
208.0760372899557
 30
0.0
 40
3.0
  1
  9
 41
0.7333333492279053
100
AcDbText
  0
TEXT
  5
195
330
A
100
AcDbEntity
  8
5
  6
AUSGEZOGEN
 62
     9
100
AcDbText
 10
195.2416228831071
 20
200.8683377049948
 30
0.0
 40
2.0
  1
+11
 41
0.7000000029802323
100
AcDbText
  0
TEXT
  5
196
330
A
100
AcDbEntity
  8
5
  6
AUSGEZOGEN
 62
     9
100
AcDbText
 10
195.3384627878923
 20
196.9928341649557
 30
0.0
 40
2.0
  1
- 5
 41
0.7000000029802323
100
AcDbText
  0
TEXT
  5
198
330
A
100
AcDbEntity
  8
5
  6
AUSGEZOGEN
 62
   214
100
AcDbText
 10
177.788007948888
 20
198.2260464452291
 30
0.0
 40
3.0
  1
 40
 41
0.7333333492279053
100
AcDbText
  0
DIMENSION
  5
199
330
A
100
AcDbEntity
  8
5
  6
AUSGEZOGEN
 62
    54
100
AcDbDimension
  2
*D35
 10
258.9899316164979
 20
237.2540188901745
 30
0.0
 11
289.1880860010253
 21
241.0703048327659
 31
0.0
 70
   160
  1
59
 71
     5
 42
59.44999999999976
  3
DIMS0
100
AcDbAlignedDimension
 13
318.4399316164976
 23
228.239528861284
 33
0.0
 14
258.9899316164979
 24
223.239528861284
 34
0.0
 50
180.0
100
AcDbRotatedDimension
1001
ACAD
1000
DSTYLE
1002
{
1070
   271
1070
     2
1070
   279
1070
     2
1002
}
  0
DIMENSION
  5
19A
330
A
100
AcDbEntity
  8
3
  6
AUSGEZOGEN
 62
    54
100
AcDbDimension
  2
*D36
 10
496.8069216169958
 20
275.9714864995716
 30
0.0
 11
476.6485793228041
 21
278.6253826098237
 31
0.0
 70
    37
  1
4x90°
 71
     5
 42
1.570796326794899
 53
2.898743179016962
  3
DIMS0
100
AcDb3PointAngularDimension
 13
499.4299589818711
 23
223.5209085203513
 33
0.0
 14
453.8041419504639
 24
223.5839662336238
 34
0.0
 15
476.6485793228034
 25
200.739528861284
 35
0.0
1001
ACAD
1000
DSTYLE
1002
{
1070
   271
1070
     2
1002
}
  0
TEXT
  5
19C
330
A
100
AcDbEntity
  8
4
  6
AUSGEZOGEN
 62
    94
100
AcDbText
 10
231.7833677437783
 20
297.347877298886
 30
0.0
 40
5.0
  1
Spez.: Key / Encoder M15 / Housing IP65 / Shaft IP44
 41
0.6800000190734864
100
AcDbText
  0
DIMENSION
  5
19D
330
A
100
AcDbEntity
  8
5
  6
AUSGEZOGEN
 62
    54
100
AcDbDimension
  2
*D37
 10
511.9879411709436
 20
206.4395288612839
 30
0.0
 11
508.5592820408447
 21
201.2545124346661
 31
0.0
 70
   160
  1
10.2
 71
     5
 42
10.19999999999993
 53
90.0
  3
DIMS0
100
AcDbAlignedDimension
 13
476.6485793228038
 23
196.239528861284
 33
0.0
 14
478.1485793228037
 24
206.4395288612839
 34
0.0
 50
90.0
100
AcDbRotatedDimension
1001
ACAD
1000
DSTYLE
1002
{
1070
   271
1070
     2
1070
   279
1070
     2
1002
}
  0
CIRCLE
  5
19E
330
A
100
AcDbEntity
  8
0
  6
ByBlock
 62
     0
100
AcDbCircle
 10
326.1515164389249
 20
220.4091981132074
 30
0.0
 40
0.5
  0
POLYLINE
  5
19F
330
A
100
AcDbEntity
  8
0
  6
AUSGEZOGEN
 62
     9
100
AcDb2dPolyline
 66
     1
 10
0.0
 20
0.0
 30
0.0
  0
VERTEX
  5
1A0
330
19F
100
AcDbEntity
  8
0
  6
AUSGEZOGEN
 62
     9
100
AcDbVertex
100
AcDb2dVertex
 10
326.1515164389249
 20
220.4091981132074
 30
0.0
  0
VERTEX
  5
1A1
330
19F
100
AcDbEntity
  8
0
  6
AUSGEZOGEN
 62
     9
100
AcDbVertex
100
AcDb2dVertex
 10
307.6070389055694
 20
277.0695754716981
 30
0.0
  0
VERTEX
  5
1A2
330
19F
100
AcDbEntity
  8
0
  6
AUSGEZOGEN
 62
     9
100
AcDbVertex
100
AcDb2dVertex
 10
294.7921051384154
 20
277.0618658775358
 30
0.0
  0
SEQEND
  5
1A3
330
19F
100
AcDbEntity
  8
0
  6
AUSGEZOGEN
 62
     9
  0
TEXT
  5
1A4
330
A
100
AcDbEntity
  8
4
  6
AUSGEZOGEN
 62
    94
100
AcDbText
 10
294.684049081756
 20
278.4539315592732
 30
0.0
 40
5.0
  1
IP65
 41
0.6800000190734864
100
AcDbText
  0
INSERT
  5
59F
330
A
100
AcDbEntity
  8
0
  6
Continuous
370
     0
100
AcDbBlockReference
 66
     1
  2
METRIC_C
 10
0.0
 20
0.0
 30
0.0
  0
ATTRIB
  5
5A1
330
59F
100
AcDbEntity
  8
TITLE BLOCK
  6
Continuous
100
AcDbText
 10
442.5949999999999
 20
41.63140361642906
 30
0.0
 40
2.566953004259999
  1
G. MUMM
  7
STANDARD
100
AcDbAttribute
  2
GEN-TITLE-NAME{5}
 70
     0
  0
ATTRIB
  5
5A2
330
59F
100
AcDbEntity
  8
TITLE BLOCK
  6
Continuous
100
AcDbText
 10
442.5949999999999
 20
35.28140361642906
 30
0.0
 40
2.566953004259999
  1

  7
STANDARD
100
AcDbAttribute
  2
GEN-TITLE-CHKM{5}
 70
     0
  0
ATTRIB
  5
5A3
330
59F
100
AcDbEntity
  8
TITLE BLOCK
  6
Continuous
100
AcDbText
 10
442.5949999999999
 20
28.93140361642906
 30
0.0
 40
2.566953004259999
  1

  7
STANDARD
100
AcDbAttribute
  2
GEN-TITLE-APPM{5}
 70
     0
  0
ATTRIB
  5
5A4
330
59F
100
AcDbEntity
  8
TITLE BLOCK
  6
Continuous
100
AcDbText
 10
399.5328167271718
 20
15.32015091637034
 30
0.0
 40
4.059999999999999
  1
SERVO MOTOR, LSM54
 41
0.8
  7
STANDARD
100
AcDbAttribute
  2
GEN-TITLE-DES1{15.54}
 70
     0
  0
ATTRIB
  5
5A5
330
59F
100
AcDbEntity
  8
TITLE BLOCK
  6
Continuous
100
AcDbText
 10
530.8599999999999
 20
28.93140361642906
 30
0.0
 40
2.999484585477809
  1
1
 41
0.8
  7
STANDARD
100
AcDbAttribute
  2
GEN-TITLE-SHEET-OF{2.62}
 70
     0
  0
ATTRIB
  5
5A6
330
59F
100
AcDbEntity
  8
TITLE BLOCK
  6
Continuous
100
AcDbText
 10
520.6999999999999
 20
28.93140361642906
 30
0.0
 40
2.999484585477809
  1
1
 41
0.8
  7
STANDARD
100
AcDbAttribute
  2
GEN-TITLE-SHEET{2.62}
 70
     0
  0
ATTRIB
  5
5A7
330
59F
100
AcDbEntity
  8
TITLE BLOCK
  6
Continuous
100
AcDbText
 10
481.3299999999999
 20
28.93140361642906
 30
0.0
 40
2.566953004259999
  1

 41
0.8
  7
STANDARD
100
AcDbAttribute
  2
GEN-TITLE-MAT{11.15}
 70
     0
  0
ATTRIB
  5
5A8
330
59F
100
AcDbEntity
  8
TITLE BLOCK
  6
Continuous
100
AcDbText
 10
481.3299999999999
 20
35.28140361642906
 30
0.0
 40
2.566953004259999
  1

  7
STANDARD
100
AcDbAttribute
  2
GEN-TITLE-MACH{5}
 70
     0
  0
ATTRIB
  5
5A9
330
59F
100
AcDbEntity
  8
TITLE BLOCK
  6
Continuous
100
AcDbText
 10
481.3299999999999
 20
41.63140361642906
 30
0.0
 40
2.566953004259999
  1
M0220004A
  7
STANDARD
100
AcDbAttribute
  2
GEN-TITLE-REF{5}
 70
     0
  0
ATTRIB
  5
5AA
330
59F
100
AcDbEntity
  8
TITLE BLOCK
  6
Continuous
100
AcDbText
 10
518.7949999999998
 20
35.28140361642906
 30
0.0
 40
2.566953004259999
  1
10.01.03
  7
STANDARD
100
AcDbAttribute
  2
GEN-TITLE-PLOT{5}
 70
     0
  0
ATTRIB
  5
5AB
330
59F
100
AcDbEntity
  8
TITLE BLOCK
  6
Continuous
100
AcDbText
 10
474.6631418566855
 20
15.59640361642906
 30
0.0
 40
4.059999999999999
  1
LSM54-3-602-E1-xKA
 41
0.8
  7
STANDARD
100
AcDbAttribute
  2
GEN-TITLE-NR{13.37}
 70
     0
  0
SEQEND
  5
5A0
330
59F
100
AcDbEntity
  8
0
  6
Continuous
370
     0
  0
LINE
  5
860
330
A
100
AcDbEntity
  8
0
  6
Continuous
 62
     1
370
     0
100
AcDbLine
 10
177.0
 20
214.0
 30
0.0
 11
202.0
 21
214.0
 31
0.0
  0
LINE
  5
861
330
A
100
AcDbEntity
  8
0
  6
Continuous
 62
     1
370
     0
100
AcDbLine
 10
202.0
 20
214.0
 30
0.0
 11
202.0
 21
196.0
 31
0.0
  0
LINE
  5
862
330
A
100
AcDbEntity
  8
0
  6
Continuous
 62
     1
370
     0
100
AcDbLine
 10
202.0
 20
196.0
 30
0.0
 11
177.0
 21
196.0
 31
0.0
  0
LINE
  5
863
330
A
100
AcDbEntity
  8
0
  6
Continuous
 62
     1
370
     0
100
AcDbLine
 10
177.0
 20
196.0
 30
0.0
 11
177.0
 21
214.0
 31
0.0
  0
LINE
  5
864
330
A
100
AcDbEntity
  8
0
  6
Continuous
 62
     1
370
     0
100
AcDbLine
 10
177.0
 20
205.0
 30
0.0
 11
202.0
 21
205.0
 31
0.0
  0
LINE
  5
865
330
A
100
AcDbEntity
  8
0
  6
Continuous
 62
     1
370
     0
100
AcDbLine
 10
190.0
 20
214.0
 30
0.0
 11
190.0
 21
196.0
 31
0.0
  0
LINE
  5
8C2
330
A
100
AcDbEntity
  8
0
  6
Continuous
 62
     1
370
     0
100
AcDbLine
 10
262.0
 20
114.0
 30
0.0
 11
353.0
 21
114.0
 31
0.0
  0
LINE
  5
8C3
330
A
100
AcDbEntity
  8
0
  6
Continuous
 62
     1
370
     0
100
AcDbLine
 10
262.0
 20
123.0
 30
0.0
 11
353.0
 21
123.0
 31
0.0
  0
LINE
  5
8C4
330
A
100
AcDbEntity
  8
0
  6
Continuous
 62
     1
370
     0
100
AcDbLine
 10
353.0
 20
105.0
 30
0.0
 11
262.0
 21
105.0
 31
0.0
  0
LINE
  5
8C5
330
A
100
AcDbEntity
  8
0
  6
Continuous
 62
     1
370
     0
100
AcDbLine
 10
262.0
 20
131.0
 30
0.0
 11
353.0
 21
131.0
 31
0.0
  0
TEXT
  5
8C6
330
A
100
AcDbEntity
  8
1
  6
AUSGEZOGEN
 62
    14
100
AcDbText
 10
267.3161534805146
 20
116.2759505768924
 30
0.0
 40
4.0
  1
LSM54-3-602-E1-0/2KA  99  137
 41
0.7333333492279053
100
AcDbText
  0
TEXT
  5
8C8
330
A
100
AcDbEntity
  8
1
  6
AUSGEZOGEN
 62
    14
100
AcDbText
 10
267.3161534805146
 20
125.2759505768924
 30
0.0
 40
4.0
  1
Typ                   K1  K
 41
0.7333333492279053
100
AcDbText
  0
TEXT
  5
8C9
330
A
100
AcDbEntity
  8
1
  6
AUSGEZOGEN
 62
    14
100
AcDbText
 10
263.7365989935584
 20
90.75489636690551
 30
0.0
 40
4.0
  1
K  = with Encoder M15 and Brake
 41
0.7333333492279053
100
AcDbText
  0
TEXT
  5
8CA
330
A
100
AcDbEntity
  8
1
  6
AUSGEZOGEN
 62
    14
100
AcDbText
 10
263.7365989935584
 20
97.55489643843109
 30
0.0
 40
4.0
  1
K1 = with Encoder M15
 41
0.7333333492279053
100
AcDbText
  0
LINE
  5
8CB
330
A
100
AcDbEntity
  8
0
  6
Continuous
 62
     1
370
     0
100
AcDbLine
 10
262.0
 20
105.0
 30
0.0
 11
262.0
 21
131.0
 31
0.0
  0
LINE
  5
8CC
330
A
100
AcDbEntity
  8
0
  6
Continuous
 62
     1
370
     0
100
AcDbLine
 10
339.0
 20
131.0
 30
0.0
 11
339.0
 21
105.0
 31
0.0
  0
LINE
  5
8CD
330
A
100
AcDbEntity
  8
0
  6
Continuous
 62
     1
370
     0
100
AcDbLine
 10
325.0
 20
131.0
 30
0.0
 11
325.0
 21
105.0
 31
0.0
  0
LINE
  5
8CE
330
A
100
AcDbEntity
  8
0
  6
Continuous
 62
     1
370
     0
100
AcDbLine
 10
353.0
 20
131.0
 30
0.0
 11
353.0
 21
105.0
 31
0.0
  0
ENDSEC
  0
SECTION
  2
OBJECTS
  0
DICTIONARY
  5
19
330
0
100
AcDbDictionary
281
     1
  3
ACAD_GROUP
350
1A
  3
ACAD_LAYOUT
350
1E
  3
ACAD_MLINESTYLE
350
1B
  3
ACAD_PLOTSETTINGS
350
22
  3
ACAD_PLOTSTYLENAME
350
1F
  3
ACAD_WIPEOUT_VARS
350
23
  3
AcDbVariableDictionary
350
41E
  3
AcmDictionary
350
431
  3
AMG
350
415
  3
AMGSNAPSETTINGS
350
466
  3
ASE_INDEX_DICTIONARY
350
6D0
  3
DWGPROPS
350
8E5
  0
DICTIONARY
  5
6D3
330
A
100
AcDbDictionary
280
     1
281
     1
  3
ACAD_INDEX
360
6D4
  0
DICTIONARY
  5
1A
102
{ACAD_REACTORS
330
19
102
}
330
19
100
AcDbDictionary
281
     1
  0
DICTIONARY
  5
1E
102
{ACAD_REACTORS
330
19
102
}
330
19
100
AcDbDictionary
281
     1
  3
Layout1
350
21
  3
Model
350
20
  0
DICTIONARY
  5
1B
102
{ACAD_REACTORS
330
19
102
}
330
19
100
AcDbDictionary
281
     1
  3
Standard
350
1C
  0
DICTIONARY
  5
22
102
{ACAD_REACTORS
330
19
102
}
330
19
100
AcDbDictionary
281
     1
  0
ACDBDICTIONARYWDFLT
  5
1F
102
{ACAD_REACTORS
330
19
102
}
330
19
100
AcDbDictionary
281
     1
  3
Normal
350
1D
100
AcDbDictionaryWithDefault
340
1D
  0
ACAD_PROXY_OBJECT
  5
23
330
19
100
AcDbProxyObject
 90
      499
 91
      521
 95
   655383
 70
     0
 93
       10
310
4041
 94
        0
  0
DICTIONARY
  5
41E
102
{ACAD_REACTORS
330
19
102
}
330
19
100
AcDbDictionary
281
     1
  3
INDEXCTL
350
41F
  0
DICTIONARY
  5
431
102
{ACAD_REACTORS
330
19
102
}
330
19
100
AcDbDictionary
281
     1
  3
AcmBOMDATA
350
432
  3
AcmStdDictionary
350
437
  0
DICTIONARY
  5
415
102
{ACAD_REACTORS
330
19
102
}
330
19
100
AcDbDictionary
281
     1
  3
AcMgSettings
350
416
  3
AMGLAYCFG
350
439
  0
DICTIONARY
  5
466
102
{ACAD_REACTORS
330
19
102
}
330
19
100
AcDbDictionary
281
     1
  3
DIMENSION
350
46B
  3
FEA
350
46A
  3
HATCH (1)
350
467
  3
HATCH (2)
350
468
  3
SIMPLE WELD
350
46C
  3
SYMBOLS
350
469
  0
DICTIONARY
  5
6D0
102
{ACAD_REACTORS
330
19
102
}
330
19
100
AcDbDictionary
281
     1
  3
ASEBlockHierarchyIndexRecord
350
6D2
1001
DCO15
1040
1456122189.313999
  0
XRECORD
  5
8E5
102
{ACAD_REACTORS
330
19
102
}
330
19
100
AcDbXrecord
280
     1
  1
DWGPROPS COOKIE
  2

  3

  4

  6

  7

  8

  9

300
AmdtFileType=84
301
=
302
=
303
=
304
=
305
=
306
=
307
=
308
=
309
=
 40
0.0456329976851852
 41
2452650.355663668
 42
2452656.395810544
  1

 90
        1
  0
DICTIONARY
  5
6D4
102
{ACAD_REACTORS
330
6D3
102
}
330
6D3
100
AcDbDictionary
281
     1
  3
*A1
350
6D5
  0
LAYOUT
  5
21
102
{ACAD_REACTORS
330
1E
102
}
330
1E
100
AcDbPlotSettings
  1

  2

  4

  6

 40
0.0
 41
0.0
 42
0.0
 43
0.0
 44
0.0
 45
0.0
 46
0.0
 47
0.0
 48
0.0
 49
0.0
140
0.0
141
0.0
142
1.0
143
1.0
 70
     0
 72
     0
 73
     0
 74
     0
  7
monochrome.ctb
 75
     0
147
1.0
148
0.0
149
0.0
100
AcDbLayout
  1
Layout1
 70
     0
 71
     1
 10
0.0
 20
0.0
 11
12.0
 21
9.0
 12
0.0
 22
0.0
 32
0.0
 14
1.000000000000000E+20
 24
1.000000000000000E+20
 34
1.000000000000000E+20
 15
-1.000000000000000E+20
 25
-1.000000000000000E+20
 35
-1.000000000000000E+20
146
0.0
 13
0.0
 23
0.0
 33
0.0
 16
1.0
 26
0.0
 36
0.0
 17
0.0
 27
1.0
 37
0.0
 76
     0
330
B
  0
LAYOUT
  5
20
102
{ACAD_REACTORS
330
1E
102
}
330
1E
100
AcDbPlotSettings
  1

  2
\\Fdlfs06\Engineering - HP LaserJet 5Si MX
  4
Letter
  6

 40
7.143749713897705
 41
6.974400997161865
 42
7.14373779296875
 43
6.297088623046875
 44
215.8999938964843
 45
279.3999938964843
 46
0.0
 47
0.762
 48
0.0
 49
0.0
140
0.0
141
0.0
142
1.0
143
53.62314745158769
 70
 11444
 72
     0
 73
     1
 74
     1
  7
monochrome.ctb
 75
     0
147
0.0186486628913908
148
1.313752392227206
149
-4.455021436936385
100
AcDbLayout
  1
Model
 70
     0
 71
     0
 10
0.0
 20
0.0
 11
0.0
 21
0.0
 12
0.0
 22
0.0
 32
0.0
 14
0.0
 24
0.0
 34
0.0
 15
0.0
 25
0.0
 35
0.0
146
0.0
 13
0.0
 23
0.0
 33
0.0
 16
0.0
 26
0.0
 36
0.0
 17
0.0
 27
0.0
 37
0.0
 76
     0
330
A
  0
MLINESTYLE
  5
1C
102
{ACAD_REACTORS
330
1B
102
}
330
1B
100
AcDbMlineStyle
  2
STANDARD
 70
     0
  3

 62
     0
 51
90.0
 52
90.0
 71
     2
 49
0.5
 62
   256
  6
BYLAYER
 49
-0.5
 62
   256
  6
BYLAYER
  0
ACDBPLACEHOLDER
  5
1D
102
{ACAD_REACTORS
330
1F
102
}
330
1F
  0
DICTIONARYVAR
  5
41F
102
{ACAD_REACTORS
330
41E
102
}
330
41E
100
DictionaryVariables
280
     0
  1
1
  0
ACMDATADICTIONARY
  5
432
102
{ACAD_REACTORS
330
431
102
}
330
431
100
AcDbDictionary
281
     1
  3
*A1
350
433
100
AcmDataDictionary
  0
DICTIONARY
  5
437
102
{ACAD_REACTORS
330
431
102
}
330
431
100
AcDbDictionary
281
     1
  3
ANSI
350
438
  0
DICTIONARY
  5
416
102
{ACAD_REACTORS
330
415
102
}
330
415
100
AcDbDictionary
281
     1
  3
DWGSETTINGS
350
417
  3
TRANSSETTINGS
350
418
  0
ACAMGFILTERDAT
  5
46B
102
{ACAD_REACTORS
330
466
102
}
330
466
100
AcAmgFilterDat
 70
    15
  1
DIMENSION,AMDT_*_DIM
  2
*
  3
*
  4
*
  5
*
290
     1
  0
ACAMGFILTERDAT
  5
46A
102
{ACAD_REACTORS
330
466
102
}
330
466
100
AcAmgFilterDat
 70
    15
  1
*
  2
AM_FEA-AM_*
  3
*
  4
*
  5
*
290
     1
  0
ACAMGFILTERDAT
  5
467
102
{ACAD_REACTORS
330
466
102
}
330
466
100
AcAmgFilterDat
 70
    15
  1
HATCH
  2
*
  3
*
  4
*
  5
*
290
     1
  0
ACAMGFILTERDAT
  5
468
102
{ACAD_REACTORS
330
466
102
}
330
466
100
AcAmgFilterDat
 70
    15
  1
LINE
  2
8,8N,*-8,*-8N,AM_8,AM_8N,*-AM_8,*-AM_8N
  3
*
  4
*
  5
INSERT,STDPART2D
290
     1
  0
ACAMGFILTERDAT
  5
46C
102
{ACAD_REACTORS
330
466
102
}
330
466
100
AcAmgFilterDat
 70
    15
  1
ARC
  2
AM_5
  3
*
  4
2
  5
INSERT
290
     0
  0
ACAMGFILTERDAT
  5
469
102
{ACAD_REACTORS
330
466
102
}
330
466
100
AcAmgFilterDat
 70
    15
  1
ACMFCFRAME,ACMDATUMTARGET,ACMDATUMID,ACMWELDSYM,ACMSURFSYM,ACMFEATID,ACMPARTREF,ACMBALLOON,AMDTEDGESYM
  2
*
  3
*
  4
*
  5
*
290
     1
  0
XRECORD
  5
6D2
102
{ACAD_REACTORS
330
6D0
102
}
330
6D0
100
AcDbXrecord
280
     1
330
59F
330
57
330
58
330
59
330
5A
330
5B
330
5C
330
5D
330
5E
330
5F
330
60
330
61
330
62
330
63
330
64
330
65
  0
LAYER_INDEX
  5
6D5
102
{ACAD_REACTORS
330
6D4
102
}
330
6D4
100
AcDbIndex
 40
2452656.477931875
100
AcDbLayerIndex
  8
0
360
6D6
 90
       34
  8
1
360
6D7
 90
      210
  8
2
360
6D8
 90
        0
  8
3
360
6D9
 90
       33
  8
4
360
6DA
 90
        4
  8
5
360
6DB
 90
       54
  8
10
360
6DC
 90
        0
  8
Defpoints
360
6DD
 90
        0
  8
BORDER
360
6DE
 90
        0
  8
TITLE BLOCK
360
6DF
 90
        0
  0
ACMDATAENTRYBLOCK
  5
433
102
{ACAD_REACTORS
330
432
102
}
330
432
100
AcmDataEntry
100
AcmDataEntryBlock
  0
IDBUFFER
  5
6D6
330
0
100
AcDbIdBuffer
330
8C2
330
8C3
330
8C4
330
8C5
330
8CB
330
8CC
330
8CD
330
8CE
330
860
330
861
330
862
330
863
330
864
330
865
330
57
330
58
330
59
330
5A
330
5B
330
5C
330
5D
330
5E
330
5F
330
60
330
61
330
62
330
63
330
FE
330
FF
330
106
330
107
330
19E
330
19F
330
59F
  0
IDBUFFER
  5
6D7
330
0
100
AcDbIdBuffer
330
8C6
330
8C8
330
8C9
330
8CA
330
64
330
65
330
69
330
6A
330
6B
330
6C
330
6D
330
6E
330
6F
330
70
330
71
330
72
330
73
330
74
330
75
330
76
330
7C
330
7D
330
82
330
83
330
84
330
85
330
86
330
87
330
88
330
89
330
8D
330
90
330
91
330
92
330
93
330
97
330
98
330
99
330
A7
330
A8
330
A9
330
AA
330
AB
330
AC
330
AE
330
B0
330
B6
330
BD
330
BE
330
BF
330
C0
330
C7
330
C8
330
C9
330
D0
330
D3
330
D4
330
D5
330
D6
330
D7
330
D8
330
DA
330
DB
330
DC
330
DD
330
DE
330
DF
330
E0
330
E1
330
E2
330
E3
330
E4
330
E5
330
E6
330
E7
330
E8
330
E9
330
EA
330
EB
330
EC
330
ED
330
EE
330
EF
330
F0
330
F1
330
F2
330
F3
330
F4
330
F5
330
F6
330
F7
330
FC
330
FD
330
10E
330
10F
330
111
330
112
330
113
330
114
330
115
330
116
330
117
330
118
330
119
330
11A
330
11B
330
11C
330
11D
330
11E
330
11F
330
120
330
121
330
126
330
127
330
128
330
129
330
12A
330
12B
330
12C
330
12D
330
12E
330
130
330
131
330
132
330
133
330
136
330
137
330
138
330
139
330
13A
330
13B
330
13C
330
13D
330
13F
330
140
330
141
330
142
330
143
330
144
330
145
330
146
330
147
330
148
330
149
330
14A
330
14B
330
14C
330
14D
330
14E
330
14F
330
150
330
151
330
152
330
153
330
154
330
155
330
156
330
157
330
158
330
159
330
15A
330
15B
330
15C
330
15D
330
15E
330
15F
330
160
330
161
330
164
330
165
330
166
330
167
330
168
330
169
330
16A
330
16B
330
16C
330
16D
330
16E
330
16F
330
170
330
171
330
172
330
173
330
174
330
175
330
176
330
177
330
178
330
179
330
17A
330
17B
330
17C
330
17D
330
17E
330
17F
330
180
330
181
330
182
330
183
330
184
330
185
330
186
330
187
330
188
330
189
330
18A
330
18B
330
18C
330
18D
  0
IDBUFFER
  5
6D8
330
0
100
AcDbIdBuffer
  0
IDBUFFER
  5
6D9
330
0
100
AcDbIdBuffer
330
67
330
68
330
77
330
78
330
79
330
7A
330
7B
330
9C
330
9D
330
9E
330
9F
330
A0
330
A1
330
A5
330
A6
330
AD
330
AF
330
B4
330
B5
330
C1
330
C5
330
C6
330
D1
330
F8
330
F9
330
FA
330
FB
330
110
330
12F
330
134
330
135
330
13E
330
19A
  0
IDBUFFER
  5
6DA
330
0
100
AcDbIdBuffer
330
105
330
10D
330
19C
330
1A4
  0
IDBUFFER
  5
6DB
330
0
100
AcDbIdBuffer
330
7E
330
7F
330
80
330
81
330
8A
330
8B
330
8C
330
8E
330
8F
330
94
330
95
330
96
330
9A
330
9B
330
A2
330
A3
330
A4
330
B1
330
B2
330
B3
330
B7
330
B8
330
B9
330
BA
330
BB
330
BC
330
C2
330
C3
330
C4
330
CA
330
CB
330
CC
330
CD
330
CE
330
CF
330
D2
330
D9
330
122
330
123
330
124
330
125
330
162
330
163
330
18E
330
18F
330
190
330
191
330
192
330
19D
330
194
330
195
330
196
330
199
330
198
  0
IDBUFFER
  5
6DC
330
0
100
AcDbIdBuffer
  0
IDBUFFER
  5
6DD
330
0
100
AcDbIdBuffer
  0
IDBUFFER
  5
6DE
330
0
100
AcDbIdBuffer
  0
IDBUFFER
  5
6DF
330
0
100
AcDbIdBuffer
  0
ENDSEC
  0
EOF
