  0
SECTION
  2
HEADER
  9
$ACADVER
  1
AC1015
  9
$ACADMAINTVER
 70
    10
  9
$DWGCODEPAGE
  3
ANSI_1252
  9
$INSBASE
 10
0.0
 20
0.0
 30
0.0
  9
$EXTMIN
 10
-0.0979428393984563
 20
0.2070368051488458
 30
-0.0015258207003583
  9
$EXTMAX
 10
558.8474623690226
 20
425.8256791112858
 30
0.0000000349246037
  9
$LIMMIN
 10
-996.3282594668578
 20
-205.7648260425297
  9
$LIMMAX
 10
-402.3282594668578
 20
214.2351739574702
  9
$ORTHOMODE
 70
     0
  9
$REGENMODE
 70
     1
  9
$FILLMODE
 70
     1
  9
$QTEXTMODE
 70
     0
  9
$MIRRTEXT
 70
     1
  9
$LTSCALE
 40
5.0
  9
$ATTMODE
 70
     1
  9
$TEXTSIZE
 40
3.5
  9
$TRACEWID
 40
0.05
  9
$TEXTSTYLE
  7
TXT
  9
$CLAYER
  8
0
  9
$CELTYPE
  6
Continuous
  9
$CECOLOR
 62
   256
  9
$CELTSCALE
 40
1.0
  9
$DISPSILH
 70
     0
  9
$DIMSCALE
 40
1.0
  9
$DIMASZ
 40
3.5
  9
$DIMEXO
 40
0.0625
  9
$DIMDLI
 40
0.38
  9
$DIMRND
 40
0.0
  9
$DIMDLE
 40
0.0
  9
$DIMEXE
 40
0.18
  9
$DIMTP
 40
0.0
  9
$DIMTM
 40
0.0
  9
$DIMTXT
 40
3.5
  9
$DIMCEN
 40
0.09
  9
$DIMTSZ
 40
0.0
  9
$DIMTOL
 70
     0
  9
$DIMLIM
 70
     0
  9
$DIMTIH
 70
     1
  9
$DIMTOH
 70
     1
  9
$DIMSE1
 70
     0
  9
$DIMSE2
 70
     0
  9
$DIMTAD
 70
     0
  9
$DIMZIN
 70
     0
  9
$DIMBLK
  1

  9
$DIMASO
 70
     1
  9
$DIMSHO
 70
     1
  9
$DIMPOST
  1

  9
$DIMAPOST
  1

  9
$DIMALT
 70
     0
  9
$DIMALTD
 70
     2
  9
$DIMALTF
 40
25.4
  9
$DIMLFAC
 40
1.0
  9
$DIMTOFL
 70
     0
  9
$DIMTVP
 40
0.0
  9
$DIMTIX
 70
     0
  9
$DIMSOXD
 70
     0
  9
$DIMSAH
 70
     0
  9
$DIMBLK1
  1

  9
$DIMBLK2
  1

  9
$DIMSTYLE
  2
Standard
  9
$DIMCLRD
 70
     0
  9
$DIMCLRE
 70
     0
  9
$DIMCLRT
 70
     0
  9
$DIMTFAC
 40
1.0
  9
$DIMGAP
 40
0.09
  9
$DIMJUST
 70
     0
  9
$DIMSD1
 70
     0
  9
$DIMSD2
 70
     0
  9
$DIMTOLJ
 70
     1
  9
$DIMTZIN
 70
     0
  9
$DIMALTZ
 70
     0
  9
$DIMALTTZ
 70
     0
  9
$DIMUPT
 70
     0
  9
$DIMDEC
 70
     4
  9
$DIMTDEC
 70
     4
  9
$DIMALTU
 70
     2
  9
$DIMALTTD
 70
     2
  9
$DIMTXSTY
  7
TXT
  9
$DIMAUNIT
 70
     0
  9
$DIMADEC
 70
     0
  9
$DIMALTRND
 40
0.0
  9
$DIMAZIN
 70
     0
  9
$DIMDSEP
 70
     0
  9
$DIMATFIT
 70
     3
  9
$DIMFRAC
 70
     0
  9
$DIMLDRBLK
  1

  9
$DIMLUNIT
 70
     2
  9
$DIMLWD
 70
     0
  9
$DIMLWE
 70
     0
  9
$DIMTMOVE
 70
     0
  9
$LUNITS
 70
     2
  9
$LUPREC
 70
     2
  9
$SKETCHINC
 40
0.1
  9
$FILLETRAD
 40
0.0
  9
$AUNITS
 70
     0
  9
$AUPREC
 70
     2
  9
$MENU
  1
acad
  9
$ELEVATION
 40
0.0
  9
$PELEVATION
 40
0.0
  9
$THICKNESS
 40
0.0
  9
$LIMCHECK
 70
     0
  9
$CHAMFERA
 40
0.0
  9
$CHAMFERB
 40
0.0
  9
$CHAMFERC
 40
0.0
  9
$CHAMFERD
 40
0.0
  9
$SKPOLY
 70
     0
  9
$TDCREATE
 40
2452650.393495034
  9
$TDUCREATE
 40
2452650.643495034
  9
$TDUPDATE
 40
2452656.480280613
  9
$TDUUPDATE
 40
2452656.730280613
  9
$TDINDWG
 40
0.0215007060
  9
$TDUSRTIMER
 40
0.0215007060
  9
$USRTIMER
 70
     1
  9
$ANGBASE
 50
0.0
  9
$ANGDIR
 70
     0
  9
$PDMODE
 70
     2
  9
$PDSIZE
 40
0.5
  9
$PLINEWID
 40
0.0
  9
$SPLFRAME
 70
     0
  9
$SPLINETYPE
 70
     6
  9
$SPLINESEGS
 70
     8
  9
$HANDSEED
  5
826
  9
$SURFTAB1
 70
     6
  9
$SURFTAB2
 70
     6
  9
$SURFTYPE
 70
     6
  9
$SURFU
 70
     6
  9
$SURFV
 70
     6
  9
$UCSBASE
  2

  9
$UCSNAME
  2

  9
$UCSORG
 10
0.0
 20
0.0
 30
0.0
  9
$UCSXDIR
 10
1.0
 20
0.0
 30
0.0
  9
$UCSYDIR
 10
0.0
 20
1.0
 30
0.0
  9
$UCSORTHOREF
  2

  9
$UCSORTHOVIEW
 70
     0
  9
$UCSORGTOP
 10
0.0
 20
0.0
 30
0.0
  9
$UCSORGBOTTOM
 10
0.0
 20
0.0
 30
0.0
  9
$UCSORGLEFT
 10
0.0
 20
0.0
 30
0.0
  9
$UCSORGRIGHT
 10
0.0
 20
0.0
 30
0.0
  9
$UCSORGFRONT
 10
0.0
 20
0.0
 30
0.0
  9
$UCSORGBACK
 10
0.0
 20
0.0
 30
0.0
  9
$PUCSBASE
  2

  9
$PUCSNAME
  2

  9
$PUCSORG
 10
0.0
 20
0.0
 30
0.0
  9
$PUCSXDIR
 10
1.0
 20
0.0
 30
0.0
  9
$PUCSYDIR
 10
0.0
 20
1.0
 30
0.0
  9
$PUCSORTHOREF
  2

  9
$PUCSORTHOVIEW
 70
     0
  9
$PUCSORGTOP
 10
0.0
 20
0.0
 30
0.0
  9
$PUCSORGBOTTOM
 10
0.0
 20
0.0
 30
0.0
  9
$PUCSORGLEFT
 10
0.0
 20
0.0
 30
0.0
  9
$PUCSORGRIGHT
 10
0.0
 20
0.0
 30
0.0
  9
$PUCSORGFRONT
 10
0.0
 20
0.0
 30
0.0
  9
$PUCSORGBACK
 10
0.0
 20
0.0
 30
0.0
  9
$USERI1
 70
     0
  9
$USERI2
 70
     0
  9
$USERI3
 70
     0
  9
$USERI4
 70
     0
  9
$USERI5
 70
     0
  9
$USERR1
 40
0.0
  9
$USERR2
 40
0.0
  9
$USERR3
 40
0.0
  9
$USERR4
 40
0.0
  9
$USERR5
 40
0.0
  9
$WORLDVIEW
 70
     1
  9
$SHADEDGE
 70
     3
  9
$SHADEDIF
 70
    70
  9
$TILEMODE
 70
     1
  9
$MAXACTVP
 70
    16
  9
$PINSBASE
 10
0.0
 20
0.0
 30
0.0
  9
$PLIMCHECK
 70
     0
  9
$PEXTMIN
 10
1.000000000000000E+20
 20
1.000000000000000E+20
 30
1.000000000000000E+20
  9
$PEXTMAX
 10
-1.000000000000000E+20
 20
-1.000000000000000E+20
 30
-1.000000000000000E+20
  9
$PLIMMIN
 10
0.0
 20
0.0
  9
$PLIMMAX
 10
12.0
 20
9.0
  9
$UNITMODE
 70
     0
  9
$VISRETAIN
 70
     0
  9
$PLINEGEN
 70
     1
  9
$PSLTSCALE
 70
     0
  9
$TREEDEPTH
 70
  3020
  9
$CMLSTYLE
  2
Standard
  9
$CMLJUST
 70
     0
  9
$CMLSCALE
 40
1.0
  9
$PROXYGRAPHICS
 70
     0
  9
$MEASUREMENT
 70
     0
  9
$CELWEIGHT
370
     0
  9
$ENDCAPS
280
     0
  9
$JOINSTYLE
280
     0
  9
$LWDISPLAY
290
     0
  9
$INSUNITS
 70
     0
  9
$HYPERLINKBASE
  1

  9
$STYLESHEET
  1
monochrome.ctb
  9
$XEDIT
290
     1
  9
$CEPSNTYPE
380
     0
  9
$PSTYLEMODE
290
     1
  9
$FINGERPRINTGUID
  2

  9
$VERSIONGUID
  2
{EF572F12-9994-4D8F-8373-605BF5C4C969}
  9
$EXTNAMES
290
     1
  9
$PSVPSCALE
 40
0.0
  9
$OLESTARTUP
290
     0
  0
ENDSEC
  0
SECTION
  2
CLASSES
  0
CLASS
  1
LWPOLYLINE
  2
AcDbPolyline
  3
AutoCAD 2000
 90
    32768
280
     0
281
     1
  0
CLASS
  1
IMAGE
  2
AcDbRasterImage
  3
ISM
 90
    32895
280
     0
281
     1
  0
CLASS
  1
OLE2FRAME
  2
AcDbOle2Frame
  3
AutoCAD 2000
 90
    32768
280
     0
281
     1
  0
CLASS
  1
HATCH
  2
AcDbHatch
  3
AutoCAD 2000
 90
    32768
280
     0
281
     1
  0
CLASS
  1
DICTIONARYVAR
  2
AcDbDictionaryVar
  3
AutoCAD 2000
 90
        0
280
     0
281
     0
  0
CLASS
  1
RASTERVARIABLES
  2
AcDbRasterVariables
  3
ISM
 90
    32768
280
     0
281
     0
  0
CLASS
  1
IMAGEDEF
  2
AcDbRasterImageDef
  3
ISM
 90
    32768
280
     0
281
     0
  0
CLASS
  1
IMAGEDEF_REACTOR
  2
AcDbRasterImageDefReactor
  3
ISM
 90
    32769
280
     0
281
     0
  0
CLASS
  1
IDBUFFER
  2
AcDbIdBuffer
  3
AutoCAD 2000
 90
        0
280
     0
281
     0
  0
CLASS
  1
SPATIAL_FILTER
  2
AcDbSpatialFilter
  3
AutoCAD 2000
 90
    32768
280
     0
281
     0
  0
CLASS
  1
XRECORD
  2
AcDbXrecord
  3
AutoCAD 2000
 90
    32768
280
     0
281
     0
  0
CLASS
  1
SORTENTSTABLE
  2
AcDbSortentsTable
  3
AutoCAD 2000
 90
    32768
280
     0
281
     0
  0
CLASS
  1
LAYER_INDEX
  2
AcDbLayerIndex
  3
AutoCAD 2000
 90
        0
280
     0
281
     0
  0
CLASS
  1
SPATIAL_INDEX
  2
AcDbSpatialIndex
  3
AutoCAD 2000
 90
    32768
280
     0
281
     0
  0
CLASS
  1
OBJECT_PTR
  2
CAseDLPNTableRecord
  3
ASE-LPNTableRecord
 90
    32769
280
     0
281
     0
  0
CLASS
  1
LAYOUT
  2
AcDbLayout
  3
AutoCAD 2000
 90
        0
280
     0
281
     0
  0
CLASS
  1
PLOTSETTINGS
  2
AcDbPlotSettings
  3
AutoCAD 2000
 90
    32768
280
     0
281
     0
  0
CLASS
  1
ACDBDICTIONARYWDFLT
  2
AcDbDictionaryWithDefault
  3
AutoCAD 2000
 90
        0
280
     0
281
     0
  0
CLASS
  1
ACDBPLACEHOLDER
  2
AcDbPlaceHolder
  3
AutoCAD 2000
 90
        0
280
     0
281
     0
  0
CLASS
  1
VBA_PROJECT
  2
AcDbVbaProject
  3
acadvba
 90
    32768
280
     0
281
     0
  0
CLASS
  1
WIPEOUT
  2
AcDbWipeout
  3
WipeOut|AutoCAD Express Tool|expresstools@autodesk.com
 90
    32895
280
     0
281
     1
  0
CLASS
  1
WIPEOUTVARIABLES
  2
AcDbWipeoutVariables
  3
WipeOut|AutoCAD Express Tool|expresstools@autodesk.com
 90
        0
280
     0
281
     0
  0
CLASS
  1
RTEXT
  2
RText
  3
RText|AutoCAD Express Tool|expresstools@autodesk.com
 90
    32768
280
     0
281
     1
  0
CLASS
  1
ARCALIGNEDTEXT
  2
AcDbArcAlignedText
  3
ATEXT|AutoCAD Express Tool|expresstools@autodesk.com
 90
    32768
280
     0
281
     1
  0
CLASS
  1
ACME_DOCUMENT
  2
AcMeDbDoc
  3
AcMeServices
 90
        0
280
     0
281
     0
  0
CLASS
  1
AMGSETTINGSOBJ
  2
AmgSettingsObj
  3
"AcadM|Product Description: AutoCAD Mechanical 2000|Company: Autodesk"
 90
        0
280
     0
281
     0
  0
CLASS
  1
ACMESCOPE
  2
AcMeScope
  3
AcMeServices
 90
        0
280
     0
281
     0
  0
CLASS
  1
ACMECOMMANDHISTORY
  2
AcMeCommandHistory
  3
AcMeServices
 90
        0
280
     0
281
     0
  0
CLASS
  1
ACIMSYSVARMAN
  2
AcImSysVarManager
  3
AcMeServices
 90
        0
280
     0
281
     0
  0
CLASS
  1
ACIMREALSYSVAR
  2
AcImRealSysVar
  3
AcMeServices
 90
        0
280
     0
281
     0
  0
CLASS
  1
ACIMINTSYSVAR
  2
AcImIntSysVar
  3
AcMeServices
 90
        0
280
     0
281
     0
  0
CLASS
  1
ACMEDRAWINGMAN
  2
AcMeDrawingMan
  3
AcMeServices
 90
        0
280
     0
281
     0
  0
CLASS
  1
ACMEVIEW
  2
AcMeView
  3
AcMeServices
 90
        0
280
     0
281
     0
  0
CLASS
  1
ACDBENTITYCACHE
  2
AcMeEntityCache
  3
AcMeServices
 90
        0
280
     0
281
     0
  0
CLASS
  1
GSMANAGER
  2
AcMeGSManager
  3
AcMeServices
 90
        0
280
     0
281
     0
  0
CLASS
  1
AmdtInternalReactor
  2
AmdtInternalReactor
  3
AcMeServices
 90
        0
280
     0
281
     0
  0
CLASS
  1
ACMESTATEMGR
  2
AcMeStateMgr
  3
AcMeServices
 90
        0
280
     0
281
     0
  0
CLASS
  1
ACGREFMASTER
  2
AcGrefMaster
  3
AcAttribServices
 90
        0
280
     0
281
     0
  0
CLASS
  1
ACME_DATABASE
  2
AcMeDbDatabase
  3
AcMeServices
 90
        0
280
     0
281
     0
  0
CLASS
  1
ACRFINSADJUSTERMGR
  2
AcRfInsAdjusterMgr
  3
AcMeServices
 90
        0
280
     0
281
     0
  0
CLASS
  1
ACGREFMASTER
  2
AcGrefacadMaster
  3
AcGrefServices
 90
        0
280
     0
281
     0
  0
CLASS
  1
AMIMASTER
  2
AmiMaster
  3
AmiServices
 90
        0
280
     0
281
     0
  0
CLASS
  1
ACMDATADICTIONARY
  2
AcmDataDictionary
  3
"AcmSymBB|Product Description: AutoCAD Mechanical 2000|Company: Autodesk"
 90
        0
280
     0
281
     0
  0
CLASS
  1
ACMDATAENTRYBLOCK
  2
AcmDataEntryBlock
  3
"AcmSymBB|Product Description: AutoCAD Mechanical 2000|Company: Autodesk"
 90
        0
280
     0
281
     0
  0
CLASS
  1
ACIMSTRSYSVAR
  2
AcImStrSysVar
  3
AcMeServices
 90
        0
280
     0
281
     0
  0
CLASS
  1
ACMSTANDARDANSI
  2
AcmStandardANSI
  3
"Amdt_StdImp|Product Description: AutoCAD Mechanical 2000|Company: Autodesk"
 90
        0
280
     0
281
     0
  0
CLASS
  1
AMGOBJPROPCFG
  2
AmgObjPropCfg
  3
"AmgLay|Product Description: AutoCAD Mechanical 2000|Company: Autodesk"
 90
        1
280
     0
281
     0
  0
CLASS
  1
ACMSURFSTANDARDANSI
  2
AcmSurfTextStdANSI
  3
"Amdt_StdImp|Product Description: AutoCAD Mechanical 2000|Company: Autodesk"
 90
        0
280
     0
281
     0
  0
CLASS
  1
ACMFCFSTANDARDANSI
  2
AcmFCFStdANSI
  3
"Amdt_StdImp|Product Description: AutoCAD Mechanical 2000|Company: Autodesk"
 90
        0
280
     0
281
     0
  0
CLASS
  1
ACMWELDSTANDARDANSI
  2
AcmWeldingStdANSI
  3
"Amdt_StdImp|Product Description: AutoCAD Mechanical 2000|Company: Autodesk"
 90
        0
280
     0
281
     0
  0
CLASS
  1
ACMIDSTANDARDANSI
  2
AcmIdStdANSI
  3
"Amdt_StdImp|Product Description: AutoCAD Mechanical 2000|Company: Autodesk"
 90
        0
280
     0
281
     0
  0
CLASS
  1
ACMDATUMSTANDARDANSI
  2
AcmDatumStdANSI
  3
"Amdt_StdImp|Product Description: AutoCAD Mechanical 2000|Company: Autodesk"
 90
        0
280
     0
281
     0
  0
CLASS
  1
ACMBOMSTANDARDANSI
  2
AcmBOMStdANSI
  3
"Amdt_StdImp|Product Description: AutoCAD Mechanical 2000|Company: Autodesk"
 90
        0
280
     0
281
     0
  0
CLASS
  1
ACMDETAILSTANDARDANSI
  2
AmdtDetailSymStdANSI
  3
"Amdt_StdImp|Product Description: AutoCAD Mechanical 2000|Company: Autodesk"
 90
        0
280
     0
281
     0
  0
CLASS
  1
ACMSECTIONSTANDARDANSI
  2
AmdtSectionSymStdANSI
  3
"Amdt_StdImp|Product Description: AutoCAD Mechanical 2000|Company: Autodesk"
 90
        0
280
     0
281
     0
  0
CLASS
  1
ACMCENTERLINESTANDARDANSI
  2
AmdtCenterLineStdANSI
  3
"Amdt_StdImp|Product Description: AutoCAD Mechanical 2000|Company: Autodesk"
 90
        0
280
     0
281
     0
  0
CLASS
  1
ACMThreadLineSTANDARDANSI
  2
AmdtThreadLineStdANSI
  3
"Amdt_StdImp|Product Description: AutoCAD Mechanical 2000|Company: Autodesk"
 90
        0
280
     0
281
     0
  0
CLASS
  1
"AcAmgLayStd"
  2
AcAmgLayStd
  3
"AcAmgLayStd|Product Description: AutoCAD Mechanical 2000|Company: Autodesk"
 90
        0
280
     0
281
     0
  0
CLASS
  1
"AcAmgDimStd"
  2
AcAmgDimStd
  3
"AcAmgDimStd|Product Description: AutoCAD Mechanical 2000|Company: Autodesk"
 90
        0
280
     0
281
     0
  0
CLASS
  1
AcAmgTitleStd
  2
AcAmgTitleStd
  3
"TITLEAPP"
 90
        0
280
     0
281
     0
  0
CLASS
  1
ACAMGFILTERDAT
  2
AcAmgFilterDat
  3
"AcadM|Product Description: AutoCAD Mechanical 2000|Company: Autodesk"
 90
        0
280
     0
281
     0
  0
CLASS
  1
AMDTFORMULAUPDATEDISPATCHER
  2
AmdtFormulaUpdateDispatcher
  3
AcMeServices
 90
        0
280
     0
281
     0
  0
ENDSEC
  0
SECTION
  2
TABLES
  0
TABLE
  2
VPORT
  5
7
330
0
100
AcDbSymbolTable
 70
     6
  0
VPORT
  5
825
330
7
100
AcDbSymbolTableRecord
100
AcDbViewportTableRecord
  2
*Active
 70
     0
 10
0.0
 20
0.0
 11
1.0
 21
1.0
 12
279.374759764812
 22
213.0163579582173
 13
0.0
 23
0.0
 14
1.0
 24
1.0
 15
0.0
 25
0.0
 16
0.0
 26
0.0
 36
1.0
 17
0.0
 27
0.0
 37
0.0
 40
430.2872197354547
 41
1.666666666666666
 42
50.0
 43
0.0
 44
0.0
 50
0.0
 51
0.0
 71
     0
 72
   100
 73
     1
 74
     1
 75
     1
 76
     0
 77
     0
 78
     0
281
     0
 65
     0
110
0.0
120
0.0
130
0.0
111
1.0
121
0.0
131
0.0
112
0.0
122
1.0
132
0.0
 79
     0
146
0.0
  0
ENDTAB
  0
TABLE
  2
LTYPE
  5
4
330
0
100
AcDbSymbolTable
 70
    23
  0
LTYPE
  5
11
330
4
100
AcDbSymbolTableRecord
100
AcDbLinetypeTableRecord
  2
ByBlock
 70
     0
  3

 72
    65
 73
     0
 40
0.0
  0
LTYPE
  5
12
330
4
100
AcDbSymbolTableRecord
100
AcDbLinetypeTableRecord
  2
ByLayer
 70
     0
  3

 72
    65
 73
     0
 40
0.0
  0
LTYPE
  5
13
330
4
100
AcDbSymbolTableRecord
100
AcDbLinetypeTableRecord
  2
Continuous
 70
     0
  3
Solid line
 72
    65
 73
     0
 40
0.0
  0
LTYPE
  5
24
330
4
100
AcDbSymbolTableRecord
100
AcDbLinetypeTableRecord
  2
AUSGEZOGEN
 70
     0
  3

 72
    65
 73
     0
 40
0.0
  0
LTYPE
  5
25
330
4
100
AcDbSymbolTableRecord
100
AcDbLinetypeTableRecord
  2
VERDECKT
 70
     0
  3

 72
    65
 73
     2
 40
0.375
 49
0.25
 74
     0
 49
-0.125
 74
     0
  0
LTYPE
  5
26
330
4
100
AcDbSymbolTableRecord
100
AcDbLinetypeTableRecord
  2
STRICHPUNKT
 70
     0
  3

 72
    65
 73
     4
 40
1.0
 49
0.5
 74
     0
 49
-0.25
 74
     0
 49
0.0
 74
     0
 49
-0.25
 74
     0
  0
LTYPE
  5
27
330
4
100
AcDbSymbolTableRecord
100
AcDbLinetypeTableRecord
  2
PUNKT3
 70
     0
  3

 72
    65
 73
     2
 40
0.5
 49
0.25
 74
     0
 49
-0.25
 74
     0
  0
LTYPE
  5
43E
330
4
100
AcDbSymbolTableRecord
100
AcDbLinetypeTableRecord
  2
AM_ISO02W050
 70
     0
  3
__ __ __ __ __ __ __ __ __ __ __ __ __ __ __
 72
    65
 73
     2
 40
7.5
 49
6.0
 74
     0
 49
-1.5
 74
     0
  0
LTYPE
  5
43F
330
4
100
AcDbSymbolTableRecord
100
AcDbLinetypeTableRecord
  2
AM_ISO08W050
 70
     0
  3
____ . ____ . ____ . ____ . ____ . ____ . ____
 72
    65
 73
     4
 40
18.0
 49
12.0
 74
     0
 49
-1.5
 74
     0
 49
3.0
 74
     0
 49
-1.5
 74
     0
  0
LTYPE
  5
440
330
4
100
AcDbSymbolTableRecord
100
AcDbLinetypeTableRecord
  2
AM_ISO09W050
 70
     0
  3
_____ . . _____ . . _____ . . ____ .. ____
 72
    65
 73
     6
 40
22.5
 49
12.0
 74
     0
 49
-1.5
 74
     0
 49
3.0
 74
     0
 49
-1.5
 74
     0
 49
3.0
 74
     0
 49
-1.5
 74
     0
  0
LTYPE
  5
441
330
4
100
AcDbSymbolTableRecord
100
AcDbLinetypeTableRecord
  2
Amconstr
 70
     0
  3
_______________________
 72
    65
 73
     2
 40
9999.0
 49
9999.0
 74
     0
 49
0.0
 74
     0
  0
LTYPE
  5
442
330
4
100
AcDbSymbolTableRecord
100
AcDbLinetypeTableRecord
  2
AM_ISO08W050x2
 70
     0
  3
__ . __ . __ . __ . __ . __
 72
    65
 73
     4
 40
9.0
 49
6.0
 74
     0
 49
-0.75
 74
     0
 49
1.5
 74
     0
 49
-0.75
 74
     0
  0
LTYPE
  5
443
330
4
100
AcDbSymbolTableRecord
100
AcDbLinetypeTableRecord
  2
AM_ISO02W050x2
 70
     0
  3
 _ _ _ _ _ _ _ _ _ _ _ _
 72
    65
 73
     2
 40
3.75
 49
3.0
 74
     0
 49
-0.75
 74
     0
  0
LTYPE
  5
446
330
4
100
AcDbSymbolTableRecord
100
AcDbLinetypeTableRecord
  2
Amzigzag
 70
     0
  3
/\/-/\/-/\/-/\/-/\/-/\/
 72
    65
 73
     2
 40
11.00009999999999
 49
0.0001
 74
     4
 75
   135
340
445
 46
0.04
 50
0.0
 44
0.0
 45
0.0
 49
-11.0
 74
     0
  0
LTYPE
  5
447
330
4
100
AcDbSymbolTableRecord
100
AcDbLinetypeTableRecord
  2
HIDDEN
 70
     0
  3
Hidden __ __ __ __ __ __ __ __ __ __ __ __ __ _
 72
    65
 73
     2
 40
0.375
 49
0.25
 74
     0
 49
-0.125
 74
     0
  0
LTYPE
  5
448
330
4
100
AcDbSymbolTableRecord
100
AcDbLinetypeTableRecord
  2
CENTER
 70
     0
  3
Center ____ _ ____ _ ____ _ ____ _ ____ _ ____
 72
    65
 73
     4
 40
2.0
 49
1.25
 74
     0
 49
-0.25
 74
     0
 49
0.25
 74
     0
 49
-0.25
 74
     0
  0
LTYPE
  5
449
330
4
100
AcDbSymbolTableRecord
100
AcDbLinetypeTableRecord
  2
PHANTOM2
 70
     0
  3
Phantom (.5x) ___ _ _ ___ _ _ ___ _ _ ___ _ _
 72
    65
 73
     6
 40
1.25
 49
0.625
 74
     0
 49
-0.125
 74
     0
 49
0.125
 74
     0
 49
-0.125
 74
     0
 49
0.125
 74
     0
 49
-0.125
 74
     0
  0
LTYPE
  5
44A
330
4
100
AcDbSymbolTableRecord
100
AcDbLinetypeTableRecord
  2
CENTER2
 70
     0
  3
Center (.5x) ___ _ ___ _ ___ _ ___ _ ___ _ ___
 72
    65
 73
     4
 40
1.125
 49
0.75
 74
     0
 49
-0.125
 74
     0
 49
0.125
 74
     0
 49
-0.125
 74
     0
  0
LTYPE
  5
44B
330
4
100
AcDbSymbolTableRecord
100
AcDbLinetypeTableRecord
  2
HIDDEN2
 70
     0
  3
Hidden (.5x) _ _ _ _ _ _ _ _ _ _ _ _ _ _ _ _ _
 72
    65
 73
     2
 40
0.1875
 49
0.125
 74
     0
 49
-0.0625
 74
     0
  0
LTYPE
  5
44C
330
4
100
AcDbSymbolTableRecord
100
AcDbLinetypeTableRecord
  2
Amzigzag2
 70
     0
  3
/\/-/\/-/\/-/\/-/\/-/\/
 72
    65
 73
     2
 40
0.4401
 49
0.0001
 74
     4
 75
   135
340
445
 46
0.0016
 50
0.0
 44
0.0
 45
0.0
 49
-0.4400000000000001
 74
     0
  0
LTYPE
  5
459
330
4
100
AcDbSymbolTableRecord
100
AcDbLinetypeTableRecord
  2
ACANSTGB
 70
     0
  3
__ . . __ . .
 72
    65
 73
     6
 40
0.35433070866
 49
0.15748031496
 74
     0
 49
-0.03937007874
 74
     0
 49
0.03937007874
 74
     0
 49
-0.03937007874
 74
     0
 49
0.03937007874
 74
     0
 49
-0.03937007874
 74
     0
  0
LTYPE
  5
45A
330
4
100
AcDbSymbolTableRecord
100
AcDbLinetypeTableRecord
  2
ACANSTGL
 70
     0
  3
_ _ _ _ _
 72
    65
 73
     2
 40
0.11811023622
 49
0.07874015748
 74
     0
 49
-0.03937007874
 74
     0
  0
LTYPE
  5
4C2
330
4
100
AcDbSymbolTableRecord
100
AcDbLinetypeTableRecord
  2
MS
 70
     0
  3
MEDIUM_SOLID
 72
    65
 73
     0
 40
0.0
  0
LTYPE
  5
4C3
330
4
100
AcDbSymbolTableRecord
100
AcDbLinetypeTableRecord
  2
LS
 70
     0
  3
LIGHT_SOLID
 72
    65
 73
     0
 40
0.0
  0
LTYPE
  5
4C4
330
4
100
AcDbSymbolTableRecord
100
AcDbLinetypeTableRecord
  2
LP
 70
     0
  3
LIGHT_PHANTOM
 72
    65
 73
     6
 40
1.5
 49
0.75
 74
     0
 49
-0.14999998
 74
     0
 49
0.14999998
 74
     0
 49
-0.14999998
 74
     0
 49
0.14999998
 74
     0
 49
-0.14999998
 74
     0
  0
ENDTAB
  0
TABLE
  2
LAYER
  5
2
330
0
100
AcDbSymbolTable
 70
    10
  0
LAYER
  5
14
330
2
100
AcDbSymbolTableRecord
100
AcDbLayerTableRecord
  2
0
 70
     0
 62
     7
  6
Continuous
370
    -3
390
1D
  0
LAYER
  5
29
330
2
100
AcDbSymbolTableRecord
100
AcDbLayerTableRecord
  2
1
 70
     0
 62
     7
  6
Continuous
370
    -3
390
1F
  0
LAYER
  5
2A
330
2
100
AcDbSymbolTableRecord
100
AcDbLayerTableRecord
  2
2
 70
     0
 62
     7
  6
Continuous
370
    -3
390
1F
  0
LAYER
  5
2B
330
2
100
AcDbSymbolTableRecord
100
AcDbLayerTableRecord
  2
3
 70
     0
 62
     7
  6
Continuous
370
    -3
390
1F
  0
LAYER
  5
2C
330
2
100
AcDbSymbolTableRecord
100
AcDbLayerTableRecord
  2
4
 70
     0
 62
     7
  6
Continuous
370
    -3
390
1F
  0
LAYER
  5
2D
330
2
100
AcDbSymbolTableRecord
100
AcDbLayerTableRecord
  2
5
 70
     0
 62
     7
  6
Continuous
370
    -3
390
1F
  0
LAYER
  5
2E
330
2
100
AcDbSymbolTableRecord
100
AcDbLayerTableRecord
  2
10
 70
     0
 62
     7
  6
Continuous
370
    -3
390
1F
  0
LAYER
  5
472
330
2
100
AcDbSymbolTableRecord
100
AcDbLayerTableRecord
  2
Defpoints
 70
     0
 62
     7
  6
Continuous
290
     0
370
    -3
390
1D
  0
LAYER
  5
4C5
330
2
100
AcDbSymbolTableRecord
100
AcDbLayerTableRecord
  2
BORDER
 70
     0
 62
    15
  6
Continuous
370
    -3
390
1D
  0
LAYER
  5
4C6
330
2
100
AcDbSymbolTableRecord
100
AcDbLayerTableRecord
  2
TITLE BLOCK
 70
     0
 62
     2
  6
Continuous
370
    -3
390
1D
  0
ENDTAB
  0
TABLE
  2
STYLE
  5
3
330
0
100
AcDbSymbolTable
 70
     8
  0
STYLE
  5
17
330
3
100
AcDbSymbolTableRecord
100
AcDbTextStyleTableRecord
  2
TXT
 70
     0
 40
3.5
 41
1.0
 50
0.0
 71
     0
 42
3.5
  3
TXT
  4

  0
STYLE
  5
28
330
3
100
AcDbSymbolTableRecord
100
AcDbTextStyleTableRecord
  2
ARIAL
 70
     0
 40
3.5
 41
1.0
 50
0.0
 71
     0
 42
3.5
  3
ARIAL
  4

  0
STYLE
  5
445
330
3
100
AcDbSymbolTableRecord
100
AcDbTextStyleTableRecord
  2

 70
     1
 40
0.0
 41
1.0
 50
0.0
 71
     0
 42
0.2
  3
ltypeshp.shx
  4

  0
STYLE
  5
44D
330
3
100
AcDbSymbolTableRecord
100
AcDbTextStyleTableRecord
  2
ACANSTS
 70
     0
 40
1.0
 41
1.0
 50
0.0
 71
     0
 42
0.2
  3
romans.shx
  4

  0
STYLE
  5
458
330
3
100
AcDbSymbolTableRecord
100
AcDbTextStyleTableRecord
  2
ACANSGDT
 70
     0
 40
0.0
 41
1.0
 50
0.0
 71
     0
 42
0.2
  3
amgdtans.shx
  4

  0
STYLE
  5
4C7
330
3
100
AcDbSymbolTableRecord
100
AcDbTextStyleTableRecord
  2
STANDARD
 70
     0
 40
0.0
 41
1.0
 50
0.0
 71
     0
 42
2.5
  3
migrator.shx
  4

  0
STYLE
  5
4C8
330
3
100
AcDbSymbolTableRecord
100
AcDbTextStyleTableRecord
  2
AE
 70
     0
 40
0.0
 41
1.0
 50
0.0
 71
     0
 42
0.16408998
  3
MIGRATOR
  4

  0
STYLE
  5
4C9
330
3
100
AcDbSymbolTableRecord
100
AcDbTextStyleTableRecord
  2

 70
     1
 40
0.0
 41
1.0
 50
0.0
 71
     0
 42
1.0
  3
symtb128
  4

  0
ENDTAB
  0
TABLE
  2
VIEW
  5
5
330
0
100
AcDbSymbolTable
 70
     0
  0
ENDTAB
  0
TABLE
  2
UCS
  5
6
330
0
100
AcDbSymbolTable
 70
     0
  0
ENDTAB
  0
TABLE
  2
APPID
  5
8
330
0
100
AcDbSymbolTable
 70
     9
  0
APPID
  5
16
330
8
100
AcDbSymbolTableRecord
100
AcDbRegAppTableRecord
  2
ACAD
 70
     0
  0
APPID
  5
2F
330
8
100
AcDbSymbolTableRecord
100
AcDbRegAppTableRecord
  2
MegaCADPntStyle
 70
     0
  0
APPID
  5
41E
330
8
100
AcDbSymbolTableRecord
100
AcDbRegAppTableRecord
  2
MCAD_NO_VIS
 70
     0
  0
APPID
  5
41F
330
8
100
AcDbSymbolTableRecord
100
AcDbRegAppTableRecord
  2
ACAD_TEMP_GRAPHIC
 70
     0
  0
APPID
  5
432
330
8
100
AcDbSymbolTableRecord
100
AcDbRegAppTableRecord
  2
ACATTRIBSERVICES
 70
     0
  0
APPID
  5
4CB
330
8
100
AcDbSymbolTableRecord
100
AcDbRegAppTableRecord
  2
GENIUS_GENBLLY_14
 70
     0
  0
APPID
  5
4CC
330
8
100
AcDbSymbolTableRecord
100
AcDbRegAppTableRecord
  2
GENIUS_GENTRA_14
 70
     0
  0
APPID
  5
639
330
8
100
AcDbSymbolTableRecord
100
AcDbRegAppTableRecord
  2
DCO15
 70
     0
  0
APPID
  5
650
330
8
100
AcDbSymbolTableRecord
100
AcDbRegAppTableRecord
  2
GENIUS_GENDTOL_13
 70
     0
  0
ENDTAB
  0
TABLE
  2
DIMSTYLE
  5
9
330
0
100
AcDbSymbolTable
 70
     9
100
AcDbDimStyleTable
 71
     0
  0
DIMSTYLE
105
18
330
9
100
AcDbSymbolTableRecord
100
AcDbDimStyleTableRecord
  2
Standard
 70
     0
289
     0
340
17
  0
DIMSTYLE
105
30
102
{ACAD_REACTORS
330
96
330
97
330
9C
330
9D
330
9E
330
FF
330
15B
330
15C
330
15E
330
15F
330
162
330
182
330
1A7
330
1AB
330
1AC
330
1B0
330
1B8
102
}
330
9
100
AcDbSymbolTableRecord
100
AcDbDimStyleTableRecord
  2
DIMS0
 70
     0
 41
3.0
 42
0.1
 43
7.0
 44
1.709999999999999
 73
     0
 74
     0
 77
     1
140
3.0
141
1.5
178
    54
289
     0
340
17
  0
DIMSTYLE
105
45E
330
9
100
AcDbSymbolTableRecord
100
AcDbDimStyleTableRecord
  2
AM_ANSI
 70
     0
  4
mm
 41
0.1
 42
0.05
 43
0.5
 44
0.1
 47
0.1
 48
0.1
 78
     7
 79
     2
140
0.12
141
0.0
146
0.71
147
0.06
176
   256
177
   256
178
     2
274
     4
284
     7
340
17
371
    -1
372
    -1
  0
DIMSTYLE
105
45F
330
9
100
AcDbSymbolTableRecord
100
AcDbDimStyleTableRecord
  2
AM_ANSI$3
 70
     0
  4
mm
 41
0.1
 42
0.05
 43
0.5
 44
0.1
 47
0.1
 48
0.1
 78
     7
 79
     2
140
0.12
141
0.0
146
0.71
147
0.06
176
   256
177
   256
178
     2
274
     4
284
     7
288
     1
289
     0
340
17
371
    -1
372
    -1
  0
DIMSTYLE
105
460
330
9
100
AcDbSymbolTableRecord
100
AcDbDimStyleTableRecord
  2
AM_ANSI$4
 70
     0
  4
mm
 41
0.1
 42
0.05
 43
0.5
 44
0.1
 47
0.1
 48
0.1
 78
     7
 79
     2
140
0.12
141
0.0
146
0.71
147
0.06
176
   256
177
   256
178
     2
274
     4
284
     7
288
     1
289
     0
340
17
371
    -1
372
    -1
  0
DIMSTYLE
105
461
330
9
100
AcDbSymbolTableRecord
100
AcDbDimStyleTableRecord
  2
AM_ANSI$7
 70
     0
  4
mm
 41
0.1
 42
0.05
 43
0.5
 44
0.1
 47
0.1
 48
0.1
 78
     7
 79
     2
140
0.24
141
0.0
146
0.71
147
0.06
176
   256
177
   256
178
     2
274
     4
284
     7
340
17
371
    -1
372
    -1
  0
DIMSTYLE
105
462
330
9
100
AcDbSymbolTableRecord
100
AcDbDimStyleTableRecord
  2
AM_ANSI$SF
 70
     0
  4
mm
 41
0.1
 42
0.05
 43
0.5
 44
0.1
 47
0.1
 48
0.1
 75
     1
 76
     1
 78
     7
 79
     2
140
0.12
141
0.0
146
0.71
147
0.06
176
   256
177
   256
178
     2
274
     4
284
     7
340
17
371
    -1
372
    -1
  0
DIMSTYLE
105
467
330
9
100
AcDbSymbolTableRecord
100
AcDbDimStyleTableRecord
  2
AM_ANSI$SH
 70
     0
  4
mm
 41
0.1
 42
0.05
 43
0.5
 44
0.1
 47
0.1
 48
0.1
 75
     1
 76
     1
 78
     7
 79
     2
140
0.12
141
0.0
146
0.71
147
0.06
173
     1
176
   256
177
   256
178
     2
274
     4
284
     7
340
17
343
463
371
    -1
372
    -1
  0
DIMSTYLE
105
4CA
330
9
100
AcDbSymbolTableRecord
100
AcDbDimStyleTableRecord
  2
GEN-ANSI
 70
     0
  3
<>
  4
mm
 41
0.14
 42
0.125
 43
0.5
 44
0.125
 47
0.1
 48
0.1
 73
     0
 74
     0
 77
     1
 78
     7
140
0.12
141
0.0
146
0.71
147
0.06
176
   256
177
   256
178
     2
274
     4
340
4C7
  0
ENDTAB
  0
TABLE
  2
BLOCK_RECORD
  5
1
330
0
100
AcDbSymbolTable
 70
    42
  0
BLOCK_RECORD
  5
A
102
{ACAD_XDICTIONARY
360
63B
102
}
330
1
100
AcDbSymbolTableRecord
100
AcDbBlockTableRecord
  2
*MODEL_SPACE
340
20
  0
BLOCK_RECORD
  5
B
330
1
100
AcDbSymbolTableRecord
100
AcDbBlockTableRecord
  2
*PAPER_SPACE
340
21
  0
BLOCK_RECORD
  5
31
330
1
100
AcDbSymbolTableRecord
100
AcDbBlockTableRecord
  2
ELIPPSE
340
0
  0
BLOCK_RECORD
  5
32
330
1
100
AcDbSymbolTableRecord
100
AcDbBlockTableRecord
  2
A2_1
340
0
  0
BLOCK_RECORD
  5
33
330
1
100
AcDbSymbolTableRecord
100
AcDbBlockTableRecord
  2
ZEICHNUNGS-LOGO UND ADR_2
340
0
  0
BLOCK_RECORD
  5
34
330
1
100
AcDbSymbolTableRecord
100
AcDbBlockTableRecord
  2
ZEICHNUNGS-LOGO_3
340
0
102
{BLKREFS
331
5B
102
}
  0
BLOCK_RECORD
  5
35
330
1
100
AcDbSymbolTableRecord
100
AcDbBlockTableRecord
  2
BAUMüLLER - LOGO - SCHR_4
340
0
102
{BLKREFS
331
5C
102
}
  0
BLOCK_RECORD
  5
36
330
1
100
AcDbSymbolTableRecord
100
AcDbBlockTableRecord
  2
25X8_5
340
0
102
{BLKREFS
331
5D
102
}
  0
BLOCK_RECORD
  5
37
330
1
100
AcDbSymbolTableRecord
100
AcDbBlockTableRecord
  2
25X8_6
340
0
102
{BLKREFS
331
5E
102
}
  0
BLOCK_RECORD
  5
38
330
1
100
AcDbSymbolTableRecord
100
AcDbBlockTableRecord
  2
M25-KOPF_7
340
0
102
{BLKREFS
331
5F
102
}
  0
BLOCK_RECORD
  5
39
330
1
100
AcDbSymbolTableRecord
100
AcDbBlockTableRecord
  2
M25-KOPF_8
340
0
102
{BLKREFS
331
60
102
}
  0
BLOCK_RECORD
  5
3A
330
1
100
AcDbSymbolTableRecord
100
AcDbBlockTableRecord
  2
M25-KOPF_9
340
0
102
{BLKREFS
331
61
102
}
  0
BLOCK_RECORD
  5
3B
330
1
100
AcDbSymbolTableRecord
100
AcDbBlockTableRecord
  2
M25-KOPF_10
340
0
102
{BLKREFS
331
62
102
}
  0
BLOCK_RECORD
  5
3C
330
1
100
AcDbSymbolTableRecord
100
AcDbBlockTableRecord
  2
M3D_11
340
0
102
{BLKREFS
331
63
102
}
  0
BLOCK_RECORD
  5
3D
330
1
100
AcDbSymbolTableRecord
100
AcDbBlockTableRecord
  2
M3D_12
340
0
102
{BLKREFS
331
64
102
}
  0
BLOCK_RECORD
  5
3E
330
1
100
AcDbSymbolTableRecord
100
AcDbBlockTableRecord
  2
M25-KOPF_13
340
0
102
{BLKREFS
331
65
102
}
  0
BLOCK_RECORD
  5
3F
330
1
100
AcDbSymbolTableRecord
100
AcDbBlockTableRecord
  2
M25-KOPF_14
340
0
102
{BLKREFS
331
66
102
}
  0
BLOCK_RECORD
  5
40
330
1
100
AcDbSymbolTableRecord
100
AcDbBlockTableRecord
  2
M25-KOPF_15
340
0
102
{BLKREFS
331
67
102
}
  0
BLOCK_RECORD
  5
41
330
1
100
AcDbSymbolTableRecord
100
AcDbBlockTableRecord
  2
M25-KOPF_16
340
0
102
{BLKREFS
331
68
102
}
  0
BLOCK_RECORD
  5
42
330
1
100
AcDbSymbolTableRecord
100
AcDbBlockTableRecord
  2
ZEICHNUNGS-LOGO UND ADR_17
340
0
102
{BLKREFS
331
69
102
}
  0
BLOCK_RECORD
  5
43
330
1
100
AcDbSymbolTableRecord
100
AcDbBlockTableRecord
  2
ZEICHNUNGS-LOGO UND ADR_18
340
0
102
{BLKREFS
331
6A
102
}
  0
BLOCK_RECORD
  5
44
330
1
100
AcDbSymbolTableRecord
100
AcDbBlockTableRecord
  2
ZEICHNUNGS-LOGO UND ADR_19
340
0
102
{BLKREFS
331
6B
102
}
  0
BLOCK_RECORD
  5
45
330
1
100
AcDbSymbolTableRecord
100
AcDbBlockTableRecord
  2
ZEICHNUNGS-LOGO UND ADR_20
340
0
102
{BLKREFS
331
6C
102
}
  0
BLOCK_RECORD
  5
46
330
1
100
AcDbSymbolTableRecord
100
AcDbBlockTableRecord
  2
ZEICHNUNGS-LOGO UND ADR_21
340
0
102
{BLKREFS
331
6D
102
}
  0
BLOCK_RECORD
  5
47
330
1
100
AcDbSymbolTableRecord
100
AcDbBlockTableRecord
  2
ZEICHNUNGS-LOGO UND ADR_22
340
0
102
{BLKREFS
331
6E
102
}
  0
BLOCK_RECORD
  5
48
330
1
100
AcDbSymbolTableRecord
100
AcDbBlockTableRecord
  2
*D23
340
0
  0
BLOCK_RECORD
  5
49
330
1
100
AcDbSymbolTableRecord
100
AcDbBlockTableRecord
  2
*D24
340
0
  0
BLOCK_RECORD
  5
4A
330
1
100
AcDbSymbolTableRecord
100
AcDbBlockTableRecord
  2
*D25
340
0
  0
BLOCK_RECORD
  5
4B
330
1
100
AcDbSymbolTableRecord
100
AcDbBlockTableRecord
  2
*D26
340
0
  0
BLOCK_RECORD
  5
4C
330
1
100
AcDbSymbolTableRecord
100
AcDbBlockTableRecord
  2
*D27
340
0
  0
BLOCK_RECORD
  5
4D
330
1
100
AcDbSymbolTableRecord
100
AcDbBlockTableRecord
  2
*D28
340
0
  0
BLOCK_RECORD
  5
4E
330
1
100
AcDbSymbolTableRecord
100
AcDbBlockTableRecord
  2
*D29
340
0
  0
BLOCK_RECORD
  5
4F
330
1
100
AcDbSymbolTableRecord
100
AcDbBlockTableRecord
  2
*D30
340
0
  0
BLOCK_RECORD
  5
50
330
1
100
AcDbSymbolTableRecord
100
AcDbBlockTableRecord
  2
*D31
340
0
  0
BLOCK_RECORD
  5
51
330
1
100
AcDbSymbolTableRecord
100
AcDbBlockTableRecord
  2
*D32
340
0
  0
BLOCK_RECORD
  5
52
330
1
100
AcDbSymbolTableRecord
100
AcDbBlockTableRecord
  2
*D33
340
0
  0
BLOCK_RECORD
  5
53
330
1
100
AcDbSymbolTableRecord
100
AcDbBlockTableRecord
  2
*D34
340
0
  0
BLOCK_RECORD
  5
54
330
1
100
AcDbSymbolTableRecord
100
AcDbBlockTableRecord
  2
*D35
340
0
  0
BLOCK_RECORD
  5
55
330
1
100
AcDbSymbolTableRecord
100
AcDbBlockTableRecord
  2
*D36
340
0
  0
BLOCK_RECORD
  5
56
330
1
100
AcDbSymbolTableRecord
100
AcDbBlockTableRecord
  2
*D37
340
0
  0
BLOCK_RECORD
  5
57
330
1
100
AcDbSymbolTableRecord
100
AcDbBlockTableRecord
  2
*D38
340
0
  0
BLOCK_RECORD
  5
58
330
1
100
AcDbSymbolTableRecord
100
AcDbBlockTableRecord
  2
*D39
340
0
  0
BLOCK_RECORD
  5
463
330
1
100
AcDbSymbolTableRecord
100
AcDbBlockTableRecord
  2
GENAXEH
340
0
  0
BLOCK_RECORD
  5
4CD
330
1
100
AcDbSymbolTableRecord
100
AcDbBlockTableRecord
  2
METRIC_C
340
0
102
{BLKREFS
331
584
102
}
  0
ENDTAB
  0
ENDSEC
  0
SECTION
  2
BLOCKS
  0
BLOCK
  5
D
330
A
100
AcDbEntity
  8
0
100
AcDbBlockBegin
  2
*MODEL_SPACE
 70
     0
 71
     1
 10
0.0
 20
0.0
 30
0.0
  3
*MODEL_SPACE
  1

  0
ENDBLK
  5
E
330
A
100
AcDbEntity
  8
0
100
AcDbBlockEnd
  0
BLOCK
  5
F
330
B
100
AcDbEntity
 67
     1
  8
0
100
AcDbBlockBegin
  2
*PAPER_SPACE
 70
     0
 71
     1
 10
0.0
 20
0.0
 30
0.0
  3
*PAPER_SPACE
  1

  0
ENDBLK
  5
10
330
B
100
AcDbEntity
 67
     1
  8
0
100
AcDbBlockEnd
  0
BLOCK
  5
1B9
330
31
100
AcDbEntity
  8
0
100
AcDbBlockBegin
  2
ELIPPSE
 70
     0
 71
     1
 10
0.0
 20
0.0
 30
0.0
  3
ELIPPSE
  1

  0
CIRCLE
  5
1BA
330
31
100
AcDbEntity
  8
0
  6
ByBlock
 62
     0
100
AcDbCircle
 10
0.0
 20
0.0
 30
0.0
 40
1.0
  0
ENDBLK
  5
1BB
330
31
100
AcDbEntity
  8
0
  6
ByBlock
 62
     0
100
AcDbBlockEnd
  0
BLOCK
  5
1BC
330
32
100
AcDbEntity
  8
0
100
AcDbBlockBegin
  2
A2_1
 70
     0
 71
     1
 10
0.0
 20
0.0
 30
0.0
  3
A2_1
  1

  0
LINE
  5
1BD
330
32
100
AcDbEntity
  8
0
  6
AUSGEZOGEN
 62
   134
100
AcDbLine
 10
-583.0
 20
409.0
 30
0.0
 11
-583.0
 21
0.0
 31
0.0
  0
LINE
  5
1BE
330
32
100
AcDbEntity
  8
0
  6
AUSGEZOGEN
 62
   134
100
AcDbLine
 10
0.0
 20
409.0
 30
0.0
 11
-583.0
 21
409.0
 31
0.0
  0
LINE
  5
1BF
330
32
100
AcDbEntity
  8
0
  6
AUSGEZOGEN
 62
   134
100
AcDbLine
 10
0.0
 20
0.0
 30
0.0
 11
0.0
 21
409.0
 31
0.0
  0
LINE
  5
1C0
330
32
100
AcDbEntity
  8
0
  6
AUSGEZOGEN
 62
   134
100
AcDbLine
 10
-583.0
 20
0.0
 30
0.0
 11
0.0
 21
0.0
 31
0.0
  0
LINE
  5
1C1
330
32
100
AcDbEntity
  8
0
  6
AUSGEZOGEN
 62
     9
100
AcDbLine
 10
-578.0
 20
404.0
 30
0.0
 11
-578.0
 21
5.0
 31
0.0
  0
LINE
  5
1C2
330
32
100
AcDbEntity
  8
0
  6
AUSGEZOGEN
 62
     9
100
AcDbLine
 10
-578.0
 20
5.0
 30
0.0
 11
-215.0
 21
5.0
 31
0.0
  0
LINE
  5
1C3
330
32
100
AcDbEntity
  8
0
  6
AUSGEZOGEN
 62
     9
100
AcDbLine
 10
-5.0
 20
76.03785705566406
 30
0.0
 11
-5.0
 21
404.0
 31
0.0
  0
LINE
  5
1C4
330
32
100
AcDbEntity
  8
0
  6
AUSGEZOGEN
 62
     9
100
AcDbLine
 10
-5.0
 20
404.0
 30
0.0
 11
-578.0
 21
404.0
 31
0.0
  0
LINE
  5
1C5
330
32
100
AcDbEntity
  8
0
  6
AUSGEZOGEN
 62
     9
100
AcDbLine
 10
-526.7999992370605
 20
5.0
 30
0.0
 11
-526.7999992370605
 21
0.0
 31
0.0
  0
LINE
  5
1C6
330
32
100
AcDbEntity
  8
0
  6
AUSGEZOGEN
 62
     9
100
AcDbLine
 10
-526.7999992370605
 20
409.0
 30
0.0
 11
-526.7999992370605
 21
404.0
 31
0.0
  0
LINE
  5
1C7
330
32
100
AcDbEntity
  8
0
  6
AUSGEZOGEN
 62
     9
100
AcDbLine
 10
-474.599998474121
 20
5.0
 30
0.0
 11
-474.599998474121
 21
0.0
 31
0.0
  0
LINE
  5
1C8
330
32
100
AcDbEntity
  8
0
  6
AUSGEZOGEN
 62
     9
100
AcDbLine
 10
-474.599998474121
 20
409.0
 30
0.0
 11
-474.599998474121
 21
404.0
 31
0.0
  0
LINE
  5
1C9
330
32
100
AcDbEntity
  8
0
  6
AUSGEZOGEN
 62
     9
100
AcDbLine
 10
-422.3999938964843
 20
5.0
 30
0.0
 11
-422.3999938964843
 21
0.0
 31
0.0
  0
LINE
  5
1CA
330
32
100
AcDbEntity
  8
0
  6
AUSGEZOGEN
 62
     9
100
AcDbLine
 10
-422.3999938964843
 20
409.0
 30
0.0
 11
-422.3999938964843
 21
404.0
 31
0.0
  0
LINE
  5
1CB
330
32
100
AcDbEntity
  8
0
  6
AUSGEZOGEN
 62
     9
100
AcDbLine
 10
-370.1999969482422
 20
5.0
 30
0.0
 11
-370.1999969482422
 21
0.0
 31
0.0
  0
LINE
  5
1CC
330
32
100
AcDbEntity
  8
0
  6
AUSGEZOGEN
 62
     9
100
AcDbLine
 10
-370.1999969482422
 20
409.0
 30
0.0
 11
-370.1999969482422
 21
404.0
 31
0.0
  0
LINE
  5
1CD
330
32
100
AcDbEntity
  8
0
  6
AUSGEZOGEN
 62
     9
100
AcDbLine
 10
-318.0
 20
5.0
 30
0.0
 11
-318.0
 21
0.0
 31
0.0
  0
LINE
  5
1CE
330
32
100
AcDbEntity
  8
0
  6
AUSGEZOGEN
 62
     9
100
AcDbLine
 10
-318.0
 20
409.0
 30
0.0
 11
-318.0
 21
404.0
 31
0.0
  0
LINE
  5
1CF
330
32
100
AcDbEntity
  8
0
  6
AUSGEZOGEN
 62
     9
100
AcDbLine
 10
-265.7999877929687
 20
5.0
 30
0.0
 11
-265.7999877929687
 21
0.0
 31
0.0
  0
LINE
  5
1D0
330
32
100
AcDbEntity
  8
0
  6
AUSGEZOGEN
 62
     9
100
AcDbLine
 10
-265.7999877929687
 20
409.0
 30
0.0
 11
-265.7999877929687
 21
404.0
 31
0.0
  0
LINE
  5
1D1
330
32
100
AcDbEntity
  8
0
  6
AUSGEZOGEN
 62
     9
100
AcDbLine
 10
-213.5999755859375
 20
409.0
 30
0.0
 11
-213.5999755859375
 21
404.0
 31
0.0
  0
LINE
  5
1D2
330
32
100
AcDbEntity
  8
0
  6
AUSGEZOGEN
 62
     9
100
AcDbLine
 10
-161.3999633789062
 20
409.0
 30
0.0
 11
-161.3999633789062
 21
404.0
 31
0.0
  0
LINE
  5
1D3
330
32
100
AcDbEntity
  8
0
  6
AUSGEZOGEN
 62
     9
100
AcDbLine
 10
-109.1999511718749
 20
409.0
 30
0.0
 11
-109.1999511718749
 21
404.0
 31
0.0
  0
LINE
  5
1D4
330
32
100
AcDbEntity
  8
0
  6
AUSGEZOGEN
 62
     9
100
AcDbLine
 10
-56.99993896484375
 20
409.0
 30
0.0
 11
-56.99993896484375
 21
404.0
 31
0.0
  0
LINE
  5
1D5
330
32
100
AcDbEntity
  8
0
  6
AUSGEZOGEN
 62
     9
100
AcDbLine
 10
-578.0
 20
355.0
 30
0.0
 11
-583.0
 21
355.0
 31
0.0
  0
LINE
  5
1D6
330
32
100
AcDbEntity
  8
0
  6
AUSGEZOGEN
 62
     9
100
AcDbLine
 10
0.0
 20
355.0
 30
0.0
 11
-5.0
 21
355.0
 31
0.0
  0
LINE
  5
1D7
330
32
100
AcDbEntity
  8
0
  6
AUSGEZOGEN
 62
     9
100
AcDbLine
 10
-578.0
 20
305.0
 30
0.0
 11
-583.0
 21
305.0
 31
0.0
  0
LINE
  5
1D8
330
32
100
AcDbEntity
  8
0
  6
AUSGEZOGEN
 62
     9
100
AcDbLine
 10
0.0
 20
305.0
 30
0.0
 11
-5.0
 21
305.0
 31
0.0
  0
LINE
  5
1D9
330
32
100
AcDbEntity
  8
0
  6
AUSGEZOGEN
 62
     9
100
AcDbLine
 10
-578.0
 20
255.0
 30
0.0
 11
-583.0
 21
255.0
 31
0.0
  0
LINE
  5
1DA
330
32
100
AcDbEntity
  8
0
  6
AUSGEZOGEN
 62
     9
100
AcDbLine
 10
0.0
 20
255.0
 30
0.0
 11
-5.0
 21
255.0
 31
0.0
  0
LINE
  5
1DB
330
32
100
AcDbEntity
  8
0
  6
AUSGEZOGEN
 62
     9
100
AcDbLine
 10
-578.0
 20
205.0
 30
0.0
 11
-583.0
 21
205.0
 31
0.0
  0
LINE
  5
1DC
330
32
100
AcDbEntity
  8
0
  6
AUSGEZOGEN
 62
     9
100
AcDbLine
 10
0.0
 20
205.0
 30
0.0
 11
-5.0
 21
205.0
 31
0.0
  0
LINE
  5
1DD
330
32
100
AcDbEntity
  8
0
  6
AUSGEZOGEN
 62
     9
100
AcDbLine
 10
-578.0
 20
155.0
 30
0.0
 11
-583.0
 21
155.0
 31
0.0
  0
LINE
  5
1DE
330
32
100
AcDbEntity
  8
0
  6
AUSGEZOGEN
 62
     9
100
AcDbLine
 10
0.0
 20
155.0
 30
0.0
 11
-5.0
 21
155.0
 31
0.0
  0
LINE
  5
1DF
330
32
100
AcDbEntity
  8
0
  6
AUSGEZOGEN
 62
     9
100
AcDbLine
 10
-578.0
 20
105.0
 30
0.0
 11
-583.0
 21
105.0
 31
0.0
  0
LINE
  5
1E0
330
32
100
AcDbEntity
  8
0
  6
AUSGEZOGEN
 62
     9
100
AcDbLine
 10
0.0
 20
105.0
 30
0.0
 11
-5.0
 21
105.0
 31
0.0
  0
LINE
  5
1E1
330
32
100
AcDbEntity
  8
0
  6
AUSGEZOGEN
 62
     9
100
AcDbLine
 10
-578.0
 20
55.0
 30
0.0
 11
-583.0
 21
55.0
 31
0.0
  0
TEXT
  5
1E2
330
32
100
AcDbEntity
  8
0
  6
AUSGEZOGEN
 62
     9
100
AcDbText
 10
-580.6113452911376
 20
29.38534778356552
 30
0.0
 40
3.0
  1
A
 41
0.7333333492279053
100
AcDbText
  0
TEXT
  5
1E3
330
32
100
AcDbEntity
  8
0
  6
AUSGEZOGEN
 62
     9
100
AcDbText
 10
-580.6196455955505
 20
80.18481296300889
 30
0.0
 40
3.0
  1
B
 41
0.7333333492279053
100
AcDbText
  0
TEXT
  5
1E4
330
32
100
AcDbEntity
  8
0
  6
AUSGEZOGEN
 62
     9
100
AcDbText
 10
-580.4854574203491
 20
129.3247436881065
 30
0.0
 40
3.0
  1
C
 41
0.7333333492279053
100
AcDbText
  0
TEXT
  5
1E5
330
32
100
AcDbEntity
  8
0
  6
AUSGEZOGEN
 62
     9
100
AcDbText
 10
-580.590594291687
 20
178.8923553824424
 30
0.0
 40
3.0
  1
D
 41
0.7333333492279053
100
AcDbText
  0
TEXT
  5
1E6
330
32
100
AcDbEntity
  8
0
  6
AUSGEZOGEN
 62
     9
100
AcDbText
 10
-580.590594291687
 20
227.9782928824424
 30
0.0
 40
3.0
  1
E
 41
0.7333333492279053
100
AcDbText
  0
TEXT
  5
1E7
330
32
100
AcDbEntity
  8
0
  6
AUSGEZOGEN
 62
     9
100
AcDbText
 10
-580.594744682312
 20
278.087072789669
 30
0.0
 40
3.0
  1
F
 41
0.7333333492279053
100
AcDbText
  0
TEXT
  5
1E8
330
32
100
AcDbEntity
  8
0
  6
AUSGEZOGEN
 62
     9
100
AcDbText
 10
-580.4854574203491
 20
327.2851318717002
 30
0.0
 40
3.0
  1
G
 41
0.7333333492279053
100
AcDbText
  0
TEXT
  5
1E9
330
32
100
AcDbEntity
  8
0
  6
AUSGEZOGEN
 62
     9
100
AcDbText
 10
-580.4896073341369
 20
378.5676636099815
 30
0.0
 40
3.0
  1
H
 41
0.7333333492279053
100
AcDbText
  0
TEXT
  5
1EA
330
32
100
AcDbEntity
  8
0
  6
AUSGEZOGEN
 62
     9
100
AcDbText
 10
-554.1824302673339
 20
405.0107788443565
 30
0.0
 40
3.0
  1
11
 41
0.7333333492279053
100
AcDbText
  0
TEXT
  5
1EB
330
32
100
AcDbEntity
  8
0
  6
AUSGEZOGEN
 62
     9
100
AcDbText
 10
-502.2606887817382
 20
405.0206360220909
 30
0.0
 40
3.0
  1
10
 41
0.7333333492279053
100
AcDbText
  0
TEXT
  5
1EC
330
32
100
AcDbEntity
  8
0
  6
AUSGEZOGEN
 62
     9
100
AcDbText
 10
-450.4920196533203
 20
405.0275329947472
 30
0.0
 40
3.0
  1
9
 41
0.7333333492279053
100
AcDbText
  0
TEXT
  5
1ED
330
32
100
AcDbEntity
  8
0
  6
AUSGEZOGEN
 62
     9
100
AcDbText
 10
-398.5835418701171
 20
404.9378723502159
 30
0.0
 40
3.0
  1
8
 41
0.7333333492279053
100
AcDbText
  0
TEXT
  5
1EE
330
32
100
AcDbEntity
  8
0
  6
AUSGEZOGEN
 62
     9
100
AcDbText
 10
-347.3121490478515
 20
404.995031774044
 30
0.0
 40
3.0
  1
7
 41
0.7333333492279053
100
AcDbText
  0
TEXT
  5
1EF
330
32
100
AcDbEntity
  8
0
  6
AUSGEZOGEN
 62
     9
100
AcDbText
 10
-293.8182983398437
 20
404.9762939810753
 30
0.0
 40
3.0
  1
6
 41
0.7333333492279053
100
AcDbText
  0
TEXT
  5
1F0
330
32
100
AcDbEntity
  8
0
  6
AUSGEZOGEN
 62
     9
100
AcDbText
 10
-242.0319213867187
 20
404.9615234732628
 30
0.0
 40
3.0
  1
5
 41
0.7333333492279053
100
AcDbText
  0
TEXT
  5
1F1
330
32
100
AcDbEntity
  8
0
  6
AUSGEZOGEN
 62
     9
100
AcDbText
 10
-188.8374023437499
 20
405.0275329947472
 30
0.0
 40
3.0
  1
4
 41
0.7333333492279053
100
AcDbText
  0
TEXT
  5
1F2
330
32
100
AcDbEntity
  8
0
  6
AUSGEZOGEN
 62
     9
100
AcDbText
 10
-136.4395141601562
 20
404.9762939810753
 30
0.0
 40
3.0
  1
3
 41
0.7333333492279053
100
AcDbText
  0
TEXT
  5
1F3
330
32
100
AcDbEntity
  8
0
  6
AUSGEZOGEN
 62
     9
100
AcDbText
 10
-83.61032104492187
 20
405.0255798697471
 30
0.0
 40
3.0
  1
2
 41
0.7333333492279053
100
AcDbText
  0
TEXT
  5
1F4
330
32
100
AcDbEntity
  8
0
  6
AUSGEZOGEN
 62
     9
100
AcDbText
 10
-32.27197265625
 20
405.0295166373253
 30
0.0
 40
3.0
  1
1
 41
0.7333333492279053
100
AcDbText
  0
TEXT
  5
1F5
330
32
100
AcDbEntity
  8
0
  6
AUSGEZOGEN
 62
     9
100
AcDbText
 10
-3.9488525390625
 20
378.7365173697471
 30
0.0
 40
3.0
  1
H
 41
0.7333333492279053
100
AcDbText
  0
TEXT
  5
1F6
330
32
100
AcDbEntity
  8
0
  6
AUSGEZOGEN
 62
     9
100
AcDbText
 10
-3.9447021484375
 20
328.4533142447471
 30
0.0
 40
3.0
  1
G
 41
0.7333333492279053
100
AcDbText
  0
TEXT
  5
1F7
330
32
100
AcDbEntity
  8
0
  6
AUSGEZOGEN
 62
     9
100
AcDbText
 10
-4.0360107421875
 20
279.087805211544
 30
0.0
 40
3.0
  1
F
 41
0.7333333492279053
100
AcDbText
  0
TEXT
  5
1F8
330
32
100
AcDbEntity
  8
0
  6
AUSGEZOGEN
 62
     9
100
AcDbText
 10
-3.9405517578125
 20
228.0820984244346
 30
0.0
 40
3.0
  1
E
 41
0.7333333492279053
100
AcDbText
  0
TEXT
  5
1F9
330
32
100
AcDbEntity
  8
0
  6
AUSGEZOGEN
 62
     9
100
AcDbText
 10
-4.0277099609375
 20
176.4507812857627
 30
0.0
 40
3.0
  1
D
 41
0.7333333492279053
100
AcDbText
  0
TEXT
  5
1FA
330
32
100
AcDbEntity
  8
0
  6
AUSGEZOGEN
 62
     9
100
AcDbText
 10
-4.0360107421875
 20
128.0818085074424
 30
0.0
 40
3.0
  1
C
 41
0.7333333492279053
100
AcDbText
  0
TEXT
  5
1FB
330
32
100
AcDbEntity
  8
0
  6
AUSGEZOGEN
 62
     9
100
AcDbText
 10
-3.9737548828125
 20
80.48931735754013
 30
0.0
 40
3.0
  1
B
 41
0.7333333492279053
100
AcDbText
  0
TEXT
  5
1FC
330
32
100
AcDbEntity
  8
0
  6
AUSGEZOGEN
 62
     9
100
AcDbText
 10
-554.5625228881836
 20
1.020645558834075
 30
0.0
 40
3.0
  1
11
 41
0.7333333492279053
100
AcDbText
  0
TEXT
  5
1FD
330
32
100
AcDbEntity
  8
0
  6
AUSGEZOGEN
 62
     9
100
AcDbText
 10
-502.9115753173828
 20
1.011778771877288
 30
0.0
 40
3.0
  1
10
 41
0.7333333492279053
100
AcDbText
  0
TEXT
  5
1FE
330
32
100
AcDbEntity
  8
0
  6
AUSGEZOGEN
 62
     9
100
AcDbText
 10
-449.7466125488281
 20
1.008822858333587
 30
0.0
 40
3.0
  1
9
 41
0.7333333492279053
100
AcDbText
  0
TEXT
  5
1FF
330
32
100
AcDbEntity
  8
0
  6
AUSGEZOGEN
 62
     9
100
AcDbText
 10
-398.8887939453125
 20
0.9497098326683044
 30
0.0
 40
3.0
  1
8
 41
0.7333333492279053
100
AcDbText
  0
TEXT
  5
200
330
32
100
AcDbEntity
  8
0
  6
AUSGEZOGEN
 62
     9
100
AcDbText
 10
-345.3516082763671
 20
1.047246396541595
 30
0.0
 40
3.0
  1
7
 41
0.7333333492279053
100
AcDbText
  0
TEXT
  5
201
330
32
100
AcDbEntity
  8
0
  6
AUSGEZOGEN
 62
     9
100
AcDbText
 10
-293.4588928222656
 20
0.9871482253074645
 30
0.0
 40
3.0
  1
6
 41
0.7333333492279053
100
AcDbText
  0
TEXT
  5
202
330
32
100
AcDbEntity
  8
0
  6
AUSGEZOGEN
 62
     9
100
AcDbText
 10
-241.9846496582031
 20
0.9871481895446779
 30
0.0
 40
3.0
  1
5
 41
0.7333333492279053
100
AcDbText
  0
LINE
  5
203
330
32
100
AcDbEntity
  8
0
  6
AUSGEZOGEN
 62
     9
100
AcDbLine
 10
-578.0
 20
31.09948348999023
 30
0.0
 11
-215.0
 21
31.09948348999023
 31
0.0
  0
LINE
  5
204
330
32
100
AcDbEntity
  8
0
  6
AUSGEZOGEN
 62
     9
100
AcDbLine
 10
-578.0
 20
21.11319351196289
 30
0.0
 11
-215.0
 21
21.11319351196289
 31
0.0
  0
LINE
  5
205
330
32
100
AcDbEntity
  8
0
  6
AUSGEZOGEN
 62
     9
100
AcDbLine
 10
-578.0
 20
11.12688064575195
 30
0.0
 11
-215.0
 21
11.12688064575195
 31
0.0
  0
LINE
  5
206
330
32
100
AcDbEntity
  8
0
  6
AUSGEZOGEN
 62
     9
100
AcDbLine
 10
-215.0
 20
36.09264755249023
 30
0.0
 11
-578.0
 21
36.09264755249023
 31
0.0
  0
LINE
  5
207
330
32
100
AcDbEntity
  8
0
  6
AUSGEZOGEN
 62
     9
100
AcDbLine
 10
-215.0
 20
16.12003707885742
 30
0.0
 11
-578.0
 21
16.12003707885742
 31
0.0
  0
LINE
  5
208
330
32
100
AcDbEntity
  8
0
  6
AUSGEZOGEN
 62
     9
100
AcDbLine
 10
-215.0
 20
26.10633468627929
 30
0.0
 11
-577.4446048736572
 21
26.10633468627929
 31
0.0
  0
TEXT
  5
209
330
32
100
AcDbEntity
  8
0
  6
AUSGEZOGEN
 62
     9
100
AcDbText
 10
-575.4273014068603
 20
32.52983245849609
 30
0.0
 40
2.0
  1
neu
 41
0.7000000029802323
100
AcDbText
  0
TEXT
  5
20A
330
32
100
AcDbEntity
  8
0
  6
AUSGEZOGEN
 62
     9
100
AcDbText
 10
-575.4273014068603
 20
27.39182434082031
 30
0.0
 40
2.0
  1
alt
 41
0.7000000029802323
100
AcDbText
  0
TEXT
  5
20B
330
32
100
AcDbEntity
  8
0
  6
AUSGEZOGEN
 62
     9
100
AcDbText
 10
-575.4273014068603
 20
22.50444183349609
 30
0.0
 40
2.0
  1
Feld
 41
0.7000000029802323
100
AcDbText
  0
TEXT
  5
20C
330
32
100
AcDbEntity
  8
0
  6
AUSGEZOGEN
 62
     9
100
AcDbText
 10
-575.4273014068603
 20
17.49174652099609
 30
0.0
 40
2.0
  1
Dat. Name
 41
0.7000000029802323
100
AcDbText
  0
TEXT
  5
20D
330
32
100
AcDbEntity
  8
0
  6
AUSGEZOGEN
 62
     9
100
AcDbText
 10
-575.4273014068603
 20
12.60436782836914
 30
0.0
 40
2.0
  1
Mitteil. Nr
 41
0.7000000029802323
100
AcDbText
  0
TEXT
  5
20E
330
32
100
AcDbEntity
  8
0
  6
AUSGEZOGEN
 62
     9
100
AcDbText
 10
-575.4273014068603
 20
7.090398406982421
 30
0.0
 40
2.0
  1
Änd. Buchst
 41
0.7000000029802323
100
AcDbText
  0
LINE
  5
20F
330
32
100
AcDbEntity
  8
0
  6
AUSGEZOGEN
 62
   134
100
AcDbLine
 10
-215.0
 20
75.0
 30
0.0
 11
0.0
 21
75.0
 31
0.0
  0
LINE
  5
210
330
32
100
AcDbEntity
  8
0
  6
AUSGEZOGEN
 62
   134
100
AcDbLine
 10
0.0
 20
75.0
 30
0.0
 11
0.0
 21
0.0
 31
0.0
  0
LINE
  5
211
330
32
100
AcDbEntity
  8
0
  6
AUSGEZOGEN
 62
   134
100
AcDbLine
 10
-215.0
 20
0.0
 30
0.0
 11
0.0
 21
0.0
 31
0.0
  0
LINE
  5
212
330
32
100
AcDbEntity
  8
0
  6
AUSGEZOGEN
 62
     9
100
AcDbLine
 10
-85.0
 20
71.0
 30
0.0
 11
0.0
 21
71.0
 31
0.0
  0
LINE
  5
213
330
32
100
AcDbEntity
  8
0
  6
AUSGEZOGEN
 62
     9
100
AcDbLine
 10
-85.0
 20
64.0
 30
0.0
 11
0.0
 21
64.0
 31
0.0
  0
LINE
  5
214
330
32
100
AcDbEntity
  8
0
  6
AUSGEZOGEN
 62
    14
100
AcDbLine
 10
-186.0
 20
57.0
 30
0.0
 11
0.0
 21
57.0
 31
0.0
  0
LINE
  5
215
330
32
100
AcDbEntity
  8
0
  6
AUSGEZOGEN
 62
     9
100
AcDbLine
 10
-85.0
 20
50.0
 30
0.0
 11
0.0
 21
50.0
 31
0.0
  0
LINE
  5
216
330
32
100
AcDbEntity
  8
0
  6
AUSGEZOGEN
 62
    14
100
AcDbLine
 10
-85.0
 20
41.0
 30
0.0
 11
0.0
 21
41.0
 31
0.0
  0
LINE
  5
217
330
32
100
AcDbEntity
  8
0
  6
AUSGEZOGEN
 62
    14
100
AcDbLine
 10
-85.0
 20
19.0
 30
0.0
 11
0.0
 21
19.0
 31
0.0
  0
LINE
  5
218
330
32
100
AcDbEntity
  8
0
  6
AUSGEZOGEN
 62
     9
100
AcDbLine
 10
-127.0
 20
6.0
 30
0.0
 11
0.0
 21
6.0
 31
0.0
  0
LINE
  5
219
330
32
100
AcDbEntity
  8
0
  6
AUSGEZOGEN
 62
    14
100
AcDbLine
 10
-85.0
 20
75.0
 30
0.0
 11
-85.0
 21
0.0
 31
0.0
  0
LINE
  5
21A
330
32
100
AcDbEntity
  8
0
  6
AUSGEZOGEN
 62
    14
100
AcDbLine
 10
-12.0
 20
19.0
 30
0.0
 11
-12.0
 21
6.0
 31
0.0
  0
LINE
  5
21B
330
32
100
AcDbEntity
  8
0
  6
AUSGEZOGEN
 62
     9
100
AcDbLine
 10
-42.0
 20
6.0
 30
0.0
 11
-42.0
 21
0.0
 31
0.0
  0
LINE
  5
21C
330
32
100
AcDbEntity
  8
0
  6
AUSGEZOGEN
 62
     9
100
AcDbLine
 10
-15.5
 20
71.0
 30
0.0
 11
-15.5
 21
57.0
 31
0.0
  0
LINE
  5
21D
330
32
100
AcDbEntity
  8
0
  6
AUSGEZOGEN
 62
     9
100
AcDbLine
 10
-31.0
 20
71.0
 30
0.0
 11
-31.0
 21
57.0
 31
0.0
  0
LINE
  5
21E
330
32
100
AcDbEntity
  8
0
  6
AUSGEZOGEN
 62
     9
100
AcDbLine
 10
-46.5
 20
71.0
 30
0.0
 11
-46.5
 21
57.0
 31
0.0
  0
LINE
  5
21F
330
32
100
AcDbEntity
  8
0
  6
AUSGEZOGEN
 62
     9
100
AcDbLine
 10
-62.0
 20
71.0
 30
0.0
 11
-62.0
 21
57.0
 31
0.0
  0
LINE
  5
220
330
32
100
AcDbEntity
  8
0
  6
AUSGEZOGEN
 62
    14
100
AcDbLine
 10
-127.0
 20
75.0
 30
0.0
 11
-127.0
 21
0.0
 31
0.0
  0
LINE
  5
221
330
32
100
AcDbEntity
  8
0
  6
AUSGEZOGEN
 62
    14
100
AcDbLine
 10
-85.0
 20
41.0
 30
0.0
 11
-186.0
 21
41.0
 31
0.0
  0
LINE
  5
222
330
32
100
AcDbEntity
  8
0
  6
AUSGEZOGEN
 62
     9
100
AcDbLine
 10
-85.0
 20
36.59999084472656
 30
0.0
 11
-127.0
 21
36.59999084472656
 31
0.0
  0
LINE
  5
223
330
32
100
AcDbEntity
  8
0
  6
AUSGEZOGEN
 62
     9
100
AcDbLine
 10
-85.0
 20
32.19999694824219
 30
0.0
 11
-186.0
 21
32.19999694824219
 31
0.0
  0
LINE
  5
224
330
32
100
AcDbEntity
  8
0
  6
AUSGEZOGEN
 62
     9
100
AcDbLine
 10
-85.0
 20
27.79998779296875
 30
0.0
 11
-127.0
 21
27.79998779296875
 31
0.0
  0
LINE
  5
225
330
32
100
AcDbEntity
  8
0
  6
AUSGEZOGEN
 62
     9
100
AcDbLine
 10
-85.0
 20
23.39999389648437
 30
0.0
 11
-127.0
 21
23.39999389648437
 31
0.0
  0
LINE
  5
226
330
32
100
AcDbEntity
  8
0
  6
AUSGEZOGEN
 62
     9
100
AcDbLine
 10
-85.0
 20
18.99998474121093
 30
0.0
 11
-186.0
 21
18.99998474121093
 31
0.0
  0
LINE
  5
227
330
32
100
AcDbEntity
  8
0
  6
AUSGEZOGEN
 62
     9
100
AcDbLine
 10
-85.0
 20
14.59999084472656
 30
0.0
 11
-186.0
 21
14.59999084472656
 31
0.0
  0
LINE
  5
228
330
32
100
AcDbEntity
  8
0
  6
AUSGEZOGEN
 62
     9
100
AcDbLine
 10
-117.0
 20
41.0
 30
0.0
 11
-117.0
 21
23.39999389648437
 31
0.0
  0
LINE
  5
229
330
32
100
AcDbEntity
  8
0
  6
AUSGEZOGEN
 62
     9
100
AcDbLine
 10
-102.0
 20
41.0
 30
0.0
 11
-102.0
 21
14.59999084472656
 31
0.0
  0
LINE
  5
22A
330
32
100
AcDbEntity
  8
0
  6
AUSGEZOGEN
 62
    14
100
AcDbLine
 10
-186.0
 20
75.0
 30
0.0
 11
-186.0
 21
0.0
 31
0.0
  0
LINE
  5
22B
330
32
100
AcDbEntity
  8
0
  6
AUSGEZOGEN
 62
     9
100
AcDbLine
 10
-127.0
 20
10.19998168945312
 30
0.0
 11
-186.0
 21
10.19998168945312
 31
0.0
  0
LINE
  5
22C
330
32
100
AcDbEntity
  8
0
  6
AUSGEZOGEN
 62
     9
100
AcDbLine
 10
-141.7499999999999
 20
28.49455261230469
 30
0.0
 11
-141.7499999999999
 21
10.19998168945312
 31
0.0
  0
LINE
  5
22D
330
32
100
AcDbEntity
  8
0
  6
AUSGEZOGEN
 62
     9
100
AcDbLine
 10
-156.4999999999999
 20
28.17271423339843
 30
0.0
 11
-156.4999999999999
 21
10.19998168945312
 31
0.0
  0
LINE
  5
22E
330
32
100
AcDbEntity
  8
0
  6
AUSGEZOGEN
 62
     9
100
AcDbLine
 10
-171.25
 20
32.19999694824219
 30
0.0
 11
-171.25
 21
10.19998168945312
 31
0.0
  0
LINE
  5
22F
330
32
100
AcDbEntity
  8
0
  6
AUSGEZOGEN
 62
    14
100
AcDbLine
 10
-215.0
 20
65.14999389648437
 30
0.0
 11
-186.0
 21
65.14999389648437
 31
0.0
  0
LINE
  5
230
330
32
100
AcDbEntity
  8
0
  6
AUSGEZOGEN
 62
    14
100
AcDbLine
 10
-215.0
 20
55.30000305175781
 30
0.0
 11
-186.0
 21
55.30000305175781
 31
0.0
  0
LINE
  5
231
330
32
100
AcDbEntity
  8
0
  6
AUSGEZOGEN
 62
    14
100
AcDbLine
 10
-215.0
 20
45.44999694824219
 30
0.0
 11
-186.0
 21
45.44999694824219
 31
0.0
  0
LINE
  5
232
330
32
100
AcDbEntity
  8
0
  6
AUSGEZOGEN
 62
    14
100
AcDbLine
 10
-215.0
 20
35.60000610351562
 30
0.0
 11
-186.0
 21
35.60000610351562
 31
0.0
  0
LINE
  5
233
330
32
100
AcDbEntity
  8
0
  6
AUSGEZOGEN
 62
    14
100
AcDbLine
 10
-215.0
 20
25.75
 30
0.0
 11
-186.0
 21
25.75
 31
0.0
  0
LINE
  5
234
330
32
100
AcDbEntity
  8
0
  6
AUSGEZOGEN
 62
    14
100
AcDbLine
 10
-215.0
 20
15.90000915527343
 30
0.0
 11
-186.0
 21
15.90000915527343
 31
0.0
  0
LINE
  5
235
330
32
100
AcDbEntity
  8
0
  6
AUSGEZOGEN
 62
    14
100
AcDbLine
 10
-215.0
 20
6.050003051757812
 30
0.0
 11
-186.0
 21
6.050003051757812
 31
0.0
  0
LINE
  5
236
330
32
100
AcDbEntity
  8
0
  6
AUSGEZOGEN
 62
    14
100
AcDbLine
 10
-198.0
 20
75.0
 30
0.0
 11
-198.0
 21
0.0
 31
0.0
  0
LINE
  5
237
330
32
100
AcDbEntity
  8
0
  6
AUSGEZOGEN
 62
     9
100
AcDbLine
 10
-198.0
 20
70.07499694824218
 30
0.0
 11
-186.0
 21
70.07499694824218
 31
0.0
  0
LINE
  5
238
330
32
100
AcDbEntity
  8
0
  6
AUSGEZOGEN
 62
     9
100
AcDbLine
 10
-198.0
 20
60.22499084472656
 30
0.0
 11
-186.0
 21
60.22499084472656
 31
0.0
  0
LINE
  5
239
330
32
100
AcDbEntity
  8
0
  6
AUSGEZOGEN
 62
     9
100
AcDbLine
 10
-198.0
 20
50.375
 30
0.0
 11
-186.0
 21
50.375
 31
0.0
  0
LINE
  5
23A
330
32
100
AcDbEntity
  8
0
  6
AUSGEZOGEN
 62
     9
100
AcDbLine
 10
-198.0
 20
40.52499389648438
 30
0.0
 11
-186.0
 21
40.52499389648438
 31
0.0
  0
LINE
  5
23B
330
32
100
AcDbEntity
  8
0
  6
AUSGEZOGEN
 62
     9
100
AcDbLine
 10
-198.0
 20
30.67500305175781
 30
0.0
 11
-186.0
 21
30.67500305175781
 31
0.0
  0
LINE
  5
23C
330
32
100
AcDbEntity
  8
0
  6
AUSGEZOGEN
 62
     9
100
AcDbLine
 10
-198.0
 20
20.82501220703125
 30
0.0
 11
-186.0
 21
20.82501220703125
 31
0.0
  0
LINE
  5
23D
330
32
100
AcDbEntity
  8
0
  6
AUSGEZOGEN
 62
     9
100
AcDbLine
 10
-198.0
 20
10.97500610351562
 30
0.0
 11
-186.0
 21
10.97500610351562
 31
0.0
  0
TEXT
  5
23E
330
32
100
AcDbEntity
  8
0
  6
AUSGEZOGEN
 62
     9
100
AcDbText
 10
-94.96307373046875
 20
37.4515394449234
 30
0.0
 40
2.299999952316284
  1
Name
 41
0.7826086911452065
100
AcDbText
  0
TEXT
  5
23F
330
32
100
AcDbEntity
  8
0
  6
AUSGEZOGEN
 62
     9
100
AcDbText
 10
-113.3741455078125
 20
37.26396315097808
 30
0.0
 40
2.299999952316284
  1
Datum
 41
0.7826086911452065
100
AcDbText
  0
TEXT
  5
240
330
32
100
AcDbEntity
  8
0
  6
AUSGEZOGEN
 62
     9
100
AcDbText
 10
-126.2693481445312
 20
33.14894239902496
 30
0.0
 40
2.299999952316284
  1
Bearb.
 41
0.6521739395219127
100
AcDbText
  0
TEXT
  5
241
330
32
100
AcDbEntity
  8
0
  6
AUSGEZOGEN
 62
     9
100
AcDbText
 10
-126.2693481445312
 20
29.20994703769684
 30
0.0
 40
2.299999952316284
  1
Gepr.
 41
0.6521739395219127
100
AcDbText
  0
TEXT
  5
242
330
32
100
AcDbEntity
  8
0
  6
AUSGEZOGEN
 62
     9
100
AcDbText
 10
-126.2467651367187
 20
24.84672491550445
 30
0.0
 40
2.299999952316284
  1
Norm
 41
0.6521739395219127
100
AcDbText
  0
TEXT
  5
243
330
32
100
AcDbEntity
  8
0
  6
AUSGEZOGEN
 62
     9
100
AcDbText
 10
-40.697509765625
 20
2.625488209724426
 30
0.0
 40
2.299999952316284
  1
(Ers.d.:)
 41
0.6956521987013651
100
AcDbText
  0
TEXT
  5
244
330
32
100
AcDbEntity
  8
0
  6
AUSGEZOGEN
 62
     9
100
AcDbText
 10
-83.49755859374999
 20
2.625488209724426
 30
0.0
 40
2.299999952316284
  1
(Ers.f.:)
 41
0.6956521987013651
100
AcDbText
  0
TEXT
  5
245
330
32
100
AcDbEntity
  8
0
  6
AUSGEZOGEN
 62
     9
100
AcDbText
 10
-126.2975463867187
 20
2.625488209724426
 30
0.0
 40
2.299999952316284
  1
(Urspr.)
 41
0.6956521987013651
100
AcDbText
  0
TEXT
  5
246
330
32
100
AcDbEntity
  8
0
  6
AUSGEZOGEN
 62
     9
100
AcDbText
 10
-83.21746826171875
 20
51.9617919921875
 30
0.0
 40
2.5
  1
Maßstab:
 41
0.7199999809265137
100
AcDbText
  0
TEXT
  5
247
330
32
100
AcDbEntity
  8
0
  6
AUSGEZOGEN
 62
     9
100
AcDbText
 10
-83.21746826171875
 20
45.9617919921875
 30
0.0
 40
2.5
  1
Werkstoff
 41
0.7199999809265137
100
AcDbText
  0
TEXT
  5
248
330
32
100
AcDbEntity
  8
0
  6
AUSGEZOGEN
 62
     9
100
AcDbText
 10
-83.21746826171875
 20
41.96179199218749
 30
0.0
 40
2.5
  1
Rohteil-Nr.
 41
0.7199999809265137
100
AcDbText
  0
TEXT
  5
249
330
32
100
AcDbEntity
  8
0
  6
AUSGEZOGEN
 62
     9
100
AcDbText
 10
-126.2467651367187
 20
20.44671576023101
 30
0.0
 40
2.299999952316284
  1
VDE-gepr. Konstr
 41
0.6521739395219127
100
AcDbText
  0
TEXT
  5
24A
330
32
100
AcDbEntity
  8
0
  6
AUSGEZOGEN
 62
     9
100
AcDbText
 10
-126.2467651367187
 20
16.04672186374664
 30
0.0
 40
2.299999952316284
  1
VDE-gepr. Norm
 41
0.6521739395219127
100
AcDbText
  0
TEXT
  5
24B
330
32
100
AcDbEntity
  8
0
  6
AUSGEZOGEN
 62
     9
100
AcDbText
 10
-83.65960693359374
 20
71.88078460693358
 30
0.0
 40
2.0
  1
Symbole für die Oberflächenbeschaffenheit
 41
0.9000000357627868
100
AcDbText
  0
TEXT
  5
24C
330
32
100
AcDbEntity
  8
0
  6
AUSGEZOGEN
 62
     9
100
AcDbText
 10
-84.01879882812499
 20
59.25633392333985
 30
0.0
 40
2.0
  1
DIN ISO 4763
 41
0.8500000238418579
100
AcDbText
  0
LINE
  5
24D
330
32
100
AcDbEntity
  8
0
  6
AUSGEZOGEN
 62
     9
100
AcDbLine
 10
-39.98028564453125
 20
57.0
 30
0.0
 11
-39.98028564453125
 21
50.0
 31
0.0
  0
LINE
  5
24E
330
32
100
AcDbEntity
  8
0
  6
AUSGEZOGEN
 62
     9
100
AcDbLine
 10
-17.92303466796875
 20
54.66740417480469
 30
0.0
 11
-17.92303466796875
 21
52.16740417480469
 31
0.0
  0
LINE
  5
24F
330
32
100
AcDbEntity
  8
0
  6
STRICHPUNKT
 62
    54
100
AcDbLine
 10
-8.120361328125
 20
53.41740417480469
 30
0.0
 11
-3.120361328125
 21
53.41740417480469
 31
0.0
  0
LINE
  5
250
330
32
100
AcDbEntity
  8
0
  6
STRICHPUNKT
 62
    54
100
AcDbLine
 10
-17.92303466796875
 20
53.41740417480469
 30
0.0
 11
-12.92303466796875
 21
53.41740417480469
 31
0.0
  0
LINE
  5
251
330
32
100
AcDbEntity
  8
0
  6
AUSGEZOGEN
 62
     9
100
AcDbLine
 10
-12.92303466796875
 20
55.84162902832031
 30
0.0
 11
-12.92303466796875
 21
50.99317932128906
 31
0.0
  0
LINE
  5
252
330
32
100
AcDbEntity
  8
0
  6
AUSGEZOGEN
 62
     9
100
AcDbLine
 10
-12.92303466796875
 20
55.84162902832031
 30
0.0
 11
-17.92303466796875
 21
54.66740417480469
 31
0.0
  0
LINE
  5
253
330
32
100
AcDbEntity
  8
0
  6
AUSGEZOGEN
 62
     9
100
AcDbLine
 10
-12.92303466796875
 20
50.99317932128906
 30
0.0
 11
-17.92303466796875
 21
52.16740417480469
 31
0.0
  0
CIRCLE
  5
254
330
32
100
AcDbEntity
  8
0
  6
AUSGEZOGEN
 62
     9
100
AcDbCircle
 10
-5.620361328125
 20
53.41740417480469
 30
0.0
 40
2.5
  0
CIRCLE
  5
255
330
32
100
AcDbEntity
  8
0
  6
AUSGEZOGEN
 62
     9
100
AcDbCircle
 10
-5.620361328125
 20
53.41740417480469
 30
0.0
 40
1.25
  0
LINE
  5
256
330
32
100
AcDbEntity
  8
0
  6
STRICHPUNKT
 62
    54
100
AcDbLine
 10
-5.620361328125
 20
55.91740417480469
 30
0.0
 11
-5.620361328125
 21
50.91740417480469
 31
0.0
  0
LINE
  5
257
330
32
100
AcDbEntity
  8
0
  6
AUSGEZOGEN
 62
     9
100
AcDbLine
 10
-54.8507080078125
 20
64.92915344238281
 30
0.0
 11
-56.2940673828125
 21
67.42915344238281
 31
0.0
  0
LINE
  5
258
330
32
100
AcDbEntity
  8
0
  6
AUSGEZOGEN
 62
     9
100
AcDbLine
 10
-54.8507080078125
 20
64.92915344238281
 30
0.0
 11
-51.96392822265625
 21
69.92915344238281
 31
0.0
  0
LINE
  5
259
330
32
100
AcDbEntity
  8
0
  6
AUSGEZOGEN
 62
     9
100
AcDbLine
 10
-55.30621337890625
 20
57.86512756347656
 30
0.0
 11
-56.74957275390625
 21
60.36512756347656
 31
0.0
  0
LINE
  5
25A
330
32
100
AcDbEntity
  8
0
  6
AUSGEZOGEN
 62
     9
100
AcDbLine
 10
-55.30621337890625
 20
57.86512756347656
 30
0.0
 11
-52.41943359375
 21
62.86512756347656
 31
0.0
  0
LINE
  5
25B
330
32
100
AcDbEntity
  8
0
  6
AUSGEZOGEN
 62
     9
100
AcDbLine
 10
-44.26019287109375
 20
57.86512756347656
 30
0.0
 11
-45.70355224609374
 21
60.36512756347656
 31
0.0
  0
LINE
  5
25C
330
32
100
AcDbEntity
  8
0
  6
AUSGEZOGEN
 62
     9
100
AcDbLine
 10
-44.26019287109375
 20
57.86512756347656
 30
0.0
 11
-41.37341308593749
 21
62.86512756347656
 31
0.0
  0
LINE
  5
25D
330
32
100
AcDbEntity
  8
0
  6
AUSGEZOGEN
 62
     9
100
AcDbLine
 10
-45.70355224609374
 20
60.36512756347656
 30
0.0
 11
-42.8167724609375
 21
60.36512756347656
 31
0.0
  0
LINE
  5
25E
330
32
100
AcDbEntity
  8
0
  6
AUSGEZOGEN
 62
     9
100
AcDbLine
 10
-41.37341308593749
 20
62.86512756347656
 30
0.0
 11
-33.426513671875
 21
62.86512756347656
 31
0.0
  0
TEXT
  5
25F
330
32
100
AcDbEntity
  8
0
  6
AUSGEZOGEN
 62
     9
100
AcDbText
 10
-41.4739990234375
 20
59.61050720214844
 30
0.0
 40
1.5
  1
Rz25
 41
0.8666666746139526
100
AcDbText
  0
LINE
  5
260
330
32
100
AcDbEntity
  8
0
  6
AUSGEZOGEN
 62
     9
100
AcDbLine
 10
-28.8868408203125
 20
57.75119018554687
 30
0.0
 11
-30.3302001953125
 21
60.25119018554687
 31
0.0
  0
LINE
  5
261
330
32
100
AcDbEntity
  8
0
  6
AUSGEZOGEN
 62
     9
100
AcDbLine
 10
-28.8868408203125
 20
57.75119018554687
 30
0.0
 11
-26.00006103515625
 21
62.75119018554687
 31
0.0
  0
LINE
  5
262
330
32
100
AcDbEntity
  8
0
  6
AUSGEZOGEN
 62
     9
100
AcDbLine
 10
-30.3302001953125
 20
60.25119018554687
 30
0.0
 11
-27.44342041015625
 21
60.25119018554687
 31
0.0
  0
LINE
  5
263
330
32
100
AcDbEntity
  8
0
  6
AUSGEZOGEN
 62
     9
100
AcDbLine
 10
-26.00006103515625
 20
62.75119018554687
 30
0.0
 11
-18.05316162109375
 21
62.75119018554687
 31
0.0
  0
TEXT
  5
264
330
32
100
AcDbEntity
  8
0
  6
AUSGEZOGEN
 62
     9
100
AcDbText
 10
-26.10064697265625
 20
59.49656982421875
 30
0.0
 40
1.5
  1
Rz6,3
 41
0.8666666746139526
100
AcDbText
  0
LINE
  5
265
330
32
100
AcDbEntity
  8
0
  6
AUSGEZOGEN
 62
     9
100
AcDbLine
 10
-13.0579833984375
 20
57.75119018554687
 30
0.0
 11
-14.5013427734375
 21
60.25119018554687
 31
0.0
  0
LINE
  5
266
330
32
100
AcDbEntity
  8
0
  6
AUSGEZOGEN
 62
     9
100
AcDbLine
 10
-13.0579833984375
 20
57.75119018554687
 30
0.0
 11
-10.17120361328125
 21
62.75119018554687
 31
0.0
  0
LINE
  5
267
330
32
100
AcDbEntity
  8
0
  6
AUSGEZOGEN
 62
     9
100
AcDbLine
 10
-14.5013427734375
 20
60.25119018554687
 30
0.0
 11
-11.61456298828124
 21
60.25119018554687
 31
0.0
  0
LINE
  5
268
330
32
100
AcDbEntity
  8
0
  6
AUSGEZOGEN
 62
     9
100
AcDbLine
 10
-10.17120361328125
 20
62.75119018554687
 30
0.0
 11
-2.22430419921875
 21
62.75119018554687
 31
0.0
  0
TEXT
  5
269
330
32
100
AcDbEntity
  8
0
  6
AUSGEZOGEN
 62
     9
100
AcDbText
 10
-10.27178955078124
 20
59.49656984210014
 30
0.0
 40
1.5
  1
Rz2,5
 41
0.8666666746139526
100
AcDbText
  0
LINE
  5
26A
330
32
100
AcDbEntity
  8
0
  6
AUSGEZOGEN
 62
     9
100
AcDbLine
 10
-7.81964111328125
 20
64.92915344238281
 30
0.0
 11
-9.26300048828125
 21
67.42915344238281
 31
0.0
  0
LINE
  5
26B
330
32
100
AcDbEntity
  8
0
  6
AUSGEZOGEN
 62
     9
100
AcDbLine
 10
-7.81964111328125
 20
64.92915344238281
 30
0.0
 11
-4.932861328125
 21
69.92915344238281
 31
0.0
  0
LINE
  5
26C
330
32
100
AcDbEntity
  8
0
  6
AUSGEZOGEN
 62
     9
100
AcDbLine
 10
-23.64849853515625
 20
64.92915344238281
 30
0.0
 11
-25.09185791015625
 21
67.42915344238281
 31
0.0
  0
LINE
  5
26D
330
32
100
AcDbEntity
  8
0
  6
AUSGEZOGEN
 62
     9
100
AcDbLine
 10
-23.64849853515625
 20
64.92915344238281
 30
0.0
 11
-20.76171875
 21
69.92915344238281
 31
0.0
  0
LINE
  5
26E
330
32
100
AcDbEntity
  8
0
  6
AUSGEZOGEN
 62
     9
100
AcDbLine
 10
-39.1357421875
 20
64.92915344238281
 30
0.0
 11
-40.5791015625
 21
67.42915344238281
 31
0.0
  0
LINE
  5
26F
330
32
100
AcDbEntity
  8
0
  6
AUSGEZOGEN
 62
     9
100
AcDbLine
 10
-39.1357421875
 20
64.92915344238281
 30
0.0
 11
-36.24896240234375
 21
69.92915344238281
 31
0.0
  0
CIRCLE
  5
270
330
32
100
AcDbEntity
  8
0
  6
AUSGEZOGEN
 62
     9
100
AcDbCircle
 10
-54.84625244140625
 20
66.95063781738281
 30
0.0
 40
1.0
  0
CIRCLE
  5
271
330
32
100
AcDbEntity
  8
0
  6
AUSGEZOGEN
 62
     9
100
AcDbCircle
 10
-55.2982177734375
 20
60.03184509277343
 30
0.0
 40
1.0
  0
TEXT
  5
272
330
32
100
AcDbEntity
  8
0
  6
AUSGEZOGEN
 62
     9
100
AcDbText
 10
-39.90234375
 20
67.19925079345703
 30
0.0
 40
2.0
  1
w
 41
0.7999999821186066
100
AcDbText
  0
TEXT
  5
273
330
32
100
AcDbEntity
  8
0
  6
AUSGEZOGEN
 62
     9
100
AcDbText
 10
-24.2171630859375
 20
67.4444595336914
 30
0.0
 40
2.0
  1
x
 41
0.7999999821186066
100
AcDbText
  0
TEXT
  5
274
330
32
100
AcDbEntity
  8
0
  6
AUSGEZOGEN
 62
     9
100
AcDbText
 10
-8.409423828125
 20
67.4444595336914
 30
0.0
 40
2.0
  1
y
 41
0.7999999821186066
100
AcDbText
  0
TEXT
  5
275
330
32
100
AcDbEntity
  8
0
  6
AUSGEZOGEN
 62
     9
100
AcDbText
 10
-9.7740478515625
 20
15.31469669938087
 30
0.0
 40
2.299999952316284
  1
Blatt
 41
0.6956521987013651
100
AcDbText
  0
TEXT
  5
276
330
32
100
AcDbEntity
  8
0
  6
AUSGEZOGEN
 62
     9
100
AcDbText
 10
-4.7576904296875
 20
7.397430807352066
 30
0.0
 40
2.299999952316284
  1
Bl.
 41
0.6956521987013651
100
AcDbText
  0
TEXT
  5
277
330
32
100
AcDbEntity
  8
0
  6
AUSGEZOGEN
 62
     9
100
AcDbText
 10
-183.556396484375
 20
68.1602767944336
 30
0.0
 40
3.0
  1
Für diese Zeichnung behalten
 41
0.6333333253860474
100
AcDbText
  0
TEXT
  5
278
330
32
100
AcDbEntity
  8
0
  6
AUSGEZOGEN
 62
     9
100
AcDbText
 10
-183.556396484375
 20
63.3602767944336
 30
0.0
 40
3.0
  1
wir uns alle Rechte vor.
 41
0.6333333253860474
100
AcDbText
  0
TEXT
  5
279
330
32
100
AcDbEntity
  8
0
  6
AUSGEZOGEN
 62
     9
100
AcDbText
 10
-164.8905029296875
 20
29.18658599853515
 30
0.0
 40
2.0
  1
Nennmaßbereich  (mm)
 41
0.8500000238418579
100
AcDbText
  0
TEXT
  5
27A
330
32
100
AcDbEntity
  8
0
  6
AUSGEZOGEN
 62
     9
100
AcDbText
 10
-182.3128662109374
 20
15.91395530700683
 30
0.0
 40
2.0
  1
fein
 41
0.7500000149011612
100
AcDbText
  0
TEXT
  5
27B
330
32
100
AcDbEntity
  8
0
  6
AUSGEZOGEN
 62
     9
100
AcDbText
 10
-183.8898315429687
 20
11.39082298278808
 30
0.0
 40
2.0
  1
mittel
 41
0.7500000149011612
100
AcDbText
  0
TEXT
  5
27C
330
32
100
AcDbEntity
  8
0
  6
AUSGEZOGEN
 62
     9
100
AcDbText
 10
-185.0853271484375
 20
5.03837547302246
 30
0.0
 40
2.0
  1
"fein" für Bohrungen u. Lochmittenabstand
 41
0.7000000029802323
100
AcDbText
  0
TEXT
  5
27D
330
32
100
AcDbEntity
  8
0
  6
AUSGEZOGEN
 62
     9
100
AcDbText
 10
-185.0853271484375
 20
1.83837547302246
 30
0.0
 40
2.0
  1
"mittel" für alle anderen Maße
 41
0.7000000029802323
100
AcDbText
  0
TEXT
  5
27E
330
32
100
AcDbEntity
  8
0
  6
AUSGEZOGEN
 62
     9
100
AcDbText
 10
-164.1904296874999
 20
15.70356712341308
 30
0.0
 40
2.0
  1
0,1
 41
0.8000000119209289
100
AcDbText
  0
TEXT
  5
27F
330
32
100
AcDbEntity
  8
0
  6
AUSGEZOGEN
 62
     9
100
AcDbText
 10
-149.3793945312499
 20
15.59838829040527
 30
0.0
 40
2.0
  1
0,15
 41
0.8000000119209289
100
AcDbText
  0
TEXT
  5
280
330
32
100
AcDbEntity
  8
0
  6
AUSGEZOGEN
 62
     9
100
AcDbText
 10
-135.4104614257812
 20
15.90002403259277
 30
0.0
 40
2.0
  1
0,2
 41
0.8000000119209289
100
AcDbText
  0
TEXT
  5
281
330
32
100
AcDbEntity
  8
0
  6
AUSGEZOGEN
 62
     9
100
AcDbText
 10
-135.186279296875
 20
11.60119590759277
 30
0.0
 40
2.0
  1
0,5
 41
0.8000000119209289
100
AcDbText
  0
TEXT
  5
282
330
32
100
AcDbEntity
  8
0
  6
AUSGEZOGEN
 62
     9
100
AcDbText
 10
-149.3515625
 20
11.39082298278808
 30
0.0
 40
2.0
  1
0,3
 41
0.8000000119209289
100
AcDbText
  0
TEXT
  5
283
330
32
100
AcDbEntity
  8
0
  6
AUSGEZOGEN
 62
     9
100
AcDbText
 10
-164.5263671875
 20
11.39082298278808
 30
0.0
 40
2.0
  1
0,2
 41
0.8000000119209289
100
AcDbText
  0
LINE
  5
284
330
32
100
AcDbEntity
  8
0
  6
AUSGEZOGEN
 62
     9
100
AcDbLine
 10
-167.5855102539062
 20
13.42669677734375
 30
0.0
 11
-167.5855102539062
 21
11.98603820800781
 31
0.0
  0
LINE
  5
285
330
32
100
AcDbEntity
  8
0
  6
AUSGEZOGEN
 62
     9
100
AcDbLine
 10
-168.3058471679687
 20
12.70635986328125
 30
0.0
 11
-166.865234375
 21
12.70635986328125
 31
0.0
  0
LINE
  5
286
330
32
100
AcDbEntity
  8
0
  6
AUSGEZOGEN
 62
     9
100
AcDbLine
 10
-168.3058471679687
 20
11.51724243164062
 30
0.0
 11
-166.865234375
 21
11.51724243164062
 31
0.0
  0
LINE
  5
287
330
32
100
AcDbEntity
  8
0
  6
AUSGEZOGEN
 62
     9
100
AcDbLine
 10
-152.8222045898437
 20
13.30757141113281
 30
0.0
 11
-152.8222045898437
 21
11.86691284179687
 31
0.0
  0
LINE
  5
288
330
32
100
AcDbEntity
  8
0
  6
AUSGEZOGEN
 62
     9
100
AcDbLine
 10
-153.5425415039062
 20
12.58723449707031
 30
0.0
 11
-152.1018676757812
 21
12.58723449707031
 31
0.0
  0
LINE
  5
289
330
32
100
AcDbEntity
  8
0
  6
AUSGEZOGEN
 62
     9
100
AcDbLine
 10
-153.5425415039062
 20
11.39811706542968
 30
0.0
 11
-152.1018676757812
 21
11.39811706542968
 31
0.0
  0
LINE
  5
28A
330
32
100
AcDbEntity
  8
0
  6
AUSGEZOGEN
 62
     9
100
AcDbLine
 10
-152.703125
 20
17.71505737304687
 30
0.0
 11
-152.703125
 21
16.27439880371093
 31
0.0
  0
LINE
  5
28B
330
32
100
AcDbEntity
  8
0
  6
AUSGEZOGEN
 62
     9
100
AcDbLine
 10
-153.4234619140625
 20
16.99472045898437
 30
0.0
 11
-151.9827880859375
 21
16.99472045898437
 31
0.0
  0
LINE
  5
28C
330
32
100
AcDbEntity
  8
0
  6
AUSGEZOGEN
 62
     9
100
AcDbLine
 10
-153.4234619140625
 20
15.80560302734375
 30
0.0
 11
-151.9827880859375
 21
15.80560302734375
 31
0.0
  0
LINE
  5
28D
330
32
100
AcDbEntity
  8
0
  6
AUSGEZOGEN
 62
     9
100
AcDbLine
 10
-138.5350952148437
 20
17.71505737304687
 30
0.0
 11
-138.5350952148437
 21
16.27439880371093
 31
0.0
  0
LINE
  5
28E
330
32
100
AcDbEntity
  8
0
  6
AUSGEZOGEN
 62
     9
100
AcDbLine
 10
-139.2554321289062
 20
16.99472045898437
 30
0.0
 11
-137.8147583007812
 21
16.99472045898437
 31
0.0
  0
LINE
  5
28F
330
32
100
AcDbEntity
  8
0
  6
AUSGEZOGEN
 62
     9
100
AcDbLine
 10
-139.2554321289062
 20
15.80560302734375
 30
0.0
 11
-137.8147583007812
 21
15.80560302734375
 31
0.0
  0
LINE
  5
290
330
32
100
AcDbEntity
  8
0
  6
AUSGEZOGEN
 62
     9
100
AcDbLine
 10
-138.416015625
 20
13.30757141113281
 30
0.0
 11
-138.416015625
 21
11.86691284179687
 31
0.0
  0
LINE
  5
291
330
32
100
AcDbEntity
  8
0
  6
AUSGEZOGEN
 62
     9
100
AcDbLine
 10
-139.1363525390625
 20
12.58723449707031
 30
0.0
 11
-137.6956787109375
 21
12.58723449707031
 31
0.0
  0
LINE
  5
292
330
32
100
AcDbEntity
  8
0
  6
AUSGEZOGEN
 62
     9
100
AcDbLine
 10
-139.1363525390625
 20
11.39811706542968
 30
0.0
 11
-137.6956787109375
 21
11.39811706542968
 31
0.0
  0
LINE
  5
293
330
32
100
AcDbEntity
  8
0
  6
AUSGEZOGEN
 62
     9
100
AcDbLine
 10
-167.4664916992187
 20
17.59593200683593
 30
0.0
 11
-167.4664916992187
 21
16.15528869628906
 31
0.0
  0
LINE
  5
294
330
32
100
AcDbEntity
  8
0
  6
AUSGEZOGEN
 62
     9
100
AcDbLine
 10
-168.1868286132812
 20
16.8756103515625
 30
0.0
 11
-166.7461547851562
 21
16.8756103515625
 31
0.0
  0
LINE
  5
295
330
32
100
AcDbEntity
  8
0
  6
AUSGEZOGEN
 62
     9
100
AcDbLine
 10
-168.1868286132812
 20
15.68649291992187
 30
0.0
 11
-166.7461547851562
 21
15.68649291992187
 31
0.0
  0
TEXT
  5
296
330
32
100
AcDbEntity
  8
0
  6
AUSGEZOGEN
 62
     9
100
AcDbText
 10
-182.5210571289062
 20
37.70758056640625
 30
0.0
 40
2.5
  1
   Zulässige Abweichung
 41
0.7599999904632569
100
AcDbText
  0
TEXT
  5
297
330
32
100
AcDbEntity
  8
0
  6
AUSGEZOGEN
 62
     9
100
AcDbText
 10
-182.5210571289062
 20
33.70758056640625
 30
0.0
 40
2.5
  1
für Maße ohne Toleranzangabe
 41
0.7599999904632569
100
AcDbText
  0
TEXT
  5
298
330
32
100
AcDbEntity
  8
0
  6
AUSGEZOGEN
 62
     9
100
AcDbText
 10
-183.9574584960937
 20
51.31889343261718
 30
0.0
 40
2.5
  1
Unbemaßte Radien    R =   mm
 41
0.7599999904632569
100
AcDbText
  0
TEXT
  5
299
330
32
100
AcDbEntity
  8
0
  6
AUSGEZOGEN
 62
     9
100
AcDbText
 10
-183.9574584960937
 20
47.31889343261719
 30
0.0
 40
2.5
  1
Bearbeitungszugabe  Z =   mm
 41
0.7599999904632569
100
AcDbText
  0
TEXT
  5
29A
330
32
100
AcDbEntity
  8
0
  6
AUSGEZOGEN
 62
     9
100
AcDbText
 10
-183.9574584960937
 20
43.31889343261718
 30
0.0
 40
2.5
  1
Alle Kanten entgratet
 41
0.7599999904632569
100
AcDbText
  0
TEXT
  5
29B
330
32
100
AcDbEntity
  8
0
  6
AUSGEZOGEN
 62
     9
100
AcDbText
 10
-185.2591857910156
 20
27.75071868896484
 30
0.0
 40
2.0
  1
Genauig-
 41
0.8500000238418579
100
AcDbText
  0
TEXT
  5
29C
330
32
100
AcDbEntity
  8
0
  6
AUSGEZOGEN
 62
     9
100
AcDbText
 10
-185.2591857910156
 20
24.55071868896484
 30
0.0
 40
2.0
  1
 keits-
 41
0.8500000238418579
100
AcDbText
  0
TEXT
  5
29D
330
32
100
AcDbEntity
  8
0
  6
AUSGEZOGEN
 62
     9
100
AcDbText
 10
-185.2591857910156
 20
21.35071868896484
 30
0.0
 40
2.0
  1
  grad
 41
0.8500000238418579
100
AcDbText
  0
TEXT
  5
29E
330
32
100
AcDbEntity
  8
0
  6
AUSGEZOGEN
 62
     9
100
AcDbText
 10
-154.9282836914062
 20
23.38236961364746
 30
0.0
 40
2.0
  1
über30
 41
0.8500000238418579
100
AcDbText
  0
TEXT
  5
29F
330
32
100
AcDbEntity
  8
0
  6
AUSGEZOGEN
 62
     9
100
AcDbText
 10
-154.9282836914062
 20
20.18236961364746
 30
0.0
 40
2.0
  1
bis 120
 41
0.8500000238418579
100
AcDbText
  0
TEXT
  5
2A0
330
32
100
AcDbEntity
  8
0
  6
AUSGEZOGEN
 62
     9
100
AcDbText
 10
-141.208984375
 20
23.47502098083496
 30
0.0
 40
2.0
  1
über 120
 41
0.8500000238418579
100
AcDbText
  0
TEXT
  5
2A1
330
32
100
AcDbEntity
  8
0
  6
AUSGEZOGEN
 62
     9
100
AcDbText
 10
-168.3252258300781
 20
20.22669944763183
 30
0.0
 40
2.0
  1
bis 30
 41
0.8500000238418579
100
AcDbText
  0
TEXT
  5
2A2
330
32
100
AcDbEntity
  8
0
  6
AUSGEZOGEN
 62
     9
100
AcDbText
 10
-83.85766601562499
 20
68.27705535888672
 30
0.0
 40
2.0
  1
Symbol in der
 41
0.8500000238418579
100
AcDbText
  0
TEXT
  5
2A3
330
32
100
AcDbEntity
  8
0
  6
AUSGEZOGEN
 62
     9
100
AcDbText
 10
-83.85766601562499
 20
65.07705535888671
 30
0.0
 40
2.0
  1
Zeichnung
 41
0.8500000238418579
100
AcDbText
  0
TEXT
  5
2A4
330
32
100
AcDbEntity
  8
0
  6
AUSGEZOGEN
 62
     9
100
AcDbText
 10
-39.38946533203125
 20
54.14639434814453
 30
0.0
 40
2.0
  1
Projektions-
 41
0.8500000238418579
100
AcDbText
  0
TEXT
  5
2A5
330
32
100
AcDbEntity
  8
0
  6
AUSGEZOGEN
 62
     9
100
AcDbText
 10
-39.38946533203125
 20
50.94639434814453
 30
0.0
 40
2.0
  1
Methode 1
 41
0.8500000238418579
100
AcDbText
  0
LINE
  5
2A6
330
32
100
AcDbEntity
  8
0
  6
AUSGEZOGEN
 62
   134
100
AcDbLine
 10
-215.0
 20
75.0
 30
0.0
 11
-215.0
 21
0.0
 31
0.0
  0
TEXT
  5
2A7
330
32
100
AcDbEntity
  8
0
  6
AUSGEZOGEN
 62
     9
100
AcDbText
 10
-211.5203857421875
 20
1.494354152679443
 30
0.0
 40
3.0
  1
Paßmaß
 41
0.5666666825612387
100
AcDbText
  0
TEXT
  5
2A8
330
32
100
AcDbEntity
  8
0
  6
AUSGEZOGEN
 62
     9
100
AcDbText
 10
-197.1044616699218
 20
1.494354152679443
 30
0.0
 40
3.0
  1
Abmaß
 41
0.5666666825612387
100
AcDbText
  0
LINE
  5
2A9
330
32
100
AcDbEntity
  8
0
  6
AUSGEZOGEN
 62
     9
100
AcDbLine
 10
-550.5127646567951
 20
36.02345657348632
 30
0.0
 11
-550.5127646567951
 21
5.0
 31
0.0
  0
LINE
  5
2AA
330
32
100
AcDbEntity
  8
0
  6
PUNKT3
 62
     9
100
AcDbLine
 10
-379.0
 20
409.0
 30
0.0
 11
-379.0
 21
404.0
 31
0.0
  0
LINE
  5
2AB
330
32
100
AcDbEntity
  8
0
  6
PUNKT3
 62
     9
100
AcDbLine
 10
-187.0
 20
409.0
 30
0.0
 11
-187.0
 21
404.0
 31
0.0
  0
LINE
  5
2AC
330
32
100
AcDbEntity
  8
0
  6
PUNKT3
 62
     9
100
AcDbLine
 10
-5.0
 20
292.0
 30
0.0
 11
0.0
 21
292.0
 31
0.0
  0
TEXT
  5
2AD
330
32
100
AcDbEntity
  8
0
  6
AUSGEZOGEN
 62
     9
100
AcDbText
 10
-115.9162104537783
 20
33.19758253669582
 30
0.0
 40
2.0
  1
30.09.02
 41
0.8000000268220901
100
AcDbText
  0
TEXT
  5
2AE
330
32
100
AcDbEntity
  8
0
  6
AUSGEZOGEN
 62
     9
100
AcDbText
 10
-100.8785230395749
 20
33.19758253669582
 30
0.0
 40
2.0
  1
Richter
 41
0.8000000268220901
100
AcDbText
  0
TEXT
  5
2AF
330
32
100
AcDbEntity
  8
0
  6
AUSGEZOGEN
 62
    94
100
AcDbText
 10
-83.24172915871901
 20
32.91910684384021
 30
0.0
 40
5.0
  1
DSD 28
 41
0.6800000190734864
100
AcDbText
  0
TEXT
  5
2B0
330
32
100
AcDbEntity
  8
0
  6
AUSGEZOGEN
 62
    94
100
AcDbText
 10
-83.42737962062278
 20
22.70833143913415
 30
0.0
 40
5.0
  1
Maßblatt
 41
0.6800000190734864
100
AcDbText
  0
TEXT
  5
2B1
330
32
100
AcDbEntity
  8
0
  6
AUSGEZOGEN
 62
    94
100
AcDbText
 10
-83.52020485157465
 20
10.0841000296794
 30
0.0
 40
5.0
  1
M0280007A
 41
0.6800000190734864
100
AcDbText
  0
TEXT
  5
2B2
330
32
100
AcDbEntity
  8
0
  6
AUSGEZOGEN
 62
    14
100
AcDbText
 10
-66.44036235643
 20
51.76262872707044
 30
0.0
 40
3.0
  1
1:1
 41
0.7333333492279053
100
AcDbText
  0
TEXT
  5
2B3
330
32
100
AcDbEntity
  8
0
  6
AUSGEZOGEN
 62
    14
100
AcDbText
 10
-61.79910080883633
 20
43.50118317235373
 30
0.0
 40
3.0
  1
 
 41
0.7333333492279053
100
AcDbText
  0
LINE
  5
2B4
330
32
100
AcDbEntity
  8
2
  6
AUSGEZOGEN
 62
     9
100
AcDbLine
 10
-588.4999999999999
 20
414.5
 30
0.0
 11
-588.4999999999999
 21
-5.5
 31
0.0
  0
LINE
  5
2B5
330
32
100
AcDbEntity
  8
2
  6
AUSGEZOGEN
 62
     9
100
AcDbLine
 10
5.5
 20
414.5
 30
0.0
 11
-588.4999999999999
 21
414.5
 31
0.0
  0
LINE
  5
2B6
330
32
100
AcDbEntity
  8
2
  6
AUSGEZOGEN
 62
     9
100
AcDbLine
 10
5.5
 20
-5.5
 30
0.0
 11
5.5
 21
414.5
 31
0.0
  0
LINE
  5
2B7
330
32
100
AcDbEntity
  8
2
  6
AUSGEZOGEN
 62
     9
100
AcDbLine
 10
-588.4999999999999
 20
-5.5
 30
0.0
 11
5.5
 21
-5.5
 31
0.0
  0
ENDBLK
  5
2B8
330
32
100
AcDbEntity
  8
0
  6
ByBlock
 62
     0
100
AcDbBlockEnd
  0
BLOCK
  5
2B9
330
33
100
AcDbEntity
  8
0
100
AcDbBlockBegin
  2
ZEICHNUNGS-LOGO UND ADR_2
 70
     0
 71
     1
 10
0.0
 20
0.0
 30
0.0
  3
ZEICHNUNGS-LOGO UND ADR_2
  1

  0
TEXT
  5
2BA
330
33
100
AcDbEntity
  8
1
  6
AUSGEZOGEN
 62
    14
100
AcDbText
 10
-40.93171359223299
 20
-22.99791666666666
 30
0.0
 40
2.729166666666666
  1
Baum³ller N³rnberg
 41
0.6058252427184466
100
AcDbText
  0
TEXT
  5
2BB
330
33
100
AcDbEntity
  8
1
  6
AUSGEZOGEN
 62
    14
100
AcDbText
 10
-40.93171359223299
 20
-27.36458333333333
 30
0.0
 40
2.729166666666666
  1
GmbH
 41
0.6058252427184466
100
AcDbText
  0
TEXT
  5
2BC
330
33
100
AcDbEntity
  8
1
  6
AUSGEZOGEN
 62
    14
100
AcDbText
 10
-40.93171359223299
 20
-31.73124999999999
 30
0.0
 40
2.729166666666666
  1
37581 Bad Gandersheim
 41
0.6058252427184466
100
AcDbText
  0
TEXT
  5
2BD
330
33
100
AcDbEntity
  8
1
  6
AUSGEZOGEN
 62
    14
100
AcDbText
 10
-3.839109861060649
 20
-22.58623165928999
 30
0.0
 40
2.729166666666666
  1
 
 41
0.6058252427184466
100
AcDbText
  0
TEXT
  5
2BE
330
33
100
AcDbEntity
  8
1
  6
AUSGEZOGEN
 62
    14
100
AcDbText
 10
-15.31144319439397
 20
-26.99529314796316
 30
0.0
 40
2.729166666666666
  1
 
 41
0.6058252427184466
100
AcDbText
  0
ENDBLK
  5
2BF
330
33
100
AcDbEntity
  8
0
  6
ByBlock
 62
     0
100
AcDbBlockEnd
  0
BLOCK
  5
2C0
330
34
100
AcDbEntity
  8
0
100
AcDbBlockBegin
  2
ZEICHNUNGS-LOGO_3
 70
     0
 71
     1
 10
0.0
 20
0.0
 30
0.0
  3
ZEICHNUNGS-LOGO_3
  1

  0
ENDBLK
  5
2C1
330
34
100
AcDbEntity
  8
0
  6
ByBlock
 62
     0
100
AcDbBlockEnd
  0
BLOCK
  5
2C2
330
35
100
AcDbEntity
  8
0
100
AcDbBlockBegin
  2
BAUMüLLER - LOGO - SCHR_4
 70
     0
 71
     1
 10
0.0
 20
0.0
 30
0.0
  3
BAUMüLLER - LOGO - SCHR_4
  1

  0
ENDBLK
  5
2C3
330
35
100
AcDbEntity
  8
0
  6
ByBlock
 62
     0
100
AcDbBlockEnd
  0
BLOCK
  5
2C4
330
36
100
AcDbEntity
  8
0
100
AcDbBlockBegin
  2
25X8_5
 70
     0
 71
     1
 10
0.0
 20
0.0
 30
0.0
  3
25X8_5
  1

  0
LINE
  5
2C5
330
36
100
AcDbEntity
  8
10
  6
AUSGEZOGEN
 62
    14
100
AcDbLine
 10
42.16666666579988
 20
-1.499999999399733
 30
0.0
 11
37.83333333419989
 21
-1.499999999399733
 31
0.0
  0
LINE
  5
2C6
330
36
100
AcDbEntity
  8
10
  6
AUSGEZOGEN
 62
    14
100
AcDbLine
 10
42.33333333239977
 20
0.0
 30
0.0
 11
42.16666666579988
 21
-1.499999999399733
 31
0.0
  0
LINE
  5
2C7
330
36
100
AcDbEntity
  8
10
  6
AUSGEZOGEN
 62
    14
100
AcDbLine
 10
37.83333333419989
 20
-1.499999999399733
 30
0.0
 11
37.66666666759988
 21
0.0
 31
0.0
  0
ARC
  5
2C8
330
36
100
AcDbEntity
  8
10
  6
AUSGEZOGEN
 62
    14
100
AcDbCircle
 10
40.0
 20
2.944444443266242
 30
0.0
 40
4.944444442466474
100
AcDbArc
 50
272.8982133896736
 51
295.9892335838326
  0
ARC
  5
2C9
330
36
100
AcDbEntity
  8
10
  6
AUSGEZOGEN
 62
    14
100
AcDbCircle
 10
39.99999999999977
 20
2.944444443265922
 30
0.0
 40
4.94444444246614
100
AcDbArc
 50
244.0107664161656
 51
267.1017866103261
  0
LINE
  5
2CA
330
36
100
AcDbEntity
  8
10
  6
AUSGEZOGEN
 62
    14
100
AcDbLine
 10
40.24999999989984
 20
-1.999999999199644
 30
0.0
 11
40.24999999989984
 21
-1.749999999299689
 31
0.0
  0
LINE
  5
2CB
330
36
100
AcDbEntity
  8
10
  6
AUSGEZOGEN
 62
    14
100
AcDbLine
 10
39.75000000009993
 20
-1.993675729905589
 30
0.0
 11
39.75000000009993
 21
-1.749999999299689
 31
0.0
  0
LINE
  5
2CC
330
36
100
AcDbEntity
  8
10
  6
AUSGEZOGEN
 62
    14
100
AcDbLine
 10
39.75000000009993
 20
-1.749999999299689
 30
0.0
 11
40.24999999989984
 21
-1.749999999299689
 31
0.0
  0
LINE
  5
2CD
330
36
100
AcDbEntity
  8
10
  6
VERDECKT
 62
   214
100
AcDbLine
 10
41.66666666599986
 20
-1.71063375898575
 30
0.0
 11
39.99999999999988
 21
-0.4166666664996228
 31
0.0
  0
LINE
  5
2CE
330
36
100
AcDbEntity
  8
10
  6
VERDECKT
 62
   214
100
AcDbLine
 10
39.99999999999988
 20
-0.4166666664996228
 30
0.0
 11
38.3333333339998
 21
-1.71063375898575
 31
0.0
  0
LINE
  5
2CF
330
36
100
AcDbEntity
  8
10
  6
VERDECKT
 62
   214
100
AcDbLine
 10
40.24999999989984
 20
-0.6107617303728148
 30
0.0
 11
39.75000000009993
 21
-0.6107617303728148
 31
0.0
  0
LINE
  5
2D0
330
36
100
AcDbEntity
  8
10
  6
VERDECKT
 62
   214
100
AcDbLine
 10
40.24999999989984
 20
-1.749999999299689
 30
0.0
 11
40.24999999989972
 21
-0.6107617303728148
 31
0.0
  0
LINE
  5
2D1
330
36
100
AcDbEntity
  8
10
  6
VERDECKT
 62
   214
100
AcDbLine
 10
39.75000000009993
 20
-0.6107617303728148
 30
0.0
 11
39.75000000009993
 21
-1.749999999299689
 31
0.0
  0
LINE
  5
2D2
330
36
100
AcDbEntity
  8
10
  6
AUSGEZOGEN
 62
    14
100
AcDbLine
 10
42.33333333239977
 20
0.0
 30
0.0
 11
37.66666666759988
 21
0.0
 31
0.0
  0
ENDBLK
  5
2D3
330
36
100
AcDbEntity
  8
0
  6
ByBlock
 62
     0
100
AcDbBlockEnd
  0
BLOCK
  5
2D4
330
37
100
AcDbEntity
  8
0
100
AcDbBlockBegin
  2
25X8_6
 70
     0
 71
     1
 10
0.0
 20
0.0
 30
0.0
  3
25X8_6
  1

  0
LINE
  5
2D5
330
37
100
AcDbEntity
  8
10
  6
AUSGEZOGEN
 62
    14
100
AcDbLine
 10
42.16666666579988
 20
-1.499999999399733
 30
0.0
 11
37.83333333419989
 21
-1.499999999399733
 31
0.0
  0
LINE
  5
2D6
330
37
100
AcDbEntity
  8
10
  6
AUSGEZOGEN
 62
    14
100
AcDbLine
 10
42.33333333239977
 20
0.0
 30
0.0
 11
42.16666666579988
 21
-1.499999999399733
 31
0.0
  0
LINE
  5
2D7
330
37
100
AcDbEntity
  8
10
  6
AUSGEZOGEN
 62
    14
100
AcDbLine
 10
37.83333333419989
 20
-1.499999999399733
 30
0.0
 11
37.66666666759988
 21
0.0
 31
0.0
  0
ARC
  5
2D8
330
37
100
AcDbEntity
  8
10
  6
AUSGEZOGEN
 62
    14
100
AcDbCircle
 10
40.0
 20
2.944444443266071
 30
0.0
 40
4.944444442466314
100
AcDbArc
 50
272.8982133896737
 51
295.9892335838335
  0
ARC
  5
2D9
330
37
100
AcDbEntity
  8
10
  6
AUSGEZOGEN
 62
    14
100
AcDbCircle
 10
39.99999999999977
 20
2.944444443266071
 30
0.0
 40
4.944444442466314
100
AcDbArc
 50
244.0107664161665
 51
267.1017866103262
  0
LINE
  5
2DA
330
37
100
AcDbEntity
  8
10
  6
AUSGEZOGEN
 62
    14
100
AcDbLine
 10
40.24999999989984
 20
-1.999999999199644
 30
0.0
 11
40.24999999989984
 21
-1.749999999299689
 31
0.0
  0
LINE
  5
2DB
330
37
100
AcDbEntity
  8
10
  6
AUSGEZOGEN
 62
    14
100
AcDbLine
 10
39.75000000009993
 20
-1.993675729905589
 30
0.0
 11
39.75000000009993
 21
-1.749999999299689
 31
0.0
  0
LINE
  5
2DC
330
37
100
AcDbEntity
  8
10
  6
AUSGEZOGEN
 62
    14
100
AcDbLine
 10
39.75000000009993
 20
-1.749999999299689
 30
0.0
 11
40.24999999989984
 21
-1.749999999299689
 31
0.0
  0
LINE
  5
2DD
330
37
100
AcDbEntity
  8
10
  6
VERDECKT
 62
   214
100
AcDbLine
 10
41.66666666599986
 20
-1.71063375898575
 30
0.0
 11
39.99999999999988
 21
-0.4166666664996228
 31
0.0
  0
LINE
  5
2DE
330
37
100
AcDbEntity
  8
10
  6
VERDECKT
 62
   214
100
AcDbLine
 10
39.99999999999988
 20
-0.4166666664996228
 30
0.0
 11
38.3333333339998
 21
-1.71063375898575
 31
0.0
  0
LINE
  5
2DF
330
37
100
AcDbEntity
  8
10
  6
VERDECKT
 62
   214
100
AcDbLine
 10
40.24999999989984
 20
-0.6107617303728148
 30
0.0
 11
39.75000000009993
 21
-0.6107617303728148
 31
0.0
  0
LINE
  5
2E0
330
37
100
AcDbEntity
  8
10
  6
VERDECKT
 62
   214
100
AcDbLine
 10
40.24999999989984
 20
-1.749999999299689
 30
0.0
 11
40.24999999989972
 21
-0.6107617303728148
 31
0.0
  0
LINE
  5
2E1
330
37
100
AcDbEntity
  8
10
  6
VERDECKT
 62
   214
100
AcDbLine
 10
39.75000000009993
 20
-0.6107617303728148
 30
0.0
 11
39.75000000009993
 21
-1.749999999299689
 31
0.0
  0
LINE
  5
2E2
330
37
100
AcDbEntity
  8
10
  6
AUSGEZOGEN
 62
    14
100
AcDbLine
 10
42.33333333239977
 20
0.0
 30
0.0
 11
37.66666666759988
 21
0.0
 31
0.0
  0
ENDBLK
  5
2E3
330
37
100
AcDbEntity
  8
0
  6
ByBlock
 62
     0
100
AcDbBlockEnd
  0
BLOCK
  5
2E4
330
38
100
AcDbEntity
  8
0
100
AcDbBlockBegin
  2
M25-KOPF_7
 70
     0
 71
     1
 10
0.0
 20
0.0
 30
0.0
  3
M25-KOPF_7
  1

  0
LINE
  5
2E5
330
38
100
AcDbEntity
  8
5
  6
AUSGEZOGEN
 62
    14
100
AcDbLine
 10
1.499999999939973
 20
2.166666666580113
 30
0.0
 11
1.499999999939973
 21
-2.166666666580113
 31
0.0
  0
LINE
  5
2E6
330
38
100
AcDbEntity
  8
5
  6
AUSGEZOGEN
 62
    14
100
AcDbLine
 10
-0.0000000000002274
 20
2.333333333240261
 30
0.0
 11
1.499999999939973
 21
2.166666666580113
 31
0.0
  0
LINE
  5
2E7
330
38
100
AcDbEntity
  8
5
  6
AUSGEZOGEN
 62
    14
100
AcDbLine
 10
1.499999999939973
 20
-2.166666666580113
 30
0.0
 11
-0.0000000000002274
 21
-2.333333333240261
 31
0.0
  0
ARC
  5
2E8
330
38
100
AcDbEntity
  8
5
  6
AUSGEZOGEN
 62
    14
100
AcDbCircle
 10
-2.944444444326904
 20
0.0
 30
0.0
 40
4.944444444246812
100
AcDbArc
 50
2.898213389674822
 51
25.98923358383257
  0
ARC
  5
2E9
330
38
100
AcDbEntity
  8
5
  6
AUSGEZOGEN
 62
    14
100
AcDbCircle
 10
-2.944444444326904
 20
0.0
 30
0.0
 40
4.944444444246812
100
AcDbArc
 50
334.0107664161674
 51
357.1017866103251
  0
LINE
  5
2EA
330
38
100
AcDbEntity
  8
5
  6
AUSGEZOGEN
 62
    14
100
AcDbLine
 10
1.999999999919964
 20
0.2499999999899956
 30
0.0
 11
1.749999999929968
 21
0.2499999999899956
 31
0.0
  0
LINE
  5
2EB
330
38
100
AcDbEntity
  8
5
  6
AUSGEZOGEN
 62
    14
100
AcDbLine
 10
1.993675730623181
 20
-0.2499999999899956
 30
0.0
 11
1.749999999929968
 21
-0.2499999999899956
 31
0.0
  0
LINE
  5
2EC
330
38
100
AcDbEntity
  8
5
  6
AUSGEZOGEN
 62
    14
100
AcDbLine
 10
1.749999999929968
 20
-0.2499999999899956
 30
0.0
 11
1.749999999929968
 21
0.2499999999899956
 31
0.0
  0
LINE
  5
2ED
330
38
100
AcDbEntity
  8
5
  6
VERDECKT
 62
   214
100
AcDbLine
 10
1.710633759601364
 20
1.666666666600121
 30
0.0
 11
0.4166666666499168
 21
0.0
 31
0.0
  0
LINE
  5
2EE
330
38
100
AcDbEntity
  8
5
  6
VERDECKT
 62
   214
100
AcDbLine
 10
0.4166666666499168
 20
0.0
 30
0.0
 11
1.710633759601364
 21
-1.666666666600121
 31
0.0
  0
LINE
  5
2EF
330
38
100
AcDbEntity
  8
5
  6
VERDECKT
 62
   214
100
AcDbLine
 10
0.6107617305925715
 20
0.2499999999899956
 30
0.0
 11
0.6107617305925715
 21
-0.2499999999899956
 31
0.0
  0
LINE
  5
2F0
330
38
100
AcDbEntity
  8
5
  6
VERDECKT
 62
   214
100
AcDbLine
 10
1.749999999929968
 20
0.2499999999899956
 30
0.0
 11
0.6107617305925715
 21
0.2499999999899956
 31
0.0
  0
LINE
  5
2F1
330
38
100
AcDbEntity
  8
5
  6
VERDECKT
 62
   214
100
AcDbLine
 10
0.6107617305925715
 20
-0.2499999999899956
 30
0.0
 11
1.749999999929968
 21
-0.2499999999899956
 31
0.0
  0
ENDBLK
  5
2F2
330
38
100
AcDbEntity
  8
0
  6
ByBlock
 62
     0
100
AcDbBlockEnd
  0
BLOCK
  5
2F3
330
39
100
AcDbEntity
  8
0
100
AcDbBlockBegin
  2
M25-KOPF_8
 70
     0
 71
     1
 10
0.0
 20
0.0
 30
0.0
  3
M25-KOPF_8
  1

  0
LINE
  5
2F4
330
39
100
AcDbEntity
  8
5
  6
AUSGEZOGEN
 62
    14
100
AcDbLine
 10
1.499999999939859
 20
2.166666666580113
 30
0.0
 11
1.499999999939859
 21
-2.166666666580113
 31
0.0
  0
LINE
  5
2F5
330
39
100
AcDbEntity
  8
5
  6
AUSGEZOGEN
 62
    14
100
AcDbLine
 10
-0.0000000000002274
 20
2.333333333239806
 30
0.0
 11
1.499999999939859
 21
2.166666666580113
 31
0.0
  0
LINE
  5
2F6
330
39
100
AcDbEntity
  8
5
  6
AUSGEZOGEN
 62
    14
100
AcDbLine
 10
1.499999999939859
 20
-2.166666666580113
 30
0.0
 11
-0.0000000000002274
 21
-2.333333333240261
 31
0.0
  0
ARC
  5
2F7
330
39
100
AcDbEntity
  8
5
  6
AUSGEZOGEN
 62
    14
100
AcDbCircle
 10
-2.944444444326904
 20
0.0
 30
0.0
 40
4.944444444246812
100
AcDbArc
 50
2.898213389674822
 51
25.98923358383257
  0
ARC
  5
2F8
330
39
100
AcDbEntity
  8
5
  6
AUSGEZOGEN
 62
    14
100
AcDbCircle
 10
-2.944444444326904
 20
0.0
 30
0.0
 40
4.944444444246812
100
AcDbArc
 50
334.0107664161674
 51
357.1017866103251
  0
LINE
  5
2F9
330
39
100
AcDbEntity
  8
5
  6
AUSGEZOGEN
 62
    14
100
AcDbLine
 10
1.99999999991985
 20
0.2499999999899956
 30
0.0
 11
1.749999999929968
 21
0.2499999999899956
 31
0.0
  0
LINE
  5
2FA
330
39
100
AcDbEntity
  8
5
  6
AUSGEZOGEN
 62
    14
100
AcDbLine
 10
1.993675730623067
 20
-0.2499999999899956
 30
0.0
 11
1.749999999929968
 21
-0.2499999999899956
 31
0.0
  0
LINE
  5
2FB
330
39
100
AcDbEntity
  8
5
  6
AUSGEZOGEN
 62
    14
100
AcDbLine
 10
1.749999999929968
 20
-0.2499999999899956
 30
0.0
 11
1.749999999929968
 21
0.2499999999899956
 31
0.0
  0
LINE
  5
2FC
330
39
100
AcDbEntity
  8
5
  6
VERDECKT
 62
   214
100
AcDbLine
 10
1.710633759601364
 20
1.666666666600121
 30
0.0
 11
0.4166666666499168
 21
0.0
 31
0.0
  0
LINE
  5
2FD
330
39
100
AcDbEntity
  8
5
  6
VERDECKT
 62
   214
100
AcDbLine
 10
0.4166666666499168
 20
0.0
 30
0.0
 11
1.710633759601364
 21
-1.666666666600121
 31
0.0
  0
LINE
  5
2FE
330
39
100
AcDbEntity
  8
5
  6
VERDECKT
 62
   214
100
AcDbLine
 10
0.6107617305925715
 20
0.2499999999899956
 30
0.0
 11
0.6107617305925715
 21
-0.2499999999899956
 31
0.0
  0
LINE
  5
2FF
330
39
100
AcDbEntity
  8
5
  6
VERDECKT
 62
   214
100
AcDbLine
 10
1.749999999929968
 20
0.2499999999899956
 30
0.0
 11
0.6107617305925715
 21
0.2499999999899956
 31
0.0
  0
LINE
  5
300
330
39
100
AcDbEntity
  8
5
  6
VERDECKT
 62
   214
100
AcDbLine
 10
0.6107617305925715
 20
-0.2499999999899956
 30
0.0
 11
1.749999999929968
 21
-0.2499999999899956
 31
0.0
  0
ENDBLK
  5
301
330
39
100
AcDbEntity
  8
0
  6
ByBlock
 62
     0
100
AcDbBlockEnd
  0
BLOCK
  5
302
330
3A
100
AcDbEntity
  8
0
100
AcDbBlockBegin
  2
M25-KOPF_9
 70
     0
 71
     1
 10
0.0
 20
0.0
 30
0.0
  3
M25-KOPF_9
  1

  0
LINE
  5
303
330
3A
100
AcDbEntity
  8
5
  6
AUSGEZOGEN
 62
    14
100
AcDbLine
 10
1.499999999939973
 20
2.166666666580113
 30
0.0
 11
1.499999999939973
 21
-2.166666666580113
 31
0.0
  0
LINE
  5
304
330
3A
100
AcDbEntity
  8
5
  6
AUSGEZOGEN
 62
    14
100
AcDbLine
 10
-0.0000000000004547
 20
2.333333333240261
 30
0.0
 11
1.499999999939973
 21
2.166666666580113
 31
0.0
  0
LINE
  5
305
330
3A
100
AcDbEntity
  8
5
  6
AUSGEZOGEN
 62
    14
100
AcDbLine
 10
1.499999999939973
 20
-2.166666666580113
 30
0.0
 11
-0.0000000000004547
 21
-2.333333333240261
 31
0.0
  0
ARC
  5
306
330
3A
100
AcDbEntity
  8
5
  6
AUSGEZOGEN
 62
    14
100
AcDbCircle
 10
-2.944444444327018
 20
0.0
 30
0.0
 40
4.944444444246812
100
AcDbArc
 50
2.898213389674822
 51
25.98923358383257
  0
ARC
  5
307
330
3A
100
AcDbEntity
  8
5
  6
AUSGEZOGEN
 62
    14
100
AcDbCircle
 10
-2.944444444327018
 20
0.0
 30
0.0
 40
4.944444444246812
100
AcDbArc
 50
334.0107664161674
 51
357.1017866103251
  0
LINE
  5
308
330
3A
100
AcDbEntity
  8
5
  6
AUSGEZOGEN
 62
    14
100
AcDbLine
 10
1.999999999919964
 20
0.2499999999899956
 30
0.0
 11
1.749999999929968
 21
0.2499999999899956
 31
0.0
  0
LINE
  5
309
330
3A
100
AcDbEntity
  8
5
  6
AUSGEZOGEN
 62
    14
100
AcDbLine
 10
1.993675730623181
 20
-0.2499999999899956
 30
0.0
 11
1.749999999929968
 21
-0.2499999999899956
 31
0.0
  0
LINE
  5
30A
330
3A
100
AcDbEntity
  8
5
  6
AUSGEZOGEN
 62
    14
100
AcDbLine
 10
1.749999999929968
 20
-0.2499999999899956
 30
0.0
 11
1.749999999929968
 21
0.2499999999899956
 31
0.0
  0
LINE
  5
30B
330
3A
100
AcDbEntity
  8
5
  6
VERDECKT
 62
   214
100
AcDbLine
 10
1.71063375960125
 20
1.666666666600121
 30
0.0
 11
0.4166666666499168
 21
0.0
 31
0.0
  0
LINE
  5
30C
330
3A
100
AcDbEntity
  8
5
  6
VERDECKT
 62
   214
100
AcDbLine
 10
0.4166666666499168
 20
0.0
 30
0.0
 11
1.71063375960125
 21
-1.666666666600121
 31
0.0
  0
LINE
  5
30D
330
3A
100
AcDbEntity
  8
5
  6
VERDECKT
 62
   214
100
AcDbLine
 10
0.6107617305924578
 20
0.2499999999899956
 30
0.0
 11
0.6107617305924578
 21
-0.2499999999899956
 31
0.0
  0
LINE
  5
30E
330
3A
100
AcDbEntity
  8
5
  6
VERDECKT
 62
   214
100
AcDbLine
 10
1.749999999929968
 20
0.2499999999899956
 30
0.0
 11
0.6107617305924578
 21
0.2499999999899956
 31
0.0
  0
LINE
  5
30F
330
3A
100
AcDbEntity
  8
5
  6
VERDECKT
 62
   214
100
AcDbLine
 10
0.6107617305924578
 20
-0.2499999999899956
 30
0.0
 11
1.749999999929968
 21
-0.2499999999899956
 31
0.0
  0
ENDBLK
  5
310
330
3A
100
AcDbEntity
  8
0
  6
ByBlock
 62
     0
100
AcDbBlockEnd
  0
BLOCK
  5
311
330
3B
100
AcDbEntity
  8
0
100
AcDbBlockBegin
  2
M25-KOPF_10
 70
     0
 71
     1
 10
0.0
 20
0.0
 30
0.0
  3
M25-KOPF_10
  1

  0
LINE
  5
312
330
3B
100
AcDbEntity
  8
5
  6
AUSGEZOGEN
 62
    14
100
AcDbLine
 10
1.499999999939973
 20
2.166666666580113
 30
0.0
 11
1.499999999939973
 21
-2.166666666580113
 31
0.0
  0
LINE
  5
313
330
3B
100
AcDbEntity
  8
5
  6
AUSGEZOGEN
 62
    14
100
AcDbLine
 10
-0.0000000000004547
 20
2.333333333239806
 30
0.0
 11
1.499999999939973
 21
2.166666666580113
 31
0.0
  0
LINE
  5
314
330
3B
100
AcDbEntity
  8
5
  6
AUSGEZOGEN
 62
    14
100
AcDbLine
 10
1.499999999939973
 20
-2.166666666580113
 30
0.0
 11
-0.0000000000004547
 21
-2.333333333240261
 31
0.0
  0
ARC
  5
315
330
3B
100
AcDbEntity
  8
5
  6
AUSGEZOGEN
 62
    14
100
AcDbCircle
 10
-2.944444444327018
 20
0.0
 30
0.0
 40
4.944444444246812
100
AcDbArc
 50
2.898213389674822
 51
25.98923358383257
  0
ARC
  5
316
330
3B
100
AcDbEntity
  8
5
  6
AUSGEZOGEN
 62
    14
100
AcDbCircle
 10
-2.944444444327018
 20
0.0
 30
0.0
 40
4.944444444246812
100
AcDbArc
 50
334.0107664161674
 51
357.1017866103251
  0
LINE
  5
317
330
3B
100
AcDbEntity
  8
5
  6
AUSGEZOGEN
 62
    14
100
AcDbLine
 10
1.999999999919964
 20
0.2499999999899956
 30
0.0
 11
1.749999999929968
 21
0.2499999999899956
 31
0.0
  0
LINE
  5
318
330
3B
100
AcDbEntity
  8
5
  6
AUSGEZOGEN
 62
    14
100
AcDbLine
 10
1.993675730623181
 20
-0.2499999999899956
 30
0.0
 11
1.749999999929968
 21
-0.2499999999899956
 31
0.0
  0
LINE
  5
319
330
3B
100
AcDbEntity
  8
5
  6
AUSGEZOGEN
 62
    14
100
AcDbLine
 10
1.749999999929968
 20
-0.2499999999899956
 30
0.0
 11
1.749999999929968
 21
0.2499999999899956
 31
0.0
  0
LINE
  5
31A
330
3B
100
AcDbEntity
  8
5
  6
VERDECKT
 62
   214
100
AcDbLine
 10
1.71063375960125
 20
1.666666666600121
 30
0.0
 11
0.4166666666499168
 21
0.0
 31
0.0
  0
LINE
  5
31B
330
3B
100
AcDbEntity
  8
5
  6
VERDECKT
 62
   214
100
AcDbLine
 10
0.4166666666499168
 20
0.0
 30
0.0
 11
1.71063375960125
 21
-1.666666666600121
 31
0.0
  0
LINE
  5
31C
330
3B
100
AcDbEntity
  8
5
  6
VERDECKT
 62
   214
100
AcDbLine
 10
0.6107617305924578
 20
0.2499999999899956
 30
0.0
 11
0.6107617305924578
 21
-0.2499999999899956
 31
0.0
  0
LINE
  5
31D
330
3B
100
AcDbEntity
  8
5
  6
VERDECKT
 62
   214
100
AcDbLine
 10
1.749999999929968
 20
0.2499999999899956
 30
0.0
 11
0.6107617305924578
 21
0.2499999999899956
 31
0.0
  0
LINE
  5
31E
330
3B
100
AcDbEntity
  8
5
  6
VERDECKT
 62
   214
100
AcDbLine
 10
0.6107617305924578
 20
-0.2499999999899956
 30
0.0
 11
1.749999999929968
 21
-0.2499999999899956
 31
0.0
  0
ENDBLK
  5
31F
330
3B
100
AcDbEntity
  8
0
  6
ByBlock
 62
     0
100
AcDbBlockEnd
  0
BLOCK
  5
320
330
3C
100
AcDbEntity
  8
0
100
AcDbBlockBegin
  2
M3D_11
 70
     0
 71
     1
 10
0.0
 20
0.0
 30
0.0
  3
M3D_11
  1

  0
LINE
  5
321
330
3C
100
AcDbEntity
  8
5
  6
AUSGEZOGEN
 62
    14
100
AcDbLine
 10
0.7216878364870354
 20
1.25
 30
0.0
 11
-0.7216878364870354
 21
1.25
 31
0.0
  0
LINE
  5
322
330
3C
100
AcDbEntity
  8
5
  6
AUSGEZOGEN
 62
    14
100
AcDbLine
 10
-0.7216878364870354
 20
1.25
 30
0.0
 11
-1.44337567297407
 21
0.0
 31
0.0
  0
LINE
  5
323
330
3C
100
AcDbEntity
  8
5
  6
AUSGEZOGEN
 62
    14
100
AcDbLine
 10
-1.44337567297407
 20
0.0
 30
0.0
 11
-0.7216878364870354
 21
-1.25
 31
0.0
  0
LINE
  5
324
330
3C
100
AcDbEntity
  8
5
  6
AUSGEZOGEN
 62
    14
100
AcDbLine
 10
-0.7216878364870354
 20
-1.25
 30
0.0
 11
0.7216878364870354
 21
-1.25
 31
0.0
  0
LINE
  5
325
330
3C
100
AcDbEntity
  8
5
  6
AUSGEZOGEN
 62
    14
100
AcDbLine
 10
0.7216878364870354
 20
-1.25
 30
0.0
 11
1.44337567297407
 21
0.0
 31
0.0
  0
LINE
  5
326
330
3C
100
AcDbEntity
  8
5
  6
AUSGEZOGEN
 62
    14
100
AcDbLine
 10
1.44337567297407
 20
0.0
 30
0.0
 11
0.7216878364870354
 21
1.25
 31
0.0
  0
CIRCLE
  5
327
330
3C
100
AcDbEntity
  8
1
  6
AUSGEZOGEN
 62
    14
100
AcDbCircle
 10
0.0
 20
0.0
 30
0.0
 40
2.75
  0
ENDBLK
  5
328
330
3C
100
AcDbEntity
  8
0
  6
ByBlock
 62
     0
100
AcDbBlockEnd
  0
BLOCK
  5
329
330
3D
100
AcDbEntity
  8
0
100
AcDbBlockBegin
  2
M3D_12
 70
     0
 71
     1
 10
0.0
 20
0.0
 30
0.0
  3
M3D_12
  1

  0
LINE
  5
32A
330
3D
100
AcDbEntity
  8
5
  6
AUSGEZOGEN
 62
    14
100
AcDbLine
 10
0.7216878364870354
 20
1.25
 30
0.0
 11
-0.7216878364870354
 21
1.25
 31
0.0
  0
LINE
  5
32B
330
3D
100
AcDbEntity
  8
5
  6
AUSGEZOGEN
 62
    14
100
AcDbLine
 10
-0.7216878364870354
 20
1.25
 30
0.0
 11
-1.44337567297407
 21
0.0
 31
0.0
  0
LINE
  5
32C
330
3D
100
AcDbEntity
  8
5
  6
AUSGEZOGEN
 62
    14
100
AcDbLine
 10
-1.44337567297407
 20
0.0
 30
0.0
 11
-0.7216878364870354
 21
-1.25
 31
0.0
  0
LINE
  5
32D
330
3D
100
AcDbEntity
  8
5
  6
AUSGEZOGEN
 62
    14
100
AcDbLine
 10
-0.7216878364870354
 20
-1.25
 30
0.0
 11
0.7216878364870354
 21
-1.25
 31
0.0
  0
LINE
  5
32E
330
3D
100
AcDbEntity
  8
5
  6
AUSGEZOGEN
 62
    14
100
AcDbLine
 10
0.7216878364870354
 20
-1.25
 30
0.0
 11
1.44337567297407
 21
0.0
 31
0.0
  0
LINE
  5
32F
330
3D
100
AcDbEntity
  8
5
  6
AUSGEZOGEN
 62
    14
100
AcDbLine
 10
1.44337567297407
 20
0.0
 30
0.0
 11
0.7216878364870354
 21
1.25
 31
0.0
  0
CIRCLE
  5
330
330
3D
100
AcDbEntity
  8
1
  6
AUSGEZOGEN
 62
    14
100
AcDbCircle
 10
0.0
 20
0.0
 30
0.0
 40
2.75
  0
ENDBLK
  5
331
330
3D
100
AcDbEntity
  8
0
  6
ByBlock
 62
     0
100
AcDbBlockEnd
  0
BLOCK
  5
332
330
3E
100
AcDbEntity
  8
0
100
AcDbBlockBegin
  2
M25-KOPF_13
 70
     0
 71
     1
 10
0.0
 20
0.0
 30
0.0
  3
M25-KOPF_13
  1

  0
LINE
  5
333
330
3E
100
AcDbEntity
  8
5
  6
AUSGEZOGEN
 62
    14
100
AcDbLine
 10
1.499999999939973
 20
2.166666666580113
 30
0.0
 11
1.499999999939973
 21
-2.166666666580113
 31
0.0
  0
LINE
  5
334
330
3E
100
AcDbEntity
  8
5
  6
AUSGEZOGEN
 62
    14
100
AcDbLine
 10
-0.0000000000001137
 20
2.333333333240261
 30
0.0
 11
1.499999999939973
 21
2.166666666580113
 31
0.0
  0
LINE
  5
335
330
3E
100
AcDbEntity
  8
5
  6
AUSGEZOGEN
 62
    14
100
AcDbLine
 10
1.499999999939973
 20
-2.166666666580113
 30
0.0
 11
-0.0000000000001137
 21
-2.333333333240261
 31
0.0
  0
ARC
  5
336
330
3E
100
AcDbEntity
  8
5
  6
AUSGEZOGEN
 62
    14
100
AcDbCircle
 10
-2.944444444326791
 20
0.0
 30
0.0
 40
4.944444444246812
100
AcDbArc
 50
2.898213389674822
 51
25.98923358383257
  0
ARC
  5
337
330
3E
100
AcDbEntity
  8
5
  6
AUSGEZOGEN
 62
    14
100
AcDbCircle
 10
-2.944444444326791
 20
0.0
 30
0.0
 40
4.944444444246812
100
AcDbArc
 50
334.0107664161674
 51
357.1017866103251
  0
LINE
  5
338
330
3E
100
AcDbEntity
  8
5
  6
AUSGEZOGEN
 62
    14
100
AcDbLine
 10
1.999999999919964
 20
0.2499999999899956
 30
0.0
 11
1.749999999930082
 21
0.2499999999899956
 31
0.0
  0
LINE
  5
339
330
3E
100
AcDbEntity
  8
5
  6
AUSGEZOGEN
 62
    14
100
AcDbLine
 10
1.993675730623181
 20
-0.2499999999899956
 30
0.0
 11
1.749999999930082
 21
-0.2499999999899956
 31
0.0
  0
LINE
  5
33A
330
3E
100
AcDbEntity
  8
5
  6
AUSGEZOGEN
 62
    14
100
AcDbLine
 10
1.749999999930082
 20
-0.2499999999899956
 30
0.0
 11
1.749999999930082
 21
0.2499999999899956
 31
0.0
  0
LINE
  5
33B
330
3E
100
AcDbEntity
  8
5
  6
VERDECKT
 62
   214
100
AcDbLine
 10
1.710633759601364
 20
1.666666666600121
 30
0.0
 11
0.4166666666500305
 21
0.0
 31
0.0
  0
LINE
  5
33C
330
3E
100
AcDbEntity
  8
5
  6
VERDECKT
 62
   214
100
AcDbLine
 10
0.4166666666500305
 20
0.0
 30
0.0
 11
1.710633759601364
 21
-1.666666666600121
 31
0.0
  0
LINE
  5
33D
330
3E
100
AcDbEntity
  8
5
  6
VERDECKT
 62
   214
100
AcDbLine
 10
0.6107617305926852
 20
0.2499999999899956
 30
0.0
 11
0.6107617305926852
 21
-0.2499999999899956
 31
0.0
  0
LINE
  5
33E
330
3E
100
AcDbEntity
  8
5
  6
VERDECKT
 62
   214
100
AcDbLine
 10
1.749999999930082
 20
0.2499999999899956
 30
0.0
 11
0.6107617305926852
 21
0.2499999999899956
 31
0.0
  0
LINE
  5
33F
330
3E
100
AcDbEntity
  8
5
  6
VERDECKT
 62
   214
100
AcDbLine
 10
0.6107617305926852
 20
-0.2499999999899956
 30
0.0
 11
1.749999999930082
 21
-0.2499999999899956
 31
0.0
  0
ENDBLK
  5
340
330
3E
100
AcDbEntity
  8
0
  6
ByBlock
 62
     0
100
AcDbBlockEnd
  0
BLOCK
  5
341
330
3F
100
AcDbEntity
  8
0
100
AcDbBlockBegin
  2
M25-KOPF_14
 70
     0
 71
     1
 10
0.0
 20
0.0
 30
0.0
  3
M25-KOPF_14
  1

  0
LINE
  5
342
330
3F
100
AcDbEntity
  8
5
  6
AUSGEZOGEN
 62
    14
100
AcDbLine
 10
1.499999999939973
 20
2.166666666580113
 30
0.0
 11
1.499999999939973
 21
-2.166666666580113
 31
0.0
  0
LINE
  5
343
330
3F
100
AcDbEntity
  8
5
  6
AUSGEZOGEN
 62
    14
100
AcDbLine
 10
-0.0000000000001137
 20
2.333333333239806
 30
0.0
 11
1.499999999939973
 21
2.166666666580113
 31
0.0
  0
LINE
  5
344
330
3F
100
AcDbEntity
  8
5
  6
AUSGEZOGEN
 62
    14
100
AcDbLine
 10
1.499999999939973
 20
-2.166666666580113
 30
0.0
 11
-0.0000000000001137
 21
-2.333333333240261
 31
0.0
  0
ARC
  5
345
330
3F
100
AcDbEntity
  8
5
  6
AUSGEZOGEN
 62
    14
100
AcDbCircle
 10
-2.944444444326791
 20
0.0
 30
0.0
 40
4.944444444246812
100
AcDbArc
 50
2.898213389674822
 51
25.98923358383257
  0
ARC
  5
346
330
3F
100
AcDbEntity
  8
5
  6
AUSGEZOGEN
 62
    14
100
AcDbCircle
 10
-2.944444444326791
 20
0.0
 30
0.0
 40
4.944444444246812
100
AcDbArc
 50
334.0107664161674
 51
357.1017866103251
  0
LINE
  5
347
330
3F
100
AcDbEntity
  8
5
  6
AUSGEZOGEN
 62
    14
100
AcDbLine
 10
1.999999999919964
 20
0.2499999999899956
 30
0.0
 11
1.749999999930082
 21
0.2499999999899956
 31
0.0
  0
LINE
  5
348
330
3F
100
AcDbEntity
  8
5
  6
AUSGEZOGEN
 62
    14
100
AcDbLine
 10
1.993675730623181
 20
-0.2499999999899956
 30
0.0
 11
1.749999999930082
 21
-0.2499999999899956
 31
0.0
  0
LINE
  5
349
330
3F
100
AcDbEntity
  8
5
  6
AUSGEZOGEN
 62
    14
100
AcDbLine
 10
1.749999999930082
 20
-0.2499999999899956
 30
0.0
 11
1.749999999930082
 21
0.2499999999899956
 31
0.0
  0
LINE
  5
34A
330
3F
100
AcDbEntity
  8
5
  6
VERDECKT
 62
   214
100
AcDbLine
 10
1.710633759601364
 20
1.666666666600121
 30
0.0
 11
0.4166666666500305
 21
0.0
 31
0.0
  0
LINE
  5
34B
330
3F
100
AcDbEntity
  8
5
  6
VERDECKT
 62
   214
100
AcDbLine
 10
0.4166666666500305
 20
0.0
 30
0.0
 11
1.710633759601364
 21
-1.666666666600121
 31
0.0
  0
LINE
  5
34C
330
3F
100
AcDbEntity
  8
5
  6
VERDECKT
 62
   214
100
AcDbLine
 10
0.6107617305926852
 20
0.2499999999899956
 30
0.0
 11
0.6107617305926852
 21
-0.2499999999899956
 31
0.0
  0
LINE
  5
34D
330
3F
100
AcDbEntity
  8
5
  6
VERDECKT
 62
   214
100
AcDbLine
 10
1.749999999930082
 20
0.2499999999899956
 30
0.0
 11
0.6107617305926852
 21
0.2499999999899956
 31
0.0
  0
LINE
  5
34E
330
3F
100
AcDbEntity
  8
5
  6
VERDECKT
 62
   214
100
AcDbLine
 10
0.6107617305926852
 20
-0.2499999999899956
 30
0.0
 11
1.749999999930082
 21
-0.2499999999899956
 31
0.0
  0
ENDBLK
  5
34F
330
3F
100
AcDbEntity
  8
0
  6
ByBlock
 62
     0
100
AcDbBlockEnd
  0
BLOCK
  5
350
330
40
100
AcDbEntity
  8
0
100
AcDbBlockBegin
  2
M25-KOPF_15
 70
     0
 71
     1
 10
0.0
 20
0.0
 30
0.0
  3
M25-KOPF_15
  1

  0
LINE
  5
351
330
40
100
AcDbEntity
  8
5
  6
AUSGEZOGEN
 62
    14
100
AcDbLine
 10
1.499999999939859
 20
2.166666666580113
 30
0.0
 11
1.499999999939859
 21
-2.166666666580113
 31
0.0
  0
LINE
  5
352
330
40
100
AcDbEntity
  8
5
  6
AUSGEZOGEN
 62
    14
100
AcDbLine
 10
-0.0000000000005684
 20
2.333333333240261
 30
0.0
 11
1.499999999939859
 21
2.166666666580113
 31
0.0
  0
LINE
  5
353
330
40
100
AcDbEntity
  8
5
  6
AUSGEZOGEN
 62
    14
100
AcDbLine
 10
1.499999999939859
 20
-2.166666666580113
 30
0.0
 11
-0.0000000000005684
 21
-2.333333333240261
 31
0.0
  0
ARC
  5
354
330
40
100
AcDbEntity
  8
5
  6
AUSGEZOGEN
 62
    14
100
AcDbCircle
 10
-2.944444444327132
 20
0.0
 30
0.0
 40
4.944444444246812
100
AcDbArc
 50
2.898213389674822
 51
25.98923358383257
  0
ARC
  5
355
330
40
100
AcDbEntity
  8
5
  6
AUSGEZOGEN
 62
    14
100
AcDbCircle
 10
-2.944444444327132
 20
0.0
 30
0.0
 40
4.944444444246812
100
AcDbArc
 50
334.0107664161674
 51
357.1017866103251
  0
LINE
  5
356
330
40
100
AcDbEntity
  8
5
  6
AUSGEZOGEN
 62
    14
100
AcDbLine
 10
1.99999999991985
 20
0.2499999999899956
 30
0.0
 11
1.749999999929855
 21
0.2499999999899956
 31
0.0
  0
LINE
  5
357
330
40
100
AcDbEntity
  8
5
  6
AUSGEZOGEN
 62
    14
100
AcDbLine
 10
1.993675730623067
 20
-0.2499999999899956
 30
0.0
 11
1.749999999929855
 21
-0.2499999999899956
 31
0.0
  0
LINE
  5
358
330
40
100
AcDbEntity
  8
5
  6
AUSGEZOGEN
 62
    14
100
AcDbLine
 10
1.749999999929855
 20
-0.2499999999899956
 30
0.0
 11
1.749999999929855
 21
0.2499999999899956
 31
0.0
  0
LINE
  5
359
330
40
100
AcDbEntity
  8
5
  6
VERDECKT
 62
   214
100
AcDbLine
 10
1.710633759601137
 20
1.666666666600121
 30
0.0
 11
0.4166666666498032
 21
0.0
 31
0.0
  0
LINE
  5
35A
330
40
100
AcDbEntity
  8
5
  6
VERDECKT
 62
   214
100
AcDbLine
 10
0.4166666666498032
 20
0.0
 30
0.0
 11
1.710633759601137
 21
-1.666666666600121
 31
0.0
  0
LINE
  5
35B
330
40
100
AcDbEntity
  8
5
  6
VERDECKT
 62
   214
100
AcDbLine
 10
0.6107617305923441
 20
0.2499999999899956
 30
0.0
 11
0.6107617305923441
 21
-0.2499999999899956
 31
0.0
  0
LINE
  5
35C
330
40
100
AcDbEntity
  8
5
  6
VERDECKT
 62
   214
100
AcDbLine
 10
1.749999999929855
 20
0.2499999999899956
 30
0.0
 11
0.6107617305923441
 21
0.2499999999899956
 31
0.0
  0
LINE
  5
35D
330
40
100
AcDbEntity
  8
5
  6
VERDECKT
 62
   214
100
AcDbLine
 10
0.6107617305923441
 20
-0.2499999999899956
 30
0.0
 11
1.749999999929855
 21
-0.2499999999899956
 31
0.0
  0
ENDBLK
  5
35E
330
40
100
AcDbEntity
  8
0
  6
ByBlock
 62
     0
100
AcDbBlockEnd
  0
BLOCK
  5
35F
330
41
100
AcDbEntity
  8
0
100
AcDbBlockBegin
  2
M25-KOPF_16
 70
     0
 71
     1
 10
0.0
 20
0.0
 30
0.0
  3
M25-KOPF_16
  1

  0
LINE
  5
360
330
41
100
AcDbEntity
  8
5
  6
AUSGEZOGEN
 62
    14
100
AcDbLine
 10
1.499999999939859
 20
2.166666666580113
 30
0.0
 11
1.499999999939859
 21
-2.166666666580113
 31
0.0
  0
LINE
  5
361
330
41
100
AcDbEntity
  8
5
  6
AUSGEZOGEN
 62
    14
100
AcDbLine
 10
-0.0000000000005684
 20
2.333333333239806
 30
0.0
 11
1.499999999939859
 21
2.166666666580113
 31
0.0
  0
LINE
  5
362
330
41
100
AcDbEntity
  8
5
  6
AUSGEZOGEN
 62
    14
100
AcDbLine
 10
1.499999999939859
 20
-2.166666666580113
 30
0.0
 11
-0.0000000000005684
 21
-2.333333333240261
 31
0.0
  0
ARC
  5
363
330
41
100
AcDbEntity
  8
5
  6
AUSGEZOGEN
 62
    14
100
AcDbCircle
 10
-2.944444444327132
 20
0.0
 30
0.0
 40
4.944444444246812
100
AcDbArc
 50
2.898213389674822
 51
25.98923358383257
  0
ARC
  5
364
330
41
100
AcDbEntity
  8
5
  6
AUSGEZOGEN
 62
    14
100
AcDbCircle
 10
-2.944444444327132
 20
0.0
 30
0.0
 40
4.944444444246812
100
AcDbArc
 50
334.0107664161674
 51
357.1017866103251
  0
LINE
  5
365
330
41
100
AcDbEntity
  8
5
  6
AUSGEZOGEN
 62
    14
100
AcDbLine
 10
1.99999999991985
 20
0.2499999999899956
 30
0.0
 11
1.749999999929855
 21
0.2499999999899956
 31
0.0
  0
LINE
  5
366
330
41
100
AcDbEntity
  8
5
  6
AUSGEZOGEN
 62
    14
100
AcDbLine
 10
1.993675730623067
 20
-0.2499999999899956
 30
0.0
 11
1.749999999929855
 21
-0.2499999999899956
 31
0.0
  0
LINE
  5
367
330
41
100
AcDbEntity
  8
5
  6
AUSGEZOGEN
 62
    14
100
AcDbLine
 10
1.749999999929855
 20
-0.2499999999899956
 30
0.0
 11
1.749999999929855
 21
0.2499999999899956
 31
0.0
  0
LINE
  5
368
330
41
100
AcDbEntity
  8
5
  6
VERDECKT
 62
   214
100
AcDbLine
 10
1.710633759601137
 20
1.666666666600121
 30
0.0
 11
0.4166666666498032
 21
0.0
 31
0.0
  0
LINE
  5
369
330
41
100
AcDbEntity
  8
5
  6
VERDECKT
 62
   214
100
AcDbLine
 10
0.4166666666498032
 20
0.0
 30
0.0
 11
1.710633759601137
 21
-1.666666666600121
 31
0.0
  0
LINE
  5
36A
330
41
100
AcDbEntity
  8
5
  6
VERDECKT
 62
   214
100
AcDbLine
 10
0.6107617305923441
 20
0.2499999999899956
 30
0.0
 11
0.6107617305923441
 21
-0.2499999999899956
 31
0.0
  0
LINE
  5
36B
330
41
100
AcDbEntity
  8
5
  6
VERDECKT
 62
   214
100
AcDbLine
 10
1.749999999929855
 20
0.2499999999899956
 30
0.0
 11
0.6107617305923441
 21
0.2499999999899956
 31
0.0
  0
LINE
  5
36C
330
41
100
AcDbEntity
  8
5
  6
VERDECKT
 62
   214
100
AcDbLine
 10
0.6107617305923441
 20
-0.2499999999899956
 30
0.0
 11
1.749999999929855
 21
-0.2499999999899956
 31
0.0
  0
ENDBLK
  5
36D
330
41
100
AcDbEntity
  8
0
  6
ByBlock
 62
     0
100
AcDbBlockEnd
  0
BLOCK
  5
36E
330
42
100
AcDbEntity
  8
0
100
AcDbBlockBegin
  2
ZEICHNUNGS-LOGO UND ADR_17
 70
     0
 71
     1
 10
0.0
 20
0.0
 30
0.0
  3
ZEICHNUNGS-LOGO UND ADR_17
  1

  0
ENDBLK
  5
36F
330
42
100
AcDbEntity
  8
0
  6
ByBlock
 62
     0
100
AcDbBlockEnd
  0
BLOCK
  5
370
330
43
100
AcDbEntity
  8
0
100
AcDbBlockBegin
  2
ZEICHNUNGS-LOGO UND ADR_18
 70
     0
 71
     1
 10
0.0
 20
0.0
 30
0.0
  3
ZEICHNUNGS-LOGO UND ADR_18
  1

  0
TEXT
  5
371
330
43
100
AcDbEntity
  8
1
  6
AUSGEZOGEN
 62
    14
100
AcDbText
 10
-3.839109861060705
 20
-22.58623165929011
 30
0.0
 40
2.729166666666666
  1
 
 41
0.6058252427184466
100
AcDbText
  0
TEXT
  5
372
330
43
100
AcDbEntity
  8
1
  6
AUSGEZOGEN
 62
    14
100
AcDbText
 10
-15.31144319439408
 20
-26.99529314796327
 30
0.0
 40
2.729166666666666
  1
 
 41
0.6058252427184466
100
AcDbText
  0
ENDBLK
  5
373
330
43
100
AcDbEntity
  8
0
  6
ByBlock
 62
     0
100
AcDbBlockEnd
  0
BLOCK
  5
374
330
44
100
AcDbEntity
  8
0
100
AcDbBlockBegin
  2
ZEICHNUNGS-LOGO UND ADR_19
 70
     0
 71
     1
 10
0.0
 20
0.0
 30
0.0
  3
ZEICHNUNGS-LOGO UND ADR_19
  1

  0
ENDBLK
  5
375
330
44
100
AcDbEntity
  8
0
  6
ByBlock
 62
     0
100
AcDbBlockEnd
  0
BLOCK
  5
376
330
45
100
AcDbEntity
  8
0
100
AcDbBlockBegin
  2
ZEICHNUNGS-LOGO UND ADR_20
 70
     0
 71
     1
 10
0.0
 20
0.0
 30
0.0
  3
ZEICHNUNGS-LOGO UND ADR_20
  1

  0
TEXT
  5
377
330
45
100
AcDbEntity
  8
1
  6
AUSGEZOGEN
 62
    14
100
AcDbText
 10
-3.839109861060705
 20
-22.58623165928988
 30
0.0
 40
2.729166666666666
  1
 
 41
0.6058252427184466
100
AcDbText
  0
TEXT
  5
378
330
45
100
AcDbEntity
  8
1
  6
AUSGEZOGEN
 62
    14
100
AcDbText
 10
-15.31144319439408
 20
-26.99529314796304
 30
0.0
 40
2.729166666666666
  1
 
 41
0.6058252427184466
100
AcDbText
  0
ENDBLK
  5
379
330
45
100
AcDbEntity
  8
0
  6
ByBlock
 62
     0
100
AcDbBlockEnd
  0
BLOCK
  5
37A
330
46
100
AcDbEntity
  8
0
100
AcDbBlockBegin
  2
ZEICHNUNGS-LOGO UND ADR_21
 70
     0
 71
     1
 10
0.0
 20
0.0
 30
0.0
  3
ZEICHNUNGS-LOGO UND ADR_21
  1

  0
ENDBLK
  5
37B
330
46
100
AcDbEntity
  8
0
  6
ByBlock
 62
     0
100
AcDbBlockEnd
  0
BLOCK
  5
37C
330
47
100
AcDbEntity
  8
0
100
AcDbBlockBegin
  2
ZEICHNUNGS-LOGO UND ADR_22
 70
     0
 71
     1
 10
0.0
 20
0.0
 30
0.0
  3
ZEICHNUNGS-LOGO UND ADR_22
  1

  0
TEXT
  5
37D
330
47
100
AcDbEntity
  8
1
  6
AUSGEZOGEN
 62
    14
100
AcDbText
 10
-3.839109861060705
 20
-22.58623165929011
 30
0.0
 40
2.729166666666666
  1
 
 41
0.6058252427184466
100
AcDbText
  0
TEXT
  5
37E
330
47
100
AcDbEntity
  8
1
  6
AUSGEZOGEN
 62
    14
100
AcDbText
 10
-15.31144319439408
 20
-26.99529314796327
 30
0.0
 40
2.729166666666666
  1
 
 41
0.6058252427184466
100
AcDbText
  0
ENDBLK
  5
37F
330
47
100
AcDbEntity
  8
0
  6
ByBlock
 62
     0
100
AcDbBlockEnd
  0
BLOCK
  5
380
330
48
100
AcDbEntity
  8
0
100
AcDbBlockBegin
  2
*D23
 70
     1
 71
     1
 10
0.0
 20
0.0
 30
0.0
  3
*D23
  1

  0
LINE
  5
685
330
48
100
AcDbEntity
  8
1
  6
AUSGEZOGEN
 62
     0
370
    -2
100
AcDbLine
 10
226.3666852330782
 20
220.0000000000001
 30
0.0
 11
213.3069009311602
 21
220.0000000000001
 31
0.0
  0
LINE
  5
686
330
48
100
AcDbEntity
  8
1
  6
AUSGEZOGEN
 62
     0
370
    -2
100
AcDbLine
 10
226.3666852330782
 20
229.0000000000001
 30
0.0
 11
213.3069009311602
 21
229.0000000000001
 31
0.0
  0
LINE
  5
687
330
48
100
AcDbEntity
  8
1
  6
AUSGEZOGEN
 62
     0
370
    -2
100
AcDbLine
 10
215.0169009311603
 20
217.0000000000001
 30
0.0
 11
215.0169009311603
 21
214.0000000000001
 31
0.0
  0
LINE
  5
688
330
48
100
AcDbEntity
  8
1
  6
AUSGEZOGEN
 62
     0
370
    -2
100
AcDbLine
 10
215.0169009311603
 20
232.0000000000001
 30
0.0
 11
215.0169009311603
 21
235.0
 31
0.0
  0
MTEXT
  5
689
330
48
100
AcDbEntity
  8
1
  6
AUSGEZOGEN
 62
    54
100
AcDbMText
 10
214.7846686778648
 20
224.3555757684243
 30
0.0
 40
3.5
 41
0.0
 71
     5
 72
     1
  1
\A1;%%c9
 11
0.0000000000000001
 21
1.0
 31
0.0
 73
     1
 44
1.0
  0
SOLID
  5
68A
330
48
100
AcDbEntity
  8
1
  6
AUSGEZOGEN
 62
     0
370
     0
100
AcDbTrace
 10
214.5169009311603
 20
217.0000000000001
 30
0.0
 11
215.5169009311602
 21
217.0000000000001
 31
0.0
 12
215.0169009311603
 22
220.0000000000001
 32
0.0
 13
215.0169009311603
 23
220.0000000000001
 33
0.0
  0
SOLID
  5
68B
330
48
100
AcDbEntity
  8
1
  6
AUSGEZOGEN
 62
     0
370
     0
100
AcDbTrace
 10
214.5169009311603
 20
232.0000000000001
 30
0.0
 11
215.5169009311602
 21
232.0000000000001
 31
0.0
 12
215.0169009311603
 22
229.0000000000001
 32
0.0
 13
215.0169009311603
 23
229.0000000000001
 33
0.0
  0
POINT
  5
68C
330
48
100
AcDbEntity
  8
Defpoints
  6
AUSGEZOGEN
 62
     0
370
     0
100
AcDbPoint
 10
226.4666852330782
 20
220.0000000000001
 30
0.0
  0
POINT
  5
68D
330
48
100
AcDbEntity
  8
Defpoints
  6
AUSGEZOGEN
 62
     0
370
     0
100
AcDbPoint
 10
226.4666852330782
 20
229.0000000000001
 30
0.0
  0
POINT
  5
68E
330
48
100
AcDbEntity
  8
Defpoints
  6
AUSGEZOGEN
 62
     0
370
     0
100
AcDbPoint
 10
215.0169009311603
 20
229.0000000000001
 30
0.0
  0
ENDBLK
  5
388
330
48
100
AcDbEntity
  8
0
  6
ByBlock
 62
     0
100
AcDbBlockEnd
  0
BLOCK
  5
389
330
49
100
AcDbEntity
  8
0
100
AcDbBlockBegin
  2
*D24
 70
     1
 71
     1
 10
0.0
 20
0.0
 30
0.0
  3
*D24
  1

  0
LINE
  5
65C
330
49
100
AcDbEntity
  8
1
  6
AUSGEZOGEN
 62
     0
370
    -2
100
AcDbLine
 10
243.3666852330782
 20
204.5000000000001
 30
0.0
 11
205.2387106694099
 21
204.5000000000001
 31
0.0
  0
LINE
  5
65D
330
49
100
AcDbEntity
  8
1
  6
AUSGEZOGEN
 62
     0
370
    -2
100
AcDbLine
 10
243.3666852330782
 20
244.5000000000001
 30
0.0
 11
205.2387106694099
 21
244.5000000000001
 31
0.0
  0
LINE
  5
65E
330
49
100
AcDbEntity
  8
1
  6
AUSGEZOGEN
 62
     0
370
    -2
100
AcDbLine
 10
206.9487106694099
 20
207.5000000000001
 30
0.0
 11
206.9487106694099
 21
220.0350000000001
 31
0.0
  0
LINE
  5
65F
330
49
100
AcDbEntity
  8
1
  6
AUSGEZOGEN
 62
     0
370
    -2
100
AcDbLine
 10
206.9487106694099
 20
241.5000000000001
 30
0.0
 11
206.9487106694099
 21
228.9650000000001
 31
0.0
  0
SOLID
  5
660
330
49
100
AcDbEntity
  8
1
  6
AUSGEZOGEN
 62
     0
370
     0
100
AcDbTrace
 10
206.4487106694099
 20
207.5000000000001
 30
0.0
 11
207.4487106694099
 21
207.5000000000001
 31
0.0
 12
206.9487106694099
 22
204.5000000000001
 32
0.0
 13
206.9487106694099
 23
204.5000000000001
 33
0.0
  0
SOLID
  5
661
330
49
100
AcDbEntity
  8
1
  6
AUSGEZOGEN
 62
     0
370
     0
100
AcDbTrace
 10
206.4487106694099
 20
241.5000000000001
 30
0.0
 11
207.4487106694099
 21
241.5000000000001
 31
0.0
 12
206.9487106694099
 22
244.5000000000001
 32
0.0
 13
206.9487106694099
 23
244.5000000000001
 33
0.0
  0
MTEXT
  5
662
330
49
100
AcDbEntity
  8
1
  6
AUSGEZOGEN
 62
    54
100
AcDbMText
 10
206.9487106694098
 20
224.5000000000001
 30
0.0
 40
3.5
 41
0.0
 71
     5
 72
     1
  1
\A1;%%c40
 11
0.0000000000000001
 21
1.0
 31
0.0
 73
     1
 44
1.0
  0
POINT
  5
663
330
49
100
AcDbEntity
  8
Defpoints
  6
AUSGEZOGEN
 62
     0
370
     0
100
AcDbPoint
 10
243.4666852330782
 20
204.5000000000001
 30
0.0
  0
POINT
  5
664
330
49
100
AcDbEntity
  8
Defpoints
  6
AUSGEZOGEN
 62
     0
370
     0
100
AcDbPoint
 10
243.4666852330782
 20
244.5000000000001
 30
0.0
  0
POINT
  5
665
330
49
100
AcDbEntity
  8
Defpoints
  6
AUSGEZOGEN
 62
     0
370
     0
100
AcDbPoint
 10
206.9487106694099
 20
244.5000000000001
 30
0.0
  0
ENDBLK
  5
391
330
49
100
AcDbEntity
  8
0
  6
ByBlock
 62
     0
100
AcDbBlockEnd
  0
BLOCK
  5
392
330
4A
100
AcDbEntity
  8
0
100
AcDbBlockBegin
  2
*D25
 70
     1
 71
     1
 10
0.0
 20
0.0
 30
0.0
  3
*D25
  1

  0
LINE
  5
6D1
330
4A
100
AcDbEntity
  8
1
  6
AUSGEZOGEN
 62
     0
370
    -2
100
AcDbLine
 10
245.9666852330782
 20
196.9000000000001
 30
0.0
 11
245.9666852330782
 21
187.3249328010338
 31
0.0
  0
LINE
  5
6D2
330
4A
100
AcDbEntity
  8
1
  6
AUSGEZOGEN
 62
     0
370
    -2
100
AcDbLine
 10
243.4666852330782
 20
204.4000000000001
 30
0.0
 11
243.4666852330782
 21
187.3249328010338
 31
0.0
  0
LINE
  5
6D3
330
4A
100
AcDbEntity
  8
1
  6
AUSGEZOGEN
 62
     0
370
    -2
100
AcDbLine
 10
248.9666852330782
 20
189.0349328010338
 30
0.0
 11
251.9666852330782
 21
189.0349328010338
 31
0.0
  0
LINE
  5
6D4
330
4A
100
AcDbEntity
  8
1
  6
AUSGEZOGEN
 62
     0
370
    -2
100
AcDbLine
 10
240.4666852330782
 20
189.0349328010338
 30
0.0
 11
237.4666852330782
 21
189.0349328010338
 31
0.0
  0
MTEXT
  5
6D5
330
4A
100
AcDbEntity
  8
1
  6
AUSGEZOGEN
 62
    54
100
AcDbMText
 10
235.5878155867312
 20
192.0356479812037
 30
0.0
 40
3.5
 41
0.0
 71
     5
 72
     1
  1
\A1;2.5
 73
     1
 44
1.0
  0
SOLID
  5
6D6
330
4A
100
AcDbEntity
  8
1
  6
AUSGEZOGEN
 62
     0
370
     0
100
AcDbTrace
 10
248.9666852330782
 20
189.5349328010338
 30
0.0
 11
248.9666852330782
 21
188.5349328010338
 31
0.0
 12
245.9666852330782
 22
189.0349328010338
 32
0.0
 13
245.9666852330782
 23
189.0349328010338
 33
0.0
  0
SOLID
  5
6D7
330
4A
100
AcDbEntity
  8
1
  6
AUSGEZOGEN
 62
     0
370
     0
100
AcDbTrace
 10
240.4666852330782
 20
189.5349328010338
 30
0.0
 11
240.4666852330782
 21
188.5349328010338
 31
0.0
 12
243.4666852330782
 22
189.0349328010338
 32
0.0
 13
243.4666852330782
 23
189.0349328010338
 33
0.0
  0
POINT
  5
6D8
330
4A
100
AcDbEntity
  8
Defpoints
  6
AUSGEZOGEN
 62
     0
370
     0
100
AcDbPoint
 10
245.9666852330782
 20
197.0
 30
0.0
  0
POINT
  5
6D9
330
4A
100
AcDbEntity
  8
Defpoints
  6
AUSGEZOGEN
 62
     0
370
     0
100
AcDbPoint
 10
243.4666852330782
 20
204.5000000000001
 30
0.0
  0
POINT
  5
6DA
330
4A
100
AcDbEntity
  8
Defpoints
  6
AUSGEZOGEN
 62
     0
370
     0
100
AcDbPoint
 10
243.4666852330782
 20
189.0349328010338
 30
0.0
  0
ENDBLK
  5
39B
330
4A
100
AcDbEntity
  8
0
  6
ByBlock
 62
     0
100
AcDbBlockEnd
  0
BLOCK
  5
39C
330
4B
100
AcDbEntity
  8
0
100
AcDbBlockBegin
  2
*D26
 70
     1
 71
     1
 10
0.0
 20
0.0
 30
0.0
  3
*D26
  1

  0
LINE
  5
6F7
330
4B
100
AcDbEntity
  8
1
  6
AUSGEZOGEN
 62
     0
370
    -2
100
AcDbLine
 10
245.9666852330782
 20
196.9000000000001
 30
0.0
 11
245.9666852330782
 21
179.9942459713586
 31
0.0
  0
LINE
  5
6F8
330
4B
100
AcDbEntity
  8
1
  6
AUSGEZOGEN
 62
     0
370
    -2
100
AcDbLine
 10
251.9666852330782
 20
196.9000000000001
 30
0.0
 11
251.9666852330782
 21
179.9942459713586
 31
0.0
  0
LINE
  5
6F9
330
4B
100
AcDbEntity
  8
1
  6
AUSGEZOGEN
 62
     0
370
    -2
100
AcDbLine
 10
242.9666852330782
 20
181.7042459713586
 30
0.0
 11
239.9666852330782
 21
181.7042459713586
 31
0.0
  0
LINE
  5
6FA
330
4B
100
AcDbEntity
  8
1
  6
AUSGEZOGEN
 62
     0
370
    -2
100
AcDbLine
 10
254.9666852330782
 20
181.7042459713586
 30
0.0
 11
257.9666852330782
 21
181.7042459713586
 31
0.0
  0
MTEXT
  5
6FB
330
4B
100
AcDbEntity
  8
1
  6
AUSGEZOGEN
 62
    54
100
AcDbMText
 10
258.2131367927381
 20
184.6005475488434
 30
0.0
 40
3.5
 41
0.0
 71
     5
 72
     1
  1
\A1;6
 73
     1
 44
1.0
  0
SOLID
  5
6FC
330
4B
100
AcDbEntity
  8
1
  6
AUSGEZOGEN
 62
     0
370
     0
100
AcDbTrace
 10
242.9666852330782
 20
182.2042459713586
 30
0.0
 11
242.9666852330782
 21
181.2042459713586
 31
0.0
 12
245.9666852330782
 22
181.7042459713586
 32
0.0
 13
245.9666852330782
 23
181.7042459713586
 33
0.0
  0
SOLID
  5
6FD
330
4B
100
AcDbEntity
  8
1
  6
AUSGEZOGEN
 62
     0
370
     0
100
AcDbTrace
 10
254.9666852330782
 20
182.2042459713586
 30
0.0
 11
254.9666852330782
 21
181.2042459713586
 31
0.0
 12
251.9666852330782
 22
181.7042459713586
 32
0.0
 13
251.9666852330782
 23
181.7042459713586
 33
0.0
  0
POINT
  5
6FE
330
4B
100
AcDbEntity
  8
Defpoints
  6
AUSGEZOGEN
 62
     0
370
     0
100
AcDbPoint
 10
245.9666852330782
 20
197.0
 30
0.0
  0
POINT
  5
6FF
330
4B
100
AcDbEntity
  8
Defpoints
  6
AUSGEZOGEN
 62
     0
370
     0
100
AcDbPoint
 10
251.9666852330782
 20
197.0
 30
0.0
  0
POINT
  5
700
330
4B
100
AcDbEntity
  8
Defpoints
  6
AUSGEZOGEN
 62
     0
370
     0
100
AcDbPoint
 10
251.9666852330782
 20
181.7042459713586
 30
0.0
  0
ENDBLK
  5
3A5
330
4B
100
AcDbEntity
  8
0
  6
ByBlock
 62
     0
100
AcDbBlockEnd
  0
BLOCK
  5
3A6
330
4C
100
AcDbEntity
  8
0
100
AcDbBlockBegin
  2
*D27
 70
     1
 71
     1
 10
0.0
 20
0.0
 30
0.0
  3
*D27
  1

  0
LINE
  5
6E4
330
4C
100
AcDbEntity
  8
1
  6
AUSGEZOGEN
 62
     0
370
    -2
100
AcDbLine
 10
245.9666852330782
 20
196.9000000000001
 30
0.0
 11
245.9666852330782
 21
179.9942459713586
 31
0.0
  0
LINE
  5
6E5
330
4C
100
AcDbEntity
  8
1
  6
AUSGEZOGEN
 62
     0
370
    -2
100
AcDbLine
 10
225.9666852330782
 20
220.4000000000001
 30
0.0
 11
225.9666852330782
 21
179.9942459713586
 31
0.0
  0
LINE
  5
6E6
330
4C
100
AcDbEntity
  8
1
  6
AUSGEZOGEN
 62
     0
370
    -2
100
AcDbLine
 10
242.9666852330782
 20
181.7042459713586
 30
0.0
 11
228.9666852330782
 21
181.7042459713586
 31
0.0
  0
MTEXT
  5
6E7
330
4C
100
AcDbEntity
  8
1
  6
AUSGEZOGEN
 62
    54
100
AcDbMText
 10
235.5878155867312
 20
184.2970740618081
 30
0.0
 40
3.5
 41
0.0
 71
     5
 72
     1
  1
\A1;20
 73
     1
 44
1.0
  0
SOLID
  5
6E8
330
4C
100
AcDbEntity
  8
1
  6
AUSGEZOGEN
 62
     0
370
     0
100
AcDbTrace
 10
242.9666852330782
 20
182.2042459713586
 30
0.0
 11
242.9666852330782
 21
181.2042459713586
 31
0.0
 12
245.9666852330782
 22
181.7042459713586
 32
0.0
 13
245.9666852330782
 23
181.7042459713586
 33
0.0
  0
SOLID
  5
6E9
330
4C
100
AcDbEntity
  8
1
  6
AUSGEZOGEN
 62
     0
370
     0
100
AcDbTrace
 10
228.9666852330782
 20
182.2042459713586
 30
0.0
 11
228.9666852330782
 21
181.2042459713586
 31
0.0
 12
225.9666852330782
 22
181.7042459713586
 32
0.0
 13
225.9666852330782
 23
181.7042459713586
 33
0.0
  0
POINT
  5
6EA
330
4C
100
AcDbEntity
  8
Defpoints
  6
AUSGEZOGEN
 62
     0
370
     0
100
AcDbPoint
 10
245.9666852330782
 20
197.0
 30
0.0
  0
POINT
  5
6EB
330
4C
100
AcDbEntity
  8
Defpoints
  6
AUSGEZOGEN
 62
     0
370
     0
100
AcDbPoint
 10
225.9666852330782
 20
220.5000000000001
 30
0.0
  0
POINT
  5
6EC
330
4C
100
AcDbEntity
  8
Defpoints
  6
AUSGEZOGEN
 62
     0
370
     0
100
AcDbPoint
 10
225.9666852330782
 20
181.7042459713586
 30
0.0
  0
ENDBLK
  5
3AD
330
4C
100
AcDbEntity
  8
0
  6
ByBlock
 62
     0
100
AcDbBlockEnd
  0
BLOCK
  5
3AE
330
4D
100
AcDbEntity
  8
0
100
AcDbBlockBegin
  2
*D28
 70
     1
 71
     1
 10
0.0
 20
0.0
 30
0.0
  3
*D28
  1

  0
LINE
  5
5C3
330
4D
100
AcDbEntity
  8
1
  6
AUSGEZOGEN
 62
     0
370
    -2
100
AcDbLine
 10
84.49000490841731
 20
284.0000000000003
 30
0.0
 11
64.28540788959018
 21
284.0000000000003
 31
0.0
  0
LINE
  5
5C4
330
4D
100
AcDbEntity
  8
1
  6
AUSGEZOGEN
 62
     0
370
    -2
100
AcDbLine
 10
79.55126821178137
 20
224.5
 30
0.0
 11
64.28540788959018
 21
224.5
 31
0.0
  0
LINE
  5
5C5
330
4D
100
AcDbEntity
  8
1
  6
AUSGEZOGEN
 62
     0
370
    -2
100
AcDbLine
 10
65.99540788959018
 20
281.0000000000003
 30
0.0
 11
65.99540788959018
 21
259.5900000000002
 31
0.0
  0
LINE
  5
5C6
330
4D
100
AcDbEntity
  8
1
  6
AUSGEZOGEN
 62
     0
370
    -2
100
AcDbLine
 10
65.99540788959018
 20
227.5000000000001
 30
0.0
 11
65.99540788959018
 21
248.9100000000001
 31
0.0
  0
SOLID
  5
5C7
330
4D
100
AcDbEntity
  8
1
  6
AUSGEZOGEN
 62
     0
370
     0
100
AcDbTrace
 10
65.49540788959018
 20
281.0000000000003
 30
0.0
 11
66.49540788959019
 21
281.0000000000003
 31
0.0
 12
65.99540788959018
 22
284.0000000000003
 32
0.0
 13
65.99540788959018
 23
284.0000000000003
 33
0.0
  0
SOLID
  5
5C8
330
4D
100
AcDbEntity
  8
1
  6
AUSGEZOGEN
 62
     0
370
     0
100
AcDbTrace
 10
65.49540788959018
 20
227.5000000000001
 30
0.0
 11
66.49540788959019
 21
227.5000000000001
 31
0.0
 12
65.99540788959018
 22
224.5
 32
0.0
 13
65.99540788959018
 23
224.5
 33
0.0
  0
MTEXT
  5
5C9
330
4D
100
AcDbEntity
  8
1
  6
AUSGEZOGEN
 62
    54
100
AcDbMText
 10
65.99540788959014
 20
254.2500000000002
 30
0.0
 40
3.5
 41
0.0
 71
     5
 72
     1
  1
\A1;59.5
 11
0.0000000000000001
 21
1.0
 31
0.0
 73
     1
 44
1.0
  0
POINT
  5
5CA
330
4D
100
AcDbEntity
  8
Defpoints
  6
AUSGEZOGEN
 62
     0
370
     0
100
AcDbPoint
 10
84.59000490841731
 20
284.0000000000003
 30
0.0
  0
POINT
  5
5CB
330
4D
100
AcDbEntity
  8
Defpoints
  6
AUSGEZOGEN
 62
     0
370
     0
100
AcDbPoint
 10
79.65126821178137
 20
224.5
 30
0.0
  0
POINT
  5
5CC
330
4D
100
AcDbEntity
  8
Defpoints
  6
AUSGEZOGEN
 62
     0
370
     0
100
AcDbPoint
 10
65.99540788959018
 20
224.5
 30
0.0
  0
ENDBLK
  5
3B5
330
4D
100
AcDbEntity
  8
0
  6
ByBlock
 62
     0
100
AcDbBlockEnd
  0
BLOCK
  5
3B6
330
4E
100
AcDbEntity
  8
0
100
AcDbBlockBegin
  2
*D29
 70
     1
 71
     1
 10
0.0
 20
0.0
 30
0.0
  3
*D29
  1

  0
LINE
  5
7A4
330
4E
100
AcDbEntity
  8
1
  6
AUSGEZOGEN
 62
     0
370
    -2
100
AcDbLine
 10
456.5
 20
198.53859052565
 30
0.0
 11
456.5
 21
183.6893502609646
 31
0.0
  0
LINE
  5
7A5
330
4E
100
AcDbEntity
  8
1
  6
AUSGEZOGEN
 62
     0
370
    -2
100
AcDbLine
 10
511.5
 20
198.53859052565
 30
0.0
 11
511.5
 21
183.6893502609646
 31
0.0
  0
LINE
  5
7A6
330
4E
100
AcDbEntity
  8
1
  6
AUSGEZOGEN
 62
     0
370
    -2
100
AcDbLine
 10
459.4999999999999
 20
185.3993502609646
 30
0.0
 11
508.4999999999999
 21
185.3993502609646
 31
0.0
  0
MTEXT
  5
7A7
330
4E
100
AcDbEntity
  8
1
  6
AUSGEZOGEN
 62
    54
100
AcDbMText
 10
484.0617752013249
 20
189.8192030835264
 30
0.0
 40
3.5
 41
0.0
 71
     5
 72
     1
  1
\A1;55
 73
     1
 44
1.0
  0
SOLID
  5
7A8
330
4E
100
AcDbEntity
  8
1
  6
AUSGEZOGEN
 62
     0
370
     0
100
AcDbTrace
 10
459.4999999999999
 20
185.8993502609646
 30
0.0
 11
459.4999999999999
 21
184.8993502609646
 31
0.0
 12
456.5
 22
185.3993502609646
 32
0.0
 13
456.5
 23
185.3993502609646
 33
0.0
  0
SOLID
  5
7A9
330
4E
100
AcDbEntity
  8
1
  6
AUSGEZOGEN
 62
     0
370
     0
100
AcDbTrace
 10
508.4999999999999
 20
185.8993502609646
 30
0.0
 11
508.4999999999999
 21
184.8993502609646
 31
0.0
 12
511.5
 22
185.3993502609646
 32
0.0
 13
511.5
 23
185.3993502609646
 33
0.0
  0
POINT
  5
7AA
330
4E
100
AcDbEntity
  8
Defpoints
  6
AUSGEZOGEN
 62
     0
370
     0
100
AcDbPoint
 10
456.5
 20
198.63859052565
 30
0.0
  0
POINT
  5
7AB
330
4E
100
AcDbEntity
  8
Defpoints
  6
AUSGEZOGEN
 62
     0
370
     0
100
AcDbPoint
 10
511.5
 20
198.63859052565
 30
0.0
  0
POINT
  5
7AC
330
4E
100
AcDbEntity
  8
Defpoints
  6
AUSGEZOGEN
 62
     0
370
     0
100
AcDbPoint
 10
511.5
 20
185.3993502609646
 30
0.0
  0
ENDBLK
  5
3BD
330
4E
100
AcDbEntity
  8
0
  6
ByBlock
 62
     0
100
AcDbBlockEnd
  0
BLOCK
  5
3BE
330
4F
100
AcDbEntity
  8
0
100
AcDbBlockBegin
  2
*D30
 70
     1
 71
     1
 10
0.0
 20
0.0
 30
0.0
  3
*D30
  1

  0
LINE
  5
7B6
330
4F
100
AcDbEntity
  8
1
  6
AUSGEZOGEN
 62
     0
370
    -2
100
AcDbLine
 10
452.5
 20
224.4
 30
0.0
 11
452.5
 21
176.6892589464196
 31
0.0
  0
LINE
  5
7B7
330
4F
100
AcDbEntity
  8
1
  6
AUSGEZOGEN
 62
     0
370
    -2
100
AcDbLine
 10
515.5
 20
224.4
 30
0.0
 11
515.5
 21
176.6892589464196
 31
0.0
  0
LINE
  5
7B8
330
4F
100
AcDbEntity
  8
1
  6
AUSGEZOGEN
 62
     0
370
    -2
100
AcDbLine
 10
455.4999999999999
 20
178.3992589464196
 30
0.0
 11
512.5
 21
178.3992589464196
 31
0.0
  0
MTEXT
  5
7B9
330
4F
100
AcDbEntity
  8
1
  6
AUSGEZOGEN
 62
    54
100
AcDbMText
 10
483.6818578785196
 20
181.4671623127915
 30
0.0
 40
3.5
 41
0.0
 71
     5
 72
     1
  1
\A1;%%c63
 73
     1
 44
1.0
  0
SOLID
  5
7BA
330
4F
100
AcDbEntity
  8
1
  6
AUSGEZOGEN
 62
     0
370
     0
100
AcDbTrace
 10
455.4999999999999
 20
178.8992589464196
 30
0.0
 11
455.4999999999999
 21
177.8992589464196
 31
0.0
 12
452.5
 22
178.3992589464196
 32
0.0
 13
452.5
 23
178.3992589464196
 33
0.0
  0
SOLID
  5
7BB
330
4F
100
AcDbEntity
  8
1
  6
AUSGEZOGEN
 62
     0
370
     0
100
AcDbTrace
 10
512.5
 20
178.8992589464196
 30
0.0
 11
512.5
 21
177.8992589464196
 31
0.0
 12
515.5
 22
178.3992589464196
 32
0.0
 13
515.5
 23
178.3992589464196
 33
0.0
  0
POINT
  5
7BC
330
4F
100
AcDbEntity
  8
Defpoints
  6
AUSGEZOGEN
 62
     0
370
     0
100
AcDbPoint
 10
452.5
 20
224.5
 30
0.0
  0
POINT
  5
7BD
330
4F
100
AcDbEntity
  8
Defpoints
  6
AUSGEZOGEN
 62
     0
370
     0
100
AcDbPoint
 10
515.5
 20
224.5
 30
0.0
  0
POINT
  5
7BE
330
4F
100
AcDbEntity
  8
Defpoints
  6
AUSGEZOGEN
 62
     0
370
     0
100
AcDbPoint
 10
515.5
 20
178.3992589464196
 30
0.0
  0
ENDBLK
  5
3C5
330
4F
100
AcDbEntity
  8
0
  6
ByBlock
 62
     0
100
AcDbBlockEnd
  0
BLOCK
  5
3C6
330
50
100
AcDbEntity
  8
0
100
AcDbBlockBegin
  2
*D31
 70
     1
 71
     1
 10
0.0
 20
0.0
 30
0.0
  3
*D31
  1

  0
LINE
  5
7C8
330
50
100
AcDbEntity
  8
3
  6
AUSGEZOGEN
 62
     0
370
    -2
100
AcDbLine
 10
446.25
 20
224.4
 30
0.0
 11
446.25
 21
169.5830121296615
 31
0.0
  0
LINE
  5
7C9
330
50
100
AcDbEntity
  8
3
  6
AUSGEZOGEN
 62
     0
370
    -2
100
AcDbLine
 10
521.75
 20
224.4
 30
0.0
 11
521.75
 21
169.5830121296615
 31
0.0
  0
LINE
  5
7CA
330
50
100
AcDbEntity
  8
3
  6
AUSGEZOGEN
 62
     0
370
    -2
100
AcDbLine
 10
449.2499999999999
 20
171.2930121296615
 30
0.0
 11
518.75
 21
171.2930121296615
 31
0.0
  0
MTEXT
  5
7CB
330
50
100
AcDbEntity
  8
3
  6
AUSGEZOGEN
 62
    54
100
AcDbMText
 10
483.1119854392641
 20
174.254035483621
 30
0.0
 40
3.5
 41
0.0
 71
     5
 72
     1
  1
\A1;%%c75.5
 73
     1
 44
1.0
  0
SOLID
  5
7CC
330
50
100
AcDbEntity
  8
3
  6
AUSGEZOGEN
 62
     0
370
     0
100
AcDbTrace
 10
449.2499999999999
 20
171.7930121296615
 30
0.0
 11
449.2499999999999
 21
170.7930121296615
 31
0.0
 12
446.25
 22
171.2930121296615
 32
0.0
 13
446.25
 23
171.2930121296615
 33
0.0
  0
SOLID
  5
7CD
330
50
100
AcDbEntity
  8
3
  6
AUSGEZOGEN
 62
     0
370
     0
100
AcDbTrace
 10
518.75
 20
171.7930121296615
 30
0.0
 11
518.75
 21
170.7930121296615
 31
0.0
 12
521.75
 22
171.2930121296615
 32
0.0
 13
521.75
 23
171.2930121296615
 33
0.0
  0
POINT
  5
7CE
330
50
100
AcDbEntity
  8
Defpoints
  6
AUSGEZOGEN
 62
     0
370
     0
100
AcDbPoint
 10
446.25
 20
224.5
 30
0.0
  0
POINT
  5
7CF
330
50
100
AcDbEntity
  8
Defpoints
  6
AUSGEZOGEN
 62
     0
370
     0
100
AcDbPoint
 10
521.75
 20
224.5
 30
0.0
  0
POINT
  5
7D0
330
50
100
AcDbEntity
  8
Defpoints
  6
AUSGEZOGEN
 62
     0
370
     0
100
AcDbPoint
 10
521.75
 20
171.2930121296615
 30
0.0
  0
ENDBLK
  5
3CD
330
50
100
AcDbEntity
  8
0
  6
ByBlock
 62
     0
100
AcDbBlockEnd
  0
BLOCK
  5
3CE
330
51
100
AcDbEntity
  8
0
100
AcDbBlockBegin
  2
*D32
 70
     1
 71
     1
 10
0.0
 20
0.0
 30
0.0
  3
*D32
  1

  0
LINE
  5
5FC
330
51
100
AcDbEntity
  8
3
  6
AUSGEZOGEN
 62
     0
370
    -2
100
AcDbLine
 10
509.9614094743499
 20
252.0000000000001
 30
0.0
 11
532.3300315554165
 21
252.0000000000001
 31
0.0
  0
LINE
  5
5FD
330
51
100
AcDbEntity
  8
3
  6
AUSGEZOGEN
 62
     0
370
    -2
100
AcDbLine
 10
509.9614094743501
 20
197.0
 30
0.0
 11
532.3300315554165
 21
197.0
 31
0.0
  0
LINE
  5
5FE
330
51
100
AcDbEntity
  8
3
  6
AUSGEZOGEN
 62
     0
370
    -2
100
AcDbLine
 10
530.6200315554165
 20
249.0000000000001
 30
0.0
 11
530.6200315554165
 21
227.5066666666667
 31
0.0
  0
LINE
  5
5FF
330
51
100
AcDbEntity
  8
3
  6
AUSGEZOGEN
 62
     0
370
    -2
100
AcDbLine
 10
530.6200315554165
 20
200.0000000000001
 30
0.0
 11
530.6200315554165
 21
221.4933333333334
 31
0.0
  0
SOLID
  5
600
330
51
100
AcDbEntity
  8
3
  6
AUSGEZOGEN
 62
     0
370
     0
100
AcDbTrace
 10
530.1200315554165
 20
249.0000000000001
 30
0.0
 11
531.1200315554165
 21
249.0000000000001
 31
0.0
 12
530.6200315554165
 22
252.0000000000001
 32
0.0
 13
530.6200315554165
 23
252.0000000000001
 33
0.0
  0
SOLID
  5
601
330
51
100
AcDbEntity
  8
3
  6
AUSGEZOGEN
 62
     0
370
     0
100
AcDbTrace
 10
530.1200315554165
 20
200.0000000000001
 30
0.0
 11
531.1200315554165
 21
200.0000000000001
 31
0.0
 12
530.6200315554165
 22
197.0
 32
0.0
 13
530.6200315554165
 23
197.0
 33
0.0
  0
MTEXT
  5
602
330
51
100
AcDbEntity
  8
3
  6
AUSGEZOGEN
 62
    54
100
AcDbMText
 10
530.6200315554165
 20
224.5000000000001
 30
0.0
 40
3.5
 41
0.0
 71
     5
 72
     1
  1
\A1;55
 11
0.0000000000000001
 21
1.0
 31
0.0
 73
     1
 44
1.0
  0
POINT
  5
603
330
51
100
AcDbEntity
  8
Defpoints
  6
AUSGEZOGEN
 62
     0
370
     0
100
AcDbPoint
 10
509.8614094743498
 20
252.0000000000001
 30
0.0
  0
POINT
  5
604
330
51
100
AcDbEntity
  8
Defpoints
  6
AUSGEZOGEN
 62
     0
370
     0
100
AcDbPoint
 10
509.8614094743501
 20
197.0
 30
0.0
  0
POINT
  5
605
330
51
100
AcDbEntity
  8
Defpoints
  6
AUSGEZOGEN
 62
     0
370
     0
100
AcDbPoint
 10
530.6200315554165
 20
197.0
 30
0.0
  0
ENDBLK
  5
3D5
330
51
100
AcDbEntity
  8
0
  6
ByBlock
 62
     0
100
AcDbBlockEnd
  0
BLOCK
  5
3D6
330
52
100
AcDbEntity
  8
0
100
AcDbBlockBegin
  2
*D33
 70
     1
 71
     1
 10
0.0
 20
0.0
 30
0.0
  3
*D33
  1

  0
LINE
  5
70A
330
52
100
AcDbEntity
  8
5
  6
AUSGEZOGEN
 62
     0
370
    -2
100
AcDbLine
 10
245.9666852330782
 20
196.9000000000001
 30
0.0
 11
245.9666852330782
 21
171.0543839839498
 31
0.0
  0
LINE
  5
70B
330
52
100
AcDbEntity
  8
5
  6
AUSGEZOGEN
 62
     0
370
    -2
100
AcDbLine
 10
391.2166852330781
 20
197.8999999999999
 30
0.0
 11
391.2166852330781
 21
171.0543839839498
 31
0.0
  0
LINE
  5
70C
330
52
100
AcDbEntity
  8
5
  6
AUSGEZOGEN
 62
     0
370
    -2
100
AcDbLine
 10
248.9666852330782
 20
172.7643839839498
 30
0.0
 11
388.2166852330781
 21
172.7643839839498
 31
0.0
  0
MTEXT
  5
70D
330
52
100
AcDbEntity
  8
5
  6
AUSGEZOGEN
 62
    54
100
AcDbMText
 10
317.421714342247
 20
175.5412631622373
 30
0.0
 40
3.5
 41
0.0
 71
     5
 72
     1
  1
\A1;K,K1
 73
     1
 44
1.0
  0
SOLID
  5
70E
330
52
100
AcDbEntity
  8
5
  6
AUSGEZOGEN
 62
     0
370
     0
100
AcDbTrace
 10
248.9666852330782
 20
173.2643839839498
 30
0.0
 11
248.9666852330782
 21
172.2643839839498
 31
0.0
 12
245.9666852330782
 22
172.7643839839498
 32
0.0
 13
245.9666852330782
 23
172.7643839839498
 33
0.0
  0
SOLID
  5
70F
330
52
100
AcDbEntity
  8
5
  6
AUSGEZOGEN
 62
     0
370
     0
100
AcDbTrace
 10
388.2166852330781
 20
173.2643839839498
 30
0.0
 11
388.2166852330781
 21
172.2643839839498
 31
0.0
 12
391.2166852330781
 22
172.7643839839498
 32
0.0
 13
391.2166852330781
 23
172.7643839839498
 33
0.0
  0
POINT
  5
710
330
52
100
AcDbEntity
  8
Defpoints
  6
AUSGEZOGEN
 62
     0
370
     0
100
AcDbPoint
 10
245.9666852330782
 20
197.0
 30
0.0
  0
POINT
  5
711
330
52
100
AcDbEntity
  8
Defpoints
  6
AUSGEZOGEN
 62
     0
370
     0
100
AcDbPoint
 10
391.2166852330781
 20
197.9999999999998
 30
0.0
  0
POINT
  5
712
330
52
100
AcDbEntity
  8
Defpoints
  6
AUSGEZOGEN
 62
     0
370
     0
100
AcDbPoint
 10
391.2166852330781
 20
172.7643839839498
 30
0.0
  0
ENDBLK
  5
3DD
330
52
100
AcDbEntity
  8
0
  6
ByBlock
 62
     0
100
AcDbBlockEnd
  0
BLOCK
  5
3DE
330
53
100
AcDbEntity
  8
0
100
AcDbBlockBegin
  2
*D34
 70
     1
 71
     1
 10
0.0
 20
0.0
 30
0.0
  3
*D34
  1

  0
LINE
  5
791
330
53
100
AcDbEntity
  8
1
  6
AUSGEZOGEN
 62
     0
370
    -2
100
AcDbLine
 10
463.7861035940089
 20
200.4712352596933
 30
0.0
 11
469.5557858847283
 21
206.2409175504128
 31
0.0
  0
LINE
  5
792
330
53
100
AcDbEntity
  8
1
  6
AUSGEZOGEN
 62
     0
370
    -2
100
AcDbLine
 10
459.9712352596933
 20
204.2861035940088
 30
0.0
 11
465.7409175504128
 21
210.0557858847284
 31
0.0
  0
LINE
  5
793
330
53
100
AcDbEntity
  8
1
  6
AUSGEZOGEN
 62
     0
370
    -2
100
AcDbLine
 10
470.467953632459
 20
202.9104446110242
 30
0.0
 11
472.5892739760187
 21
200.7891242674646
 31
0.0
  0
LINE
  5
794
330
53
100
AcDbEntity
  8
1
  6
AUSGEZOGEN
 62
     0
370
    -2
100
AcDbLine
 10
462.4104446110242
 20
210.967953632459
 30
0.0
 11
460.2891242674646
 21
213.0892739760187
 31
0.0
  0
MTEXT
  5
795
330
53
100
AcDbEntity
  8
1
  6
AUSGEZOGEN
 62
    54
100
AcDbMText
 10
461.2668114586595
 20
216.0142407552759
 30
0.0
 40
3.5
 41
0.0
 71
     5
 72
     1
  1
\A1;5.4
 11
0.7071067811865535
 21
-0.7071067811865416
 31
0.0
 73
     1
 44
1.0
  0
SOLID
  5
796
330
53
100
AcDbEntity
  8
1
  6
AUSGEZOGEN
 62
     0
370
     0
100
AcDbTrace
 10
470.8215070230523
 20
203.2639980016175
 30
0.0
 11
470.1144002418657
 21
202.5568912204309
 31
0.0
 12
468.3466332888993
 22
205.0317649545839
 32
0.0
 13
468.3466332888993
 23
205.0317649545839
 33
0.0
  0
SOLID
  5
797
330
53
100
AcDbEntity
  8
1
  6
AUSGEZOGEN
 62
     0
370
     0
100
AcDbTrace
 10
462.7639980016176
 20
211.3215070230523
 30
0.0
 11
462.0568912204309
 21
210.6144002418657
 31
0.0
 12
464.5317649545838
 22
208.8466332888994
 32
0.0
 13
464.5317649545838
 23
208.8466332888994
 33
0.0
  0
POINT
  5
798
330
53
100
AcDbEntity
  8
Defpoints
  6
AUSGEZOGEN
 62
     0
370
     0
100
AcDbPoint
 10
463.7153929158902
 20
200.4005245815747
 30
0.0
  0
POINT
  5
799
330
53
100
AcDbEntity
  8
Defpoints
  6
AUSGEZOGEN
 62
     0
370
     0
100
AcDbPoint
 10
459.9005245815747
 20
204.2153929158902
 30
0.0
  0
POINT
  5
79A
330
53
100
AcDbEntity
  8
Defpoints
  6
AUSGEZOGEN
 62
     0
370
     0
100
AcDbPoint
 10
464.5317649545838
 20
208.8466332888994
 30
0.0
  0
ENDBLK
  5
3E7
330
53
100
AcDbEntity
  8
0
  6
ByBlock
 62
     0
100
AcDbBlockEnd
  0
BLOCK
  5
3E8
330
54
100
AcDbEntity
  8
0
100
AcDbBlockBegin
  2
*D35
 70
     1
 71
     1
 10
0.0
 20
0.0
 30
0.0
  3
*D35
  1

  0
LINE
  5
71C
330
54
100
AcDbEntity
  8
1
  6
AUSGEZOGEN
 62
     0
370
    -2
100
AcDbLine
 10
391.2166852330781
 20
197.8999999999999
 30
0.0
 11
391.2166852330781
 21
171.0268509414592
 31
0.0
  0
LINE
  5
71D
330
54
100
AcDbEntity
  8
1
  6
AUSGEZOGEN
 62
     0
370
    -2
100
AcDbLine
 10
405.7166852330779
 20
261.4500000000002
 30
0.0
 11
405.7166852330779
 21
171.0268509414593
 31
0.0
  0
LINE
  5
71E
330
54
100
AcDbEntity
  8
1
  6
AUSGEZOGEN
 62
     0
370
    -2
100
AcDbLine
 10
394.2166852330781
 20
172.7368509414592
 30
0.0
 11
402.716685233078
 21
172.7368509414592
 31
0.0
  0
MTEXT
  5
71F
330
54
100
AcDbEntity
  8
1
  6
AUSGEZOGEN
 62
    54
100
AcDbMText
 10
398.1593789704488
 20
176.004933068255
 30
0.0
 40
3.5
 41
0.0
 71
     5
 72
     1
  1
\A1;14.5
 73
     1
 44
1.0
  0
SOLID
  5
720
330
54
100
AcDbEntity
  8
1
  6
AUSGEZOGEN
 62
     0
370
     0
100
AcDbTrace
 10
394.2166852330781
 20
173.2368509414593
 30
0.0
 11
394.2166852330781
 21
172.2368509414593
 31
0.0
 12
391.2166852330781
 22
172.7368509414592
 32
0.0
 13
391.2166852330781
 23
172.7368509414592
 33
0.0
  0
SOLID
  5
721
330
54
100
AcDbEntity
  8
1
  6
AUSGEZOGEN
 62
     0
370
     0
100
AcDbTrace
 10
402.716685233078
 20
173.2368509414593
 30
0.0
 11
402.716685233078
 21
172.2368509414593
 31
0.0
 12
405.7166852330779
 22
172.7368509414592
 32
0.0
 13
405.7166852330779
 23
172.7368509414592
 33
0.0
  0
POINT
  5
722
330
54
100
AcDbEntity
  8
Defpoints
  6
AUSGEZOGEN
 62
     0
370
     0
100
AcDbPoint
 10
391.2166852330781
 20
197.9999999999998
 30
0.0
  0
POINT
  5
723
330
54
100
AcDbEntity
  8
Defpoints
  6
AUSGEZOGEN
 62
     0
370
     0
100
AcDbPoint
 10
405.7166852330779
 20
261.5500000000003
 30
0.0
  0
POINT
  5
724
330
54
100
AcDbEntity
  8
Defpoints
  6
AUSGEZOGEN
 62
     0
370
     0
100
AcDbPoint
 10
405.7166852330779
 20
172.7368509414592
 30
0.0
  0
ENDBLK
  5
3EF
330
54
100
AcDbEntity
  8
0
  6
ByBlock
 62
     0
100
AcDbBlockEnd
  0
BLOCK
  5
3F0
330
55
100
AcDbEntity
  8
0
100
AcDbBlockBegin
  2
*D36
 70
     1
 71
     1
 10
0.0
 20
0.0
 30
0.0
  3
*D36
  1

  0
LINE
  5
6AB
330
55
100
AcDbEntity
  8
1
  6
AUSGEZOGEN
 62
     0
370
    -2
100
AcDbLine
 10
225.9666852330782
 20
228.6
 30
0.0
 11
225.9666852330782
 21
239.4334718586179
 31
0.0
  0
LINE
  5
6AC
330
55
100
AcDbEntity
  8
1
  6
AUSGEZOGEN
 62
     0
370
    -2
100
AcDbLine
 10
228.9666852330782
 20
230.2999999999999
 30
0.0
 11
228.9666852330782
 21
239.4334718586179
 31
0.0
  0
LINE
  5
6AD
330
55
100
AcDbEntity
  8
1
  6
AUSGEZOGEN
 62
     0
370
    -2
100
AcDbLine
 10
222.9666852330782
 20
237.7234718586179
 30
0.0
 11
219.9666852330782
 21
237.7234718586179
 31
0.0
  0
LINE
  5
6AE
330
55
100
AcDbEntity
  8
1
  6
AUSGEZOGEN
 62
     0
370
    -2
100
AcDbLine
 10
231.9666852330782
 20
237.7234718586179
 30
0.0
 11
234.9666852330782
 21
237.7234718586179
 31
0.0
  0
MTEXT
  5
6AF
330
55
100
AcDbEntity
  8
1
  6
AUSGEZOGEN
 62
    54
100
AcDbMText
 10
218.7327110189166
 20
240.4396719992667
 30
0.0
 40
3.5
 41
0.0
 71
     5
 72
     1
  1
\A1;3
 73
     1
 44
1.0
  0
SOLID
  5
6B0
330
55
100
AcDbEntity
  8
1
  6
AUSGEZOGEN
 62
     0
370
     0
100
AcDbTrace
 10
222.9666852330782
 20
238.2234718586179
 30
0.0
 11
222.9666852330782
 21
237.2234718586179
 31
0.0
 12
225.9666852330782
 22
237.7234718586179
 32
0.0
 13
225.9666852330782
 23
237.7234718586179
 33
0.0
  0
SOLID
  5
6B1
330
55
100
AcDbEntity
  8
1
  6
AUSGEZOGEN
 62
     0
370
     0
100
AcDbTrace
 10
231.9666852330782
 20
238.2234718586179
 30
0.0
 11
231.9666852330782
 21
237.2234718586179
 31
0.0
 12
228.9666852330782
 22
237.7234718586179
 32
0.0
 13
228.9666852330782
 23
237.7234718586179
 33
0.0
  0
POINT
  5
6B2
330
55
100
AcDbEntity
  8
Defpoints
  6
AUSGEZOGEN
 62
     0
370
     0
100
AcDbPoint
 10
225.9666852330782
 20
228.5000000000001
 30
0.0
  0
POINT
  5
6B3
330
55
100
AcDbEntity
  8
Defpoints
  6
AUSGEZOGEN
 62
     0
370
     0
100
AcDbPoint
 10
228.9666852330782
 20
230.1999999999999
 30
0.0
  0
POINT
  5
6B4
330
55
100
AcDbEntity
  8
Defpoints
  6
AUSGEZOGEN
 62
     0
370
     0
100
AcDbPoint
 10
228.9666852330782
 20
237.7234718586179
 30
0.0
  0
ENDBLK
  5
3F9
330
55
100
AcDbEntity
  8
0
  6
ByBlock
 62
     0
100
AcDbBlockEnd
  0
BLOCK
  5
3FA
330
56
100
AcDbEntity
  8
0
100
AcDbBlockBegin
  2
*D37
 70
     1
 71
     1
 10
0.0
 20
0.0
 30
0.0
  3
*D37
  1

  0
LINE
  5
6BE
330
56
100
AcDbEntity
  8
1
  6
AUSGEZOGEN
 62
     0
370
    -2
100
AcDbLine
 10
228.9666852330782
 20
230.2999999999999
 30
0.0
 11
228.9666852330782
 21
239.4151780920102
 31
0.0
  0
LINE
  5
6BF
330
56
100
AcDbEntity
  8
1
  6
AUSGEZOGEN
 62
     0
370
    -2
100
AcDbLine
 10
242.9666852330782
 20
230.2999999999999
 30
0.0
 11
242.9666852330782
 21
239.4151780920102
 31
0.0
  0
LINE
  5
6C0
330
56
100
AcDbEntity
  8
1
  6
AUSGEZOGEN
 62
     0
370
    -2
100
AcDbLine
 10
231.9666852330782
 20
237.7051780920102
 30
0.0
 11
239.9666852330782
 21
237.7051780920102
 31
0.0
  0
MTEXT
  5
6C1
330
56
100
AcDbEntity
  8
1
  6
AUSGEZOGEN
 62
    54
100
AcDbMText
 10
235.5878155867312
 20
240.4396719992667
 30
0.0
 40
3.5
 41
0.0
 71
     5
 72
     1
  1
\A1;14
 73
     1
 44
1.0
  0
SOLID
  5
6C2
330
56
100
AcDbEntity
  8
1
  6
AUSGEZOGEN
 62
     0
370
     0
100
AcDbTrace
 10
231.9666852330782
 20
238.2051780920102
 30
0.0
 11
231.9666852330782
 21
237.2051780920102
 31
0.0
 12
228.9666852330782
 22
237.7051780920102
 32
0.0
 13
228.9666852330782
 23
237.7051780920102
 33
0.0
  0
SOLID
  5
6C3
330
56
100
AcDbEntity
  8
1
  6
AUSGEZOGEN
 62
     0
370
     0
100
AcDbTrace
 10
239.9666852330782
 20
238.2051780920102
 30
0.0
 11
239.9666852330782
 21
237.2051780920102
 31
0.0
 12
242.9666852330782
 22
237.7051780920102
 32
0.0
 13
242.9666852330782
 23
237.7051780920102
 33
0.0
  0
POINT
  5
6C4
330
56
100
AcDbEntity
  8
Defpoints
  6
AUSGEZOGEN
 62
     0
370
     0
100
AcDbPoint
 10
228.9666852330782
 20
230.1999999999999
 30
0.0
  0
POINT
  5
6C5
330
56
100
AcDbEntity
  8
Defpoints
  6
AUSGEZOGEN
 62
     0
370
     0
100
AcDbPoint
 10
242.9666852330782
 20
230.1999999999999
 30
0.0
  0
POINT
  5
6C6
330
56
100
AcDbEntity
  8
Defpoints
  6
AUSGEZOGEN
 62
     0
370
     0
100
AcDbPoint
 10
242.9666852330782
 20
237.7051780920102
 30
0.0
  0
ENDBLK
  5
401
330
56
100
AcDbEntity
  8
0
  6
ByBlock
 62
     0
100
AcDbBlockEnd
  0
BLOCK
  5
402
330
57
100
AcDbEntity
  8
0
100
AcDbBlockBegin
  2
*D38
 70
     1
 71
     1
 10
0.0
 20
0.0
 30
0.0
  3
*D38
  1

  0
LINE
  5
755
330
57
100
AcDbEntity
  8
5
  6
AUSGEZOGEN
 62
     0
370
    -2
100
AcDbLine
 10
482.5
 20
230.2999999999999
 30
0.0
 11
482.5
 21
233.8043983594202
 31
0.0
  0
LINE
  5
756
330
57
100
AcDbEntity
  8
5
  6
AUSGEZOGEN
 62
     0
370
    -2
100
AcDbLine
 10
485.5
 20
230.2999999999999
 30
0.0
 11
485.5
 21
233.8043983594202
 31
0.0
  0
LINE
  5
757
330
57
100
AcDbEntity
  8
5
  6
AUSGEZOGEN
 62
     0
370
    -2
100
AcDbLine
 10
479.4999999999999
 20
232.0943983594202
 30
0.0
 11
476.4999999999999
 21
232.0943983594202
 31
0.0
  0
LINE
  5
758
330
57
100
AcDbEntity
  8
5
  6
AUSGEZOGEN
 62
     0
370
    -2
100
AcDbLine
 10
488.4999999999999
 20
232.0943983594202
 30
0.0
 11
491.5
 21
232.0943983594202
 31
0.0
  0
MTEXT
  5
759
330
57
100
AcDbEntity
  8
5
  6
AUSGEZOGEN
 62
    54
100
AcDbMText
 10
490.7103058990519
 20
234.996151597855
 30
0.0
 40
3.5
 41
0.0
 71
     5
 72
     1
  1
\A1;3
 73
     1
 44
1.0
  0
SOLID
  5
75A
330
57
100
AcDbEntity
  8
5
  6
AUSGEZOGEN
 62
     0
370
     0
100
AcDbTrace
 10
479.4999999999999
 20
232.5943983594202
 30
0.0
 11
479.4999999999999
 21
231.5943983594201
 31
0.0
 12
482.5
 22
232.0943983594202
 32
0.0
 13
482.5
 23
232.0943983594202
 33
0.0
  0
SOLID
  5
75B
330
57
100
AcDbEntity
  8
5
  6
AUSGEZOGEN
 62
     0
370
     0
100
AcDbTrace
 10
488.4999999999999
 20
232.5943983594202
 30
0.0
 11
488.4999999999999
 21
231.5943983594201
 31
0.0
 12
485.5
 22
232.0943983594202
 32
0.0
 13
485.5
 23
232.0943983594202
 33
0.0
  0
POINT
  5
75C
330
57
100
AcDbEntity
  8
Defpoints
  6
AUSGEZOGEN
 62
     0
370
     0
100
AcDbPoint
 10
482.5
 20
230.1999999999999
 30
0.0
  0
POINT
  5
75D
330
57
100
AcDbEntity
  8
Defpoints
  6
AUSGEZOGEN
 62
     0
370
     0
100
AcDbPoint
 10
485.5
 20
230.1999999999999
 30
0.0
  0
POINT
  5
75E
330
57
100
AcDbEntity
  8
Defpoints
  6
AUSGEZOGEN
 62
     0
370
     0
100
AcDbPoint
 10
485.5
 20
232.0943983594202
 30
0.0
  0
ENDBLK
  5
40B
330
57
100
AcDbEntity
  8
0
  6
ByBlock
 62
     0
100
AcDbBlockEnd
  0
BLOCK
  5
40C
330
58
100
AcDbEntity
  8
0
100
AcDbBlockBegin
  2
*D39
 70
     1
 71
     1
 10
0.0
 20
0.0
 30
0.0
  3
*D39
  1

  0
LINE
  5
77D
330
58
100
AcDbEntity
  8
1
  6
AUSGEZOGEN
 62
     0
370
    -2
100
AcDbLine
 10
483.8999999999999
 20
220.0
 30
0.0
 11
473.6550382316798
 21
220.0
 31
0.0
  0
LINE
  5
77E
330
58
100
AcDbEntity
  8
1
  6
AUSGEZOGEN
 62
     0
370
    -2
100
AcDbLine
 10
485.4
 20
230.1999999999999
 30
0.0
 11
473.6550382316798
 21
230.1999999999999
 31
0.0
  0
LINE
  5
77F
330
58
100
AcDbEntity
  8
1
  6
AUSGEZOGEN
 62
     0
370
    -2
100
AcDbLine
 10
475.3650382316798
 20
217.0
 30
0.0
 11
475.3650382316798
 21
214.0
 31
0.0
  0
LINE
  5
780
330
58
100
AcDbEntity
  8
1
  6
AUSGEZOGEN
 62
     0
370
    -2
100
AcDbLine
 10
475.3650382316798
 20
233.1999999999999
 30
0.0
 11
475.3650382316798
 21
236.1999999999999
 31
0.0
  0
MTEXT
  5
781
330
58
100
AcDbEntity
  8
1
  6
AUSGEZOGEN
 62
    54
100
AcDbMText
 10
475.3237051364226
 20
225.315377422635
 30
0.0
 40
3.5
 41
0.0
 71
     5
 72
     1
  1
\A1;10.2
 11
0.0000000000000001
 21
1.0
 31
0.0
 73
     1
 44
1.0
  0
SOLID
  5
782
330
58
100
AcDbEntity
  8
1
  6
AUSGEZOGEN
 62
     0
370
     0
100
AcDbTrace
 10
474.8650382316798
 20
217.0
 30
0.0
 11
475.8650382316798
 21
217.0
 31
0.0
 12
475.3650382316798
 22
220.0
 32
0.0
 13
475.3650382316798
 23
220.0
 33
0.0
  0
SOLID
  5
783
330
58
100
AcDbEntity
  8
1
  6
AUSGEZOGEN
 62
     0
370
     0
100
AcDbTrace
 10
474.8650382316798
 20
233.1999999999999
 30
0.0
 11
475.8650382316798
 21
233.1999999999999
 31
0.0
 12
475.3650382316798
 22
230.1999999999999
 32
0.0
 13
475.3650382316798
 23
230.1999999999999
 33
0.0
  0
POINT
  5
784
330
58
100
AcDbEntity
  8
Defpoints
  6
AUSGEZOGEN
 62
     0
370
     0
100
AcDbPoint
 10
484.0
 20
220.0
 30
0.0
  0
POINT
  5
785
330
58
100
AcDbEntity
  8
Defpoints
  6
AUSGEZOGEN
 62
     0
370
     0
100
AcDbPoint
 10
485.5
 20
230.1999999999999
 30
0.0
  0
POINT
  5
786
330
58
100
AcDbEntity
  8
Defpoints
  6
AUSGEZOGEN
 62
     0
370
     0
100
AcDbPoint
 10
475.3650382316798
 20
230.1999999999999
 30
0.0
  0
ENDBLK
  5
413
330
58
100
AcDbEntity
  8
0
  6
ByBlock
 62
     0
100
AcDbBlockEnd
  0
BLOCK
  5
465
330
463
100
AcDbEntity
  8
0
370
     0
100
AcDbBlockBegin
  2
GENAXEH
 70
     0
 10
0.0
 20
0.0
 30
0.0
  3
GENAXEH
  1

  0
LINE
  5
464
330
463
100
AcDbEntity
  8
0
100
AcDbLine
 10
-1.0
 20
0.0
 30
0.0
 11
1.0
 21
0.0
 31
0.0
  0
ENDBLK
  5
466
330
463
100
AcDbEntity
  8
0
370
     0
100
AcDbBlockEnd
  0
BLOCK
  5
580
330
4CD
100
AcDbEntity
  8
0
370
     0
100
AcDbBlockBegin
  2
METRIC_C
 70
     2
 10
0.0
 20
0.0
 30
0.0
  3
METRIC_C
  1

  0
LINE
  5
4CE
330
4CD
100
AcDbEntity
  8
BORDER
  6
Continuous
100
AcDbLine
 10
0.0
 20
425.806403616429
 30
0.0
 11
558.8
 21
425.806403616429
 31
0.0
  0
LINE
  5
4CF
330
4CD
100
AcDbEntity
  8
BORDER
100
AcDbLine
 10
12.7
 20
13.05640361642906
 30
0.0
 11
546.1
 21
13.05640361642906
 31
0.0
  0
LINE
  5
4D0
330
4CD
100
AcDbEntity
  8
BORDER
100
AcDbLine
 10
12.7
 20
406.756403616429
 30
0.0
 11
546.1
 21
406.756403616429
 31
0.0
  0
ATTDEF
  5
4D1
330
4CD
100
AcDbEntity
  8
TITLE BLOCK
  6
Continuous
100
AcDbText
 10
442.5949999999999
 20
41.63140361642906
 30
0.0
 40
2.566953004259999
  1

  7
STANDARD
100
AcDbAttributeDefinition
  3
Drawn by
  2
GEN-TITLE-NAME{5}
 70
     0
1001
GENIUS_GENBLLY_14
1000
BOR2
  0
ATTDEF
  5
4D2
330
4CD
100
AcDbEntity
  8
TITLE BLOCK
  6
Continuous
100
AcDbText
 10
442.5949999999999
 20
35.28140361642906
 30
0.0
 40
2.566953004259999
  1

  7
STANDARD
100
AcDbAttributeDefinition
  3
Check by
  2
GEN-TITLE-CHKM{5}
 70
     0
1001
GENIUS_GENBLLY_14
1000
BOR2
  0
ATTDEF
  5
4D3
330
4CD
100
AcDbEntity
  8
TITLE BLOCK
  6
Continuous
100
AcDbText
 10
442.5949999999999
 20
28.93140361642906
 30
0.0
 40
2.566953004259999
  1

  7
STANDARD
100
AcDbAttributeDefinition
  3
Approved by
  2
GEN-TITLE-APPM{5}
 70
     0
1001
GENIUS_GENBLLY_14
1000
BOR2
1001
GENIUS_GENTRA_14
1002
{
1070
     3
1000
GENTRAPR,%s,(GENMSG gentitus 73)
1000
Approved by
1000
gb
1070
     0
1002
}
  0
LINE
  5
4D4
330
4CD
100
AcDbEntity
  8
TITLE BLOCK
  6
Continuous
100
AcDbLine
 10
396.2312723140906
 20
27.02640361642906
 30
0.0
 11
546.1
 21
27.02640361642906
 31
0.0
  0
LINE
  5
4D5
330
4CD
100
AcDbEntity
  8
TITLE BLOCK
  6
Continuous
100
AcDbLine
 10
433.7098248608992
 20
33.37640361642906
 30
0.0
 11
546.1
 21
33.37640361642906
 31
0.0
  0
LINE
  5
4D6
330
4CD
100
AcDbEntity
  8
TITLE BLOCK
  6
Continuous
100
AcDbLine
 10
433.7098248608992
 20
39.72640361642906
 30
0.0
 11
546.1
 21
39.72640361642906
 31
0.0
  0
LINE
  5
4D7
330
4CD
100
AcDbEntity
  8
TITLE BLOCK
  6
Continuous
100
AcDbLine
 10
433.7098248608992
 20
46.07640361642906
 30
0.0
 11
546.1
 21
46.07640361642906
 31
0.0
  0
LINE
  5
4D8
330
4CD
100
AcDbEntity
  8
TITLE BLOCK
  6
Continuous
100
AcDbLine
 10
323.8499999999999
 20
63.85640361642907
 30
0.0
 11
546.1
 21
63.85640361642907
 31
0.0
  0
TEXT
  5
4D9
330
4CD
100
AcDbEntity
  8
TITLE BLOCK
  6
Continuous
100
AcDbText
 10
437.0500486115596
 20
53.59895048557155
 30
0.0
 40
2.566953004259999
  1
  DRAWING
 50
0.09999996
  7
AE
100
AcDbText
  0
TEXT
  5
4DA
330
4CD
100
AcDbEntity
  8
TITLE BLOCK
  6
Continuous
100
AcDbText
 10
437.0500486115596
 20
58.91728567531223
 30
0.0
 40
2.566953004259999
  1
DO NOT SCALE
 50
0.09999996
  7
AE
100
AcDbText
  0
LINE
  5
4DB
330
4CD
100
AcDbEntity
  8
BORDER
  6
Continuous
100
AcDbLine
 10
0.0
 20
0.2456391960479891
 30
0.0
 11
0.0
 21
425.806403616429
 31
0.0
  0
LINE
  5
4DC
330
4CD
100
AcDbEntity
  8
BORDER
100
AcDbLine
 10
12.7
 20
13.05640361642906
 30
0.0
 11
12.7
 21
406.756403616429
 31
0.0
  0
TEXT
  5
4DD
330
4CD
100
AcDbEntity
  8
BORDER
100
AcDbText
 10
4.535779599999938
 20
45.44139345642906
 30
0.0
 40
5.079999745999999
  1
A
  7
AE
100
AcDbText
  0
LINE
  5
4DE
330
4CD
100
AcDbEntity
  8
BORDER
100
AcDbLine
 10
2.540152400000012
 20
209.906380756429
 30
0.0
 11
7.620076200000005
 21
209.906380756429
 31
0.0
  0
LINE
  5
4DF
330
4CD
100
AcDbEntity
  8
BORDER
100
AcDbLine
 10
7.620457199999946
 20
207.365860056429
 30
0.0
 11
12.70038099999994
 21
209.905821956429
 31
0.0
  0
TEXT
  5
4E0
330
4CD
100
AcDbEntity
  8
BORDER
100
AcDbText
 10
4.535779599999938
 20
153.391393456429
 30
0.0
 40
5.079999745999999
  1
B
  7
AE
100
AcDbText
  0
LINE
  5
4E1
330
4CD
100
AcDbEntity
  8
BORDER
100
AcDbLine
 10
2.540152400000012
 20
101.956403616429
 30
0.0
 11
12.7
 21
101.956403616429
 31
0.0
  0
LINE
  5
4E2
330
4CD
100
AcDbEntity
  8
BORDER
100
AcDbLine
 10
7.620863600000003
 20
212.445806716429
 30
0.0
 11
12.70076199999997
 21
209.905870216429
 31
0.0
  0
LINE
  5
4E3
330
4CD
100
AcDbEntity
  8
BORDER
100
AcDbLine
 10
7.620457199999946
 20
207.3662232764291
 30
0.0
 11
7.620457199999946
 21
212.446147076429
 31
0.0
  0
TEXT
  5
4E4
330
4CD
100
AcDbEntity
  8
BORDER
100
AcDbText
 10
68.03577959999994
 20
0.991403108429065
 30
0.0
 40
5.079999745999999
  1
4
  7
AE
100
AcDbText
  0
LINE
  5
4E5
330
4CD
100
AcDbEntity
  8
BORDER
100
AcDbLine
 10
139.7
 20
2.896402600429065
 30
0.0
 11
139.7
 21
13.05640361642906
 31
0.0
  0
TEXT
  5
4E6
330
4CD
100
AcDbEntity
  8
BORDER
100
AcDbText
 10
207.7357287999999
 20
0.991403108429065
 30
0.0
 40
5.079999745999999
  1
3
  7
AE
100
AcDbText
  0
TEXT
  5
4E7
330
4CD
100
AcDbEntity
  8
BORDER
100
AcDbText
 10
345.0077199399999
 20
2.463397116429065
 30
0.0
 40
1.016
  1
FULL SIZE   50   02
 50
0.0999999600000013
 41
0.7749084200000001
  7
AE
100
AcDbText
  0
TEXT
  5
4E8
330
4CD
100
AcDbEntity
  8
TITLE BLOCK
  6
Continuous
100
AcDbText
 10
352.3879941939002
 20
15.34301838387497
 30
0.0
 40
1.928801505622495
  1
REVISION
 50
0.09999996
  7
AE
100
AcDbText
  0
LINE
  5
4E9
330
4CD
100
AcDbEntity
  8
TITLE BLOCK
  6
Continuous
100
AcDbLine
 10
323.8499999999999
 20
19.40640361642906
 30
0.0
 11
396.2312723140906
 21
19.40640361642906
 31
0.0
  0
LINE
  5
4EA
330
4CD
100
AcDbEntity
  8
TITLE BLOCK
  6
Continuous
100
AcDbLine
 10
323.8499999999999
 20
38.45640361642906
 30
0.0
 11
396.2312723140906
 21
38.45640361642906
 31
0.0
  0
LINE
  5
4EB
330
4CD
100
AcDbEntity
  8
TITLE BLOCK
  6
Continuous
100
AcDbLine
 10
323.8499999999999
 20
44.80640361642906
 30
0.0
 11
396.2312723140906
 21
44.80640361642906
 31
0.0
  0
LINE
  5
4EC
330
4CD
100
AcDbEntity
  8
TITLE BLOCK
  6
Continuous
100
AcDbLine
 10
323.8499999999999
 20
51.15640361642906
 30
0.0
 11
396.2312723140906
 21
51.15640361642906
 31
0.0
  0
LINE
  5
4ED
330
4CD
100
AcDbEntity
  8
TITLE BLOCK
  6
Continuous
100
AcDbLine
 10
323.8499999999999
 20
57.50640361642906
 30
0.0
 11
396.2312723140906
 21
57.50640361642906
 31
0.0
  0
LINE
  5
4EE
330
4CD
100
AcDbEntity
  8
TITLE BLOCK
  6
Continuous
100
AcDbLine
 10
323.8499999999999
 20
32.10640361642906
 30
0.0
 11
396.2312723140906
 21
32.10640361642906
 31
0.0
  0
LINE
  5
4EF
330
4CD
100
AcDbEntity
  8
TITLE BLOCK
  6
Continuous
100
AcDbLine
 10
323.8499999999999
 20
25.75640361642906
 30
0.0
 11
396.2312723140906
 21
25.75640361642906
 31
0.0
  0
LINE
  5
4F0
330
4CD
100
AcDbEntity
  8
BORDER
  6
LS
100
AcDbLine
 10
347.4720330199999
 20
8.230402092429063
 30
0.0
 11
347.4720330199999
 21
11.78640336242906
 31
0.0
  0
LINE
  5
4F1
330
4CD
100
AcDbEntity
  8
BORDER
  6
LS
100
AcDbLine
 10
350.01204064
 20
8.230402092429063
 30
0.0
 11
350.01204064
 21
11.78640336242906
 31
0.0
  0
LINE
  5
4F2
330
4CD
100
AcDbEntity
  8
BORDER
  6
LS
100
AcDbLine
 10
352.5520508
 20
8.230402092429063
 30
0.0
 11
352.5520508
 21
11.78640336242906
 31
0.0
  0
LINE
  5
4F3
330
4CD
100
AcDbEntity
  8
BORDER
  6
LS
100
AcDbLine
 10
347.98004318
 20
10.26240336242906
 30
0.0
 11
347.98004318
 21
11.78640336242906
 31
0.0
  0
LINE
  5
4F4
330
4CD
100
AcDbEntity
  8
BORDER
  6
LS
100
AcDbLine
 10
348.48805588
 20
9.246402600429064
 30
0.0
 11
348.48805588
 21
11.78640336242906
 31
0.0
  0
LINE
  5
4F5
330
4CD
100
AcDbEntity
  8
BORDER
  6
LS
100
AcDbLine
 10
348.99606604
 20
9.246402600429064
 30
0.0
 11
348.99606604
 21
11.78640336242906
 31
0.0
  0
LINE
  5
4F6
330
4CD
100
AcDbEntity
  8
BORDER
  6
LS
100
AcDbLine
 10
349.50405334
 20
10.26240336242906
 30
0.0
 11
349.50405334
 21
11.78640336242906
 31
0.0
  0
LINE
  5
4F7
330
4CD
100
AcDbEntity
  8
BORDER
  6
LS
100
AcDbLine
 10
350.5200533399999
 20
10.26240336242906
 30
0.0
 11
350.5200533399999
 21
11.78640336242906
 31
0.0
  0
LINE
  5
4F8
330
4CD
100
AcDbEntity
  8
BORDER
  6
LS
100
AcDbLine
 10
351.0280660399999
 20
9.246402600429064
 30
0.0
 11
351.0280660399999
 21
11.78640336242906
 31
0.0
  0
LINE
  5
4F9
330
4CD
100
AcDbEntity
  8
BORDER
  6
LS
100
AcDbLine
 10
351.5360761999999
 20
9.246402600429064
 30
0.0
 11
351.5360761999999
 21
11.78640336242906
 31
0.0
  0
LINE
  5
4FA
330
4CD
100
AcDbEntity
  8
BORDER
  6
LS
100
AcDbLine
 10
352.0440634999999
 20
10.26240336242906
 30
0.0
 11
352.0440634999999
 21
11.78640336242906
 31
0.0
  0
LINE
  5
4FB
330
4CD
100
AcDbEntity
  8
BORDER
  6
LS
100
AcDbLine
 10
353.0600634999999
 20
10.26240336242906
 30
0.0
 11
353.0600634999999
 21
11.78640336242906
 31
0.0
  0
LINE
  5
4FC
330
4CD
100
AcDbEntity
  8
BORDER
  6
LS
100
AcDbLine
 10
353.5680736599999
 20
9.246402600429064
 30
0.0
 11
353.5680736599999
 21
11.78640336242906
 31
0.0
  0
LINE
  5
4FD
330
4CD
100
AcDbEntity
  8
BORDER
  6
LS
100
AcDbLine
 10
342.3920127
 20
8.230402092429063
 30
0.0
 11
342.3920127
 21
11.78640336242906
 31
0.0
  0
LINE
  5
4FE
330
4CD
100
AcDbEntity
  8
BORDER
  6
LS
100
AcDbLine
 10
344.9320228599999
 20
8.230402092429063
 30
0.0
 11
344.9320228599999
 21
11.78640336242906
 31
0.0
  0
LINE
  5
4FF
330
4CD
100
AcDbEntity
  8
BORDER
  6
LS
100
AcDbLine
 10
340.36001524
 20
10.26240336242906
 30
0.0
 11
340.36001524
 21
11.78640336242906
 31
0.0
  0
LINE
  5
500
330
4CD
100
AcDbEntity
  8
BORDER
  6
LS
100
AcDbLine
 10
340.8680253999999
 20
9.246402600429064
 30
0.0
 11
340.8680253999999
 21
11.78640336242906
 31
0.0
  0
LINE
  5
501
330
4CD
100
AcDbEntity
  8
BORDER
  6
LS
100
AcDbLine
 10
341.3760380999999
 20
9.246402600429064
 30
0.0
 11
341.3760380999999
 21
11.78640336242906
 31
0.0
  0
LINE
  5
502
330
4CD
100
AcDbEntity
  8
BORDER
  6
LS
100
AcDbLine
 10
341.8840254
 20
10.26240336242906
 30
0.0
 11
341.8840254
 21
11.78640336242906
 31
0.0
  0
LINE
  5
503
330
4CD
100
AcDbEntity
  8
BORDER
  6
LS
100
AcDbLine
 10
342.9000228599999
 20
10.26240336242906
 30
0.0
 11
342.9000228599999
 21
11.78640336242906
 31
0.0
  0
LINE
  5
504
330
4CD
100
AcDbEntity
  8
BORDER
  6
LS
100
AcDbLine
 10
343.40803556
 20
9.246402600429064
 30
0.0
 11
343.40803556
 21
11.78640336242906
 31
0.0
  0
LINE
  5
505
330
4CD
100
AcDbEntity
  8
BORDER
  6
LS
100
AcDbLine
 10
343.9160482599999
 20
9.246402600429064
 30
0.0
 11
343.9160482599999
 21
11.78640336242906
 31
0.0
  0
LINE
  5
506
330
4CD
100
AcDbEntity
  8
BORDER
  6
LS
100
AcDbLine
 10
344.4240355599999
 20
10.26240336242906
 30
0.0
 11
344.4240355599999
 21
11.78640336242906
 31
0.0
  0
LINE
  5
507
330
4CD
100
AcDbEntity
  8
BORDER
  6
LS
100
AcDbLine
 10
345.4400330199999
 20
10.26240336242906
 30
0.0
 11
345.4400330199999
 21
11.78640336242906
 31
0.0
  0
LINE
  5
508
330
4CD
100
AcDbEntity
  8
BORDER
  6
LS
100
AcDbLine
 10
345.9480457199999
 20
9.246402600429064
 30
0.0
 11
345.9480457199999
 21
11.78640336242906
 31
0.0
  0
LINE
  5
509
330
4CD
100
AcDbEntity
  8
BORDER
  6
LS
100
AcDbLine
 10
346.4560558799999
 20
9.246402600429064
 30
0.0
 11
346.4560558799999
 21
11.78640336242906
 31
0.0
  0
LINE
  5
50A
330
4CD
100
AcDbEntity
  8
BORDER
  6
LS
100
AcDbLine
 10
346.9640431799999
 20
10.26240336242906
 30
0.0
 11
346.9640431799999
 21
11.78640336242906
 31
0.0
  0
TEXT
  5
50B
330
4CD
100
AcDbEntity
  8
BORDER
100
AcDbText
 10
349.2881025399999
 20
4.673135394429065
 30
0.0
 40
2.031999491999999
  1
4
 50
0.0999999600000013
  7
AE
100
AcDbText
  0
TEXT
  5
50C
330
4CD
100
AcDbEntity
  8
BORDER
100
AcDbText
 10
339.1280644399999
 20
3.149135394429065
 30
0.0
 40
2.031999491999999
  1
0
 50
0.0999999600000013
  7
AE
100
AcDbText
  0
TEXT
  5
50D
330
4CD
100
AcDbEntity
  8
BORDER
100
AcDbText
 10
344.20808476
 20
4.673135394429065
 30
0.0
 40
2.031999491999999
  1
2
 50
0.0999999600000013
  7
AE
100
AcDbText
  0
TEXT
  5
50E
330
4CD
100
AcDbEntity
  8
BORDER
100
AcDbText
 10
325.34215602
 20
0.988240300429066
 30
0.0
 40
5.079999745999999
  1
2
 50
0.0999999600000013
  7
AE
100
AcDbText
  0
LINE
  5
50F
330
4CD
100
AcDbEntity
  8
BORDER
  6
LS
100
AcDbLine
 10
339.8520025399999
 20
6.706402092429064
 30
0.0
 11
339.8520025399999
 21
11.78640336242906
 31
0.0
  0
LINE
  5
510
330
4CD
100
AcDbEntity
  8
BORDER
100
AcDbLine
 10
276.8600508
 20
7.976414538429065
 30
0.0
 11
279.4000507999999
 21
13.05640361642906
 31
0.0
  0
LINE
  5
511
330
4CD
100
AcDbEntity
  8
BORDER
100
AcDbLine
 10
279.4000761999999
 20
13.05638837642906
 30
0.0
 11
281.9400761999999
 21
7.976408442429065
 31
0.0
  0
LINE
  5
512
330
4CD
100
AcDbEntity
  8
BORDER
100
AcDbLine
 10
276.8600253999999
 20
7.976402346429065
 30
0.0
 11
281.9399999999999
 21
7.976402346429065
 31
0.0
  0
LINE
  5
513
330
4CD
100
AcDbEntity
  8
BORDER
100
AcDbLine
 10
279.4
 20
2.896401076429066
 30
0.0
 11
279.4
 21
7.976402346429065
 31
0.0
  0
LINE
  5
514
330
4CD
100
AcDbEntity
  8
BORDER
100
AcDbLine
 10
279.4
 20
2.896401076429066
 30
0.0
 11
279.4
 21
7.976402346429065
 31
0.0
  0
LINE
  5
515
330
4CD
100
AcDbEntity
  8
TITLE BLOCK
  6
Continuous
100
AcDbLine
 10
353.06
 20
19.40640361642906
 30
0.0
 11
353.06
 21
63.85640361642907
 31
0.0
  0
TEXT
  5
516
330
4CD
100
AcDbEntity
  8
TITLE BLOCK
  6
Continuous
100
AcDbText
 10
326.0913501590238
 20
21.7012888945138
 30
0.0
 40
1.959662772596353
  1
NO.
 50
0.09999996
  7
AE
100
AcDbText
  0
LINE
  5
517
330
4CD
100
AcDbEntity
  8
TITLE BLOCK
  6
Continuous
100
AcDbLine
 10
323.8499999999999
 20
13.05553211761991
 30
0.0
 11
323.8499999999999
 21
63.85640361642907
 31
0.0
  0
LINE
  5
518
330
4CD
100
AcDbEntity
  8
TITLE BLOCK
  6
Continuous
100
AcDbLine
 10
332.7399999999999
 20
19.40640361642906
 30
0.0
 11
332.7399999999999
 21
63.85640361642907
 31
0.0
  0
TEXT
  5
519
330
4CD
100
AcDbEntity
  8
TITLE BLOCK
  6
Continuous
100
AcDbText
 10
340.3949001676238
 20
21.71673912463373
 30
0.0
 40
1.928801505622495
  1
DATE
 50
0.09999996
  7
AE
100
AcDbText
  0
LINE
  5
51A
330
4CD
100
AcDbEntity
  8
BORDER
  6
LS
100
AcDbLine
 10
385.5721523999999
 20
8.230402092429063
 30
0.0
 11
385.5721523999999
 21
11.78640336242906
 31
0.0
  0
LINE
  5
51B
330
4CD
100
AcDbEntity
  8
BORDER
  6
LS
100
AcDbLine
 10
380.49213462
 20
8.230402092429063
 30
0.0
 11
380.49213462
 21
11.78640336242906
 31
0.0
  0
LINE
  5
51C
330
4CD
100
AcDbEntity
  8
BORDER
  6
LS
100
AcDbLine
 10
375.4121142999999
 20
8.230402092429063
 30
0.0
 11
375.4121142999999
 21
11.78640336242906
 31
0.0
  0
LINE
  5
51D
330
4CD
100
AcDbEntity
  8
BORDER
  6
LS
100
AcDbLine
 10
370.3321193799999
 20
8.230402092429063
 30
0.0
 11
370.3321193799999
 21
11.78640336242906
 31
0.0
  0
LINE
  5
51E
330
4CD
100
AcDbEntity
  8
BORDER
  6
LS
100
AcDbLine
 10
364.74411176
 20
10.26240336242906
 30
0.0
 11
364.74411176
 21
11.78640336242906
 31
0.0
  0
LINE
  5
51F
330
4CD
100
AcDbEntity
  8
BORDER
  6
LS
100
AcDbLine
 10
357.6320711199999
 20
8.230402092429063
 30
0.0
 11
357.6320711199999
 21
11.78640336242906
 31
0.0
  0
LINE
  5
520
330
4CD
100
AcDbEntity
  8
BORDER
  6
LS
100
AcDbLine
 10
360.17208128
 20
8.230402092429063
 30
0.0
 11
360.17208128
 21
11.78640336242906
 31
0.0
  0
LINE
  5
521
330
4CD
100
AcDbEntity
  8
BORDER
  6
LS
100
AcDbLine
 10
362.7120888999999
 20
8.230402092429063
 30
0.0
 11
362.7120888999999
 21
11.78640336242906
 31
0.0
  0
LINE
  5
522
330
4CD
100
AcDbEntity
  8
BORDER
  6
LS
100
AcDbLine
 10
363.2201015999999
 20
10.26240336242906
 30
0.0
 11
363.2201015999999
 21
11.78640336242906
 31
0.0
  0
LINE
  5
523
330
4CD
100
AcDbEntity
  8
BORDER
  6
LS
100
AcDbLine
 10
363.7281142999999
 20
9.246402600429064
 30
0.0
 11
363.7281142999999
 21
11.78640336242906
 31
0.0
  0
LINE
  5
524
330
4CD
100
AcDbEntity
  8
BORDER
  6
LS
100
AcDbLine
 10
364.2361244599999
 20
9.246402600429064
 30
0.0
 11
364.2361244599999
 21
11.78640336242906
 31
0.0
  0
LINE
  5
525
330
4CD
100
AcDbEntity
  8
BORDER
  6
LS
100
AcDbLine
 10
356.1080838199999
 20
9.246402600429064
 30
0.0
 11
356.1080838199999
 21
11.78640336242906
 31
0.0
  0
LINE
  5
526
330
4CD
100
AcDbEntity
  8
BORDER
  6
LS
100
AcDbLine
 10
356.6160965199999
 20
9.246402600429064
 30
0.0
 11
356.6160965199999
 21
11.78640336242906
 31
0.0
  0
LINE
  5
527
330
4CD
100
AcDbEntity
  8
BORDER
  6
LS
100
AcDbLine
 10
357.1240838199999
 20
10.26240336242906
 30
0.0
 11
357.1240838199999
 21
11.78640336242906
 31
0.0
  0
LINE
  5
528
330
4CD
100
AcDbEntity
  8
BORDER
  6
LS
100
AcDbLine
 10
358.1400812799999
 20
10.26240336242906
 30
0.0
 11
358.1400812799999
 21
11.78640336242906
 31
0.0
  0
LINE
  5
529
330
4CD
100
AcDbEntity
  8
BORDER
  6
LS
100
AcDbLine
 10
358.6480939799999
 20
9.246402600429064
 30
0.0
 11
358.6480939799999
 21
11.78640336242906
 31
0.0
  0
LINE
  5
52A
330
4CD
100
AcDbEntity
  8
BORDER
  6
LS
100
AcDbLine
 10
359.15610668
 20
9.246402600429064
 30
0.0
 11
359.15610668
 21
11.78640336242906
 31
0.0
  0
LINE
  5
52B
330
4CD
100
AcDbEntity
  8
BORDER
  6
LS
100
AcDbLine
 10
359.66409398
 20
10.26240336242906
 30
0.0
 11
359.66409398
 21
11.78640336242906
 31
0.0
  0
LINE
  5
52C
330
4CD
100
AcDbEntity
  8
BORDER
  6
LS
100
AcDbLine
 10
360.6800914399999
 20
10.26240336242906
 30
0.0
 11
360.6800914399999
 21
11.78640336242906
 31
0.0
  0
LINE
  5
52D
330
4CD
100
AcDbEntity
  8
BORDER
  6
LS
100
AcDbLine
 10
361.18810414
 20
9.246402600429064
 30
0.0
 11
361.18810414
 21
11.78640336242906
 31
0.0
  0
LINE
  5
52E
330
4CD
100
AcDbEntity
  8
BORDER
  6
LS
100
AcDbLine
 10
361.6961142999999
 20
9.246402600429064
 30
0.0
 11
361.6961142999999
 21
11.78640336242906
 31
0.0
  0
LINE
  5
52F
330
4CD
100
AcDbEntity
  8
BORDER
  6
LS
100
AcDbLine
 10
362.2041015999999
 20
10.26240336242906
 30
0.0
 11
362.2041015999999
 21
11.78640336242906
 31
0.0
  0
LINE
  5
530
330
4CD
100
AcDbEntity
  8
BORDER
  6
LS
100
AcDbLine
 10
355.0920609599999
 20
8.230402092429063
 30
0.0
 11
355.0920609599999
 21
11.78640336242906
 31
0.0
  0
LINE
  5
531
330
4CD
100
AcDbEntity
  8
BORDER
  6
LS
100
AcDbLine
 10
354.0760863599999
 20
9.246402600429064
 30
0.0
 11
354.0760863599999
 21
11.78640336242906
 31
0.0
  0
LINE
  5
532
330
4CD
100
AcDbEntity
  8
BORDER
  6
LS
100
AcDbLine
 10
354.58407366
 20
10.26240336242906
 30
0.0
 11
354.58407366
 21
11.78640336242906
 31
0.0
  0
LINE
  5
533
330
4CD
100
AcDbEntity
  8
BORDER
  6
LS
100
AcDbLine
 10
355.60007366
 20
10.26240336242906
 30
0.0
 11
355.60007366
 21
11.78640336242906
 31
0.0
  0
TEXT
  5
534
330
4CD
100
AcDbEntity
  8
BORDER
100
AcDbText
 10
415.3280644399999
 20
3.149135394429065
 30
0.0
 40
2.031999491999999
  1
3
 50
0.0999999600000013
  7
AE
100
AcDbText
  0
TEXT
  5
535
330
4CD
100
AcDbEntity
  8
BORDER
100
AcDbText
 10
389.9280644399999
 20
3.149135394429065
 30
0.0
 40
2.031999491999999
  1
2
 50
0.0999999600000013
  7
AE
100
AcDbText
  0
TEXT
  5
536
330
4CD
100
AcDbEntity
  8
BORDER
100
AcDbText
 10
384.8482143
 20
4.673135394429065
 30
0.0
 40
2.031999491999999
  1
8
 50
0.0999999600000013
  7
AE
100
AcDbText
  0
TEXT
  5
537
330
4CD
100
AcDbEntity
  8
BORDER
100
AcDbText
 10
374.6881762
 20
4.673135394429065
 30
0.0
 40
2.031999491999999
  1
4
 50
0.0999999600000013
  7
AE
100
AcDbText
  0
TEXT
  5
538
330
4CD
100
AcDbEntity
  8
BORDER
100
AcDbText
 10
364.5280644399999
 20
3.149135394429065
 30
0.0
 40
2.031999491999999
  1
1
 50
0.0999999600000013
  7
AE
100
AcDbText
  0
TEXT
  5
539
330
4CD
100
AcDbEntity
  8
BORDER
100
AcDbText
 10
369.60818128
 20
4.673135394429065
 30
0.0
 40
2.031999491999999
  1
2
 50
0.0999999600000013
  7
AE
100
AcDbText
  0
TEXT
  5
53A
330
4CD
100
AcDbEntity
  8
BORDER
100
AcDbText
 10
379.7681939799999
 20
4.673135394429065
 30
0.0
 40
2.031999491999999
  1
6
 50
0.0999999600000013
  7
AE
100
AcDbText
  0
TEXT
  5
53B
330
4CD
100
AcDbEntity
  8
BORDER
100
AcDbText
 10
359.4481431799999
 20
4.673135394429065
 30
0.0
 40
2.031999491999999
  1
8
 50
0.0999999600000013
  7
AE
100
AcDbText
  0
TEXT
  5
53C
330
4CD
100
AcDbEntity
  8
BORDER
100
AcDbText
 10
354.36812286
 20
4.673135394429065
 30
0.0
 40
2.031999491999999
  1
6
 50
0.0999999600000013
  7
AE
100
AcDbText
  0
LINE
  5
53D
330
4CD
100
AcDbEntity
  8
BORDER
  6
LS
100
AcDbLine
 10
416.05200254
 20
6.706402092429064
 30
0.0
 11
416.05200254
 21
11.78640336242906
 31
0.0
  0
LINE
  5
53E
330
4CD
100
AcDbEntity
  8
BORDER
  6
LS
100
AcDbLine
 10
365.2520025399999
 20
6.706402092429064
 30
0.0
 11
365.2520025399999
 21
11.78640336242906
 31
0.0
  0
LINE
  5
53F
330
4CD
100
AcDbEntity
  8
BORDER
  6
LS
100
AcDbLine
 10
390.6520025399999
 20
6.706402092429064
 30
0.0
 11
390.6520025399999
 21
11.78640336242906
 31
0.0
  0
TEXT
  5
540
330
4CD
100
AcDbEntity
  8
TITLE BLOCK
  6
Continuous
100
AcDbText
 10
434.34
 20
43.53640361642905
 30
0.0
 40
1.928801505622495
  1
DR
 50
0.09999996
  7
AE
100
AcDbText
  0
TEXT
  5
541
330
4CD
100
AcDbEntity
  8
TITLE BLOCK
  6
Continuous
100
AcDbText
 10
434.34
 20
40.36140361642906
 30
0.0
 40
1.928801505622495
  1
BY
 50
0.09999996
  7
AE
100
AcDbText
  0
TEXT
  5
542
330
4CD
100
AcDbEntity
  8
TITLE BLOCK
  6
Continuous
100
AcDbText
 10
434.4974894630538
 20
34.01140361642905
 30
0.0
 40
1.928801505622495
  1
BY
 50
0.09999996
  7
AE
100
AcDbText
  0
TEXT
  5
543
330
4CD
100
AcDbEntity
  8
TITLE BLOCK
  6
Continuous
100
AcDbText
 10
434.34
 20
37.18640361642905
 30
0.0
 40
1.928801505622495
  1
CHK
 50
0.09999996
  7
AE
100
AcDbText
  0
TEXT
  5
544
330
4CD
100
AcDbEntity
  8
TITLE BLOCK
  6
Continuous
100
AcDbText
 10
434.5939999999999
 20
30.83640361642906
 30
0.0
 40
1.928801505622495
  1
APPD
 50
0.09999996
  7
AE
100
AcDbText
  0
TEXT
  5
545
330
4CD
100
AcDbEntity
  8
TITLE BLOCK
  6
Continuous
100
AcDbText
 10
434.34
 20
27.66140361642907
 30
0.0
 40
1.928801505622495
  1
BY
 50
0.09999996
  7
AE
100
AcDbText
  0
TEXT
  5
546
330
4CD
100
AcDbEntity
  8
TITLE BLOCK
  6
Continuous
100
AcDbText
 10
397.5099999999999
 20
23.21640361642906
 30
0.0
 40
1.928801505622495
  1
DRAWING NAME
 50
0.09999996
  7
AE
100
AcDbText
  0
TEXT
  5
547
330
4CD
100
AcDbEntity
  8
TITLE BLOCK
  6
Continuous
100
AcDbText
 10
396.6209999999999
 20
60.04640361642906
 30
0.0
 40
1.639481230787539
  1
NOTICE: This drawing or material
 50
0.09999996
 41
0.7005041199999999
  7
AE
100
AcDbText
  0
LINE
  5
548
330
4CD
100
AcDbEntity
  8
TITLE BLOCK
  6
Continuous
100
AcDbLine
 10
433.7098248608992
 20
28.29640361642907
 30
0.0
 11
433.7098248608992
 21
63.85640361642907
 31
0.0
  0
LINE
  5
549
330
4CD
100
AcDbEntity
  8
TITLE BLOCK
  6
Continuous
100
AcDbLine
 10
396.2312723140906
 20
13.05553211761991
 30
0.0
 11
396.2312723140906
 21
63.85640361642907
 31
0.0
  0
TEXT
  5
54A
330
4CD
100
AcDbEntity
  8
TITLE BLOCK
  6
Continuous
100
AcDbText
 10
396.7809578592263
 20
43.69512345296911
 30
0.0
 40
1.639481230787539
  1
reproduced, will be used only for
 50
0.09999996
 41
0.6799434399999999
  7
AE
100
AcDbText
  0
TEXT
  5
54B
330
4CD
100
AcDbEntity
  8
TITLE BLOCK
  6
Continuous
100
AcDbText
 10
397.1326561753694
 20
30.71039712514257
 30
0.0
 40
1.639481230787539
  1
consent of G & L Motion Control Inc..
 50
0.09999996
 41
0.79688752
  7
AE
100
AcDbText
  0
TEXT
  5
54C
330
4CD
100
AcDbEntity
  8
TITLE BLOCK
  6
Continuous
100
AcDbText
 10
396.719470974786
 20
34.26666663583747
 30
0.0
 40
1.639481230787539
  1
as authorized by specific written
 50
0.09999996
 41
0.6799434399999999
  7
AE
100
AcDbText
  0
TEXT
  5
54D
330
4CD
100
AcDbEntity
  8
TITLE BLOCK
  6
Continuous
100
AcDbText
 10
396.7205683862122
 20
37.36167305738174
 30
0.0
 40
1.639481230787539
  1
used or disclosed to anyone except
 50
0.09999996
 41
0.6605569100000001
  7
AE
100
AcDbText
  0
TEXT
  5
54E
330
4CD
100
AcDbEntity
  8
TITLE BLOCK
  6
Continuous
100
AcDbText
 10
396.6374737647244
 20
40.62062735704644
 30
0.0
 40
1.639481230787539
  1
your information, and will not be
 50
0.09999996
 41
0.6799434399999999
  7
AE
100
AcDbText
  0
TEXT
  5
54F
330
4CD
100
AcDbEntity
  8
TITLE BLOCK
  6
Continuous
100
AcDbText
 10
396.7561485223225
 20
47.02579652888414
 30
0.0
 40
1.639481230787539
  1
will not be copied or otherwise
 50
0.09999996
 41
0.72234601
  7
AE
100
AcDbText
  0
TEXT
  5
550
330
4CD
100
AcDbEntity
  8
TITLE BLOCK
  6
Continuous
100
AcDbText
 10
396.6078289587201
 20
50.35656023922454
 30
0.0
 40
1.639481230787539
  1
in confidence on condition that it
 50
0.09999996
 41
0.6605569100000001
  7
AE
100
AcDbText
  0
TEXT
  5
551
330
4CD
100
AcDbEntity
  8
TITLE BLOCK
  6
Continuous
100
AcDbText
 10
396.5639569974307
 20
56.93593122720363
 30
0.0
 40
1.639481230787539
  1
contains proprietary information
 50
0.09999996
 41
0.7005041199999999
  7
AE
100
AcDbText
  0
TEXT
  5
552
330
4CD
100
AcDbEntity
  8
TITLE BLOCK
  6
Continuous
100
AcDbText
 10
396.7092145871849
 20
53.59497971747735
 30
0.0
 40
1.639481230787539
  1
of G & L Motion Control Inc., is submitted
 50
0.09999996
 41
0.6799434399999999
  7
AE
100
AcDbText
  0
ATTDEF
  5
553
330
4CD
100
AcDbEntity
  8
TITLE BLOCK
  6
Continuous
100
AcDbText
 10
399.5328167271718
 20
15.32015091637034
 30
0.0
 40
4.059999999999999
  1

 41
0.8
  7
STANDARD
100
AcDbAttributeDefinition
  3
Drawing Name
  2
GEN-TITLE-DES1{15.54}
 70
     0
1001
GENIUS_GENBLLY_14
1000
BOR5
  0
TEXT
  5
554
330
4CD
100
AcDbEntity
  8
BORDER
100
AcDbText
 10
4.535779599999938
 20
369.291403616429
 30
0.0
 40
5.079999745999999
  1
D
  7
AE
100
AcDbText
  0
LINE
  5
555
330
4CD
100
AcDbEntity
  8
BORDER
100
AcDbLine
 10
2.540152400000012
 20
317.856403616429
 30
0.0
 11
12.7
 21
317.856403616429
 31
0.0
  0
TEXT
  5
556
330
4CD
100
AcDbEntity
  8
BORDER
100
AcDbText
 10
4.535779599999938
 20
261.341403616429
 30
0.0
 40
5.079999745999999
  1
C
  7
AE
100
AcDbText
  0
TEXT
  5
557
330
4CD
100
AcDbEntity
  8
BORDER
100
AcDbText
 10
68.03577959999994
 20
413.7412512164289
 30
0.0
 40
5.079999745999999
  1
4
  7
AE
100
AcDbText
  0
LINE
  5
558
330
4CD
100
AcDbEntity
  8
BORDER
100
AcDbLine
 10
139.7
 20
406.756403616429
 30
0.0
 11
139.7
 21
416.916251216429
 31
0.0
  0
TEXT
  5
559
330
4CD
100
AcDbEntity
  8
BORDER
100
AcDbText
 10
207.7357287999999
 20
413.7412512164289
 30
0.0
 40
5.079999745999999
  1
3
  7
AE
100
AcDbText
  0
TEXT
  5
55A
330
4CD
100
AcDbEntity
  8
BORDER
100
AcDbText
 10
347.43572118
 20
413.7412512164289
 30
0.0
 40
5.079999745999999
  1
2
  7
AE
100
AcDbText
  0
LINE
  5
55B
330
4CD
100
AcDbEntity
  8
BORDER
100
AcDbLine
 10
276.8602793999999
 20
411.835946416429
 30
0.0
 11
279.4003809999999
 21
406.7560226164291
 31
0.0
  0
LINE
  5
55C
330
4CD
100
AcDbEntity
  8
BORDER
100
AcDbLine
 10
276.8600253999999
 20
411.8363274164289
 30
0.0
 11
281.9399999999999
 21
411.8363274164289
 31
0.0
  0
LINE
  5
55D
330
4CD
100
AcDbEntity
  8
BORDER
100
AcDbLine
 10
279.4002793999999
 20
406.756403616429
 30
0.0
 11
281.940254
 21
411.8363274164289
 31
0.0
  0
LINE
  5
55E
330
4CD
100
AcDbEntity
  8
BORDER
100
AcDbLine
 10
276.8600253999999
 20
411.8363274164289
 30
0.0
 11
281.9399999999999
 21
411.8363274164289
 31
0.0
  0
LINE
  5
55F
330
4CD
100
AcDbEntity
  8
BORDER
100
AcDbLine
 10
279.4
 20
411.8363274164289
 30
0.0
 11
279.4
 21
416.916251216429
 31
0.0
  0
LINE
  5
560
330
4CD
100
AcDbEntity
  8
BORDER
100
AcDbLine
 10
419.0999999999999
 20
406.756403616429
 30
0.0
 11
419.0999999999999
 21
416.916251216429
 31
0.0
  0
LINE
  5
561
330
4CD
100
AcDbEntity
  8
BORDER
  6
Continuous
100
AcDbLine
 10
558.8
 20
0.2456391960479891
 30
0.0
 11
558.8
 21
425.806403616429
 31
0.0
  0
LINE
  5
562
330
4CD
100
AcDbEntity
  8
BORDER
100
AcDbLine
 10
546.1
 20
13.05640361642906
 30
0.0
 11
546.1
 21
406.756403616429
 31
0.0
  0
ATTDEF
  5
563
330
4CD
100
AcDbEntity
  8
TITLE BLOCK
  6
Continuous
100
AcDbText
 10
530.8599999999999
 20
28.93140361642906
 30
0.0
 40
2.999484585477809
  1

 41
0.8
  7
STANDARD
100
AcDbAttributeDefinition
  3
Sheet of
  2
GEN-TITLE-SHEET-OF{2.62}
 70
     0
1001
GENIUS_GENBLLY_14
1000
BOR3
  0
ATTDEF
  5
564
330
4CD
100
AcDbEntity
  8
TITLE BLOCK
  6
Continuous
100
AcDbText
 10
520.6999999999999
 20
28.93140361642906
 30
0.0
 40
2.999484585477809
  1

 41
0.8
  7
STANDARD
100
AcDbAttributeDefinition
  3
Sheet
  2
GEN-TITLE-SHEET{2.62}
 70
     0
1001
GENIUS_GENBLLY_14
1000
BOR3
  0
TEXT
  5
565
330
4CD
100
AcDbEntity
  8
BORDER
100
AcDbText
 10
550.635715084
 20
45.44139345642906
 30
0.0
 40
5.079999745999999
  1
A
  7
AE
100
AcDbText
  0
TEXT
  5
566
330
4CD
100
AcDbEntity
  8
BORDER
100
AcDbText
 10
487.1357211799999
 20
0.991403108429065
 30
0.0
 40
5.079999745999999
  1
1
  7
AE
100
AcDbText
  0
TEXT
  5
567
330
4CD
100
AcDbEntity
  8
TITLE BLOCK
  6
Continuous
100
AcDbText
 10
509.905
 20
37.18640361642905
 30
0.0
 40
1.928801505622495
  1
DATE
 50
0.09999996
  7
AE
100
AcDbText
  0
TEXT
  5
568
330
4CD
100
AcDbEntity
  8
TITLE BLOCK
  6
Continuous
100
AcDbText
 10
509.905
 20
30.83640361642906
 30
0.0
 40
1.928801505622495
  1
SHEET   OF
 50
0.09999996
  7
AE
100
AcDbText
  0
ATTDEF
  5
569
330
4CD
100
AcDbEntity
  8
TITLE BLOCK
  6
Continuous
100
AcDbText
 10
481.3299999999999
 20
28.93140361642906
 30
0.0
 40
2.566953004259999
  1

 41
0.8
  7
STANDARD
100
AcDbAttributeDefinition
  3
Material
  2
GEN-TITLE-MAT{11.15}
 70
     0
1001
GENIUS_GENBLLY_14
1000
BOR3
  0
ATTDEF
  5
56A
330
4CD
100
AcDbEntity
  8
TITLE BLOCK
  6
Continuous
100
AcDbText
 10
481.3299999999999
 20
35.28140361642906
 30
0.0
 40
2.566953004259999
  1

  7
STANDARD
100
AcDbAttributeDefinition
  3
Machine
  2
GEN-TITLE-MACH{5}
 70
     0
1001
GENIUS_GENBLLY_14
1000
BOR2
  0
ATTDEF
  5
56B
330
4CD
100
AcDbEntity
  8
TITLE BLOCK
  6
Continuous
100
AcDbText
 10
481.3299999999999
 20
41.63140361642906
 30
0.0
 40
2.566953004259999
  1

  7
STANDARD
100
AcDbAttributeDefinition
  3
Ref. No.
  2
GEN-TITLE-REF{5}
 70
     0
1001
GENIUS_GENBLLY_14
1000
BOR2
  0
TEXT
  5
56C
330
4CD
100
AcDbEntity
  8
TITLE BLOCK
  6
Continuous
100
AcDbText
 10
472.44
 20
30.83640361642906
 30
0.0
 40
1.928801505622495
  1
MATL
 50
0.09999996
  7
AE
100
AcDbText
  0
TEXT
  5
56D
330
4CD
100
AcDbEntity
  8
TITLE BLOCK
  6
Continuous
100
AcDbText
 10
472.44
 20
37.18640361642905
 30
0.0
 40
1.928801505622495
  1
MACH
 50
0.09999996
  7
AE
100
AcDbText
  0
TEXT
  5
56E
330
4CD
100
AcDbEntity
  8
TITLE BLOCK
  6
Continuous
100
AcDbText
 10
472.44
 20
43.53640361642905
 30
0.0
 40
1.928801505622495
  1
REF
 50
0.09999996
  7
AE
100
AcDbText
  0
TEXT
  5
56F
330
4CD
100
AcDbEntity
  8
TITLE BLOCK
  6
Continuous
100
AcDbText
 10
472.44
 20
23.21640361642906
 30
0.0
 40
1.928801505622495
  1
DRAWING NUMBER
 50
0.09999996
  7
AE
100
AcDbText
  0
LINE
  5
570
330
4CD
100
AcDbEntity
  8
TITLE BLOCK
  6
Continuous
100
AcDbLine
 10
471.1699999999999
 20
13.05553211761991
 30
0.0
 11
471.1699999999999
 21
63.85640361642907
 31
0.0
  0
LINE
  5
571
330
4CD
100
AcDbEntity
  8
TITLE BLOCK
  6
Continuous
100
AcDbLine
 10
508.6669324040948
 20
27.02640361642905
 30
0.0
 11
508.6669324040939
 21
39.72640361642906
 31
0.0
  0
ATTDEF
  5
572
330
4CD
100
AcDbEntity
  8
TITLE BLOCK
  6
Continuous
100
AcDbText
 10
518.7949999999998
 20
35.28140361642906
 30
0.0
 40
2.566953004259999
  1

  7
STANDARD
100
AcDbAttributeDefinition
  3
Date
  2
GEN-TITLE-PLOT{5}
 70
     0
1001
GENIUS_GENBLLY_14
1000
BOR2
  0
ATTDEF
  5
573
330
4CD
100
AcDbEntity
  8
TITLE BLOCK
  6
Continuous
100
AcDbText
 10
474.6631418566855
 20
15.59640361642906
 30
0.0
 40
4.059999999999999
  1

 41
0.8
  7
STANDARD
100
AcDbAttributeDefinition
  3
Drawing Number
  2
GEN-TITLE-NR{13.37}
 70
     0
1001
GENIUS_GENBLLY_14
1000
BOR5
  0
LINE
  5
574
330
4CD
100
AcDbEntity
  8
BORDER
100
AcDbLine
 10
551.1800800099999
 20
209.906403616429
 30
0.0
 11
556.26000254
 21
209.906403616429
 31
0.0
  0
LINE
  5
575
330
4CD
100
AcDbEntity
  8
BORDER
100
AcDbLine
 10
546.100287528
 20
209.905943876429
 30
0.0
 11
551.1801813559999
 21
207.365981976429
 31
0.0
  0
TEXT
  5
576
330
4CD
100
AcDbEntity
  8
BORDER
100
AcDbText
 10
550.635715084
 20
153.391393456429
 30
0.0
 40
5.079999745999999
  1
B
  7
AE
100
AcDbText
  0
LINE
  5
577
330
4CD
100
AcDbEntity
  8
BORDER
100
AcDbLine
 10
546.0999878079998
 20
209.905966736429
 30
0.0
 11
551.1798907799998
 21
212.445905776429
 31
0.0
  0
LINE
  5
578
330
4CD
100
AcDbEntity
  8
BORDER
100
AcDbLine
 10
551.1800800099999
 20
207.366248676429
 30
0.0
 11
551.1800800099999
 21
212.446169936429
 31
0.0
  0
TEXT
  5
579
330
4CD
100
AcDbEntity
  8
BORDER
100
AcDbText
 10
550.635715084
 20
369.291403616429
 30
0.0
 40
5.079999745999999
  1
D
  7
AE
100
AcDbText
  0
LINE
  5
57A
330
4CD
100
AcDbEntity
  8
BORDER
100
AcDbLine
 10
546.1
 20
317.856403616429
 30
0.0
 11
556.2600010159997
 21
317.856403616429
 31
0.0
  0
TEXT
  5
57B
330
4CD
100
AcDbEntity
  8
BORDER
100
AcDbText
 10
550.635715084
 20
261.341403616429
 30
0.0
 40
5.079999745999999
  1
C
  7
AE
100
AcDbText
  0
TEXT
  5
57C
330
4CD
100
AcDbEntity
  8
BORDER
100
AcDbText
 10
487.1357211799999
 20
413.7412512164289
 30
0.0
 40
5.079999745999999
  1
1
  7
AE
100
AcDbText
  0
LINE
  5
57D
330
4CD
100
AcDbEntity
  8
BORDER
  6
Continuous
 62
    15
100
AcDbLine
 10
0.0
 20
0.2456391960479891
 30
0.0
 11
558.8
 21
0.2456391960479891
 31
0.0
  0
MTEXT
  5
57E
330
4CD
100
AcDbEntity
  8
BORDER
  6
Continuous
100
AcDbMText
 10
508.0784807513111
 20
60.04640361642906
 30
0.0
 40
3.174999999999999
 41
67.64020000000001
 71
     2
 72
     5
  1
{\fArial|b0|i0|c0|p34;\C1;G & L Motion Control Inc.}
  7
STANDARD
 73
     1
 44
1.0
  0
MTEXT
  5
57F
330
4CD
100
AcDbEntity
  8
BORDER
  6
Continuous
100
AcDbMText
 10
508.1048658720428
 20
51.87433048398901
 30
0.0
 40
1.999996
 41
72.6948
 71
     5
 72
     1
  1
{\Fromans.shx;\C9;672 South Military Road\PFond du Lac, Wisconsin 54936 U.S.A.}
  7
STANDARD
 73
     1
 44
1.0
  0
ENDBLK
  5
581
330
4CD
100
AcDbEntity
  8
0
370
     0
100
AcDbBlockEnd
  0
ENDSEC
  0
SECTION
  2
ENTITIES
  0
INSERT
  5
5B
330
A
100
AcDbEntity
  8
1
  6
AUSGEZOGEN
 62
    14
100
AcDbBlockReference
  2
ZEICHNUNGS-LOGO_3
 10
-492.8282594668578
 20
-125.2648260425297
 30
0.0
  0
INSERT
  5
5C
330
A
100
AcDbEntity
  8
1
  6
AUSGEZOGEN
 62
    14
100
AcDbBlockReference
  2
BAUMüLLER - LOGO - SCHR_4
 10
-513.8763242940243
 20
-140.1832977704098
 30
0.0
  0
INSERT
  5
5D
330
A
100
AcDbEntity
  8
0
  6
AUSGEZOGEN
 62
     9
100
AcDbBlockReference
  2
25X8_5
 10
322.8166852330782
 20
253.5000000000001
 30
0.0
 41
-1.0
 50
180.0
  0
INSERT
  5
5E
330
A
100
AcDbEntity
  8
0
  6
AUSGEZOGEN
 62
     9
100
AcDbBlockReference
  2
25X8_6
 10
342.6166852330782
 20
253.5000000000001
 30
0.0
 41
-1.0
 50
180.0
  0
INSERT
  5
5F
330
A
100
AcDbEntity
  8
0
  6
AUSGEZOGEN
 62
     9
100
AcDbBlockReference
  2
M25-KOPF_7
 10
134.4900049084172
 20
254.0000000000002
 30
0.0
 50
90.0
  0
INSERT
  5
60
330
A
100
AcDbEntity
  8
0
  6
AUSGEZOGEN
 62
     9
100
AcDbBlockReference
  2
M25-KOPF_8
 10
114.4900049084172
 20
254.0000000000002
 30
0.0
 50
90.0
  0
INSERT
  5
61
330
A
100
AcDbEntity
  8
0
  6
AUSGEZOGEN
 62
     9
100
AcDbBlockReference
  2
M25-KOPF_9
 10
87.09000490841731
 20
254.0000000000005
 30
0.0
 41
-1.0
 50
270.0
  0
INSERT
  5
62
330
A
100
AcDbEntity
  8
0
  6
AUSGEZOGEN
 62
     9
100
AcDbBlockReference
  2
M25-KOPF_10
 10
107.0900049084173
 20
254.0000000000005
 30
0.0
 41
-1.0
 50
270.0
  0
INSERT
  5
63
330
A
100
AcDbEntity
  8
0
  6
AUSGEZOGEN
 62
     9
100
AcDbBlockReference
  2
M3D_11
 10
89.62979921005375
 20
245.6603377750266
 30
0.0
  0
INSERT
  5
64
330
A
100
AcDbEntity
  8
0
  6
AUSGEZOGEN
 62
     9
100
AcDbBlockReference
  2
M3D_12
 10
132.0562060812465
 20
203.2339309038335
 30
0.0
  0
INSERT
  5
65
330
A
100
AcDbEntity
  8
0
  6
AUSGEZOGEN
 62
     9
100
AcDbBlockReference
  2
M25-KOPF_13
 10
507.6999999999999
 20
254.0000000000001
 30
0.0
 50
90.0
  0
INSERT
  5
66
330
A
100
AcDbEntity
  8
0
  6
AUSGEZOGEN
 62
     9
100
AcDbBlockReference
  2
M25-KOPF_14
 10
487.6999999999999
 20
254.0000000000001
 30
0.0
 50
90.0
  0
INSERT
  5
67
330
A
100
AcDbEntity
  8
0
  6
AUSGEZOGEN
 62
     9
100
AcDbBlockReference
  2
M25-KOPF_15
 10
460.3
 20
254.0000000000005
 30
0.0
 41
-1.0
 50
270.0
  0
INSERT
  5
68
330
A
100
AcDbEntity
  8
0
  6
AUSGEZOGEN
 62
     9
100
AcDbBlockReference
  2
M25-KOPF_16
 10
480.3
 20
254.0000000000005
 30
0.0
 41
-1.0
 50
270.0
  0
INSERT
  5
69
330
A
100
AcDbEntity
  8
0
  6
AUSGEZOGEN
 62
     9
100
AcDbBlockReference
  2
ZEICHNUNGS-LOGO UND ADR_17
 10
-716.5742176824498
 20
32.33361293689404
 30
0.0
 41
0.5
 42
0.5
 43
0.5
  0
INSERT
  5
6A
330
A
100
AcDbEntity
  8
1
  6
AUSGEZOGEN
 62
    14
100
AcDbBlockReference
  2
ZEICHNUNGS-LOGO UND ADR_18
 10
-716.5742176824498
 20
32.33361293689404
 30
0.0
 41
0.5
 42
0.5
 43
0.5
  0
INSERT
  5
6B
330
A
100
AcDbEntity
  8
1
  6
AUSGEZOGEN
 62
    14
100
AcDbBlockReference
  2
ZEICHNUNGS-LOGO UND ADR_19
 10
-716.8183750930056
 20
31.70787384932441
 30
0.0
 41
0.5
 42
0.5
 43
0.5
  0
INSERT
  5
6C
330
A
100
AcDbEntity
  8
1
  6
AUSGEZOGEN
 62
    14
100
AcDbBlockReference
  2
ZEICHNUNGS-LOGO UND ADR_20
 10
-716.8183750930056
 20
31.70787384932441
 30
0.0
 41
0.5
 42
0.5
 43
0.5
  0
INSERT
  5
6D
330
A
100
AcDbEntity
  8
1
  6
AUSGEZOGEN
 62
    14
100
AcDbBlockReference
  2
ZEICHNUNGS-LOGO UND ADR_21
 10
-716.6431944939192
 20
31.45201540539028
 30
0.0
 41
0.5
 42
0.5
 43
0.5
  0
INSERT
  5
6E
330
A
100
AcDbEntity
  8
1
  6
AUSGEZOGEN
 62
    14
100
AcDbBlockReference
  2
ZEICHNUNGS-LOGO UND ADR_22
 10
-716.6431944939192
 20
31.45201540539028
 30
0.0
 41
0.5
 42
0.5
 43
0.5
  0
TEXT
  5
6F
330
A
100
AcDbEntity
  8
5
  6
AUSGEZOGEN
 62
     9
100
AcDbText
 10
176.3223194108606
 20
219.8427681518101
 30
0.0
 40
2.0
  1
+11
 41
0.7000000029802323
100
AcDbText
  0
TEXT
  5
70
330
A
100
AcDbEntity
  8
5
  6
AUSGEZOGEN
 62
     9
100
AcDbText
 10
176.4191593156458
 20
215.967264611771
 30
0.0
 40
2.0
  1
- 5
 41
0.7000000029802323
100
AcDbText
  0
TEXT
  5
71
330
A
100
AcDbEntity
  8
5
  6
AUSGEZOGEN
 62
     9
100
AcDbText
 10
176.3223194108606
 20
229.6927589965366
 30
0.0
 40
2.0
  1
  0
 41
0.7000000029802323
100
AcDbText
  0
TEXT
  5
72
330
A
100
AcDbEntity
  8
5
  6
AUSGEZOGEN
 62
     9
100
AcDbText
 10
176.4191593156458
 20
225.8172554564976
 30
0.0
 40
2.0
  1
- 9
 41
0.7000000029802323
100
AcDbText
  0
TEXT
  5
74
330
A
100
AcDbEntity
  8
5
  6
AUSGEZOGEN
 62
   214
100
AcDbText
 10
158.8687044766416
 20
217.2004768920445
 30
0.0
 40
3.0
  1
 40
 41
0.7333333492279053
100
AcDbText
  0
TEXT
  5
76
330
A
100
AcDbEntity
  8
5
  6
AUSGEZOGEN
 62
   214
100
AcDbText
 10
158.8687044766416
 20
227.050467736771
 30
0.0
 40
3.0
  1
  9
 41
0.7333333492279053
100
AcDbText
  0
LINE
  5
77
330
A
100
AcDbEntity
  8
3
  6
STRICHPUNKT
 62
    54
100
AcDbLine
 10
217.3429547061608
 20
224.5
 30
0.0
 11
398.5756615840934
 21
224.5
 31
0.0
  0
LINE
  5
78
330
A
100
AcDbEntity
  8
1
  6
AUSGEZOGEN
 62
    14
100
AcDbLine
 10
257.2166852330782
 20
252.0000000000001
 30
0.0
 11
257.2166852330782
 21
224.5
 31
0.0
  0
LINE
  5
79
330
A
100
AcDbEntity
  8
1
  6
AUSGEZOGEN
 62
    14
100
AcDbLine
 10
306.9666852330781
 20
197.0
 30
0.0
 11
306.9666852330781
 21
252.0000000000001
 31
0.0
  0
LINE
  5
7A
330
A
100
AcDbEntity
  8
1
  6
AUSGEZOGEN
 62
    14
100
AcDbLine
 10
243.4666852330782
 20
224.5
 30
0.0
 11
243.4666852330782
 21
244.5000000000001
 31
0.0
  0
LINE
  5
7B
330
A
100
AcDbEntity
  8
1
  6
AUSGEZOGEN
 62
    14
100
AcDbLine
 10
243.4666852330782
 20
204.5000000000001
 30
0.0
 11
243.4666852330782
 21
224.5
 31
0.0
  0
LINE
  5
7C
330
A
100
AcDbEntity
  8
1
  6
AUSGEZOGEN
 62
    14
100
AcDbLine
 10
245.9666852330782
 20
252.0000000000001
 30
0.0
 11
386.2166852330781
 21
252.0000000000001
 31
0.0
  0
LINE
  5
7D
330
A
100
AcDbEntity
  8
1
  6
AUSGEZOGEN
 62
    14
100
AcDbLine
 10
245.9666852330782
 20
197.0
 30
0.0
 11
386.2166852330781
 21
197.0
 31
0.0
  0
LINE
  5
7E
330
A
100
AcDbEntity
  8
1
  6
AUSGEZOGEN
 62
    14
100
AcDbLine
 10
305.9666852330782
 20
252.0000000000001
 30
0.0
 11
380.2166852330781
 21
252.0000000000001
 31
0.0
  0
LINE
  5
7F
330
A
100
AcDbEntity
  8
1
  6
AUSGEZOGEN
 62
    14
100
AcDbLine
 10
243.4666852330782
 20
244.5000000000001
 30
0.0
 11
245.9666852330782
 21
244.5000000000001
 31
0.0
  0
LINE
  5
80
330
A
100
AcDbEntity
  8
1
  6
AUSGEZOGEN
 62
    14
100
AcDbLine
 10
243.4666852330782
 20
204.5000000000001
 30
0.0
 11
245.9666852330782
 21
204.5000000000001
 31
0.0
  0
LINE
  5
81
330
A
100
AcDbEntity
  8
1
  6
AUSGEZOGEN
 62
    14
100
AcDbLine
 10
245.9666852330782
 20
197.0
 30
0.0
 11
245.9666852330782
 21
224.5
 31
0.0
  0
LINE
  5
82
330
A
100
AcDbEntity
  8
1
  6
AUSGEZOGEN
 62
    14
100
AcDbLine
 10
225.9666852330782
 20
220.5000000000001
 30
0.0
 11
225.9666852330782
 21
228.5000000000001
 31
0.0
  0
LINE
  5
83
330
A
100
AcDbEntity
  8
1
  6
AUSGEZOGEN
 62
    14
100
AcDbLine
 10
226.4666852330782
 20
220.0000000000001
 30
0.0
 11
226.4666852330782
 21
229.0000000000001
 31
0.0
  0
LINE
  5
84
330
A
100
AcDbEntity
  8
1
  6
AUSGEZOGEN
 62
    14
100
AcDbLine
 10
226.4666852330782
 20
229.0000000000001
 30
0.0
 11
243.4666852330782
 21
229.0000000000001
 31
0.0
  0
LINE
  5
85
330
A
100
AcDbEntity
  8
1
  6
AUSGEZOGEN
 62
    14
100
AcDbLine
 10
226.4666852330782
 20
220.0000000000001
 30
0.0
 11
243.4666852330782
 21
220.0000000000001
 31
0.0
  0
LINE
  5
86
330
A
100
AcDbEntity
  8
1
  6
AUSGEZOGEN
 62
    14
100
AcDbLine
 10
226.4666852330782
 20
229.0000000000001
 30
0.0
 11
225.9666852330782
 21
228.5000000000001
 31
0.0
  0
LINE
  5
87
330
A
100
AcDbEntity
  8
1
  6
AUSGEZOGEN
 62
    14
100
AcDbLine
 10
226.4666852330782
 20
220.0000000000001
 30
0.0
 11
225.9666852330782
 21
220.5000000000001
 31
0.0
  0
LINE
  5
88
330
A
100
AcDbEntity
  8
1
  6
AUSGEZOGEN
 62
    14
100
AcDbLine
 10
245.9666852330782
 20
224.5
 30
0.0
 11
245.9666852330782
 21
252.0000000000001
 31
0.0
  0
LINE
  5
89
330
A
100
AcDbEntity
  8
1
  6
AUSGEZOGEN
 62
    14
100
AcDbLine
 10
257.2166852330782
 20
224.5
 30
0.0
 11
257.2166852330782
 21
197.0
 31
0.0
  0
LINE
  5
8A
330
A
100
AcDbEntity
  8
1
  6
AUSGEZOGEN
 62
    14
100
AcDbLine
 10
386.2166852330781
 20
197.0
 30
0.0
 11
390.2166852330783
 21
197.0
 31
0.0
  0
LINE
  5
8B
330
A
100
AcDbEntity
  8
1
  6
AUSGEZOGEN
 62
    14
100
AcDbLine
 10
386.2166852330781
 20
252.0000000000001
 30
0.0
 11
390.2166852330779
 21
252.0000000000001
 31
0.0
  0
LINE
  5
8C
330
A
100
AcDbEntity
  8
1
  6
AUSGEZOGEN
 62
    14
100
AcDbLine
 10
386.2166852330781
 20
252.0000000000001
 30
0.0
 11
386.2166852330781
 21
196.9999999999998
 31
0.0
  0
LINE
  5
8D
330
A
100
AcDbEntity
  8
1
  6
AUSGEZOGEN
 62
    14
100
AcDbLine
 10
391.2166852330781
 20
197.9999999999998
 30
0.0
 11
391.2166852330781
 21
250.9999999999998
 31
0.0
  0
LINE
  5
8E
330
A
100
AcDbEntity
  8
1
  6
AUSGEZOGEN
 62
    14
100
AcDbLine
 10
390.2166852330781
 20
251.9999999999999
 30
0.0
 11
391.2166852330781
 21
250.9999999999998
 31
0.0
  0
LINE
  5
8F
330
A
100
AcDbEntity
  8
1
  6
AUSGEZOGEN
 62
    14
100
AcDbLine
 10
390.2166852330781
 20
196.9999999999998
 30
0.0
 11
391.2166852330781
 21
197.9999999999998
 31
0.0
  0
LINE
  5
90
330
A
100
AcDbEntity
  8
3
  6
STRICHPUNKT
 62
    54
100
AcDbLine
 10
372.7166852330781
 20
287.4477387226878
 30
0.0
 11
372.7166852330781
 21
246.5000000000001
 31
0.0
  0
LINE
  5
91
330
A
100
AcDbEntity
  8
1
  6
AUSGEZOGEN
 62
    14
100
AcDbLine
 10
390.2166852330779
 20
252.0000000000001
 30
0.0
 11
390.2166852330781
 21
196.9999999999998
 31
0.0
  0
LINE
  5
92
330
A
100
AcDbEntity
  8
5
  6
AUSGEZOGEN
 62
    14
100
AcDbLine
 10
251.9666852330782
 20
242.5000000000001
 30
0.0
 11
251.9666852330782
 21
252.0000000000001
 31
0.0
  0
LINE
  5
93
330
A
100
AcDbEntity
  8
5
  6
AUSGEZOGEN
 62
    14
100
AcDbLine
 10
251.9666852330782
 20
197.0
 30
0.0
 11
251.9666852330782
 21
206.5000000000001
 31
0.0
  0
LINE
  5
94
330
A
100
AcDbEntity
  8
5
  6
AUSGEZOGEN
 62
    14
100
AcDbLine
 10
251.9666852330782
 20
242.5000000000001
 30
0.0
 11
306.9666852330781
 21
242.5000000000001
 31
0.0
  0
LINE
  5
95
330
A
100
AcDbEntity
  8
5
  6
AUSGEZOGEN
 62
    14
100
AcDbLine
 10
251.9666852330782
 20
206.5000000000001
 30
0.0
 11
306.9666852330781
 21
206.5000000000001
 31
0.0
  0
DIMENSION
  5
96
330
A
100
AcDbEntity
  8
1
  6
AUSGEZOGEN
 62
    54
100
AcDbDimension
  2
*D23
 10
215.0169009311603
 20
229.0000000000001
 30
0.0
 11
214.7846686778648
 21
224.3555757684243
 31
0.0
 70
   160
  1
%%c9
 71
     5
 42
9.0
 53
90.0
  3
DIMS0
100
AcDbAlignedDimension
 13
226.4666852330782
 23
220.0000000000001
 33
0.0
 14
226.4666852330782
 24
229.0000000000001
 34
0.0
 50
90.0
100
AcDbRotatedDimension
1001
ACAD
1000
DSTYLE
1002
{
1070
   271
1070
     2
1070
   279
1070
     2
1002
}
  0
DIMENSION
  5
97
330
A
100
AcDbEntity
  8
1
  6
AUSGEZOGEN
 62
    54
100
AcDbDimension
  2
*D24
 10
206.9487106694099
 20
244.5000000000001
 30
0.0
 11
206.9487106694098
 21
224.5000000000001
 31
0.0
 70
    32
  1
%%c40
 71
     5
 42
40.0
 53
90.0
  3
DIMS0
100
AcDbAlignedDimension
 13
243.4666852330782
 23
204.5000000000001
 33
0.0
 14
243.4666852330782
 24
244.5000000000001
 34
0.0
 50
90.0
100
AcDbRotatedDimension
1001
ACAD
1000
DSTYLE
1002
{
1070
   271
1070
     2
1002
}
  0
LINE
  5
98
330
A
100
AcDbEntity
  8
1
  6
AUSGEZOGEN
 62
    14
100
AcDbLine
 10
306.9666852330781
 20
250.36140947435
 30
0.0
 11
390.2166852330779
 21
250.36140947435
 31
0.0
  0
LINE
  5
99
330
A
100
AcDbEntity
  8
5
  6
AUSGEZOGEN
 62
    14
100
AcDbLine
 10
390.2166852330777
 20
250.36140947435
 30
0.0
 11
391.2166852330777
 21
249.36140947435
 31
0.0
  0
LINE
  5
9A
330
A
100
AcDbEntity
  8
1
  6
AUSGEZOGEN
 62
    14
100
AcDbLine
 10
306.9666852330781
 20
198.6385905256502
 30
0.0
 11
390.2166852330777
 21
198.6385905256501
 31
0.0
  0
LINE
  5
9B
330
A
100
AcDbEntity
  8
5
  6
AUSGEZOGEN
 62
    14
100
AcDbLine
 10
390.2166852330777
 20
198.6385905256501
 30
0.0
 11
391.2166852330777
 21
199.6385905256501
 31
0.0
  0
DIMENSION
  5
9C
330
A
100
AcDbEntity
  8
1
  6
AUSGEZOGEN
 62
    54
100
AcDbDimension
  2
*D25
 10
243.4666852330782
 20
189.0349328010338
 30
0.0
 11
235.5878155867312
 21
192.0356479812037
 31
0.0
 70
   160
  1
2.5
 71
     5
 42
2.5
  3
DIMS0
100
AcDbAlignedDimension
 13
245.9666852330782
 23
197.0
 33
0.0
 14
243.4666852330782
 24
204.5000000000001
 34
0.0
 50
180.0
100
AcDbRotatedDimension
1001
ACAD
1000
DSTYLE
1002
{
1070
   271
1070
     2
1070
   279
1070
     2
1002
}
  0
DIMENSION
  5
9D
330
A
100
AcDbEntity
  8
1
  6
AUSGEZOGEN
 62
    54
100
AcDbDimension
  2
*D26
 10
251.9666852330782
 20
181.7042459713586
 30
0.0
 11
258.2131367927381
 21
184.6005475488434
 31
0.0
 70
   160
  1
6
 71
     5
 42
6.0
  3
DIMS0
100
AcDbAlignedDimension
 13
245.9666852330782
 23
197.0
 33
0.0
 14
251.9666852330782
 24
197.0
 34
0.0
100
AcDbRotatedDimension
1001
ACAD
1000
DSTYLE
1002
{
1070
   271
1070
     2
1070
   279
1070
     2
1002
}
  0
DIMENSION
  5
9E
330
A
100
AcDbEntity
  8
1
  6
AUSGEZOGEN
 62
    54
100
AcDbDimension
  2
*D27
 10
225.9666852330782
 20
181.7042459713586
 30
0.0
 11
235.5878155867312
 21
184.2970740618081
 31
0.0
 70
   160
  1
20
 71
     5
 42
20.0
  3
DIMS0
100
AcDbAlignedDimension
 13
245.9666852330782
 23
197.0
 33
0.0
 14
225.9666852330782
 24
220.5000000000001
 34
0.0
 50
180.0
100
AcDbRotatedDimension
1001
ACAD
1000
DSTYLE
1002
{
1070
   271
1070
     2
1070
   279
1070
     2
1002
}
  0
LINE
  5
9F
330
A
100
AcDbEntity
  8
3
  6
STRICHPUNKT
 62
    54
100
AcDbLine
 10
241.977045914552
 20
246.7738636073762
 30
0.0
 11
255.86202885106
 21
246.7738636073762
 31
0.0
  0
LINE
  5
A0
330
A
100
AcDbEntity
  8
4
  6
VERDECKT
 62
   214
100
AcDbLine
 10
245.9666852330782
 20
244.0238636073762
 30
0.0
 11
251.9666852330782
 21
244.0238636073762
 31
0.0
  0
LINE
  5
A1
330
A
100
AcDbEntity
  8
4
  6
VERDECKT
 62
   214
100
AcDbLine
 10
245.9666852330782
 20
249.5238636073762
 30
0.0
 11
251.9666852330782
 21
249.5238636073762
 31
0.0
  0
LINE
  5
A2
330
A
100
AcDbEntity
  8
3
  6
STRICHPUNKT
 62
    54
100
AcDbLine
 10
241.977045914552
 20
202.2261363926239
 30
0.0
 11
255.86202885106
 21
202.2261363926239
 31
0.0
  0
LINE
  5
A3
330
A
100
AcDbEntity
  8
4
  6
VERDECKT
 62
   214
100
AcDbLine
 10
245.9666852330782
 20
204.9761363926239
 30
0.0
 11
251.9666852330782
 21
204.9761363926239
 31
0.0
  0
LINE
  5
A4
330
A
100
AcDbEntity
  8
4
  6
VERDECKT
 62
   214
100
AcDbLine
 10
245.9666852330782
 20
199.4761363926239
 30
0.0
 11
251.9666852330782
 21
199.4761363926239
 31
0.0
  0
LINE
  5
A5
330
A
100
AcDbEntity
  8
1
  6
AUSGEZOGEN
 62
    14
100
AcDbLine
 10
245.9666852330782
 20
250.36140947435
 30
0.0
 11
251.9666852330782
 21
250.36140947435
 31
0.0
  0
LINE
  5
A6
330
A
100
AcDbEntity
  8
1
  6
AUSGEZOGEN
 62
    14
100
AcDbLine
 10
245.9666852330782
 20
198.6385905256501
 30
0.0
 11
251.9666852330782
 21
198.6385905256501
 31
0.0
  0
LINE
  5
A7
330
A
100
AcDbEntity
  8
1
  6
AUSGEZOGEN
 62
    14
100
AcDbLine
 10
368.7166852330781
 20
253.5000000000001
 30
0.0
 11
360.2166852330781
 21
253.5000000000001
 31
0.0
  0
LINE
  5
A8
330
A
100
AcDbEntity
  8
1
  6
AUSGEZOGEN
 62
    14
100
AcDbLine
 10
385.2166852330781
 20
253.5000000000001
 30
0.0
 11
376.7166852330781
 21
253.5000000000001
 31
0.0
  0
LINE
  5
A9
330
A
100
AcDbEntity
  8
1
  6
AUSGEZOGEN
 62
    14
100
AcDbLine
 10
385.2166852330781
 20
252.0000000000001
 30
0.0
 11
385.2166852330781
 21
253.5000000000001
 31
0.0
  0
LINE
  5
AA
330
A
100
AcDbEntity
  8
1
  6
AUSGEZOGEN
 62
    14
100
AcDbLine
 10
360.2166852330781
 20
252.0000000000001
 30
0.0
 11
360.2166852330781
 21
253.5000000000001
 31
0.0
  0
LINE
  5
AB
330
A
100
AcDbEntity
  8
3
  6
STRICHPUNKT
 62
    54
100
AcDbLine
 10
362.8166852330781
 20
248.5000000000001
 30
0.0
 11
362.8166852330781
 21
257.5435256889623
 31
0.0
  0
LINE
  5
AC
330
A
100
AcDbEntity
  8
3
  6
STRICHPUNKT
 62
    54
100
AcDbLine
 10
382.6166852330781
 20
248.5000000000001
 30
0.0
 11
382.6166852330781
 21
256.8937744903625
 31
0.0
  0
LINE
  5
AD
330
A
100
AcDbEntity
  8
1
  6
AUSGEZOGEN
 62
    14
100
AcDbLine
 10
368.7166852330781
 20
284.0000000000001
 30
0.0
 11
368.7166852330781
 21
253.5000000000001
 31
0.0
  0
LINE
  5
AE
330
A
100
AcDbEntity
  8
1
  6
AUSGEZOGEN
 62
    14
100
AcDbLine
 10
376.7166852330781
 20
284.0000000000001
 30
0.0
 11
376.7166852330781
 21
253.5000000000001
 31
0.0
  0
LINE
  5
AF
330
A
100
AcDbEntity
  8
1
  6
AUSGEZOGEN
 62
    14
100
AcDbLine
 10
361.7166852330781
 20
284.0000000000001
 30
0.0
 11
383.7166852330781
 21
284.0000000000001
 31
0.0
  0
LINE
  5
B0
330
A
100
AcDbEntity
  8
1
  6
AUSGEZOGEN
 62
    14
100
AcDbLine
 10
383.7166852330781
 20
260.8000000000003
 30
0.0
 11
383.7166852330781
 21
255.376087772645
 31
0.0
  0
LINE
  5
B1
330
A
100
AcDbEntity
  8
1
  6
AUSGEZOGEN
 62
    14
100
AcDbLine
 10
383.7166852330781
 20
284.0000000000001
 30
0.0
 11
383.7166852330781
 21
282.8000000000002
 31
0.0
  0
LINE
  5
B2
330
A
100
AcDbEntity
  8
1
  6
AUSGEZOGEN
 62
    14
100
AcDbLine
 10
361.7166852330781
 20
284.0000000000001
 30
0.0
 11
361.7166852330781
 21
255.376087772645
 31
0.0
  0
LINE
  5
B3
330
A
100
AcDbEntity
  8
1
  6
AUSGEZOGEN
 62
    14
100
AcDbLine
 10
393.2166852330781
 20
282.8000000000002
 30
0.0
 11
394.216685233078
 21
282.8000000000002
 31
0.0
  0
LINE
  5
B4
330
A
100
AcDbEntity
  8
1
  6
AUSGEZOGEN
 62
    14
100
AcDbLine
 10
383.7166852330781
 20
282.8000000000002
 30
0.0
 11
391.7166852330781
 21
282.8000000000002
 31
0.0
  0
LINE
  5
B5
330
A
100
AcDbEntity
  8
3
  6
STRICHPUNKT
 62
    54
100
AcDbLine
 10
374.8254051610052
 20
271.8000000000003
 30
0.0
 11
412.9704235551923
 21
271.8000000000003
 31
0.0
  0
LINE
  5
B6
330
A
100
AcDbEntity
  8
1
  6
AUSGEZOGEN
 62
    14
100
AcDbLine
 10
393.2166852330781
 20
260.8000000000003
 30
0.0
 11
394.216685233078
 21
260.8000000000003
 31
0.0
  0
LINE
  5
B7
330
A
100
AcDbEntity
  8
1
  6
AUSGEZOGEN
 62
    14
100
AcDbLine
 10
383.7166852330781
 20
260.8000000000003
 30
0.0
 11
391.7166852330781
 21
260.8000000000003
 31
0.0
  0
LINE
  5
B8
330
A
100
AcDbEntity
  8
1
  6
AUSGEZOGEN
 62
    14
100
AcDbLine
 10
405.7166852330779
 20
282.0500000000003
 30
0.0
 11
405.7166852330779
 21
261.5500000000003
 31
0.0
  0
LINE
  5
B9
330
A
100
AcDbEntity
  8
1
  6
AUSGEZOGEN
 62
    14
100
AcDbLine
 10
383.7166852330781
 20
282.8000000000002
 30
0.0
 11
376.7166852330781
 21
275.8000000000003
 31
0.0
  0
LINE
  5
BA
330
A
100
AcDbEntity
  8
1
  6
AUSGEZOGEN
 62
    14
100
AcDbLine
 10
376.7166852330781
 20
267.8000000000003
 30
0.0
 11
383.7166852330781
 21
260.8000000000003
 31
0.0
  0
LINE
  5
BB
330
A
100
AcDbEntity
  8
1
  6
AUSGEZOGEN
 62
    14
100
AcDbLine
 10
385.1166852330781
 20
276.1999999999999
 30
0.0
 11
385.1166852330781
 21
267.3999999999997
 31
0.0
  0
LINE
  5
BC
330
A
100
AcDbEntity
  8
1
  6
AUSGEZOGEN
 62
    14
100
AcDbLine
 10
380.116685233078
 20
276.1999999999999
 30
0.0
 11
380.116685233078
 21
267.3999999999997
 31
0.0
  0
ELLIPSE
  5
BD
330
A
100
AcDbEntity
  8
1
  6
AUSGEZOGEN
 62
    14
100
AcDbEllipse
 10
382.6166852330781
 20
276.1999999999999
 30
0.0
 11
-0.0000000000000006
 21
-3.0
 31
0.0
210
0.0
220
0.0
230
1.0
 40
0.8333333333333333
 41
-4.712388980384689
 42
-1.570796326794896
  0
ELLIPSE
  5
BE
330
A
100
AcDbEntity
  8
1
  6
AUSGEZOGEN
 62
    14
100
AcDbEllipse
 10
382.6166852330781
 20
267.3999999999997
 30
0.0
 11
-0.0000000000000006
 21
-3.0
 31
0.0
210
0.0
220
0.0
230
1.0
 40
0.8333333333333333
 41
-1.570796326794896
 42
1.570796326794896
  0
LINE
  5
BF
330
A
100
AcDbEntity
  8
1
  6
AUSGEZOGEN
 62
    14
100
AcDbLine
 10
391.7166852330781
 20
282.8000000000002
 30
0.0
 11
391.7166852330781
 21
260.8000000000003
 31
0.0
  0
LINE
  5
C0
330
A
100
AcDbEntity
  8
1
  6
AUSGEZOGEN
 62
    14
100
AcDbLine
 10
393.2166852330781
 20
282.8000000000002
 30
0.0
 11
393.2166852330781
 21
260.8000000000003
 31
0.0
  0
ARC
  5
C1
330
A
100
AcDbEntity
  8
1
  6
AUSGEZOGEN
 62
    14
100
AcDbCircle
 10
392.4666852330782
 20
282.8000000000004
 30
0.0
 40
0.7499999999998641
100
AcDbArc
 50
359.9999999999869
 51
90.00000000000868
  0
ARC
  5
C2
330
A
100
AcDbEntity
  8
1
  6
AUSGEZOGEN
 62
    14
100
AcDbCircle
 10
392.466685233078
 20
282.8000000000004
 30
0.0
 40
0.7499999999998643
100
AcDbArc
 50
89.99999999999131
 51
180.000000000013
  0
ARC
  5
C3
330
A
100
AcDbEntity
  8
1
  6
AUSGEZOGEN
 62
    14
100
AcDbCircle
 10
392.4666852330782
 20
260.8000000000001
 30
0.0
 40
0.7499999999998885
100
AcDbArc
 50
269.9999999999913
 51
0.0000000000108563
  0
ARC
  5
C4
330
A
100
AcDbEntity
  8
1
  6
AUSGEZOGEN
 62
    14
100
AcDbCircle
 10
392.466685233078
 20
260.8000000000001
 30
0.0
 40
0.7499999999998887
100
AcDbArc
 50
179.9999999999891
 51
270.0000000000086
  0
LINE
  5
C5
330
A
100
AcDbEntity
  8
1
  6
AUSGEZOGEN
 62
    14
100
AcDbLine
 10
394.216685233078
 20
282.8000000000002
 30
0.0
 11
394.216685233078
 21
260.8000000000003
 31
0.0
  0
LINE
  5
C6
330
A
100
AcDbEntity
  8
1
  6
AUSGEZOGEN
 62
    14
100
AcDbLine
 10
394.216685233078
 20
282.5500000000003
 30
0.0
 11
405.2166852330779
 21
282.5500000000003
 31
0.0
  0
LINE
  5
C7
330
A
100
AcDbEntity
  8
1
  6
AUSGEZOGEN
 62
    14
100
AcDbLine
 10
394.216685233078
 20
261.0500000000003
 30
0.0
 11
405.2166852330779
 21
261.0500000000003
 31
0.0
  0
LINE
  5
C8
330
A
100
AcDbEntity
  8
1
  6
AUSGEZOGEN
 62
    14
100
AcDbLine
 10
399.716685233078
 20
282.5500000000003
 30
0.0
 11
399.716685233078
 21
261.0500000000003
 31
0.0
  0
LINE
  5
C9
330
A
100
AcDbEntity
  8
1
  6
AUSGEZOGEN
 62
    14
100
AcDbLine
 10
400.216685233078
 20
282.5500000000003
 30
0.0
 11
400.216685233078
 21
261.0500000000003
 31
0.0
  0
LINE
  5
CA
330
A
100
AcDbEntity
  8
1
  6
AUSGEZOGEN
 62
    14
100
AcDbLine
 10
400.7166852330779
 20
282.5500000000003
 30
0.0
 11
400.7166852330779
 21
261.0500000000003
 31
0.0
  0
LINE
  5
CB
330
A
100
AcDbEntity
  8
1
  6
AUSGEZOGEN
 62
    14
100
AcDbLine
 10
401.2166852330779
 20
282.5500000000003
 30
0.0
 11
401.2166852330779
 21
261.0500000000003
 31
0.0
  0
LINE
  5
CC
330
A
100
AcDbEntity
  8
1
  6
AUSGEZOGEN
 62
    14
100
AcDbLine
 10
401.7166852330779
 20
282.5500000000003
 30
0.0
 11
401.7166852330779
 21
261.0500000000003
 31
0.0
  0
LINE
  5
CD
330
A
100
AcDbEntity
  8
1
  6
AUSGEZOGEN
 62
    14
100
AcDbLine
 10
402.216685233078
 20
282.5500000000003
 30
0.0
 11
402.216685233078
 21
261.0500000000003
 31
0.0
  0
LINE
  5
CE
330
A
100
AcDbEntity
  8
1
  6
AUSGEZOGEN
 62
    14
100
AcDbLine
 10
402.716685233078
 20
282.5500000000003
 30
0.0
 11
402.716685233078
 21
261.0500000000003
 31
0.0
  0
LINE
  5
CF
330
A
100
AcDbEntity
  8
1
  6
AUSGEZOGEN
 62
    14
100
AcDbLine
 10
403.216685233078
 20
282.5500000000003
 30
0.0
 11
403.216685233078
 21
261.0500000000003
 31
0.0
  0
LINE
  5
D0
330
A
100
AcDbEntity
  8
1
  6
AUSGEZOGEN
 62
    14
100
AcDbLine
 10
403.716685233078
 20
282.5500000000003
 30
0.0
 11
403.716685233078
 21
261.0500000000003
 31
0.0
  0
LINE
  5
D1
330
A
100
AcDbEntity
  8
1
  6
AUSGEZOGEN
 62
    14
100
AcDbLine
 10
404.216685233078
 20
282.5500000000003
 30
0.0
 11
404.216685233078
 21
261.0500000000003
 31
0.0
  0
LINE
  5
D2
330
A
100
AcDbEntity
  8
1
  6
AUSGEZOGEN
 62
    14
100
AcDbLine
 10
404.7166852330779
 20
282.5500000000003
 30
0.0
 11
404.7166852330779
 21
261.0500000000003
 31
0.0
  0
LINE
  5
D3
330
A
100
AcDbEntity
  8
1
  6
AUSGEZOGEN
 62
    14
100
AcDbLine
 10
405.2166852330779
 20
282.5500000000003
 30
0.0
 11
405.2166852330779
 21
261.0500000000003
 31
0.0
  0
LINE
  5
D4
330
A
100
AcDbEntity
  8
1
  6
AUSGEZOGEN
 62
    14
100
AcDbLine
 10
405.2166852330779
 20
282.5500000000003
 30
0.0
 11
405.7166852330779
 21
282.0500000000003
 31
0.0
  0
LINE
  5
D5
330
A
100
AcDbEntity
  8
1
  6
AUSGEZOGEN
 62
    14
100
AcDbLine
 10
405.2166852330779
 20
261.0500000000003
 30
0.0
 11
405.7166852330779
 21
261.5500000000003
 31
0.0
  0
LINE
  5
D6
330
A
100
AcDbEntity
  8
1
  6
AUSGEZOGEN
 62
    14
100
AcDbLine
 10
83.29000490841735
 20
198.6385905256501
 30
0.0
 11
83.29000490841735
 21
250.36140947435
 31
0.0
  0
LINE
  5
D7
330
A
100
AcDbEntity
  8
1
  6
AUSGEZOGEN
 62
    14
100
AcDbLine
 10
138.2900049084173
 20
198.6385905256501
 30
0.0
 11
138.2900049084173
 21
250.36140947435
 31
0.0
  0
LINE
  5
D8
330
A
100
AcDbEntity
  8
1
  6
AUSGEZOGEN
 62
    14
100
AcDbLine
 10
110.7900049084173
 20
252.0000000000001
 30
0.0
 11
135.5437924973905
 21
252.0000000000001
 31
0.0
  0
LINE
  5
D9
330
A
100
AcDbEntity
  8
1
  6
AUSGEZOGEN
 62
    14
100
AcDbLine
 10
84.59000490841731
 20
252.0000000000001
 30
0.0
 11
110.7900049084173
 21
252.0000000000001
 31
0.0
  0
LINE
  5
DA
330
A
100
AcDbEntity
  8
1
  6
AUSGEZOGEN
 62
    14
100
AcDbLine
 10
84.92859543406735
 20
197.0
 30
0.0
 11
110.7900049084173
 21
197.0
 31
0.0
  0
LINE
  5
DB
330
A
100
AcDbEntity
  8
1
  6
AUSGEZOGEN
 62
    14
100
AcDbLine
 10
110.7900049084173
 20
197.0
 30
0.0
 11
136.6514143827673
 21
197.0
 31
0.0
  0
LINE
  5
DC
330
A
100
AcDbEntity
  8
3
  6
STRICHPUNKT
 62
    54
100
AcDbLine
 10
79.65126821178137
 20
224.5
 30
0.0
 11
142.2160786052868
 21
224.5
 31
0.0
  0
LINE
  5
DD
330
A
100
AcDbEntity
  8
1
  6
AUSGEZOGEN
 62
    14
100
AcDbLine
 10
124.4900049084174
 20
252.0000000000001
 30
0.0
 11
136.9900049084172
 21
252.0000000000001
 31
0.0
  0
LINE
  5
DE
330
A
100
AcDbEntity
  8
3
  6
STRICHPUNKT
 62
    54
100
AcDbLine
 10
124.4900049084174
 20
245.4268795484136
 30
0.0
 11
124.4900049084174
 21
288.5383911980468
 31
0.0
  0
LINE
  5
DF
330
A
100
AcDbEntity
  8
1
  6
AUSGEZOGEN
 62
    14
100
AcDbLine
 10
124.4900049084174
 20
252.0
 30
0.0
 11
110.2400049084174
 21
252.0
 31
0.0
  0
LINE
  5
E0
330
A
100
AcDbEntity
  8
5
  6
AUSGEZOGEN
 62
    14
100
AcDbLine
 10
111.9900049084172
 20
252.0
 30
0.0
 11
111.9900049084172
 21
284.0
 31
0.0
  0
LINE
  5
E1
330
A
100
AcDbEntity
  8
5
  6
AUSGEZOGEN
 62
    14
100
AcDbLine
 10
136.9900049084172
 20
252.0
 30
0.0
 11
136.9900049084172
 21
284.0
 31
0.0
  0
LINE
  5
E2
330
A
100
AcDbEntity
  8
5
  6
AUSGEZOGEN
 62
    14
100
AcDbLine
 10
136.9900049084172
 20
284.0
 30
0.0
 11
111.9900049084172
 21
284.0
 31
0.0
  0
LINE
  5
E3
330
A
100
AcDbEntity
  8
3
  6
STRICHPUNKT
 62
    54
100
AcDbLine
 10
114.4900049084172
 20
258.2081011957616
 30
0.0
 11
114.4900049084172
 21
250.1255731509517
 31
0.0
  0
LINE
  5
E4
330
A
100
AcDbEntity
  8
3
  6
STRICHPUNKT
 62
    54
100
AcDbLine
 10
134.4900049084172
 20
257.9031001374669
 30
0.0
 11
134.4900049084172
 21
250.2780736800991
 31
0.0
  0
LINE
  5
E5
330
A
100
AcDbEntity
  8
1
  6
AUSGEZOGEN
 62
    14
100
AcDbLine
 10
111.9900049084172
 20
254.0
 30
0.0
 11
136.9900049084172
 21
254.0
 31
0.0
  0
LINE
  5
E6
330
A
100
AcDbEntity
  8
5
  6
AUSGEZOGEN
 62
    14
100
AcDbLine
 10
114.4900049084172
 20
276.5825756949558
 30
0.0
 11
114.4900049084172
 21
284.0
 31
0.0
  0
LINE
  5
E7
330
A
100
AcDbEntity
  8
5
  6
AUSGEZOGEN
 62
    14
100
AcDbLine
 10
114.4900049084172
 20
255.7499999999302
 30
0.0
 11
114.4900049084172
 21
267.4174243050441
 31
0.0
  0
LINE
  5
E8
330
A
100
AcDbEntity
  8
5
  6
AUSGEZOGEN
 62
    14
100
AcDbLine
 10
134.4900049084172
 20
276.5825756949558
 30
0.0
 11
134.4900049084172
 21
284.0
 31
0.0
  0
LINE
  5
E9
330
A
100
AcDbEntity
  8
5
  6
AUSGEZOGEN
 62
    14
100
AcDbLine
 10
134.4900049084172
 20
255.7499999999302
 30
0.0
 11
134.4900049084172
 21
267.4174243050441
 31
0.0
  0
LINE
  5
EA
330
A
100
AcDbEntity
  8
5
  6
STRICHPUNKT
 62
    54
100
AcDbLine
 10
139.7981316273462
 20
272.0
 30
0.0
 11
109.260253375765
 21
272.0
 31
0.0
  0
CIRCLE
  5
EB
330
A
100
AcDbEntity
  8
5
  6
AUSGEZOGEN
 62
    14
100
AcDbCircle
 10
124.4900049084172
 20
272.0
 30
0.0
 40
11.0
  0
ARC
  5
EC
330
A
100
AcDbEntity
  8
1
  6
AUSGEZOGEN
 62
    14
100
AcDbCircle
 10
110.7900049084173
 20
224.5
 30
0.0
 40
37.75
100
AcDbArc
 50
43.24114786635811
 51
46.75885213364204
  0
ARC
  5
ED
330
A
100
AcDbEntity
  8
1
  6
AUSGEZOGEN
 62
    14
100
AcDbCircle
 10
110.7900049084173
 20
224.5
 30
0.0
 40
37.75
100
AcDbArc
 50
133.2411478663581
 51
136.758852133642
  0
ARC
  5
EE
330
A
100
AcDbEntity
  8
1
  6
AUSGEZOGEN
 62
    14
100
AcDbCircle
 10
110.7900049084173
 20
224.5
 30
0.0
 40
37.75
100
AcDbArc
 50
223.2411478663581
 51
226.758852133642
  0
ARC
  5
EF
330
A
100
AcDbEntity
  8
1
  6
AUSGEZOGEN
 62
    14
100
AcDbCircle
 10
110.7900049084173
 20
224.5
 30
0.0
 40
37.75
100
AcDbArc
 50
313.2411478663581
 51
316.758852133642
  0
LINE
  5
F0
330
A
100
AcDbEntity
  8
3
  6
STRICHPUNKT
 62
    54
100
AcDbLine
 10
110.7900049084173
 20
192.0973797480556
 30
0.0
 11
110.7900049084173
 21
287.5585841151007
 31
0.0
  0
LINE
  5
F1
330
A
100
AcDbEntity
  8
5
  6
AUSGEZOGEN
 62
    14
100
AcDbLine
 10
109.5900049084173
 20
254.0000000000001
 30
0.0
 11
109.5900049084173
 21
284.0000000000003
 31
0.0
  0
LINE
  5
F2
330
A
100
AcDbEntity
  8
5
  6
AUSGEZOGEN
 62
    14
100
AcDbLine
 10
84.59000490841731
 20
254.0000000000001
 30
0.0
 11
84.59000490841731
 21
284.0000000000003
 31
0.0
  0
LINE
  5
F3
330
A
100
AcDbEntity
  8
5
  6
AUSGEZOGEN
 62
    14
100
AcDbLine
 10
84.59000490841731
 20
284.0000000000003
 30
0.0
 11
109.5900049084173
 21
284.0000000000003
 31
0.0
  0
LINE
  5
F4
330
A
100
AcDbEntity
  8
3
  6
STRICHPUNKT
 62
    54
100
AcDbLine
 10
107.0900049084173
 20
258.2081011957619
 30
0.0
 11
107.0900049084173
 21
250.1255731509519
 31
0.0
  0
LINE
  5
F5
330
A
100
AcDbEntity
  8
3
  6
STRICHPUNKT
 62
    54
100
AcDbLine
 10
87.09000490841731
 20
257.9031001374672
 30
0.0
 11
87.09000490841731
 21
250.2780736800992
 31
0.0
  0
LINE
  5
F6
330
A
100
AcDbEntity
  8
1
  6
AUSGEZOGEN
 62
    14
100
AcDbLine
 10
84.59000490841731
 20
252.0000000000001
 30
0.0
 11
84.59000490841731
 21
254.0000000000001
 31
0.0
  0
LINE
  5
F7
330
A
100
AcDbEntity
  8
1
  6
AUSGEZOGEN
 62
    14
100
AcDbLine
 10
109.5900049084173
 20
252.0000000000001
 30
0.0
 11
109.5900049084173
 21
254.0000000000001
 31
0.0
  0
LINE
  5
F8
330
A
100
AcDbEntity
  8
1
  6
AUSGEZOGEN
 62
    14
100
AcDbLine
 10
109.5900049084173
 20
254.0000000000001
 30
0.0
 11
84.59000490841731
 21
254.0000000000001
 31
0.0
  0
LINE
  5
F9
330
A
100
AcDbEntity
  8
5
  6
AUSGEZOGEN
 62
    14
100
AcDbLine
 10
107.0900049084173
 20
276.582575694956
 30
0.0
 11
107.0900049084173
 21
284.0000000000003
 31
0.0
  0
LINE
  5
FA
330
A
100
AcDbEntity
  8
5
  6
AUSGEZOGEN
 62
    14
100
AcDbLine
 10
107.0900049084173
 20
255.7499999999305
 30
0.0
 11
107.0900049084173
 21
267.4174243050444
 31
0.0
  0
LINE
  5
FB
330
A
100
AcDbEntity
  8
5
  6
AUSGEZOGEN
 62
    14
100
AcDbLine
 10
87.09000490841731
 20
276.582575694956
 30
0.0
 11
87.09000490841731
 21
284.0000000000003
 31
0.0
  0
LINE
  5
FC
330
A
100
AcDbEntity
  8
5
  6
AUSGEZOGEN
 62
    14
100
AcDbLine
 10
87.09000490841731
 20
255.7499999999305
 30
0.0
 11
87.09000490841731
 21
267.4174243050444
 31
0.0
  0
LINE
  5
FD
330
A
100
AcDbEntity
  8
5
  6
STRICHPUNKT
 62
    54
100
AcDbLine
 10
80.46582089841695
 20
272.0000000000001
 30
0.0
 11
111.6928109495838
 21
272.0000000000003
 31
0.0
  0
CIRCLE
  5
FE
330
A
100
AcDbEntity
  8
5
  6
AUSGEZOGEN
 62
    14
100
AcDbCircle
 10
97.09000490841731
 20
272.0000000000003
 30
0.0
 40
11.0
  0
DIMENSION
  5
FF
330
A
100
AcDbEntity
  8
1
  6
AUSGEZOGEN
 62
    54
100
AcDbDimension
  2
*D28
 10
65.99540788959018
 20
224.5
 30
0.0
 11
65.99540788959014
 21
254.2500000000002
 31
0.0
 70
    32
  1
59.5
 71
     5
 42
59.5000000000002
 53
90.0
  3
DIMS0
100
AcDbAlignedDimension
 13
84.59000490841731
 23
284.0000000000003
 33
0.0
 14
79.65126821178137
 24
224.5
 34
0.0
 50
270.0
100
AcDbRotatedDimension
1001
ACAD
1000
DSTYLE
1002
{
1070
   271
1070
     2
1002
}
  0
LINE
  5
100
330
A
100
AcDbEntity
  8
3
  6
STRICHPUNKT
 62
    54
100
AcDbLine
 10
97.09000490841743
 20
245.4268795484137
 30
0.0
 11
97.09000490841743
 21
288.5383911980469
 31
0.0
  0
CIRCLE
  5
101
330
A
100
AcDbEntity
  8
5
  6
AUSGEZOGEN
 62
    14
100
AcDbCircle
 10
97.09000490841731
 20
272.0000000000003
 30
0.0
 40
9.5
  0
CIRCLE
  5
102
330
A
100
AcDbEntity
  8
1
  6
AUSGEZOGEN
 62
    14
100
AcDbCircle
 10
100.4927338034147
 20
276.5038352137329
 30
0.0
 40
1.5
  0
CIRCLE
  5
103
330
A
100
AcDbEntity
  8
1
  6
AUSGEZOGEN
 62
    14
100
AcDbCircle
 10
101.8164050753737
 20
268.76153850093
 30
0.0
 40
1.5
  0
CIRCLE
  5
104
330
A
100
AcDbEntity
  8
1
  6
AUSGEZOGEN
 62
    14
100
AcDbCircle
 10
94.81985692359035
 20
266.1178274282657
 30
0.0
 40
1.5
  0
CIRCLE
  5
105
330
A
100
AcDbEntity
  8
1
  6
AUSGEZOGEN
 62
    14
100
AcDbCircle
 10
90.65974721171915
 20
275.4967071860513
 30
0.0
 40
1.5
  0
CIRCLE
  5
106
330
A
100
AcDbEntity
  8
1
  6
AUSGEZOGEN
 62
    14
100
AcDbCircle
 10
94.8828888889218
 20
277.0703447293038
 30
0.0
 40
1.5
  0
CIRCLE
  5
107
330
A
100
AcDbEntity
  8
1
  6
AUSGEZOGEN
 62
    14
100
AcDbCircle
 10
96.14352819554937
 20
271.2164130684042
 30
0.0
 40
1.5
  0
CIRCLE
  5
108
330
A
100
AcDbEntity
  8
5
  6
AUSGEZOGEN
 62
    14
100
AcDbCircle
 10
124.3463364083006
 20
272.0000000000001
 30
0.0
 40
9.5
  0
CIRCLE
  5
109
330
A
100
AcDbEntity
  8
1
  6
AUSGEZOGEN
 62
    14
100
AcDbCircle
 10
127.2600698089534
 20
266.2121503942918
 30
0.0
 40
1.0
  0
CIRCLE
  5
10A
330
A
100
AcDbEntity
  8
1
  6
AUSGEZOGEN
 62
    14
100
AcDbCircle
 10
130.3538025225391
 20
269.367373111028
 30
0.0
 40
1.0
  0
CIRCLE
  5
10B
330
A
100
AcDbEntity
  8
1
  6
AUSGEZOGEN
 62
    14
100
AcDbCircle
 10
130.6170989236952
 20
275.5463509313031
 30
0.0
 40
1.0
  0
CIRCLE
  5
10C
330
A
100
AcDbEntity
  8
1
  6
AUSGEZOGEN
 62
    14
100
AcDbCircle
 10
126.2068842043286
 20
277.7813003556581
 30
0.0
 40
1.0
  0
CIRCLE
  5
10D
330
A
100
AcDbEntity
  8
1
  6
AUSGEZOGEN
 62
    14
100
AcDbCircle
 10
120.5460115794699
 20
277.978501775454
 30
0.0
 40
1.0
  0
CIRCLE
  5
10E
330
A
100
AcDbEntity
  8
1
  6
AUSGEZOGEN
 62
    14
100
AcDbCircle
 10
118.242168069353
 20
274.6260776389218
 30
0.0
 40
1.0
  0
CIRCLE
  5
10F
330
A
100
AcDbEntity
  8
1
  6
AUSGEZOGEN
 62
    14
100
AcDbCircle
 10
118.6371126710873
 20
269.6960421440213
 30
0.0
 40
1.0
  0
CIRCLE
  5
110
330
A
100
AcDbEntity
  8
1
  6
AUSGEZOGEN
 62
    14
100
AcDbCircle
 10
121.3359007829385
 20
266.4093518140879
 30
0.0
 40
1.0
  0
CIRCLE
  5
111
330
A
100
AcDbEntity
  8
1
  6
AUSGEZOGEN
 62
    14
100
AcDbCircle
 10
122.7182068890085
 20
270.9449844693962
 30
0.0
 40
1.0
  0
CIRCLE
  5
112
330
A
100
AcDbEntity
  8
1
  6
AUSGEZOGEN
 62
    14
100
AcDbCircle
 10
122.5865586884306
 20
274.5603438323231
 30
0.0
 40
1.0
  0
CIRCLE
  5
113
330
A
100
AcDbEntity
  8
1
  6
AUSGEZOGEN
 62
    14
100
AcDbCircle
 10
126.7334770066411
 20
273.7715381531391
 30
0.0
 40
1.0
  0
CIRCLE
  5
114
330
A
100
AcDbEntity
  8
1
  6
AUSGEZOGEN
 62
    14
100
AcDbCircle
 10
126.2727083046177
 20
269.2359054978306
 30
0.0
 40
1.0
  0
LINE
  5
115
330
A
100
AcDbEntity
  8
1
  6
AUSGEZOGEN
 62
    14
100
AcDbLine
 10
84.29000490841735
 20
199.0380185374351
 30
0.0
 11
84.29000490841735
 21
249.961981462565
 31
0.0
  0
ARC
  5
116
330
A
100
AcDbEntity
  8
1
  6
AUSGEZOGEN
 62
    14
100
AcDbCircle
 10
110.7900049084173
 20
224.5
 30
0.0
 40
36.75
100
AcDbArc
 50
223.855583058655
 51
226.1444169413448
  0
LINE
  5
117
330
A
100
AcDbEntity
  8
1
  6
AUSGEZOGEN
 62
    14
100
AcDbLine
 10
85.3280234458524
 20
198.0000000000001
 30
0.0
 11
110.7900049084173
 21
198.0000000000001
 31
0.0
  0
LINE
  5
118
330
A
100
AcDbEntity
  8
1
  6
AUSGEZOGEN
 62
    14
100
AcDbLine
 10
110.7900049084173
 20
198.0000000000001
 30
0.0
 11
136.2519863709823
 21
198.0000000000001
 31
0.0
  0
ARC
  5
119
330
A
100
AcDbEntity
  8
1
  6
AUSGEZOGEN
 62
    14
100
AcDbCircle
 10
110.7900049084173
 20
224.5
 30
0.0
 40
36.75
100
AcDbArc
 50
313.8555830586551
 51
316.144416941345
  0
LINE
  5
11A
330
A
100
AcDbEntity
  8
1
  6
AUSGEZOGEN
 62
    14
100
AcDbLine
 10
137.2900049084173
 20
199.0380185374351
 30
0.0
 11
137.2900049084173
 21
249.961981462565
 31
0.0
  0
ARC
  5
11B
330
A
100
AcDbEntity
  8
1
  6
AUSGEZOGEN
 62
    14
100
AcDbCircle
 10
110.7900049084173
 20
224.5
 30
0.0
 40
36.75
100
AcDbArc
 50
43.85558305865503
 51
46.14441694134511
  0
LINE
  5
11C
330
A
100
AcDbEntity
  8
1
  6
AUSGEZOGEN
 62
    14
100
AcDbLine
 10
110.7900049084173
 20
251.0000000000001
 30
0.0
 11
136.2519863709821
 21
251.0000000000001
 31
0.0
  0
LINE
  5
11D
330
A
100
AcDbEntity
  8
1
  6
AUSGEZOGEN
 62
    14
100
AcDbLine
 10
85.32802344585252
 20
251.0000000000001
 30
0.0
 11
110.7900049084173
 21
251.0000000000001
 31
0.0
  0
ARC
  5
11E
330
A
100
AcDbEntity
  8
1
  6
AUSGEZOGEN
 62
    14
100
AcDbCircle
 10
110.7900049084173
 20
224.5
 30
0.0
 40
36.75
100
AcDbArc
 50
133.8555830586548
 51
136.1444169413449
  0
LINE
  5
11F
330
A
100
AcDbEntity
  8
1
  6
AUSGEZOGEN
 62
    14
100
AcDbLine
 10
84.92859543406746
 20
252.0000000000001
 30
0.0
 11
85.32802344585252
 21
251.0000000000001
 31
0.0
  0
LINE
  5
120
330
A
100
AcDbEntity
  8
1
  6
AUSGEZOGEN
 62
    14
100
AcDbLine
 10
83.29000490841735
 20
250.36140947435
 30
0.0
 11
84.29000490841735
 21
249.961981462565
 31
0.0
  0
LINE
  5
121
330
A
100
AcDbEntity
  8
1
  6
AUSGEZOGEN
 62
    14
100
AcDbLine
 10
136.6514143827672
 20
252.0000000000001
 30
0.0
 11
136.2519863709821
 21
251.0000000000001
 31
0.0
  0
LINE
  5
122
330
A
100
AcDbEntity
  8
1
  6
AUSGEZOGEN
 62
    14
100
AcDbLine
 10
137.2900049084173
 20
249.961981462565
 30
0.0
 11
138.2900049084173
 21
250.36140947435
 31
0.0
  0
LINE
  5
123
330
A
100
AcDbEntity
  8
1
  6
AUSGEZOGEN
 62
    14
100
AcDbLine
 10
84.29000490841735
 20
199.0380185374351
 30
0.0
 11
83.29000490841735
 21
198.6385905256501
 31
0.0
  0
LINE
  5
124
330
A
100
AcDbEntity
  8
1
  6
AUSGEZOGEN
 62
    14
100
AcDbLine
 10
85.3280234458524
 20
198.0000000000001
 30
0.0
 11
84.92859543406735
 21
197.0
 31
0.0
  0
LINE
  5
125
330
A
100
AcDbEntity
  8
1
  6
AUSGEZOGEN
 62
    14
100
AcDbLine
 10
136.2519863709823
 20
198.0000000000001
 30
0.0
 11
136.6514143827673
 21
197.0
 31
0.0
  0
LINE
  5
126
330
A
100
AcDbEntity
  8
1
  6
AUSGEZOGEN
 62
    14
100
AcDbLine
 10
137.2900049084173
 20
199.0380185374351
 30
0.0
 11
138.2900049084173
 21
198.6385905256501
 31
0.0
  0
LINE
  5
127
330
A
100
AcDbEntity
  8
3
  6
STRICHPUNKT
 62
    54
100
AcDbLine
 10
129.5719005003838
 20
205.7181044080337
 30
0.0
 11
134.6741542803928
 21
200.6158506280247
 31
0.0
  0
ARC
  5
128
330
A
100
AcDbEntity
  8
3
  6
STRICHPUNKT
 62
    54
100
AcDbCircle
 10
110.7900049084173
 20
224.5
 30
0.0
 40
30.00000000000002
100
AcDbArc
 50
127.4436139649294
 51
142.5751437718674
  0
ARC
  5
129
330
A
100
AcDbEntity
  8
3
  6
STRICHPUNKT
 62
    54
100
AcDbCircle
 10
110.7900049084173
 20
224.5
 30
0.0
 40
30.00000000000002
100
AcDbArc
 50
308.1266626795045
 51
322.8914357119295
  0
LINE
  5
12A
330
A
100
AcDbEntity
  8
3
  6
STRICHPUNKT
 62
    54
100
AcDbLine
 10
86.83488947192575
 20
248.4551154364922
 30
0.0
 11
92.57047741367363
 21
242.7195274947443
 31
0.0
  0
CIRCLE
  5
12B
330
A
100
AcDbEntity
  8
1
  6
AUSGEZOGEN
 62
    14
100
AcDbCircle
 10
89.62979921005375
 20
245.6603377750266
 30
0.0
 40
3.0
  0
CIRCLE
  5
12C
330
A
100
AcDbEntity
  8
1
  6
AUSGEZOGEN
 62
    14
100
AcDbCircle
 10
132.0562060812462
 20
203.2339309038335
 30
0.0
 40
3.0
  0
LINE
  5
12D
330
A
100
AcDbEntity
  8
1
  6
AUSGEZOGEN
 62
    14
100
AcDbLine
 10
456.5
 20
198.63859052565
 30
0.0
 11
456.5
 21
250.36140947435
 31
0.0
  0
LINE
  5
12E
330
A
100
AcDbEntity
  8
1
  6
AUSGEZOGEN
 62
    14
100
AcDbLine
 10
511.5
 20
198.63859052565
 30
0.0
 11
511.5
 21
250.36140947435
 31
0.0
  0
LINE
  5
12F
330
A
100
AcDbEntity
  8
1
  6
AUSGEZOGEN
 62
    14
100
AcDbLine
 10
484.0
 20
252.0000000000001
 30
0.0
 11
508.7537875889731
 21
252.0000000000001
 31
0.0
  0
LINE
  5
130
330
A
100
AcDbEntity
  8
1
  6
AUSGEZOGEN
 62
    14
100
AcDbLine
 10
457.8000000000001
 20
252.0000000000001
 30
0.0
 11
484.0
 21
252.0000000000001
 31
0.0
  0
LINE
  5
131
330
A
100
AcDbEntity
  8
1
  6
AUSGEZOGEN
 62
    14
100
AcDbLine
 10
458.13859052565
 20
197.0
 30
0.0
 11
484.0
 21
197.0
 31
0.0
  0
LINE
  5
132
330
A
100
AcDbEntity
  8
1
  6
AUSGEZOGEN
 62
    14
100
AcDbLine
 10
484.0
 20
197.0
 30
0.0
 11
509.8614094743501
 21
197.0
 31
0.0
  0
CIRCLE
  5
133
330
A
100
AcDbEntity
  8
1
  6
AUSGEZOGEN
 62
    14
100
AcDbCircle
 10
461.7261363926237
 20
246.7738636073762
 30
0.0
 40
2.7
  0
CIRCLE
  5
134
330
A
100
AcDbEntity
  8
1
  6
AUSGEZOGEN
 62
    14
100
AcDbCircle
 10
506.2738636073762
 20
246.7738636073762
 30
0.0
 40
2.7
  0
CIRCLE
  5
135
330
A
100
AcDbEntity
  8
1
  6
AUSGEZOGEN
 62
    14
100
AcDbCircle
 10
506.2738636073762
 20
202.2261363926237
 30
0.0
 40
2.7
  0
CIRCLE
  5
136
330
A
100
AcDbEntity
  8
1
  6
AUSGEZOGEN
 62
    14
100
AcDbCircle
 10
461.7261363926237
 20
202.2261363926237
 30
0.0
 40
2.7
  0
LINE
  5
137
330
A
100
AcDbEntity
  8
3
  6
STRICHPUNKT
 62
    54
100
AcDbLine
 10
452.861263303364
 20
224.5
 30
0.0
 11
515.4260736968694
 21
224.5
 31
0.0
  0
CIRCLE
  5
138
330
A
100
AcDbEntity
  8
1
  6
AUSGEZOGEN
 62
    14
100
AcDbCircle
 10
484.0
 20
224.5
 30
0.0
 40
16.0
  0
CIRCLE
  5
139
330
A
100
AcDbEntity
  8
1
  6
AUSGEZOGEN
 62
    14
100
AcDbCircle
 10
484.0
 20
224.5
 30
0.0
 40
20.0
  0
LINE
  5
13A
330
A
100
AcDbEntity
  8
1
  6
AUSGEZOGEN
 62
    14
100
AcDbLine
 10
497.7
 20
252.0000000000001
 30
0.0
 11
510.1999999999999
 21
252.0000000000001
 31
0.0
  0
LINE
  5
13B
330
A
100
AcDbEntity
  8
3
  6
STRICHPUNKT
 62
    54
100
AcDbLine
 10
497.7
 20
245.4268795484135
 30
0.0
 11
497.7
 21
288.5383911980468
 31
0.0
  0
LINE
  5
13C
330
A
100
AcDbEntity
  8
1
  6
AUSGEZOGEN
 62
    14
100
AcDbLine
 10
497.7
 20
252.0
 30
0.0
 11
483.45
 21
252.0
 31
0.0
  0
LINE
  5
13D
330
A
100
AcDbEntity
  8
5
  6
AUSGEZOGEN
 62
    14
100
AcDbLine
 10
485.1999999999999
 20
252.0
 30
0.0
 11
485.2
 21
283.9999999999999
 31
0.0
  0
LINE
  5
13E
330
A
100
AcDbEntity
  8
5
  6
AUSGEZOGEN
 62
    14
100
AcDbLine
 10
510.1999999999999
 20
252.0
 30
0.0
 11
510.1999999999999
 21
283.9999999999999
 31
0.0
  0
LINE
  5
13F
330
A
100
AcDbEntity
  8
5
  6
AUSGEZOGEN
 62
    14
100
AcDbLine
 10
510.1999999999999
 20
283.9999999999999
 30
0.0
 11
485.2
 21
283.9999999999999
 31
0.0
  0
LINE
  5
140
330
A
100
AcDbEntity
  8
3
  6
STRICHPUNKT
 62
    54
100
AcDbLine
 10
487.6999999999999
 20
258.2081011957616
 30
0.0
 11
487.6999999999999
 21
250.1255731509516
 31
0.0
  0
LINE
  5
141
330
A
100
AcDbEntity
  8
3
  6
STRICHPUNKT
 62
    54
100
AcDbLine
 10
507.6999999999999
 20
257.9031001374669
 30
0.0
 11
507.6999999999999
 21
250.278073680099
 31
0.0
  0
LINE
  5
142
330
A
100
AcDbEntity
  8
1
  6
AUSGEZOGEN
 62
    14
100
AcDbLine
 10
485.1999999999999
 20
254.0
 30
0.0
 11
510.1999999999999
 21
254.0
 31
0.0
  0
LINE
  5
143
330
A
100
AcDbEntity
  8
5
  6
AUSGEZOGEN
 62
    14
100
AcDbLine
 10
487.6999999999999
 20
255.7499999999301
 30
0.0
 11
487.7
 21
283.9999999999999
 31
0.0
  0
LINE
  5
144
330
A
100
AcDbEntity
  8
5
  6
AUSGEZOGEN
 62
    14
100
AcDbLine
 10
507.6999999999999
 20
255.7499999999301
 30
0.0
 11
507.6999999999999
 21
283.9999999999999
 31
0.0
  0
ARC
  5
145
330
A
100
AcDbEntity
  8
1
  6
AUSGEZOGEN
 62
    14
100
AcDbCircle
 10
484.0
 20
224.5
 30
0.0
 40
37.75
100
AcDbArc
 50
43.24114786635811
 51
46.75885213364204
  0
ARC
  5
146
330
A
100
AcDbEntity
  8
1
  6
AUSGEZOGEN
 62
    14
100
AcDbCircle
 10
484.0
 20
224.5
 30
0.0
 40
37.75
100
AcDbArc
 50
133.2411478663581
 51
136.758852133642
  0
ARC
  5
147
330
A
100
AcDbEntity
  8
1
  6
AUSGEZOGEN
 62
    14
100
AcDbCircle
 10
484.0
 20
224.5
 30
0.0
 40
37.75
100
AcDbArc
 50
223.2411478663581
 51
226.758852133642
  0
ARC
  5
148
330
A
100
AcDbEntity
  8
1
  6
AUSGEZOGEN
 62
    14
100
AcDbCircle
 10
484.0
 20
224.5
 30
0.0
 40
37.75
100
AcDbArc
 50
313.2411478663581
 51
316.758852133642
  0
LINE
  5
149
330
A
100
AcDbEntity
  8
3
  6
STRICHPUNKT
 62
    54
100
AcDbLine
 10
484.0
 20
192.0973797480555
 30
0.0
 11
484.0
 21
287.5585841151006
 31
0.0
  0
LINE
  5
14A
330
A
100
AcDbEntity
  8
5
  6
AUSGEZOGEN
 62
    14
100
AcDbLine
 10
482.8000000000001
 20
254.0
 30
0.0
 11
482.8000000000001
 21
284.0000000000003
 31
0.0
  0
LINE
  5
14B
330
A
100
AcDbEntity
  8
5
  6
AUSGEZOGEN
 62
    14
100
AcDbLine
 10
457.8000000000001
 20
254.0
 30
0.0
 11
457.8000000000001
 21
284.0000000000003
 31
0.0
  0
LINE
  5
14C
330
A
100
AcDbEntity
  8
5
  6
AUSGEZOGEN
 62
    14
100
AcDbLine
 10
457.8000000000001
 20
284.0000000000003
 30
0.0
 11
482.8000000000001
 21
284.0000000000003
 31
0.0
  0
LINE
  5
14D
330
A
100
AcDbEntity
  8
3
  6
STRICHPUNKT
 62
    54
100
AcDbLine
 10
480.3
 20
258.2081011957618
 30
0.0
 11
480.3
 21
250.1255731509518
 31
0.0
  0
LINE
  5
14E
330
A
100
AcDbEntity
  8
3
  6
STRICHPUNKT
 62
    54
100
AcDbLine
 10
460.3
 20
257.9031001374672
 30
0.0
 11
460.3
 21
250.2780736800992
 31
0.0
  0
LINE
  5
14F
330
A
100
AcDbEntity
  8
1
  6
AUSGEZOGEN
 62
    14
100
AcDbLine
 10
457.8000000000001
 20
252.0
 30
0.0
 11
457.8000000000001
 21
254.0
 31
0.0
  0
LINE
  5
150
330
A
100
AcDbEntity
  8
1
  6
AUSGEZOGEN
 62
    14
100
AcDbLine
 10
482.8000000000001
 20
252.0
 30
0.0
 11
482.8000000000001
 21
254.0
 31
0.0
  0
LINE
  5
151
330
A
100
AcDbEntity
  8
1
  6
AUSGEZOGEN
 62
    14
100
AcDbLine
 10
482.8000000000001
 20
254.0
 30
0.0
 11
457.8000000000001
 21
254.0
 31
0.0
  0
LINE
  5
152
330
A
100
AcDbEntity
  8
5
  6
AUSGEZOGEN
 62
    14
100
AcDbLine
 10
480.3
 20
255.7499999999304
 30
0.0
 11
480.3
 21
283.9999999999999
 31
0.0
  0
LINE
  5
153
330
A
100
AcDbEntity
  8
5
  6
AUSGEZOGEN
 62
    14
100
AcDbLine
 10
460.3
 20
255.7499999999304
 30
0.0
 11
460.3
 21
283.9999999999999
 31
0.0
  0
CIRCLE
  5
154
330
A
100
AcDbEntity
  8
1
  6
AUSGEZOGEN
 62
    14
100
AcDbCircle
 10
484.0
 20
224.5
 30
0.0
 40
4.5
  0
CIRCLE
  5
155
330
A
100
AcDbEntity
  8
1
  6
AUSGEZOGEN
 62
    14
100
AcDbCircle
 10
484.0
 20
224.5
 30
0.0
 40
4.0
  0
CIRCLE
  5
156
330
A
100
AcDbEntity
  8
3
  6
STRICHPUNKT
 62
    54
100
AcDbCircle
 10
484.0
 20
224.5
 30
0.0
 40
31.49999999999998
  0
LINE
  5
157
330
A
100
AcDbEntity
  8
3
  6
STRICHPUNKT
 62
    54
100
AcDbLine
 10
458.0620804836589
 20
250.437919516341
 30
0.0
 11
465.0582830707937
 21
243.4417169292062
 31
0.0
  0
LINE
  5
158
330
A
100
AcDbEntity
  8
3
  6
STRICHPUNKT
 62
    54
100
AcDbLine
 10
465.0799157026349
 20
205.5799157026349
 30
0.0
 11
458.5135253821079
 21
199.0135253821078
 31
0.0
  0
LINE
  5
159
330
A
100
AcDbEntity
  8
3
  6
STRICHPUNKT
 62
    54
100
AcDbLine
 10
509.6100140672872
 20
198.8899859327126
 30
0.0
 11
502.9210969484252
 21
205.5789030515746
 31
0.0
  0
LINE
  5
15A
330
A
100
AcDbEntity
  8
3
  6
STRICHPUNKT
 62
    54
100
AcDbLine
 10
502.636343407827
 20
243.1363434078269
 30
0.0
 11
509.9381712247731
 21
250.438171224773
 31
0.0
  0
DIMENSION
  5
15B
330
A
100
AcDbEntity
  8
1
  6
AUSGEZOGEN
 62
    54
100
AcDbDimension
  2
*D29
 10
511.5
 20
185.3993502609646
 30
0.0
 11
484.0617752013249
 21
189.8192030835264
 31
0.0
 70
   160
  1
55
 71
     5
 42
55.0
  3
DIMS0
100
AcDbAlignedDimension
 13
456.5
 23
198.63859052565
 33
0.0
 14
511.5
 24
198.63859052565
 34
0.0
100
AcDbRotatedDimension
1001
ACAD
1000
DSTYLE
1002
{
1070
   271
1070
     2
1070
   279
1070
     2
1002
}
  0
DIMENSION
  5
15C
330
A
100
AcDbEntity
  8
1
  6
AUSGEZOGEN
 62
    54
100
AcDbDimension
  2
*D30
 10
515.5
 20
178.3992589464196
 30
0.0
 11
483.6818578785196
 21
181.4671623127915
 31
0.0
 70
   160
  1
%%c63
 71
     5
 42
63.0
  3
DIMS0
100
AcDbAlignedDimension
 13
452.5
 23
224.5
 33
0.0
 14
515.5
 24
224.5
 34
0.0
100
AcDbRotatedDimension
1001
ACAD
1000
DSTYLE
1002
{
1070
   271
1070
     2
1070
   279
1070
     2
1002
}
  0
CIRCLE
  5
15D
330
A
100
AcDbEntity
  8
3
  6
STRICHPUNKT
 62
    54
100
AcDbCircle
 10
484.0
 20
224.5
 30
0.0
 40
37.75
  0
DIMENSION
  5
15E
330
A
100
AcDbEntity
  8
3
  6
AUSGEZOGEN
 62
    54
100
AcDbDimension
  2
*D31
 10
521.75
 20
171.2930121296615
 30
0.0
 11
483.1119854392641
 21
174.254035483621
 31
0.0
 70
   160
  1
%%c75.5
 71
     5
 42
75.5
  3
DIMS0
100
AcDbAlignedDimension
 13
446.25
 23
224.5
 33
0.0
 14
521.75
 24
224.5
 34
0.0
100
AcDbRotatedDimension
1001
ACAD
1000
DSTYLE
1002
{
1070
   271
1070
     2
1070
   279
1070
     2
1002
}
  0
DIMENSION
  5
15F
330
A
100
AcDbEntity
  8
3
  6
AUSGEZOGEN
 62
    54
100
AcDbDimension
  2
*D32
 10
530.6200315554165
 20
197.0
 30
0.0
 11
530.6200315554165
 21
224.5000000000001
 31
0.0
 70
    32
  1
55
 71
     5
 42
55.0
 53
90.0
  3
DIMS0
100
AcDbAlignedDimension
 13
509.8614094743498
 23
252.0000000000001
 33
0.0
 14
509.8614094743501
 24
197.0
 34
0.0
 50
270.0
100
AcDbRotatedDimension
1001
ACAD
1000
DSTYLE
1002
{
1070
   271
1070
     2
1002
}
  0
LINE
  5
160
330
A
100
AcDbEntity
  8
3
  6
STRICHPUNKT
 62
    54
100
AcDbLine
 10
470.3000000000001
 20
245.4268795484136
 30
0.0
 11
470.3000000000001
 21
288.5383911980468
 31
0.0
  0
LINE
  5
161
330
A
100
AcDbEntity
  8
1
  6
AUSGEZOGEN
 62
    14
100
AcDbLine
 10
341.2166852330781
 20
197.0
 30
0.0
 11
341.2166852330781
 21
252.0000000000001
 31
0.0
  0
DIMENSION
  5
162
330
A
100
AcDbEntity
  8
5
  6
AUSGEZOGEN
 62
    54
100
AcDbDimension
  2
*D33
 10
391.2166852330781
 20
172.7643839839498
 30
0.0
 11
317.421714342247
 21
175.5412631622373
 31
0.0
 70
   160
  1
K,K1
 71
     5
 42
145.2499999999998
  3
DIMS0
100
AcDbAlignedDimension
 13
245.9666852330782
 23
197.0
 33
0.0
 14
391.2166852330781
 24
197.9999999999998
 34
0.0
100
AcDbRotatedDimension
1001
ACAD
1000
DSTYLE
1002
{
1070
   271
1070
     2
1070
   279
1070
     2
1002
}
  0
CIRCLE
  5
163
330
A
100
AcDbEntity
  8
0
  6
ByBlock
 62
     0
100
AcDbCircle
 10
129.7347913613374
 20
268.310814897701
 30
0.0
 40
0.5
  0
POLYLINE
  5
164
330
A
100
AcDbEntity
  8
0
  6
AUSGEZOGEN
 62
     9
100
AcDb2dPolyline
 66
     1
 10
0.0
 20
0.0
 30
0.0
  0
VERTEX
  5
165
330
164
100
AcDbEntity
  8
0
  6
AUSGEZOGEN
 62
     9
100
AcDbVertex
100
AcDb2dVertex
 10
129.7347913613374
 20
268.310814897701
 30
0.0
  0
VERTEX
  5
166
330
164
100
AcDbEntity
  8
0
  6
AUSGEZOGEN
 62
     9
100
AcDbVertex
100
AcDb2dVertex
 10
153.661970572412
 20
311.5850567436197
 30
0.0
  0
VERTEX
  5
167
330
164
100
AcDbEntity
  8
0
  6
AUSGEZOGEN
 62
     9
100
AcDbVertex
100
AcDb2dVertex
 10
203.7446782002783
 20
311.5850567436197
 30
0.0
  0
SEQEND
  5
168
330
164
100
AcDbEntity
  8
0
  6
AUSGEZOGEN
 62
     9
  0
TEXT
  5
16A
330
A
100
AcDbEntity
  8
4
  6
AUSGEZOGEN
 62
    94
100
AcDbText
 10
154.9946043902447
 20
312.8806422097782
 30
0.0
 40
5.0
  1
Connector Encoder
 41
0.6800000190734864
100
AcDbText
  0
CIRCLE
  5
16B
330
A
100
AcDbEntity
  8
0
  6
ByBlock
 62
     0
100
AcDbCircle
 10
91.79548145413093
 20
273.5657202470273
 30
0.0
 40
0.5
  0
POLYLINE
  5
16C
330
A
100
AcDbEntity
  8
0
  6
AUSGEZOGEN
 62
     9
100
AcDb2dPolyline
 66
     1
 10
0.0
 20
0.0
 30
0.0
  0
VERTEX
  5
16D
330
16C
100
AcDbEntity
  8
0
  6
AUSGEZOGEN
 62
     9
100
AcDbVertex
100
AcDb2dVertex
 10
91.79548145413093
 20
273.5657202470273
 30
0.0
  0
VERTEX
  5
16E
330
16C
100
AcDbEntity
  8
0
  6
AUSGEZOGEN
 62
     9
100
AcDbVertex
100
AcDb2dVertex
 10
30.11999635781546
 20
313.8122070308852
 30
0.0
  0
VERTEX
  5
16F
330
16C
100
AcDbEntity
  8
0
  6
AUSGEZOGEN
 62
     9
100
AcDbVertex
100
AcDb2dVertex
 10
118.1456906243107
 20
313.8122070308852
 30
0.0
  0
SEQEND
  5
170
330
16C
100
AcDbEntity
  8
0
  6
AUSGEZOGEN
 62
     9
  0
TEXT
  5
172
330
A
100
AcDbEntity
  8
4
  6
AUSGEZOGEN
 62
    94
100
AcDbText
 10
34.13306697038172
 20
315.5417148458344
 30
0.0
 40
5.0
  1
Connector Motor / Brake
 41
0.6800000190734864
100
AcDbText
  0
TEXT
  5
173
330
A
100
AcDbEntity
  8
1
  6
AUSGEZOGEN
 62
    14
100
AcDbText
 10
282.7365989935584
 20
125.554896438431
 30
0.0
 40
4.0
  1
K1 = with Encoder M15
 41
0.7333333492279053
100
AcDbText
  0
TEXT
  5
174
330
A
100
AcDbEntity
  8
1
  6
AUSGEZOGEN
 62
    14
100
AcDbText
 10
282.7365989935584
 20
118.7548963669055
 30
0.0
 40
4.0
  1
K  = with Encoder M15 and Brake
 41
0.7333333492279053
100
AcDbText
  0
TEXT
  5
17B
330
A
100
AcDbEntity
  8
1
  6
AUSGEZOGEN
 62
    14
100
AcDbText
 10
286.3161534805147
 20
153.2759505768924
 30
0.0
 40
4.0
  1
Typ                   K1  K
 41
0.7333333492279053
100
AcDbText
  0
TEXT
  5
17C
330
A
100
AcDbEntity
  8
1
  6
AUSGEZOGEN
 62
    14
100
AcDbText
 10
286.3161534805147
 20
136.2759505768924
 30
0.0
 40
4.0
  1
LSM63-12-602-E1-0/2KA 134  176
 41
0.7333333492279053
100
AcDbText
  0
TEXT
  5
17D
330
A
100
AcDbEntity
  8
1
  6
AUSGEZOGEN
 62
    14
100
AcDbText
 10
286.3161534805147
 20
144.2759505768924
 30
0.0
 40
4.0
  1
LSM63-6-602-E1-0/2KA  104  146
 41
0.7333333492279053
100
AcDbText
  0
TEXT
  5
181
330
A
100
AcDbEntity
  8
1
  6
AUSGEZOGEN
 62
    94
100
AcDbText
 10
276.7019721727352
 20
313.8251427005623
 30
0.0
 40
5.0
  1
Spec.: Key/Housing IP65/Shaft IP44
 41
0.6800000190734864
100
AcDbText
  0
DIMENSION
  5
182
330
A
100
AcDbEntity
  8
1
  6
AUSGEZOGEN
 62
    54
100
AcDbDimension
  2
*D34
 10
464.5317649545838
 20
208.8466332888994
 30
0.0
 11
461.2668114586595
 21
216.0142407552759
 31
0.0
 70
   160
  1
5.4
 71
     5
 42
5.395038537056677
 53
-44.99999999999952
  3
DIMS0
100
AcDbAlignedDimension
 13
463.7153929158902
 23
200.4005245815747
 33
0.0
 14
459.9005245815747
 24
204.2153929158902
 34
0.0
 50
135.0
100
AcDbRotatedDimension
1001
ACAD
1000
DSTYLE
1002
{
1070
   271
1070
     2
1070
   279
1070
     2
1002
}
  0
LINE
  5
183
330
A
100
AcDbEntity
  8
1
  6
AUSGEZOGEN
 62
    14
100
AcDbLine
 10
258.0756868729821
 20
234.5000000000001
 30
0.0
 11
258.0756868729821
 21
214.5000000000001
 31
0.0
  0
LINE
  5
184
330
A
100
AcDbEntity
  8
1
  6
AUSGEZOGEN
 62
    14
100
AcDbLine
 10
260.0756868729821
 20
212.5000000000001
 30
0.0
 11
304.0756868729821
 21
212.5000000000001
 31
0.0
  0
LINE
  5
185
330
A
100
AcDbEntity
  8
1
  6
AUSGEZOGEN
 62
    14
100
AcDbLine
 10
306.0756868729821
 20
234.5000000000001
 30
0.0
 11
306.0756868729821
 21
214.5000000000001
 31
0.0
  0
LINE
  5
186
330
A
100
AcDbEntity
  8
1
  6
AUSGEZOGEN
 62
    14
100
AcDbLine
 10
260.0756868729821
 20
236.5000000000001
 30
0.0
 11
304.0756868729821
 21
236.5000000000001
 31
0.0
  0
LINE
  5
187
330
A
100
AcDbEntity
  8
1
  6
AUSGEZOGEN
 62
    14
100
AcDbLine
 10
258.0756868729821
 20
224.5
 30
0.0
 11
306.0756868729821
 21
224.5
 31
0.0
  0
LINE
  5
188
330
A
100
AcDbEntity
  8
1
  6
AUSGEZOGEN
 62
    14
100
AcDbLine
 10
280.4231022321894
 20
228.5000000000001
 30
0.0
 11
306.0756868729821
 21
228.5000000000001
 31
0.0
  0
LINE
  5
189
330
A
100
AcDbEntity
  8
1
  6
AUSGEZOGEN
 62
    14
100
AcDbLine
 10
280.4231022321894
 20
232.5000000000001
 30
0.0
 11
306.0756868729821
 21
232.5000000000001
 31
0.0
  0
LINE
  5
18A
330
A
100
AcDbEntity
  8
1
  6
AUSGEZOGEN
 62
    14
100
AcDbLine
 10
258.0756868729821
 20
220.5000000000001
 30
0.0
 11
306.0756868729821
 21
220.5000000000001
 31
0.0
  0
LINE
  5
18B
330
A
100
AcDbEntity
  8
1
  6
AUSGEZOGEN
 62
    14
100
AcDbLine
 10
258.0756868729821
 20
216.5000000000001
 30
0.0
 11
306.0756868729821
 21
216.5000000000001
 31
0.0
  0
LINE
  5
18C
330
A
100
AcDbEntity
  8
1
  6
AUSGEZOGEN
 62
    14
100
AcDbLine
 10
274.0756868729821
 20
224.5
 30
0.0
 11
274.0756868729821
 21
212.5000000000001
 31
0.0
  0
TEXT
  5
18D
330
A
100
AcDbEntity
  8
1
  6
AUSGEZOGEN
 62
    14
100
AcDbText
 10
272.594152865233
 20
213.5000000000001
 30
0.0
 40
2.0
  1
A
 41
0.4409722149372101
  7
ARIAL
100
AcDbText
  0
TEXT
  5
18E
330
A
100
AcDbEntity
  8
1
  6
AUSGEZOGEN
 62
    14
100
AcDbText
 10
271.227014006793
 20
221.5
 30
0.0
 40
2.0
  1
kW
 41
0.4409722149372101
  7
ARIAL
100
AcDbText
  0
LINE
  5
18F
330
A
100
AcDbEntity
  8
1
  6
AUSGEZOGEN
 62
    14
100
AcDbLine
 10
280.4231022321894
 20
236.5000000000001
 30
0.0
 11
280.4231022321894
 21
224.5
 31
0.0
  0
TEXT
  5
190
330
A
100
AcDbEntity
  8
1
  6
AUSGEZOGEN
 62
    14
100
AcDbText
 10
280.8602788011413
 20
225.5
 30
0.0
 40
2.0
  1
Id.-No.:
 41
0.4409722089767456
  7
ARIAL
100
AcDbText
  0
TEXT
  5
191
330
A
100
AcDbEntity
  8
1
  6
AUSGEZOGEN
 62
    14
100
AcDbText
 10
280.9411144663423
 20
233.5
 30
0.0
 40
2.0
  1
Ser.-No.:
 41
0.4409722089767456
  7
ARIAL
100
AcDbText
  0
TEXT
  5
192
330
A
100
AcDbEntity
  8
1
  6
AUSGEZOGEN
 62
    14
100
AcDbText
 10
280.86396516388
 20
229.5
 30
0.0
 40
2.0
  1
Typ: DSD
 41
0.4409722089767456
  7
ARIAL
100
AcDbText
  0
LINE
  5
193
330
A
100
AcDbEntity
  8
1
  6
AUSGEZOGEN
 62
    14
100
AcDbLine
 10
286.6796175088203
 20
224.5
 30
0.0
 11
286.6796175088203
 21
212.5000000000001
 31
0.0
  0
ARC
  5
194
330
A
100
AcDbEntity
  8
1
  6
AUSGEZOGEN
 62
    14
100
AcDbCircle
 10
304.0756868729821
 20
234.5000000000001
 30
0.0
 40
2.0
100
AcDbArc
 50
0.0
 51
90.0
  0
ARC
  5
195
330
A
100
AcDbEntity
  8
1
  6
AUSGEZOGEN
 62
    14
100
AcDbCircle
 10
260.0756868729821
 20
234.5000000000001
 30
0.0
 40
2.0
100
AcDbArc
 50
90.0
 51
180.0
  0
ARC
  5
196
330
A
100
AcDbEntity
  8
1
  6
AUSGEZOGEN
 62
    14
100
AcDbCircle
 10
260.0756868729821
 20
214.5000000000001
 30
0.0
 40
2.0
100
AcDbArc
 50
180.0
 51
270.0
  0
ARC
  5
197
330
A
100
AcDbEntity
  8
1
  6
AUSGEZOGEN
 62
    14
100
AcDbCircle
 10
304.0756868729821
 20
214.5000000000001
 30
0.0
 40
2.0
100
AcDbArc
 50
270.0
 51
0.0
  0
TEXT
  5
198
330
A
100
AcDbEntity
  8
1
  6
AUSGEZOGEN
 62
    14
100
AcDbText
 10
259.3256868729821
 20
221.5
 30
0.0
 40
2.0
  1
P=
 41
0.4409722089767456
  7
ARIAL
100
AcDbText
  0
TEXT
  5
199
330
A
100
AcDbEntity
  8
1
  6
AUSGEZOGEN
 62
    14
100
AcDbText
 10
259.3256868729821
 20
213.5000000000001
 30
0.0
 40
2.0
  1
Io=
 41
0.4409722089767456
  7
ARIAL
100
AcDbText
  0
TEXT
  5
19A
330
A
100
AcDbEntity
  8
1
  6
AUSGEZOGEN
 62
    14
100
AcDbText
 10
274.48961698035
 20
217.5
 30
0.0
 40
2.0
  1
U=
 41
0.4409722149372101
  7
ARIAL
100
AcDbText
  0
TEXT
  5
19B
330
A
100
AcDbEntity
  8
1
  6
AUSGEZOGEN
 62
    14
100
AcDbText
 10
297.0105680532781
 20
221.5
 30
0.0
 40
2.0
  1
Ins.-Cl. F
 41
0.4409722149372101
  7
ARIAL
100
AcDbText
  0
TEXT
  5
19C
330
A
100
AcDbEntity
  8
1
  6
AUSGEZOGEN
 62
    14
100
AcDbText
 10
287.3610403261055
 20
221.5
 30
0.0
 40
2.0
  1
VDE 0530
 41
0.4409722149372101
  7
ARIAL
100
AcDbText
  0
TEXT
  5
19D
330
A
100
AcDbEntity
  8
1
  6
AUSGEZOGEN
 62
    14
100
AcDbText
 10
280.9396796654942
 20
213.5000000000001
 30
0.0
 40
2.0
  1
S
 41
0.4409722149372101
  7
ARIAL
100
AcDbText
  0
LINE
  5
19E
330
A
100
AcDbEntity
  8
1
  6
AUSGEZOGEN
 62
    14
100
AcDbLine
 10
280.4231022321894
 20
216.5000000000001
 30
0.0
 11
280.4231022321894
 21
212.5000000000001
 31
0.0
  0
TEXT
  5
19F
330
A
100
AcDbEntity
  8
1
  6
AUSGEZOGEN
 62
    14
100
AcDbText
 10
274.5999011489404
 20
213.5000000000001
 30
0.0
 40
2.0
  1
IP
 41
0.4409722089767456
  7
ARIAL
100
AcDbText
  0
LINE
  5
1A0
330
A
100
AcDbEntity
  8
1
  6
AUSGEZOGEN
 62
    14
100
AcDbLine
 10
295.9729074330752
 20
224.5
 30
0.0
 11
295.9729074330752
 21
220.5000000000001
 31
0.0
  0
TEXT
  5
1A1
330
A
100
AcDbEntity
  8
1
  6
AUSGEZOGEN
 62
    14
100
AcDbText
 10
259.0246412743719
 20
217.5
 30
0.0
 40
2.0
  1
Mo=
 41
0.4409722149372101
  7
ARIAL
100
AcDbText
  0
TEXT
  5
1A2
330
A
100
AcDbEntity
  8
1
  6
AUSGEZOGEN
 62
    14
100
AcDbText
 10
271.1907073827981
 20
217.5
 30
0.0
 40
2.0
  1
Nm
 41
0.4409722149372101
  7
ARIAL
100
AcDbText
  0
TEXT
  5
1A3
330
A
100
AcDbEntity
  8
1
  6
AUSGEZOGEN
 62
    14
100
AcDbText
 10
274.5261327882821
 20
221.5
 30
0.0
 40
2.0
  1
n=
 41
0.4409722089767456
  7
ARIAL
100
AcDbText
  0
TEXT
  5
1A4
330
A
100
AcDbEntity
  8
1
  6
AUSGEZOGEN
 62
    14
100
AcDbText
 10
282.2813008872217
 20
221.5
 30
0.0
 40
2.0
  1
min
 41
0.4409722149372101
  7
ARIAL
100
AcDbText
  0
TEXT
  5
1A5
330
A
100
AcDbEntity
  8
1
  6
AUSGEZOGEN
 62
    14
100
AcDbText
 10
284.9968326068228
 20
222.6752749988179
 30
0.0
 40
1.222940870908461
  1
-1
 41
0.5312124813462212
  7
ARIAL
100
AcDbText
  0
TEXT
  5
1A6
330
A
100
AcDbEntity
  8
1
  6
AUSGEZOGEN
 62
    14
100
AcDbText
 10
282.6305313965626
 20
217.5
 30
0.0
 40
2.0
  1
VDC
 41
0.4409722149372101
  7
ARIAL
100
AcDbText
  0
DIMENSION
  5
1A7
330
A
100
AcDbEntity
  8
1
  6
AUSGEZOGEN
 62
    54
100
AcDbDimension
  2
*D35
 10
405.7166852330779
 20
172.7368509414592
 30
0.0
 11
398.1593789704488
 21
176.004933068255
 31
0.0
 70
   160
  1
14.5
 71
     5
 42
14.49999999999988
  3
DIMS0
100
AcDbAlignedDimension
 13
391.2166852330781
 23
197.9999999999998
 33
0.0
 14
405.7166852330779
 24
261.5500000000003
 34
0.0
100
AcDbRotatedDimension
1001
ACAD
1000
DSTYLE
1002
{
1070
   271
1070
     2
1070
   279
1070
     2
1002
}
  0
LINE
  5
1A8
330
A
100
AcDbEntity
  8
1
  6
AUSGEZOGEN
 62
    14
100
AcDbLine
 10
242.9666852330782
 20
230.1999999999999
 30
0.0
 11
242.9666852330782
 21
229.0000000000001
 31
0.0
  0
LINE
  5
1A9
330
A
100
AcDbEntity
  8
1
  6
AUSGEZOGEN
 62
    14
100
AcDbLine
 10
228.9666852330782
 20
229.0000000000001
 30
0.0
 11
228.9666852330782
 21
230.1999999999999
 31
0.0
  0
LINE
  5
1AA
330
A
100
AcDbEntity
  8
1
  6
AUSGEZOGEN
 62
    14
100
AcDbLine
 10
228.9666852330782
 20
230.1999999999999
 30
0.0
 11
242.9666852330782
 21
230.1999999999999
 31
0.0
  0
DIMENSION
  5
1AB
330
A
100
AcDbEntity
  8
1
  6
AUSGEZOGEN
 62
    54
100
AcDbDimension
  2
*D36
 10
228.9666852330782
 20
237.7234718586179
 30
0.0
 11
218.7327110189166
 21
240.4396719992667
 31
0.0
 70
   160
  1
3
 71
     5
 42
3.0
  3
DIMS0
100
AcDbAlignedDimension
 13
225.9666852330782
 23
228.5000000000001
 33
0.0
 14
228.9666852330782
 24
230.1999999999999
 34
0.0
100
AcDbRotatedDimension
1001
ACAD
1000
DSTYLE
1002
{
1070
   271
1070
     0
1070
   279
1070
     2
1002
}
  0
DIMENSION
  5
1AC
330
A
100
AcDbEntity
  8
1
  6
AUSGEZOGEN
 62
    54
100
AcDbDimension
  2
*D37
 10
242.9666852330782
 20
237.7051780920102
 30
0.0
 11
235.5878155867312
 21
240.4396719992667
 31
0.0
 70
   160
  1
14
 71
     5
 42
14.0
  3
DIMS0
100
AcDbAlignedDimension
 13
228.9666852330782
 23
230.1999999999999
 33
0.0
 14
242.9666852330782
 24
230.1999999999999
 34
0.0
100
AcDbRotatedDimension
1001
ACAD
1000
DSTYLE
1002
{
1070
   271
1070
     2
1070
   279
1070
     2
1002
}
  0
LINE
  5
1AD
330
A
100
AcDbEntity
  8
1
  6
AUSGEZOGEN
 62
    14
100
AcDbLine
 10
485.5
 20
230.1999999999999
 30
0.0
 11
482.5
 21
230.1999999999999
 31
0.0
  0
LINE
  5
1AE
330
A
100
AcDbEntity
  8
1
  6
AUSGEZOGEN
 62
    14
100
AcDbLine
 10
482.5
 20
228.7426406871193
 30
0.0
 11
482.5
 21
230.1999999999999
 31
0.0
  0
LINE
  5
1AF
330
A
100
AcDbEntity
  8
1
  6
AUSGEZOGEN
 62
    14
100
AcDbLine
 10
485.5
 20
228.7426406871193
 30
0.0
 11
485.5
 21
230.1999999999999
 31
0.0
  0
DIMENSION
  5
1B0
330
A
100
AcDbEntity
  8
5
  6
AUSGEZOGEN
 62
    54
100
AcDbDimension
  2
*D38
 10
485.5
 20
232.0943983594202
 30
0.0
 11
490.7103058990519
 21
234.996151597855
 31
0.0
 70
   160
  1
3
 71
     5
 42
3.0
  3
DIMS0
100
AcDbAlignedDimension
 13
482.5
 23
230.1999999999999
 33
0.0
 14
485.5
 24
230.1999999999999
 34
0.0
100
AcDbRotatedDimension
1001
ACAD
1000
DSTYLE
1002
{
1070
   271
1070
     2
1070
   279
1070
     2
1002
}
  0
CIRCLE
  5
1B1
330
A
100
AcDbEntity
  8
0
  6
ByBlock
 62
     0
100
AcDbCircle
 10
323.9415047047389
 20
245.0595900723777
 30
0.0
 40
0.5
  0
POLYLINE
  5
1B2
330
A
100
AcDbEntity
  8
1
  6
AUSGEZOGEN
 62
     9
100
AcDb2dPolyline
 66
     1
 10
0.0
 20
0.0
 30
0.0
  0
VERTEX
  5
1B3
330
1B2
100
AcDbEntity
  8
1
  6
AUSGEZOGEN
 62
     9
100
AcDbVertex
100
AcDb2dVertex
 10
323.9415047047389
 20
245.0595900723777
 30
0.0
  0
VERTEX
  5
1B4
330
1B2
100
AcDbEntity
  8
1
  6
AUSGEZOGEN
 62
     9
100
AcDbVertex
100
AcDb2dVertex
 10
294.838406777808
 20
290.392003742723
 30
0.0
  0
VERTEX
  5
1B5
330
1B2
100
AcDbEntity
  8
1
  6
AUSGEZOGEN
 62
     9
100
AcDbVertex
100
AcDb2dVertex
 10
279.5664841032798
 20
290.392003742723
 30
0.0
  0
SEQEND
  5
1B6
330
1B2
100
AcDbEntity
  8
1
  6
AUSGEZOGEN
 62
     9
  0
TEXT
  5
1B7
330
A
100
AcDbEntity
  8
1
  6
AUSGEZOGEN
 62
    94
100
AcDbText
 10
279.5664841032798
 20
291.8920037427231
 30
0.0
 40
5.0
  1
IP 65
 41
0.6800000190734864
100
AcDbText
  0
DIMENSION
  5
1B8
330
A
100
AcDbEntity
  8
1
  6
AUSGEZOGEN
 62
    54
100
AcDbDimension
  2
*D39
 10
475.3650382316798
 20
230.1999999999999
 30
0.0
 11
475.3237051364226
 21
225.315377422635
 31
0.0
 70
   160
  1
10.2
 71
     5
 42
10.19999999999993
 53
90.0
  3
DIMS0
100
AcDbAlignedDimension
 13
484.0
 23
220.0
 33
0.0
 14
485.5
 24
230.1999999999999
 34
0.0
 50
90.0
100
AcDbRotatedDimension
1001
ACAD
1000
DSTYLE
1002
{
1070
   271
1070
     2
1070
   279
1070
     2
1002
}
  0
INSERT
  5
584
330
A
100
AcDbEntity
  8
0
  6
Continuous
370
     0
100
AcDbBlockReference
 66
     1
  2
METRIC_C
 10
0.0
 20
0.0
 30
0.0
  0
ATTRIB
  5
586
330
584
100
AcDbEntity
  8
TITLE BLOCK
  6
Continuous
100
AcDbText
 10
442.5949999999999
 20
41.63140361642906
 30
0.0
 40
2.566953004259999
  1
G.MUMM
  7
STANDARD
100
AcDbAttribute
  2
GEN-TITLE-NAME{5}
 70
     0
  0
ATTRIB
  5
587
330
584
100
AcDbEntity
  8
TITLE BLOCK
  6
Continuous
100
AcDbText
 10
442.5949999999999
 20
35.28140361642906
 30
0.0
 40
2.566953004259999
  1

  7
STANDARD
100
AcDbAttribute
  2
GEN-TITLE-CHKM{5}
 70
     0
  0
ATTRIB
  5
588
330
584
100
AcDbEntity
  8
TITLE BLOCK
  6
Continuous
100
AcDbText
 10
442.5949999999999
 20
28.93140361642906
 30
0.0
 40
2.566953004259999
  1

  7
STANDARD
100
AcDbAttribute
  2
GEN-TITLE-APPM{5}
 70
     0
  0
ATTRIB
  5
589
330
584
100
AcDbEntity
  8
TITLE BLOCK
  6
Continuous
100
AcDbText
 10
399.5328167271718
 20
15.32015091637034
 30
0.0
 40
4.059999999999999
  1
SERVO MOTOR, LSM63
 41
0.8
  7
STANDARD
100
AcDbAttribute
  2
GEN-TITLE-DES1{15.54}
 70
     0
  0
ATTRIB
  5
58A
330
584
100
AcDbEntity
  8
TITLE BLOCK
  6
Continuous
100
AcDbText
 10
530.8599999999999
 20
28.93140361642906
 30
0.0
 40
2.999484585477809
  1
1
 41
0.8
  7
STANDARD
100
AcDbAttribute
  2
GEN-TITLE-SHEET-OF{2.62}
 70
     0
  0
ATTRIB
  5
58B
330
584
100
AcDbEntity
  8
TITLE BLOCK
  6
Continuous
100
AcDbText
 10
520.6999999999999
 20
28.93140361642906
 30
0.0
 40
2.999484585477809
  1
1
 41
0.8
  7
STANDARD
100
AcDbAttribute
  2
GEN-TITLE-SHEET{2.62}
 70
     0
  0
ATTRIB
  5
58C
330
584
100
AcDbEntity
  8
TITLE BLOCK
  6
Continuous
100
AcDbText
 10
481.3299999999999
 20
28.93140361642906
 30
0.0
 40
2.566953004259999
  1

 41
0.8
  7
STANDARD
100
AcDbAttribute
  2
GEN-TITLE-MAT{11.15}
 70
     0
  0
ATTRIB
  5
58D
330
584
100
AcDbEntity
  8
TITLE BLOCK
  6
Continuous
100
AcDbText
 10
481.3299999999999
 20
35.28140361642906
 30
0.0
 40
2.566953004259999
  1

  7
STANDARD
100
AcDbAttribute
  2
GEN-TITLE-MACH{5}
 70
     0
  0
ATTRIB
  5
58E
330
584
100
AcDbEntity
  8
TITLE BLOCK
  6
Continuous
100
AcDbText
 10
481.3299999999999
 20
41.63140361642906
 30
0.0
 40
2.566953004259999
  1
M0280007A
  7
STANDARD
100
AcDbAttribute
  2
GEN-TITLE-REF{5}
 70
     0
  0
ATTRIB
  5
58F
330
584
100
AcDbEntity
  8
TITLE BLOCK
  6
Continuous
100
AcDbText
 10
518.7949999999998
 20
35.28140361642906
 30
0.0
 40
2.566953004259999
  1
10.01.03
  7
STANDARD
100
AcDbAttribute
  2
GEN-TITLE-PLOT{5}
 70
     0
  0
ATTRIB
  5
590
330
584
100
AcDbEntity
  8
TITLE BLOCK
  6
Continuous
100
AcDbText
 10
474.6631418566855
 20
15.59640361642906
 30
0.0
 40
4.059999999999999
  1
LSM63-xx-602-E1-xKA
 41
0.8
  7
STANDARD
100
AcDbAttribute
  2
GEN-TITLE-NR{13.37}
 70
     0
  0
SEQEND
  5
585
330
584
100
AcDbEntity
  8
0
  6
Continuous
370
     0
  0
LINE
  5
649
330
A
100
AcDbEntity
  8
0
  6
Continuous
 62
     1
370
     0
100
AcDbLine
 10
182.0
 20
233.0
 30
0.0
 11
160.0
 21
233.0
 31
0.0
  0
LINE
  5
64A
330
A
100
AcDbEntity
  8
0
  6
Continuous
 62
     1
370
     0
100
AcDbLine
 10
160.0
 20
233.0
 30
0.0
 11
160.0
 21
215.0
 31
0.0
  0
LINE
  5
64B
330
A
100
AcDbEntity
  8
0
  6
Continuous
 62
     1
370
     0
100
AcDbLine
 10
160.0
 20
215.0
 30
0.0
 11
182.0
 21
215.0
 31
0.0
  0
LINE
  5
64C
330
A
100
AcDbEntity
  8
0
  6
Continuous
 62
     1
370
     0
100
AcDbLine
 10
182.0
 20
215.0
 30
0.0
 11
182.0
 21
233.0
 31
0.0
  0
LINE
  5
64D
330
A
100
AcDbEntity
  8
0
  6
Continuous
 62
     1
370
     0
100
AcDbLine
 10
171.0
 20
233.0
 30
0.0
 11
171.0
 21
215.0
 31
0.0
  0
LINE
  5
64E
330
A
100
AcDbEntity
  8
0
  6
Continuous
 62
     1
370
     0
100
AcDbLine
 10
160.0
 20
224.0
 30
0.0
 11
182.0
 21
224.0
 31
0.0
  0
LINE
  5
7F1
330
A
100
AcDbEntity
  8
0
  6
Continuous
 62
     1
370
     0
100
AcDbLine
 10
281.0
 20
159.0
 30
0.0
 11
372.0
 21
159.0
 31
0.0
  0
LINE
  5
7F2
330
A
100
AcDbEntity
  8
0
  6
Continuous
 62
     1
370
     0
100
AcDbLine
 10
372.0
 20
159.0
 30
0.0
 11
372.0
 21
133.0
 31
0.0
  0
LINE
  5
7F3
330
A
100
AcDbEntity
  8
0
  6
Continuous
 62
     1
370
     0
100
AcDbLine
 10
372.0
 20
133.0
 30
0.0
 11
281.0
 21
133.0
 31
0.0
  0
LINE
  5
7F4
330
A
100
AcDbEntity
  8
0
  6
Continuous
 62
     1
370
     0
100
AcDbLine
 10
281.0
 20
133.0
 30
0.0
 11
281.0
 21
159.0
 31
0.0
  0
LINE
  5
7F5
330
A
100
AcDbEntity
  8
0
  6
Continuous
 62
     1
370
     0
100
AcDbLine
 10
281.0
 20
151.0
 30
0.0
 11
372.0
 21
151.0
 31
0.0
  0
LINE
  5
7F6
330
A
100
AcDbEntity
  8
0
  6
Continuous
 62
     1
370
     0
100
AcDbLine
 10
281.0
 20
142.0
 30
0.0
 11
372.0
 21
142.0
 31
0.0
  0
LINE
  5
7F7
330
A
100
AcDbEntity
  8
0
  6
Continuous
 62
     1
370
     0
100
AcDbLine
 10
344.0
 20
159.0
 30
0.0
 11
344.0
 21
133.0
 31
0.0
  0
LINE
  5
7F8
330
A
100
AcDbEntity
  8
0
  6
Continuous
 62
     1
370
     0
100
AcDbLine
 10
358.0
 20
159.0
 30
0.0
 11
358.0
 21
133.0
 31
0.0
  0
ENDSEC
  0
SECTION
  2
OBJECTS
  0
DICTIONARY
  5
19
330
0
100
AcDbDictionary
281
     1
  3
ACAD_GROUP
350
1A
  3
ACAD_LAYOUT
350
1E
  3
ACAD_MLINESTYLE
350
1B
  3
ACAD_PLOTSETTINGS
350
22
  3
ACAD_PLOTSTYLENAME
350
1F
  3
ACAD_WIPEOUT_VARS
350
23
  3
AcDbVariableDictionary
350
422
  3
AcmDictionary
350
435
  3
AMG
350
419
  3
AMGSNAPSETTINGS
350
46A
  3
ASE_INDEX_DICTIONARY
350
638
  3
DWGPROPS
350
820
  0
DICTIONARY
  5
63B
330
A
100
AcDbDictionary
280
     1
281
     1
  3
ACAD_INDEX
360
63C
  0
DICTIONARY
  5
1A
102
{ACAD_REACTORS
330
19
102
}
330
19
100
AcDbDictionary
281
     1
  0
DICTIONARY
  5
1E
102
{ACAD_REACTORS
330
19
102
}
330
19
100
AcDbDictionary
281
     1
  3
Layout1
350
21
  3
Model
350
20
  0
DICTIONARY
  5
1B
102
{ACAD_REACTORS
330
19
102
}
330
19
100
AcDbDictionary
281
     1
  3
Standard
350
1C
  0
DICTIONARY
  5
22
102
{ACAD_REACTORS
330
19
102
}
330
19
100
AcDbDictionary
281
     1
  0
ACDBDICTIONARYWDFLT
  5
1F
102
{ACAD_REACTORS
330
19
102
}
330
19
100
AcDbDictionary
281
     1
  3
Normal
350
1D
100
AcDbDictionaryWithDefault
340
1D
  0
ACAD_PROXY_OBJECT
  5
23
330
19
100
AcDbProxyObject
 90
      499
 91
      521
 95
   655383
 70
     0
 93
       10
310
4041
 94
        0
  0
DICTIONARY
  5
422
102
{ACAD_REACTORS
330
19
102
}
330
19
100
AcDbDictionary
281
     1
  3
INDEXCTL
350
423
  0
DICTIONARY
  5
435
102
{ACAD_REACTORS
330
19
102
}
330
19
100
AcDbDictionary
281
     1
  3
AcmBOMDATA
350
436
  3
AcmStdDictionary
350
43B
  0
DICTIONARY
  5
419
102
{ACAD_REACTORS
330
19
102
}
330
19
100
AcDbDictionary
281
     1
  3
AcMgSettings
350
41A
  3
AMGLAYCFG
350
43D
  0
DICTIONARY
  5
46A
102
{ACAD_REACTORS
330
19
102
}
330
19
100
AcDbDictionary
281
     1
  3
DIMENSION
350
46F
  3
FEA
350
46E
  3
HATCH (1)
350
46B
  3
HATCH (2)
350
46C
  3
SIMPLE WELD
350
470
  3
SYMBOLS
350
46D
  0
DICTIONARY
  5
638
102
{ACAD_REACTORS
330
19
102
}
330
19
100
AcDbDictionary
281
     1
  3
ASEBlockHierarchyIndexRecord
350
63A
1001
DCO15
1040
1456122392.244999
  0
XRECORD
  5
820
102
{ACAD_REACTORS
330
19
102
}
330
19
100
AcDbXrecord
280
     1
  1
DWGPROPS COOKIE
  2

  3

  4

  6

  7

  8

  9

300
AmdtFileType=84
301
=
302
=
303
=
304
=
305
=
306
=
307
=
308
=
309
=
 40
0.020566724537037
 41
2452650.393495034
 42
2452650.5444839
  1

 90
        1
  0
DICTIONARY
  5
63C
102
{ACAD_REACTORS
330
63B
102
}
330
63B
100
AcDbDictionary
281
     1
  3
*A1
350
63D
  0
LAYOUT
  5
21
102
{ACAD_REACTORS
330
1E
102
}
330
1E
100
AcDbPlotSettings
  1

  2

  4

  6

 40
0.0
 41
0.0
 42
0.0
 43
0.0
 44
0.0
 45
0.0
 46
0.0
 47
0.0
 48
0.0
 49
0.0
140
0.0
141
0.0
142
1.0
143
1.0
 70
     0
 72
     0
 73
     0
 74
     0
  7
monochrome.ctb
 75
     0
147
1.0
148
0.0
149
0.0
100
AcDbLayout
  1
Layout1
 70
     0
 71
     1
 10
0.0
 20
0.0
 11
12.0
 21
9.0
 12
0.0
 22
0.0
 32
0.0
 14
1.000000000000000E+20
 24
1.000000000000000E+20
 34
1.000000000000000E+20
 15
-1.000000000000000E+20
 25
-1.000000000000000E+20
 35
-1.000000000000000E+20
146
0.0
 13
0.0
 23
0.0
 33
0.0
 16
1.0
 26
0.0
 36
0.0
 17
0.0
 27
1.0
 37
0.0
 76
     0
330
B
  0
LAYOUT
  5
20
102
{ACAD_REACTORS
330
1E
102
}
330
1E
100
AcDbPlotSettings
  1

  2
\\Fdlfs06\Engineering - HP LaserJet 5Si MX
  4
Letter
  6

 40
7.143749713897705
 41
6.974400997161865
 42
7.14373779296875
 43
6.297088623046875
 44
215.8999938964843
 45
279.3999938964843
 46
0.0
 47
0.762
 48
0.0
 49
0.0
140
0.0
141
0.0
142
1.0
143
53.62124457539397
 70
 11444
 72
     0
 73
     1
 74
     1
  7
monochrome.ctb
 75
     0
147
0.0186493246831292
148
2.487748120720789
149
-5.258734850780683
100
AcDbLayout
  1
Model
 70
     0
 71
     0
 10
0.0
 20
0.0
 11
0.0
 21
0.0
 12
0.0
 22
0.0
 32
0.0
 14
0.0
 24
0.0
 34
0.0
 15
0.0
 25
0.0
 35
0.0
146
0.0
 13
0.0
 23
0.0
 33
0.0
 16
0.0
 26
0.0
 36
0.0
 17
0.0
 27
0.0
 37
0.0
 76
     0
330
A
  0
MLINESTYLE
  5
1C
102
{ACAD_REACTORS
330
1B
102
}
330
1B
100
AcDbMlineStyle
  2
STANDARD
 70
     0
  3

 62
     0
 51
90.0
 52
90.0
 71
     2
 49
0.5
 62
   256
  6
BYLAYER
 49
-0.5
 62
   256
  6
BYLAYER
  0
ACDBPLACEHOLDER
  5
1D
102
{ACAD_REACTORS
330
1F
102
}
330
1F
  0
DICTIONARYVAR
  5
423
102
{ACAD_REACTORS
330
422
102
}
330
422
100
DictionaryVariables
280
     0
  1
1
  0
ACMDATADICTIONARY
  5
436
102
{ACAD_REACTORS
330
435
102
}
330
435
100
AcDbDictionary
281
     1
  3
*A1
350
437
100
AcmDataDictionary
  0
DICTIONARY
  5
43B
102
{ACAD_REACTORS
330
435
102
}
330
435
100
AcDbDictionary
281
     1
  3
ANSI
350
43C
  0
DICTIONARY
  5
41A
102
{ACAD_REACTORS
330
419
102
}
330
419
100
AcDbDictionary
281
     1
  3
DWGSETTINGS
350
41B
  3
TRANSSETTINGS
350
41C
  0
ACAMGFILTERDAT
  5
46F
102
{ACAD_REACTORS
330
46A
102
}
330
46A
100
AcAmgFilterDat
 70
    15
  1
DIMENSION,AMDT_*_DIM
  2
*
  3
*
  4
*
  5
*
290
     1
  0
ACAMGFILTERDAT
  5
46E
102
{ACAD_REACTORS
330
46A
102
}
330
46A
100
AcAmgFilterDat
 70
    15
  1
*
  2
AM_FEA-AM_*
  3
*
  4
*
  5
*
290
     1
  0
ACAMGFILTERDAT
  5
46B
102
{ACAD_REACTORS
330
46A
102
}
330
46A
100
AcAmgFilterDat
 70
    15
  1
HATCH
  2
*
  3
*
  4
*
  5
*
290
     1
  0
ACAMGFILTERDAT
  5
46C
102
{ACAD_REACTORS
330
46A
102
}
330
46A
100
AcAmgFilterDat
 70
    15
  1
LINE
  2
8,8N,*-8,*-8N,AM_8,AM_8N,*-AM_8,*-AM_8N
  3
*
  4
*
  5
INSERT,STDPART2D
290
     1
  0
ACAMGFILTERDAT
  5
470
102
{ACAD_REACTORS
330
46A
102
}
330
46A
100
AcAmgFilterDat
 70
    15
  1
ARC
  2
AM_5
  3
*
  4
2
  5
INSERT
290
     0
  0
ACAMGFILTERDAT
  5
46D
102
{ACAD_REACTORS
330
46A
102
}
330
46A
100
AcAmgFilterDat
 70
    15
  1
ACMFCFRAME,ACMDATUMTARGET,ACMDATUMID,ACMWELDSYM,ACMSURFSYM,ACMFEATID,ACMPARTREF,ACMBALLOON,AMDTEDGESYM
  2
*
  3
*
  4
*
  5
*
290
     1
  0
XRECORD
  5
63A
102
{ACAD_REACTORS
330
638
102
}
330
638
100
AcDbXrecord
280
     1
330
584
330
5B
330
5C
330
5D
330
5E
330
5F
330
60
330
61
330
62
330
63
330
64
330
65
330
66
330
67
330
68
330
69
330
6A
330
6B
330
6C
330
6D
330
6E
  0
LAYER_INDEX
  5
63D
102
{ACAD_REACTORS
330
63C
102
}
330
63C
100
AcDbIndex
 40
2452656.480280613
100
AcDbLayerIndex
  8
0
360
63E
 90
       33
  8
1
360
63F
 90
      222
  8
2
360
640
 90
        0
  8
3
360
641
 90
       35
  8
4
360
642
 90
        6
  8
5
360
643
 90
       44
  8
10
360
644
 90
        0
  8
Defpoints
360
645
 90
        0
  8
BORDER
360
646
 90
        0
  8
TITLE BLOCK
360
647
 90
        0
  0
ACMDATAENTRYBLOCK
  5
437
102
{ACAD_REACTORS
330
436
102
}
330
436
100
AcmDataEntry
100
AcmDataEntryBlock
  0
IDBUFFER
  5
63E
330
0
100
AcDbIdBuffer
330
7F1
330
7F2
330
7F3
330
7F4
330
7F5
330
7F6
330
7F7
330
7F8
330
649
330
64A
330
64B
330
64C
330
64D
330
64E
330
5D
330
5E
330
5F
330
60
330
61
330
62
330
63
330
64
330
65
330
66
330
67
330
68
330
69
330
163
330
164
330
16B
330
16C
330
1B1
330
584
  0
IDBUFFER
  5
63F
330
0
100
AcDbIdBuffer
330
5B
330
5C
330
6A
330
6B
330
6C
330
6D
330
6E
330
78
330
79
330
7A
330
7B
330
7C
330
7D
330
7E
330
7F
330
80
330
81
330
82
330
83
330
84
330
85
330
86
330
87
330
88
330
89
330
8A
330
8B
330
8C
330
8D
330
8E
330
8F
330
91
330
96
330
97
330
98
330
9A
330
9C
330
9D
330
9E
330
A5
330
A6
330
A7
330
A8
330
A9
330
AA
330
AD
330
AE
330
AF
330
B0
330
B1
330
B2
330
B3
330
B4
330
B6
330
B7
330
B8
330
B9
330
BA
330
BB
330
BC
330
BD
330
BE
330
BF
330
C0
330
C1
330
C2
330
C3
330
C4
330
C5
330
C6
330
C7
330
C8
330
C9
330
CA
330
CB
330
CC
330
CD
330
CE
330
CF
330
D0
330
D1
330
D2
330
D3
330
D4
330
D5
330
D6
330
D7
330
D8
330
D9
330
DA
330
DB
330
DD
330
DF
330
E5
330
EC
330
ED
330
EE
330
EF
330
F6
330
F7
330
F8
330
FF
330
102
330
103
330
104
330
105
330
106
330
107
330
109
330
10A
330
10B
330
10C
330
10D
330
10E
330
10F
330
110
330
111
330
112
330
113
330
114
330
115
330
116
330
117
330
118
330
119
330
11A
330
11B
330
11C
330
11D
330
11E
330
11F
330
120
330
121
330
122
330
123
330
124
330
125
330
126
330
12B
330
12C
330
12D
330
12E
330
12F
330
130
330
131
330
132
330
133
330
134
330
135
330
136
330
138
330
139
330
13A
330
13C
330
142
330
145
330
146
330
147
330
148
330
14F
330
150
330
151
330
154
330
155
330
15B
330
15C
330
161
330
173
330
174
330
1B8
330
1B7
330
1B2
330
1AF
330
1AE
330
1AD
330
17B
330
17C
330
17D
330
1AC
330
1AB
330
181
330
182
330
183
330
184
330
185
330
186
330
187
330
188
330
189
330
18A
330
18B
330
18C
330
18D
330
18E
330
18F
330
190
330
191
330
192
330
193
330
194
330
195
330
196
330
197
330
198
330
199
330
19A
330
19B
330
19C
330
19D
330
19E
330
19F
330
1A0
330
1A1
330
1A2
330
1A3
330
1A4
330
1A5
330
1A6
330
1A7
330
1A8
330
1A9
330
1AA
  0
IDBUFFER
  5
640
330
0
100
AcDbIdBuffer
  0
IDBUFFER
  5
641
330
0
100
AcDbIdBuffer
330
77
330
90
330
9F
330
A2
330
AB
330
AC
330
B5
330
DC
330
DE
330
E3
330
E4
330
F0
330
F4
330
F5
330
100
330
127
330
128
330
129
330
12A
330
137
330
13B
330
140
330
141
330
149
330
14D
330
14E
330
156
330
157
330
158
330
159
330
15A
330
15D
330
15E
330
15F
330
160
  0
IDBUFFER
  5
642
330
0
100
AcDbIdBuffer
330
A0
330
A1
330
A3
330
A4
330
16A
330
172
  0
IDBUFFER
  5
643
330
0
100
AcDbIdBuffer
330
6F
330
70
330
71
330
72
330
74
330
76
330
92
330
93
330
94
330
95
330
99
330
9B
330
E0
330
E1
330
E2
330
E6
330
E7
330
E8
330
E9
330
EA
330
EB
330
F1
330
F2
330
F3
330
F9
330
FA
330
FB
330
FC
330
FD
330
FE
330
101
330
108
330
13D
330
13E
330
13F
330
143
330
144
330
14A
330
14B
330
14C
330
152
330
153
330
162
330
1B0
  0
IDBUFFER
  5
644
330
0
100
AcDbIdBuffer
  0
IDBUFFER
  5
645
330
0
100
AcDbIdBuffer
  0
IDBUFFER
  5
646
330
0
100
AcDbIdBuffer
  0
IDBUFFER
  5
647
330
0
100
AcDbIdBuffer
  0
ENDSEC
  0
EOF
