  0
SECTION
  2
HEADER
  9
$ACADVER
  1
AC1015
  9
$ACADMAINTVER
 70
    10
  9
$DWGCODEPAGE
  3
ANSI_1252
  9
$INSBASE
 10
0.0
 20
0.0
 30
0.0
  9
$EXTMIN
 10
-0.0431420126940338
 20
0.238920529092411
 30
-0.0015258207003583
  9
$EXTMAX
 10
558.8213690365068
 20
425.8263717103388
 30
0.0000000349246037
  9
$LIMMIN
 10
-141.3671689333009
 20
-228.4581804337902
  9
$LIMMAX
 10
452.6328310666991
 20
191.5418195662097
  9
$ORTHOMODE
 70
     0
  9
$REGENMODE
 70
     1
  9
$FILLMODE
 70
     1
  9
$QTEXTMODE
 70
     0
  9
$MIRRTEXT
 70
     1
  9
$LTSCALE
 40
5.0
  9
$ATTMODE
 70
     1
  9
$TEXTSIZE
 40
3.5
  9
$TRACEWID
 40
0.05
  9
$TEXTSTYLE
  7
TXT
  9
$CLAYER
  8
0
  9
$CELTYPE
  6
Continuous
  9
$CECOLOR
 62
   256
  9
$CELTSCALE
 40
1.0
  9
$DISPSILH
 70
     0
  9
$DIMSCALE
 40
1.0
  9
$DIMASZ
 40
3.5
  9
$DIMEXO
 40
0.0625
  9
$DIMDLI
 40
0.38
  9
$DIMRND
 40
0.0
  9
$DIMDLE
 40
0.0
  9
$DIMEXE
 40
0.18
  9
$DIMTP
 40
0.0
  9
$DIMTM
 40
0.0
  9
$DIMTXT
 40
3.5
  9
$DIMCEN
 40
0.09
  9
$DIMTSZ
 40
0.0
  9
$DIMTOL
 70
     0
  9
$DIMLIM
 70
     0
  9
$DIMTIH
 70
     1
  9
$DIMTOH
 70
     1
  9
$DIMSE1
 70
     0
  9
$DIMSE2
 70
     0
  9
$DIMTAD
 70
     0
  9
$DIMZIN
 70
     0
  9
$DIMBLK
  1

  9
$DIMASO
 70
     1
  9
$DIMSHO
 70
     1
  9
$DIMPOST
  1

  9
$DIMAPOST
  1

  9
$DIMALT
 70
     0
  9
$DIMALTD
 70
     2
  9
$DIMALTF
 40
25.4
  9
$DIMLFAC
 40
1.0
  9
$DIMTOFL
 70
     0
  9
$DIMTVP
 40
0.0
  9
$DIMTIX
 70
     0
  9
$DIMSOXD
 70
     0
  9
$DIMSAH
 70
     0
  9
$DIMBLK1
  1

  9
$DIMBLK2
  1

  9
$DIMSTYLE
  2
Standard
  9
$DIMCLRD
 70
     0
  9
$DIMCLRE
 70
     0
  9
$DIMCLRT
 70
     0
  9
$DIMTFAC
 40
1.0
  9
$DIMGAP
 40
0.09
  9
$DIMJUST
 70
     0
  9
$DIMSD1
 70
     0
  9
$DIMSD2
 70
     0
  9
$DIMTOLJ
 70
     1
  9
$DIMTZIN
 70
     0
  9
$DIMALTZ
 70
     0
  9
$DIMALTTZ
 70
     0
  9
$DIMUPT
 70
     0
  9
$DIMDEC
 70
     4
  9
$DIMTDEC
 70
     4
  9
$DIMALTU
 70
     2
  9
$DIMALTTD
 70
     2
  9
$DIMTXSTY
  7
TXT
  9
$DIMAUNIT
 70
     0
  9
$DIMADEC
 70
     0
  9
$DIMALTRND
 40
0.0
  9
$DIMAZIN
 70
     0
  9
$DIMDSEP
 70
     0
  9
$DIMATFIT
 70
     3
  9
$DIMFRAC
 70
     0
  9
$DIMLDRBLK
  1

  9
$DIMLUNIT
 70
     2
  9
$DIMLWD
 70
     0
  9
$DIMLWE
 70
     0
  9
$DIMTMOVE
 70
     0
  9
$LUNITS
 70
     2
  9
$LUPREC
 70
     2
  9
$SKETCHINC
 40
0.1
  9
$FILLETRAD
 40
0.0
  9
$AUNITS
 70
     0
  9
$AUPREC
 70
     2
  9
$MENU
  1
acad
  9
$ELEVATION
 40
0.0
  9
$PELEVATION
 40
0.0
  9
$THICKNESS
 40
0.0
  9
$LIMCHECK
 70
     0
  9
$CHAMFERA
 40
0.0
  9
$CHAMFERB
 40
0.0
  9
$CHAMFERC
 40
0.0
  9
$CHAMFERD
 40
0.0
  9
$SKPOLY
 70
     0
  9
$TDCREATE
 40
2452614.370240694
  9
$TDUCREATE
 40
2452614.620240694
  9
$TDUPDATE
 40
2452656.482847037
  9
$TDUUPDATE
 40
2452656.732847037
  9
$TDINDWG
 40
0.0763462731
  9
$TDUSRTIMER
 40
0.0763462731
  9
$USRTIMER
 70
     1
  9
$ANGBASE
 50
0.0
  9
$ANGDIR
 70
     0
  9
$PDMODE
 70
     2
  9
$PDSIZE
 40
0.5
  9
$PLINEWID
 40
0.0
  9
$SPLFRAME
 70
     0
  9
$SPLINETYPE
 70
     6
  9
$SPLINESEGS
 70
     8
  9
$HANDSEED
  5
1018
  9
$SURFTAB1
 70
     6
  9
$SURFTAB2
 70
     6
  9
$SURFTYPE
 70
     6
  9
$SURFU
 70
     6
  9
$SURFV
 70
     6
  9
$UCSBASE
  2

  9
$UCSNAME
  2

  9
$UCSORG
 10
0.0
 20
0.0
 30
0.0
  9
$UCSXDIR
 10
1.0
 20
0.0
 30
0.0
  9
$UCSYDIR
 10
0.0
 20
1.0
 30
0.0
  9
$UCSORTHOREF
  2

  9
$UCSORTHOVIEW
 70
     0
  9
$UCSORGTOP
 10
0.0
 20
0.0
 30
0.0
  9
$UCSORGBOTTOM
 10
0.0
 20
0.0
 30
0.0
  9
$UCSORGLEFT
 10
0.0
 20
0.0
 30
0.0
  9
$UCSORGRIGHT
 10
0.0
 20
0.0
 30
0.0
  9
$UCSORGFRONT
 10
0.0
 20
0.0
 30
0.0
  9
$UCSORGBACK
 10
0.0
 20
0.0
 30
0.0
  9
$PUCSBASE
  2

  9
$PUCSNAME
  2

  9
$PUCSORG
 10
0.0
 20
0.0
 30
0.0
  9
$PUCSXDIR
 10
1.0
 20
0.0
 30
0.0
  9
$PUCSYDIR
 10
0.0
 20
1.0
 30
0.0
  9
$PUCSORTHOREF
  2

  9
$PUCSORTHOVIEW
 70
     0
  9
$PUCSORGTOP
 10
0.0
 20
0.0
 30
0.0
  9
$PUCSORGBOTTOM
 10
0.0
 20
0.0
 30
0.0
  9
$PUCSORGLEFT
 10
0.0
 20
0.0
 30
0.0
  9
$PUCSORGRIGHT
 10
0.0
 20
0.0
 30
0.0
  9
$PUCSORGFRONT
 10
0.0
 20
0.0
 30
0.0
  9
$PUCSORGBACK
 10
0.0
 20
0.0
 30
0.0
  9
$USERI1
 70
     0
  9
$USERI2
 70
     0
  9
$USERI3
 70
     0
  9
$USERI4
 70
     0
  9
$USERI5
 70
     0
  9
$USERR1
 40
0.0
  9
$USERR2
 40
0.0
  9
$USERR3
 40
0.0
  9
$USERR4
 40
0.0
  9
$USERR5
 40
0.0
  9
$WORLDVIEW
 70
     1
  9
$SHADEDGE
 70
     3
  9
$SHADEDIF
 70
    70
  9
$TILEMODE
 70
     1
  9
$MAXACTVP
 70
    16
  9
$PINSBASE
 10
0.0
 20
0.0
 30
0.0
  9
$PLIMCHECK
 70
     0
  9
$PEXTMIN
 10
1.000000000000000E+20
 20
1.000000000000000E+20
 30
1.000000000000000E+20
  9
$PEXTMAX
 10
-1.000000000000000E+20
 20
-1.000000000000000E+20
 30
-1.000000000000000E+20
  9
$PLIMMIN
 10
0.0
 20
0.0
  9
$PLIMMAX
 10
12.0
 20
9.0
  9
$UNITMODE
 70
     0
  9
$VISRETAIN
 70
     0
  9
$PLINEGEN
 70
     1
  9
$PSLTSCALE
 70
     0
  9
$TREEDEPTH
 70
  3020
  9
$CMLSTYLE
  2
Standard
  9
$CMLJUST
 70
     0
  9
$CMLSCALE
 40
1.0
  9
$PROXYGRAPHICS
 70
     0
  9
$MEASUREMENT
 70
     0
  9
$CELWEIGHT
370
     0
  9
$ENDCAPS
280
     0
  9
$JOINSTYLE
280
     0
  9
$LWDISPLAY
290
     0
  9
$INSUNITS
 70
     0
  9
$HYPERLINKBASE
  1

  9
$STYLESHEET
  1
monochrome.ctb
  9
$XEDIT
290
     1
  9
$CEPSNTYPE
380
     0
  9
$PSTYLEMODE
290
     1
  9
$FINGERPRINTGUID
  2

  9
$VERSIONGUID
  2
{E1E56EBA-6663-4CE0-90E4-DB7C467470D3}
  9
$EXTNAMES
290
     1
  9
$PSVPSCALE
 40
0.0
  9
$OLESTARTUP
290
     0
  0
ENDSEC
  0
SECTION
  2
CLASSES
  0
CLASS
  1
LWPOLYLINE
  2
AcDbPolyline
  3
AutoCAD 2000
 90
    32768
280
     0
281
     1
  0
CLASS
  1
IMAGE
  2
AcDbRasterImage
  3
ISM
 90
    32895
280
     0
281
     1
  0
CLASS
  1
OLE2FRAME
  2
AcDbOle2Frame
  3
AutoCAD 2000
 90
    32768
280
     0
281
     1
  0
CLASS
  1
HATCH
  2
AcDbHatch
  3
AutoCAD 2000
 90
    32768
280
     0
281
     1
  0
CLASS
  1
DICTIONARYVAR
  2
AcDbDictionaryVar
  3
AutoCAD 2000
 90
        0
280
     0
281
     0
  0
CLASS
  1
RASTERVARIABLES
  2
AcDbRasterVariables
  3
ISM
 90
    32768
280
     0
281
     0
  0
CLASS
  1
IMAGEDEF
  2
AcDbRasterImageDef
  3
ISM
 90
    32768
280
     0
281
     0
  0
CLASS
  1
IMAGEDEF_REACTOR
  2
AcDbRasterImageDefReactor
  3
ISM
 90
    32769
280
     0
281
     0
  0
CLASS
  1
IDBUFFER
  2
AcDbIdBuffer
  3
AutoCAD 2000
 90
        0
280
     0
281
     0
  0
CLASS
  1
SPATIAL_FILTER
  2
AcDbSpatialFilter
  3
AutoCAD 2000
 90
    32768
280
     0
281
     0
  0
CLASS
  1
XRECORD
  2
AcDbXrecord
  3
AutoCAD 2000
 90
    32768
280
     0
281
     0
  0
CLASS
  1
SORTENTSTABLE
  2
AcDbSortentsTable
  3
AutoCAD 2000
 90
    32768
280
     0
281
     0
  0
CLASS
  1
LAYER_INDEX
  2
AcDbLayerIndex
  3
AutoCAD 2000
 90
        0
280
     0
281
     0
  0
CLASS
  1
SPATIAL_INDEX
  2
AcDbSpatialIndex
  3
AutoCAD 2000
 90
    32768
280
     0
281
     0
  0
CLASS
  1
OBJECT_PTR
  2
CAseDLPNTableRecord
  3
ASE-LPNTableRecord
 90
    32769
280
     0
281
     0
  0
CLASS
  1
LAYOUT
  2
AcDbLayout
  3
AutoCAD 2000
 90
        0
280
     0
281
     0
  0
CLASS
  1
PLOTSETTINGS
  2
AcDbPlotSettings
  3
AutoCAD 2000
 90
    32768
280
     0
281
     0
  0
CLASS
  1
ACDBDICTIONARYWDFLT
  2
AcDbDictionaryWithDefault
  3
AutoCAD 2000
 90
        0
280
     0
281
     0
  0
CLASS
  1
ACDBPLACEHOLDER
  2
AcDbPlaceHolder
  3
AutoCAD 2000
 90
        0
280
     0
281
     0
  0
CLASS
  1
VBA_PROJECT
  2
AcDbVbaProject
  3
acadvba
 90
    32768
280
     0
281
     0
  0
CLASS
  1
WIPEOUT
  2
AcDbWipeout
  3
WipeOut|AutoCAD Express Tool|expresstools@autodesk.com
 90
    32895
280
     0
281
     1
  0
CLASS
  1
WIPEOUTVARIABLES
  2
AcDbWipeoutVariables
  3
WipeOut|AutoCAD Express Tool|expresstools@autodesk.com
 90
        0
280
     0
281
     0
  0
CLASS
  1
RTEXT
  2
RText
  3
RText|AutoCAD Express Tool|expresstools@autodesk.com
 90
    32768
280
     0
281
     1
  0
CLASS
  1
ARCALIGNEDTEXT
  2
AcDbArcAlignedText
  3
ATEXT|AutoCAD Express Tool|expresstools@autodesk.com
 90
    32768
280
     0
281
     1
  0
CLASS
  1
ACME_DOCUMENT
  2
AcMeDbDoc
  3
AcMeServices
 90
        0
280
     0
281
     0
  0
CLASS
  1
AMGSETTINGSOBJ
  2
AmgSettingsObj
  3
"AcadM|Product Description: AutoCAD Mechanical 2000|Company: Autodesk"
 90
        0
280
     0
281
     0
  0
CLASS
  1
ACMESCOPE
  2
AcMeScope
  3
AcMeServices
 90
        0
280
     0
281
     0
  0
CLASS
  1
ACMECOMMANDHISTORY
  2
AcMeCommandHistory
  3
AcMeServices
 90
        0
280
     0
281
     0
  0
CLASS
  1
ACIMSYSVARMAN
  2
AcImSysVarManager
  3
AcMeServices
 90
        0
280
     0
281
     0
  0
CLASS
  1
ACIMREALSYSVAR
  2
AcImRealSysVar
  3
AcMeServices
 90
        0
280
     0
281
     0
  0
CLASS
  1
ACIMINTSYSVAR
  2
AcImIntSysVar
  3
AcMeServices
 90
        0
280
     0
281
     0
  0
CLASS
  1
ACMEDRAWINGMAN
  2
AcMeDrawingMan
  3
AcMeServices
 90
        0
280
     0
281
     0
  0
CLASS
  1
ACMEVIEW
  2
AcMeView
  3
AcMeServices
 90
        0
280
     0
281
     0
  0
CLASS
  1
ACDBENTITYCACHE
  2
AcMeEntityCache
  3
AcMeServices
 90
        0
280
     0
281
     0
  0
CLASS
  1
GSMANAGER
  2
AcMeGSManager
  3
AcMeServices
 90
        0
280
     0
281
     0
  0
CLASS
  1
AmdtInternalReactor
  2
AmdtInternalReactor
  3
AcMeServices
 90
        0
280
     0
281
     0
  0
CLASS
  1
ACMESTATEMGR
  2
AcMeStateMgr
  3
AcMeServices
 90
        0
280
     0
281
     0
  0
CLASS
  1
ACGREFMASTER
  2
AcGrefMaster
  3
AcAttribServices
 90
        0
280
     0
281
     0
  0
CLASS
  1
ACME_DATABASE
  2
AcMeDbDatabase
  3
AcMeServices
 90
        0
280
     0
281
     0
  0
CLASS
  1
ACRFINSADJUSTERMGR
  2
AcRfInsAdjusterMgr
  3
AcMeServices
 90
        0
280
     0
281
     0
  0
CLASS
  1
ACGREFMASTER
  2
AcGrefacadMaster
  3
AcGrefServices
 90
        0
280
     0
281
     0
  0
CLASS
  1
AMIMASTER
  2
AmiMaster
  3
AmiServices
 90
        0
280
     0
281
     0
  0
CLASS
  1
ACMDATADICTIONARY
  2
AcmDataDictionary
  3
"AcmSymBB|Product Description: AutoCAD Mechanical 2000|Company: Autodesk"
 90
        0
280
     0
281
     0
  0
CLASS
  1
ACMDATAENTRYBLOCK
  2
AcmDataEntryBlock
  3
"AcmSymBB|Product Description: AutoCAD Mechanical 2000|Company: Autodesk"
 90
        0
280
     0
281
     0
  0
CLASS
  1
ACIMSTRSYSVAR
  2
AcImStrSysVar
  3
AcMeServices
 90
        0
280
     0
281
     0
  0
CLASS
  1
ACMSTANDARDANSI
  2
AcmStandardANSI
  3
"Amdt_StdImp|Product Description: AutoCAD Mechanical 2000|Company: Autodesk"
 90
        0
280
     0
281
     0
  0
CLASS
  1
AMGOBJPROPCFG
  2
AmgObjPropCfg
  3
"AmgLay|Product Description: AutoCAD Mechanical 2000|Company: Autodesk"
 90
        1
280
     0
281
     0
  0
CLASS
  1
ACMSURFSTANDARDANSI
  2
AcmSurfTextStdANSI
  3
"Amdt_StdImp|Product Description: AutoCAD Mechanical 2000|Company: Autodesk"
 90
        0
280
     0
281
     0
  0
CLASS
  1
ACMFCFSTANDARDANSI
  2
AcmFCFStdANSI
  3
"Amdt_StdImp|Product Description: AutoCAD Mechanical 2000|Company: Autodesk"
 90
        0
280
     0
281
     0
  0
CLASS
  1
ACMWELDSTANDARDANSI
  2
AcmWeldingStdANSI
  3
"Amdt_StdImp|Product Description: AutoCAD Mechanical 2000|Company: Autodesk"
 90
        0
280
     0
281
     0
  0
CLASS
  1
ACMIDSTANDARDANSI
  2
AcmIdStdANSI
  3
"Amdt_StdImp|Product Description: AutoCAD Mechanical 2000|Company: Autodesk"
 90
        0
280
     0
281
     0
  0
CLASS
  1
ACMDATUMSTANDARDANSI
  2
AcmDatumStdANSI
  3
"Amdt_StdImp|Product Description: AutoCAD Mechanical 2000|Company: Autodesk"
 90
        0
280
     0
281
     0
  0
CLASS
  1
ACMBOMSTANDARDANSI
  2
AcmBOMStdANSI
  3
"Amdt_StdImp|Product Description: AutoCAD Mechanical 2000|Company: Autodesk"
 90
        0
280
     0
281
     0
  0
CLASS
  1
ACMDETAILSTANDARDANSI
  2
AmdtDetailSymStdANSI
  3
"Amdt_StdImp|Product Description: AutoCAD Mechanical 2000|Company: Autodesk"
 90
        0
280
     0
281
     0
  0
CLASS
  1
ACMSECTIONSTANDARDANSI
  2
AmdtSectionSymStdANSI
  3
"Amdt_StdImp|Product Description: AutoCAD Mechanical 2000|Company: Autodesk"
 90
        0
280
     0
281
     0
  0
CLASS
  1
ACMCENTERLINESTANDARDANSI
  2
AmdtCenterLineStdANSI
  3
"Amdt_StdImp|Product Description: AutoCAD Mechanical 2000|Company: Autodesk"
 90
        0
280
     0
281
     0
  0
CLASS
  1
ACMThreadLineSTANDARDANSI
  2
AmdtThreadLineStdANSI
  3
"Amdt_StdImp|Product Description: AutoCAD Mechanical 2000|Company: Autodesk"
 90
        0
280
     0
281
     0
  0
CLASS
  1
"AcAmgLayStd"
  2
AcAmgLayStd
  3
"AcAmgLayStd|Product Description: AutoCAD Mechanical 2000|Company: Autodesk"
 90
        0
280
     0
281
     0
  0
CLASS
  1
"AcAmgDimStd"
  2
AcAmgDimStd
  3
"AcAmgDimStd|Product Description: AutoCAD Mechanical 2000|Company: Autodesk"
 90
        0
280
     0
281
     0
  0
CLASS
  1
AcAmgTitleStd
  2
AcAmgTitleStd
  3
"TITLEAPP"
 90
        0
280
     0
281
     0
  0
CLASS
  1
ACAMGFILTERDAT
  2
AcAmgFilterDat
  3
"AcadM|Product Description: AutoCAD Mechanical 2000|Company: Autodesk"
 90
        0
280
     0
281
     0
  0
CLASS
  1
AMDTFORMULAUPDATEDISPATCHER
  2
AmdtFormulaUpdateDispatcher
  3
AcMeServices
 90
        0
280
     0
281
     0
  0
ENDSEC
  0
SECTION
  2
TABLES
  0
TABLE
  2
VPORT
  5
7
330
0
100
AcDbSymbolTable
 70
     9
  0
VPORT
  5
1017
330
7
100
AcDbSymbolTableRecord
100
AcDbViewportTableRecord
  2
*Active
 70
     0
 10
0.0
 20
0.0
 11
1.0
 21
1.0
 12
279.3891135119064
 22
213.0326461197156
 13
0.0
 23
0.0
 14
1.0
 24
1.0
 15
0.0
 25
0.0
 16
0.0
 26
0.0
 36
1.0
 17
0.0
 27
0.0
 37
0.0
 40
430.2556864775673
 41
1.666666666666666
 42
50.0
 43
0.0
 44
0.0
 50
0.0
 51
0.0
 71
     0
 72
   100
 73
     1
 74
     1
 75
     1
 76
     0
 77
     0
 78
     0
281
     0
 65
     0
110
0.0
120
0.0
130
0.0
111
1.0
121
0.0
131
0.0
112
0.0
122
1.0
132
0.0
 79
     0
146
0.0
  0
ENDTAB
  0
TABLE
  2
LTYPE
  5
4
330
0
100
AcDbSymbolTable
 70
    24
  0
LTYPE
  5
11
330
4
100
AcDbSymbolTableRecord
100
AcDbLinetypeTableRecord
  2
ByBlock
 70
     0
  3

 72
    65
 73
     0
 40
0.0
  0
LTYPE
  5
12
330
4
100
AcDbSymbolTableRecord
100
AcDbLinetypeTableRecord
  2
ByLayer
 70
     0
  3

 72
    65
 73
     0
 40
0.0
  0
LTYPE
  5
13
330
4
100
AcDbSymbolTableRecord
100
AcDbLinetypeTableRecord
  2
Continuous
 70
     0
  3
Solid line
 72
    65
 73
     0
 40
0.0
  0
LTYPE
  5
24
330
4
100
AcDbSymbolTableRecord
100
AcDbLinetypeTableRecord
  2
AUSGEZOGEN
 70
     0
  3

 72
    65
 73
     0
 40
0.0
  0
LTYPE
  5
25
330
4
100
AcDbSymbolTableRecord
100
AcDbLinetypeTableRecord
  2
VERDECKT
 70
     0
  3

 72
    65
 73
     2
 40
0.375
 49
0.25
 74
     0
 49
-0.125
 74
     0
  0
LTYPE
  5
26
330
4
100
AcDbSymbolTableRecord
100
AcDbLinetypeTableRecord
  2
STRICHPUNKT
 70
     0
  3

 72
    65
 73
     4
 40
1.0
 49
0.5
 74
     0
 49
-0.25
 74
     0
 49
0.0
 74
     0
 49
-0.25
 74
     0
  0
LTYPE
  5
27
330
4
100
AcDbSymbolTableRecord
100
AcDbLinetypeTableRecord
  2
PUNKT3
 70
     0
  3

 72
    65
 73
     2
 40
0.5
 49
0.25
 74
     0
 49
-0.25
 74
     0
  0
LTYPE
  5
475
330
4
100
AcDbSymbolTableRecord
100
AcDbLinetypeTableRecord
  2
AM_ISO02W050
 70
     0
  3
__ __ __ __ __ __ __ __ __ __ __ __ __ __ __
 72
    65
 73
     2
 40
7.5
 49
6.0
 74
     0
 49
-1.5
 74
     0
  0
LTYPE
  5
476
330
4
100
AcDbSymbolTableRecord
100
AcDbLinetypeTableRecord
  2
AM_ISO08W050
 70
     0
  3
____ . ____ . ____ . ____ . ____ . ____ . ____
 72
    65
 73
     4
 40
18.0
 49
12.0
 74
     0
 49
-1.5
 74
     0
 49
3.0
 74
     0
 49
-1.5
 74
     0
  0
LTYPE
  5
477
330
4
100
AcDbSymbolTableRecord
100
AcDbLinetypeTableRecord
  2
AM_ISO09W050
 70
     0
  3
_____ . . _____ . . _____ . . ____ .. ____
 72
    65
 73
     6
 40
22.5
 49
12.0
 74
     0
 49
-1.5
 74
     0
 49
3.0
 74
     0
 49
-1.5
 74
     0
 49
3.0
 74
     0
 49
-1.5
 74
     0
  0
LTYPE
  5
478
330
4
100
AcDbSymbolTableRecord
100
AcDbLinetypeTableRecord
  2
Amconstr
 70
     0
  3
_______________________
 72
    65
 73
     2
 40
9999.0
 49
9999.0
 74
     0
 49
0.0
 74
     0
  0
LTYPE
  5
479
330
4
100
AcDbSymbolTableRecord
100
AcDbLinetypeTableRecord
  2
AM_ISO08W050x2
 70
     0
  3
__ . __ . __ . __ . __ . __
 72
    65
 73
     4
 40
9.0
 49
6.0
 74
     0
 49
-0.75
 74
     0
 49
1.5
 74
     0
 49
-0.75
 74
     0
  0
LTYPE
  5
47A
330
4
100
AcDbSymbolTableRecord
100
AcDbLinetypeTableRecord
  2
AM_ISO02W050x2
 70
     0
  3
 _ _ _ _ _ _ _ _ _ _ _ _
 72
    65
 73
     2
 40
3.75
 49
3.0
 74
     0
 49
-0.75
 74
     0
  0
LTYPE
  5
47D
330
4
100
AcDbSymbolTableRecord
100
AcDbLinetypeTableRecord
  2
Amzigzag
 70
     0
  3
/\/-/\/-/\/-/\/-/\/-/\/
 72
    65
 73
     2
 40
11.00009999999999
 49
0.0001
 74
     4
 75
   135
340
47C
 46
0.04
 50
0.0
 44
0.0
 45
0.0
 49
-11.0
 74
     0
  0
LTYPE
  5
47E
330
4
100
AcDbSymbolTableRecord
100
AcDbLinetypeTableRecord
  2
HIDDEN
 70
     0
  3
Hidden __ __ __ __ __ __ __ __ __ __ __ __ __ _
 72
    65
 73
     2
 40
0.375
 49
0.25
 74
     0
 49
-0.125
 74
     0
  0
LTYPE
  5
47F
330
4
100
AcDbSymbolTableRecord
100
AcDbLinetypeTableRecord
  2
CENTER
 70
     0
  3
Center ____ _ ____ _ ____ _ ____ _ ____ _ ____
 72
    65
 73
     4
 40
2.0
 49
1.25
 74
     0
 49
-0.25
 74
     0
 49
0.25
 74
     0
 49
-0.25
 74
     0
  0
LTYPE
  5
480
330
4
100
AcDbSymbolTableRecord
100
AcDbLinetypeTableRecord
  2
PHANTOM2
 70
     0
  3
Phantom (.5x) ___ _ _ ___ _ _ ___ _ _ ___ _ _
 72
    65
 73
     6
 40
1.25
 49
0.625
 74
     0
 49
-0.125
 74
     0
 49
0.125
 74
     0
 49
-0.125
 74
     0
 49
0.125
 74
     0
 49
-0.125
 74
     0
  0
LTYPE
  5
481
330
4
100
AcDbSymbolTableRecord
100
AcDbLinetypeTableRecord
  2
CENTER2
 70
     0
  3
Center (.5x) ___ _ ___ _ ___ _ ___ _ ___ _ ___
 72
    65
 73
     4
 40
1.125
 49
0.75
 74
     0
 49
-0.125
 74
     0
 49
0.125
 74
     0
 49
-0.125
 74
     0
  0
LTYPE
  5
482
330
4
100
AcDbSymbolTableRecord
100
AcDbLinetypeTableRecord
  2
HIDDEN2
 70
     0
  3
Hidden (.5x) _ _ _ _ _ _ _ _ _ _ _ _ _ _ _ _ _
 72
    65
 73
     2
 40
0.1875
 49
0.125
 74
     0
 49
-0.0625
 74
     0
  0
LTYPE
  5
483
330
4
100
AcDbSymbolTableRecord
100
AcDbLinetypeTableRecord
  2
Amzigzag2
 70
     0
  3
/\/-/\/-/\/-/\/-/\/-/\/
 72
    65
 73
     2
 40
0.4401
 49
0.0001
 74
     4
 75
   135
340
47C
 46
0.0016
 50
0.0
 44
0.0
 45
0.0
 49
-0.4400000000000001
 74
     0
  0
LTYPE
  5
490
330
4
100
AcDbSymbolTableRecord
100
AcDbLinetypeTableRecord
  2
ACANSTGB
 70
     0
  3
__ . . __ . .
 72
    65
 73
     6
 40
0.35433070866
 49
0.15748031496
 74
     0
 49
-0.03937007874
 74
     0
 49
0.03937007874
 74
     0
 49
-0.03937007874
 74
     0
 49
0.03937007874
 74
     0
 49
-0.03937007874
 74
     0
  0
LTYPE
  5
491
330
4
100
AcDbSymbolTableRecord
100
AcDbLinetypeTableRecord
  2
ACANSTGL
 70
     0
  3
_ _ _ _ _
 72
    65
 73
     2
 40
0.11811023622
 49
0.07874015748
 74
     0
 49
-0.03937007874
 74
     0
  0
LTYPE
  5
7F6
330
4
100
AcDbSymbolTableRecord
100
AcDbLinetypeTableRecord
  2
MS
 70
     0
  3
MEDIUM_SOLID
 72
    65
 73
     0
 40
0.0
  0
LTYPE
  5
7F7
330
4
100
AcDbSymbolTableRecord
100
AcDbLinetypeTableRecord
  2
LS
 70
     0
  3
LIGHT_SOLID
 72
    65
 73
     0
 40
0.0
  0
LTYPE
  5
7F8
330
4
100
AcDbSymbolTableRecord
100
AcDbLinetypeTableRecord
  2
LP
 70
     0
  3
LIGHT_PHANTOM
 72
    65
 73
     6
 40
1.5
 49
0.75
 74
     0
 49
-0.14999998
 74
     0
 49
0.14999998
 74
     0
 49
-0.14999998
 74
     0
 49
0.14999998
 74
     0
 49
-0.14999998
 74
     0
  0
LTYPE
  5
BA8
330
4
100
AcDbSymbolTableRecord
100
AcDbLinetypeTableRecord
  2
NC
 70
     0
  3
NUMERIC_CONTROL
 72
    65
 73
     0
 40
0.0
  0
ENDTAB
  0
TABLE
  2
LAYER
  5
2
330
0
100
AcDbSymbolTable
 70
     9
  0
LAYER
  5
14
330
2
100
AcDbSymbolTableRecord
100
AcDbLayerTableRecord
  2
0
 70
     0
 62
     7
  6
Continuous
370
    -3
390
1D
  0
LAYER
  5
29
330
2
100
AcDbSymbolTableRecord
100
AcDbLayerTableRecord
  2
1
 70
     0
 62
     7
  6
Continuous
370
    -3
390
1F
  0
LAYER
  5
2A
330
2
100
AcDbSymbolTableRecord
100
AcDbLayerTableRecord
  2
2
 70
     0
 62
     7
  6
Continuous
370
    -3
390
1F
  0
LAYER
  5
2B
330
2
100
AcDbSymbolTableRecord
100
AcDbLayerTableRecord
  2
3
 70
     0
 62
     7
  6
Continuous
370
    -3
390
1F
  0
LAYER
  5
2C
330
2
100
AcDbSymbolTableRecord
100
AcDbLayerTableRecord
  2
4
 70
     0
 62
     7
  6
Continuous
370
    -3
390
1F
  0
LAYER
  5
2D
330
2
100
AcDbSymbolTableRecord
100
AcDbLayerTableRecord
  2
5
 70
     0
 62
     7
  6
Continuous
370
    -3
390
1F
  0
LAYER
  5
7A6
330
2
100
AcDbSymbolTableRecord
100
AcDbLayerTableRecord
  2
Defpoints
 70
     0
 62
     7
  6
Continuous
290
     0
370
    -3
390
1D
  0
LAYER
  5
7F9
330
2
100
AcDbSymbolTableRecord
100
AcDbLayerTableRecord
  2
BORDER
 70
     0
 62
    15
  6
Continuous
370
    -3
390
1D
  0
LAYER
  5
7FA
330
2
100
AcDbSymbolTableRecord
100
AcDbLayerTableRecord
  2
TITLE BLOCK
 70
     0
 62
     2
  6
Continuous
370
    -3
390
1D
  0
ENDTAB
  0
TABLE
  2
STYLE
  5
3
330
0
100
AcDbSymbolTable
 70
     8
  0
STYLE
  5
17
330
3
100
AcDbSymbolTableRecord
100
AcDbTextStyleTableRecord
  2
TXT
 70
     0
 40
3.5
 41
1.0
 50
0.0
 71
     0
 42
3.5
  3
TXT
  4

  0
STYLE
  5
28
330
3
100
AcDbSymbolTableRecord
100
AcDbTextStyleTableRecord
  2
ARIAL
 70
     0
 40
3.5
 41
1.0
 50
0.0
 71
     0
 42
3.5
  3
ARIAL
  4

  0
STYLE
  5
47C
330
3
100
AcDbSymbolTableRecord
100
AcDbTextStyleTableRecord
  2

 70
     1
 40
0.0
 41
1.0
 50
0.0
 71
     0
 42
0.2
  3
ltypeshp.shx
  4

  0
STYLE
  5
484
330
3
100
AcDbSymbolTableRecord
100
AcDbTextStyleTableRecord
  2
ACANSTS
 70
     0
 40
1.0
 41
1.0
 50
0.0
 71
     0
 42
0.2
  3
romans.shx
  4

  0
STYLE
  5
48F
330
3
100
AcDbSymbolTableRecord
100
AcDbTextStyleTableRecord
  2
ACANSGDT
 70
     0
 40
0.0
 41
1.0
 50
0.0
 71
     0
 42
0.2
  3
amgdtans.shx
  4

  0
STYLE
  5
7FB
330
3
100
AcDbSymbolTableRecord
100
AcDbTextStyleTableRecord
  2
STANDARD
 70
     0
 40
0.0
 41
1.0
 50
0.0
 71
     0
 42
2.5
  3
migrator.shx
  4

  0
STYLE
  5
7FC
330
3
100
AcDbSymbolTableRecord
100
AcDbTextStyleTableRecord
  2
AE
 70
     0
 40
0.0
 41
1.0
 50
0.0
 71
     0
 42
0.16408998
  3
MIGRATOR
  4

  0
STYLE
  5
7FD
330
3
100
AcDbSymbolTableRecord
100
AcDbTextStyleTableRecord
  2

 70
     1
 40
0.0
 41
1.0
 50
0.0
 71
     0
 42
1.0
  3
symtb128
  4

  0
ENDTAB
  0
TABLE
  2
VIEW
  5
5
330
0
100
AcDbSymbolTable
 70
     0
  0
ENDTAB
  0
TABLE
  2
UCS
  5
6
330
0
100
AcDbSymbolTable
 70
     0
  0
ENDTAB
  0
TABLE
  2
APPID
  5
8
330
0
100
AcDbSymbolTable
 70
     9
  0
APPID
  5
16
330
8
100
AcDbSymbolTableRecord
100
AcDbRegAppTableRecord
  2
ACAD
 70
     0
  0
APPID
  5
2E
330
8
100
AcDbSymbolTableRecord
100
AcDbRegAppTableRecord
  2
MegaCADPntStyle
 70
     0
  0
APPID
  5
455
330
8
100
AcDbSymbolTableRecord
100
AcDbRegAppTableRecord
  2
MCAD_NO_VIS
 70
     0
  0
APPID
  5
456
330
8
100
AcDbSymbolTableRecord
100
AcDbRegAppTableRecord
  2
ACAD_TEMP_GRAPHIC
 70
     0
  0
APPID
  5
469
330
8
100
AcDbSymbolTableRecord
100
AcDbRegAppTableRecord
  2
ACATTRIBSERVICES
 70
     0
  0
APPID
  5
7FF
330
8
100
AcDbSymbolTableRecord
100
AcDbRegAppTableRecord
  2
GENIUS_GENBLLY_14
 70
     0
  0
APPID
  5
800
330
8
100
AcDbSymbolTableRecord
100
AcDbRegAppTableRecord
  2
GENIUS_GENTRA_14
 70
     0
  0
APPID
  5
9DD
330
8
100
AcDbSymbolTableRecord
100
AcDbRegAppTableRecord
  2
GENIUS_GENDTOL_13
 70
     0
  0
APPID
  5
A7B
330
8
100
AcDbSymbolTableRecord
100
AcDbRegAppTableRecord
  2
DCO15
 70
     0
  0
ENDTAB
  0
TABLE
  2
DIMSTYLE
  5
9
330
0
100
AcDbSymbolTable
 70
     9
100
AcDbDimStyleTable
 71
     0
  0
DIMSTYLE
105
18
330
9
100
AcDbSymbolTableRecord
100
AcDbDimStyleTableRecord
  2
Standard
 70
     0
289
     0
340
17
  0
DIMSTYLE
105
2F
102
{ACAD_REACTORS
330
C5
330
CA
330
CB
330
CC
330
CD
330
E5
330
106
330
107
330
108
330
109
330
10C
330
10D
330
186
330
187
330
191
330
195
330
196
102
}
330
9
100
AcDbSymbolTableRecord
100
AcDbDimStyleTableRecord
  2
DIMS0
 70
     0
 41
3.0
 42
0.1
 43
7.0
 44
1.709999999999999
 73
     0
 74
     0
 77
     1
140
3.0
141
1.5
178
    54
289
     0
340
17
  0
DIMSTYLE
105
495
330
9
100
AcDbSymbolTableRecord
100
AcDbDimStyleTableRecord
  2
AM_ANSI
 70
     0
  4
mm
 41
0.1
 42
0.05
 43
0.5
 44
0.1
 47
0.1
 48
0.1
 78
     7
 79
     2
140
0.12
141
0.0
146
0.71
147
0.06
176
   256
177
   256
178
     2
274
     4
284
     7
340
17
371
    -1
372
    -1
  0
DIMSTYLE
105
496
330
9
100
AcDbSymbolTableRecord
100
AcDbDimStyleTableRecord
  2
AM_ANSI$3
 70
     0
  4
mm
 41
0.1
 42
0.05
 43
0.5
 44
0.1
 47
0.1
 48
0.1
 78
     7
 79
     2
140
0.12
141
0.0
146
0.71
147
0.06
176
   256
177
   256
178
     2
274
     4
284
     7
288
     1
289
     0
340
17
371
    -1
372
    -1
  0
DIMSTYLE
105
497
330
9
100
AcDbSymbolTableRecord
100
AcDbDimStyleTableRecord
  2
AM_ANSI$4
 70
     0
  4
mm
 41
0.1
 42
0.05
 43
0.5
 44
0.1
 47
0.1
 48
0.1
 78
     7
 79
     2
140
0.12
141
0.0
146
0.71
147
0.06
176
   256
177
   256
178
     2
274
     4
284
     7
288
     1
289
     0
340
17
371
    -1
372
    -1
  0
DIMSTYLE
105
498
330
9
100
AcDbSymbolTableRecord
100
AcDbDimStyleTableRecord
  2
AM_ANSI$7
 70
     0
  4
mm
 41
0.1
 42
0.05
 43
0.5
 44
0.1
 47
0.1
 48
0.1
 78
     7
 79
     2
140
0.24
141
0.0
146
0.71
147
0.06
176
   256
177
   256
178
     2
274
     4
284
     7
340
17
371
    -1
372
    -1
  0
DIMSTYLE
105
499
330
9
100
AcDbSymbolTableRecord
100
AcDbDimStyleTableRecord
  2
AM_ANSI$SF
 70
     0
  4
mm
 41
0.1
 42
0.05
 43
0.5
 44
0.1
 47
0.1
 48
0.1
 75
     1
 76
     1
 78
     7
 79
     2
140
0.12
141
0.0
146
0.71
147
0.06
176
   256
177
   256
178
     2
274
     4
284
     7
340
17
371
    -1
372
    -1
  0
DIMSTYLE
105
49E
330
9
100
AcDbSymbolTableRecord
100
AcDbDimStyleTableRecord
  2
AM_ANSI$SH
 70
     0
  4
mm
 41
0.1
 42
0.05
 43
0.5
 44
0.1
 47
0.1
 48
0.1
 75
     1
 76
     1
 78
     7
 79
     2
140
0.12
141
0.0
146
0.71
147
0.06
173
     1
176
   256
177
   256
178
     2
274
     4
284
     7
340
17
343
49A
371
    -1
372
    -1
  0
DIMSTYLE
105
7FE
330
9
100
AcDbSymbolTableRecord
100
AcDbDimStyleTableRecord
  2
GEN-ANSI
 70
     0
  3
<>
  4
mm
 41
0.14
 42
0.125
 43
0.5
 44
0.125
 47
0.1
 48
0.1
 73
     0
 74
     0
 77
     1
 78
     7
140
0.12
141
0.0
146
0.71
147
0.06
176
   256
177
   256
178
     2
274
     4
340
7FB
  0
ENDTAB
  0
TABLE
  2
BLOCK_RECORD
  5
1
330
0
100
AcDbSymbolTable
 70
    41
  0
BLOCK_RECORD
  5
A
102
{ACAD_XDICTIONARY
360
969
102
}
330
1
100
AcDbSymbolTableRecord
100
AcDbBlockTableRecord
  2
*MODEL_SPACE
340
20
  0
BLOCK_RECORD
  5
B
330
1
100
AcDbSymbolTableRecord
100
AcDbBlockTableRecord
  2
*PAPER_SPACE
340
21
  0
BLOCK_RECORD
  5
30
330
1
100
AcDbSymbolTableRecord
100
AcDbBlockTableRecord
  2
ELIPPSE
340
0
  0
BLOCK_RECORD
  5
31
330
1
100
AcDbSymbolTableRecord
100
AcDbBlockTableRecord
  2
A2_1
340
0
  0
BLOCK_RECORD
  5
32
330
1
100
AcDbSymbolTableRecord
100
AcDbBlockTableRecord
  2
ZEICHNUNGS-LOGO UND ADR_2
340
0
  0
BLOCK_RECORD
  5
33
330
1
100
AcDbSymbolTableRecord
100
AcDbBlockTableRecord
  2
ZEICHNUNGS-LOGO_3
340
0
102
{BLKREFS
331
58
102
}
  0
BLOCK_RECORD
  5
34
330
1
100
AcDbSymbolTableRecord
100
AcDbBlockTableRecord
  2
BAUMüLLER - LOGO - SCHR_4
340
0
102
{BLKREFS
331
59
102
}
  0
BLOCK_RECORD
  5
35
330
1
100
AcDbSymbolTableRecord
100
AcDbBlockTableRecord
  2
ISOTOLWE_5
340
0
102
{BLKREFS
331
F97
102
}
  0
BLOCK_RECORD
  5
36
330
1
100
AcDbSymbolTableRecord
100
AcDbBlockTableRecord
  2
ISOTOLWE_6
340
0
102
{BLKREFS
331
F98
102
}
  0
BLOCK_RECORD
  5
37
330
1
100
AcDbSymbolTableRecord
100
AcDbBlockTableRecord
  2
M25-KOPF_7
340
0
102
{BLKREFS
331
5C
102
}
  0
BLOCK_RECORD
  5
38
330
1
100
AcDbSymbolTableRecord
100
AcDbBlockTableRecord
  2
M25-KOPF_8
340
0
102
{BLKREFS
331
5D
102
}
  0
BLOCK_RECORD
  5
39
330
1
100
AcDbSymbolTableRecord
100
AcDbBlockTableRecord
  2
M25-KOPF_9
340
0
102
{BLKREFS
331
5E
102
}
  0
BLOCK_RECORD
  5
3A
330
1
100
AcDbSymbolTableRecord
100
AcDbBlockTableRecord
  2
M25-KOPF_10
340
0
102
{BLKREFS
331
5F
102
}
  0
BLOCK_RECORD
  5
3B
330
1
100
AcDbSymbolTableRecord
100
AcDbBlockTableRecord
  2
M25-KOPF_11
340
0
102
{BLKREFS
331
60
102
}
  0
BLOCK_RECORD
  5
3C
330
1
100
AcDbSymbolTableRecord
100
AcDbBlockTableRecord
  2
M25-KOPF_12
340
0
102
{BLKREFS
331
61
102
}
  0
BLOCK_RECORD
  5
3D
330
1
100
AcDbSymbolTableRecord
100
AcDbBlockTableRecord
  2
M25-KOPF_13
340
0
102
{BLKREFS
331
62
102
}
  0
BLOCK_RECORD
  5
3E
330
1
100
AcDbSymbolTableRecord
100
AcDbBlockTableRecord
  2
M25-KOPF_14
340
0
102
{BLKREFS
331
63
102
}
  0
BLOCK_RECORD
  5
3F
330
1
100
AcDbSymbolTableRecord
100
AcDbBlockTableRecord
  2
M25-KOPF_15
340
0
102
{BLKREFS
331
64
102
}
  0
BLOCK_RECORD
  5
40
330
1
100
AcDbSymbolTableRecord
100
AcDbBlockTableRecord
  2
M25-KOPF_16
340
0
102
{BLKREFS
331
65
102
}
  0
BLOCK_RECORD
  5
41
330
1
100
AcDbSymbolTableRecord
100
AcDbBlockTableRecord
  2
M3D_17
340
0
102
{BLKREFS
331
66
102
}
  0
BLOCK_RECORD
  5
42
330
1
100
AcDbSymbolTableRecord
100
AcDbBlockTableRecord
  2
M3D_18
340
0
102
{BLKREFS
331
67
102
}
  0
BLOCK_RECORD
  5
43
330
1
100
AcDbSymbolTableRecord
100
AcDbBlockTableRecord
  2
M3D_19
340
0
102
{BLKREFS
331
68
102
}
  0
BLOCK_RECORD
  5
44
330
1
100
AcDbSymbolTableRecord
100
AcDbBlockTableRecord
  2
M3D_20
340
0
102
{BLKREFS
331
69
102
}
  0
BLOCK_RECORD
  5
45
330
1
100
AcDbSymbolTableRecord
100
AcDbBlockTableRecord
  2
*D21
340
0
  0
BLOCK_RECORD
  5
46
330
1
100
AcDbSymbolTableRecord
100
AcDbBlockTableRecord
  2
*D22
340
0
  0
BLOCK_RECORD
  5
47
330
1
100
AcDbSymbolTableRecord
100
AcDbBlockTableRecord
  2
*D23
340
0
  0
BLOCK_RECORD
  5
48
330
1
100
AcDbSymbolTableRecord
100
AcDbBlockTableRecord
  2
*D24
340
0
  0
BLOCK_RECORD
  5
49
330
1
100
AcDbSymbolTableRecord
100
AcDbBlockTableRecord
  2
*D25
340
0
  0
BLOCK_RECORD
  5
4A
330
1
100
AcDbSymbolTableRecord
100
AcDbBlockTableRecord
  2
*D26
340
0
  0
BLOCK_RECORD
  5
4B
330
1
100
AcDbSymbolTableRecord
100
AcDbBlockTableRecord
  2
*D27
340
0
  0
BLOCK_RECORD
  5
4C
330
1
100
AcDbSymbolTableRecord
100
AcDbBlockTableRecord
  2
*D28
340
0
  0
BLOCK_RECORD
  5
4D
330
1
100
AcDbSymbolTableRecord
100
AcDbBlockTableRecord
  2
*D29
340
0
  0
BLOCK_RECORD
  5
4E
330
1
100
AcDbSymbolTableRecord
100
AcDbBlockTableRecord
  2
*D30
340
0
  0
BLOCK_RECORD
  5
4F
330
1
100
AcDbSymbolTableRecord
100
AcDbBlockTableRecord
  2
*D31
340
0
  0
BLOCK_RECORD
  5
50
330
1
100
AcDbSymbolTableRecord
100
AcDbBlockTableRecord
  2
*D32
340
0
  0
BLOCK_RECORD
  5
51
330
1
100
AcDbSymbolTableRecord
100
AcDbBlockTableRecord
  2
*D33
340
0
  0
BLOCK_RECORD
  5
52
330
1
100
AcDbSymbolTableRecord
100
AcDbBlockTableRecord
  2
*D34
340
0
  0
BLOCK_RECORD
  5
53
330
1
100
AcDbSymbolTableRecord
100
AcDbBlockTableRecord
  2
*D35
340
0
  0
BLOCK_RECORD
  5
54
330
1
100
AcDbSymbolTableRecord
100
AcDbBlockTableRecord
  2
*D36
340
0
  0
BLOCK_RECORD
  5
55
330
1
100
AcDbSymbolTableRecord
100
AcDbBlockTableRecord
  2
*D37
340
0
  0
BLOCK_RECORD
  5
49A
330
1
100
AcDbSymbolTableRecord
100
AcDbBlockTableRecord
  2
GENAXEH
340
0
  0
BLOCK_RECORD
  5
801
330
1
100
AcDbSymbolTableRecord
100
AcDbBlockTableRecord
  2
METRIC_C
340
0
102
{BLKREFS
331
F6B
102
}
  0
BLOCK_RECORD
  5
BA9
330
1
100
AcDbSymbolTableRecord
100
AcDbBlockTableRecord
  2
METRIC_D
340
0
  0
ENDTAB
  0
ENDSEC
  0
SECTION
  2
BLOCKS
  0
BLOCK
  5
D
330
A
100
AcDbEntity
  8
0
100
AcDbBlockBegin
  2
*MODEL_SPACE
 70
     0
 71
     1
 10
0.0
 20
0.0
 30
0.0
  3
*MODEL_SPACE
  1

  0
ENDBLK
  5
E
330
A
100
AcDbEntity
  8
0
100
AcDbBlockEnd
  0
BLOCK
  5
F
330
B
100
AcDbEntity
 67
     1
  8
0
100
AcDbBlockBegin
  2
*PAPER_SPACE
 70
     0
 71
     1
 10
0.0
 20
0.0
 30
0.0
  3
*PAPER_SPACE
  1

  0
ENDBLK
  5
10
330
B
100
AcDbEntity
 67
     1
  8
0
100
AcDbBlockEnd
  0
BLOCK
  5
1D8
330
30
100
AcDbEntity
  8
0
100
AcDbBlockBegin
  2
ELIPPSE
 70
     0
 71
     1
 10
0.0
 20
0.0
 30
0.0
  3
ELIPPSE
  1

  0
CIRCLE
  5
1D9
330
30
100
AcDbEntity
  8
0
  6
ByBlock
 62
     0
100
AcDbCircle
 10
0.0
 20
0.0
 30
0.0
 40
1.0
  0
ENDBLK
  5
1DA
330
30
100
AcDbEntity
  8
0
  6
ByBlock
 62
     0
100
AcDbBlockEnd
  0
BLOCK
  5
1DB
330
31
100
AcDbEntity
  8
0
100
AcDbBlockBegin
  2
A2_1
 70
     0
 71
     1
 10
0.0
 20
0.0
 30
0.0
  3
A2_1
  1

  0
LINE
  5
1DC
330
31
100
AcDbEntity
  8
0
  6
AUSGEZOGEN
 62
   134
100
AcDbLine
 10
-583.0
 20
409.0
 30
0.0
 11
-583.0
 21
0.0
 31
0.0
  0
LINE
  5
1DD
330
31
100
AcDbEntity
  8
0
  6
AUSGEZOGEN
 62
   134
100
AcDbLine
 10
0.0
 20
409.0
 30
0.0
 11
-583.0
 21
409.0
 31
0.0
  0
LINE
  5
1DE
330
31
100
AcDbEntity
  8
0
  6
AUSGEZOGEN
 62
   134
100
AcDbLine
 10
0.0
 20
0.0
 30
0.0
 11
0.0
 21
409.0
 31
0.0
  0
LINE
  5
1DF
330
31
100
AcDbEntity
  8
0
  6
AUSGEZOGEN
 62
   134
100
AcDbLine
 10
-583.0
 20
0.0
 30
0.0
 11
0.0
 21
0.0
 31
0.0
  0
LINE
  5
1E0
330
31
100
AcDbEntity
  8
0
  6
AUSGEZOGEN
 62
     9
100
AcDbLine
 10
-578.0
 20
404.0
 30
0.0
 11
-578.0
 21
5.0
 31
0.0
  0
LINE
  5
1E1
330
31
100
AcDbEntity
  8
0
  6
AUSGEZOGEN
 62
     9
100
AcDbLine
 10
-578.0
 20
5.0
 30
0.0
 11
-215.0
 21
5.0
 31
0.0
  0
LINE
  5
1E2
330
31
100
AcDbEntity
  8
0
  6
AUSGEZOGEN
 62
     9
100
AcDbLine
 10
-5.0
 20
76.03785705566406
 30
0.0
 11
-5.0
 21
404.0
 31
0.0
  0
LINE
  5
1E3
330
31
100
AcDbEntity
  8
0
  6
AUSGEZOGEN
 62
     9
100
AcDbLine
 10
-5.0
 20
404.0
 30
0.0
 11
-578.0
 21
404.0
 31
0.0
  0
LINE
  5
1E4
330
31
100
AcDbEntity
  8
0
  6
AUSGEZOGEN
 62
     9
100
AcDbLine
 10
-526.7999992370605
 20
5.0
 30
0.0
 11
-526.7999992370605
 21
0.0
 31
0.0
  0
LINE
  5
1E5
330
31
100
AcDbEntity
  8
0
  6
AUSGEZOGEN
 62
     9
100
AcDbLine
 10
-526.7999992370605
 20
409.0
 30
0.0
 11
-526.7999992370605
 21
404.0
 31
0.0
  0
LINE
  5
1E6
330
31
100
AcDbEntity
  8
0
  6
AUSGEZOGEN
 62
     9
100
AcDbLine
 10
-474.599998474121
 20
5.0
 30
0.0
 11
-474.599998474121
 21
0.0
 31
0.0
  0
LINE
  5
1E7
330
31
100
AcDbEntity
  8
0
  6
AUSGEZOGEN
 62
     9
100
AcDbLine
 10
-474.599998474121
 20
409.0
 30
0.0
 11
-474.599998474121
 21
404.0
 31
0.0
  0
LINE
  5
1E8
330
31
100
AcDbEntity
  8
0
  6
AUSGEZOGEN
 62
     9
100
AcDbLine
 10
-422.3999938964843
 20
5.0
 30
0.0
 11
-422.3999938964843
 21
0.0
 31
0.0
  0
LINE
  5
1E9
330
31
100
AcDbEntity
  8
0
  6
AUSGEZOGEN
 62
     9
100
AcDbLine
 10
-422.3999938964843
 20
409.0
 30
0.0
 11
-422.3999938964843
 21
404.0
 31
0.0
  0
LINE
  5
1EA
330
31
100
AcDbEntity
  8
0
  6
AUSGEZOGEN
 62
     9
100
AcDbLine
 10
-370.1999969482422
 20
5.0
 30
0.0
 11
-370.1999969482422
 21
0.0
 31
0.0
  0
LINE
  5
1EB
330
31
100
AcDbEntity
  8
0
  6
AUSGEZOGEN
 62
     9
100
AcDbLine
 10
-370.1999969482422
 20
409.0
 30
0.0
 11
-370.1999969482422
 21
404.0
 31
0.0
  0
LINE
  5
1EC
330
31
100
AcDbEntity
  8
0
  6
AUSGEZOGEN
 62
     9
100
AcDbLine
 10
-318.0
 20
5.0
 30
0.0
 11
-318.0
 21
0.0
 31
0.0
  0
LINE
  5
1ED
330
31
100
AcDbEntity
  8
0
  6
AUSGEZOGEN
 62
     9
100
AcDbLine
 10
-318.0
 20
409.0
 30
0.0
 11
-318.0
 21
404.0
 31
0.0
  0
LINE
  5
1EE
330
31
100
AcDbEntity
  8
0
  6
AUSGEZOGEN
 62
     9
100
AcDbLine
 10
-265.7999877929687
 20
5.0
 30
0.0
 11
-265.7999877929687
 21
0.0
 31
0.0
  0
LINE
  5
1EF
330
31
100
AcDbEntity
  8
0
  6
AUSGEZOGEN
 62
     9
100
AcDbLine
 10
-265.7999877929687
 20
409.0
 30
0.0
 11
-265.7999877929687
 21
404.0
 31
0.0
  0
LINE
  5
1F0
330
31
100
AcDbEntity
  8
0
  6
AUSGEZOGEN
 62
     9
100
AcDbLine
 10
-213.5999755859375
 20
409.0
 30
0.0
 11
-213.5999755859375
 21
404.0
 31
0.0
  0
LINE
  5
1F1
330
31
100
AcDbEntity
  8
0
  6
AUSGEZOGEN
 62
     9
100
AcDbLine
 10
-161.3999633789062
 20
409.0
 30
0.0
 11
-161.3999633789062
 21
404.0
 31
0.0
  0
LINE
  5
1F2
330
31
100
AcDbEntity
  8
0
  6
AUSGEZOGEN
 62
     9
100
AcDbLine
 10
-109.1999511718749
 20
409.0
 30
0.0
 11
-109.1999511718749
 21
404.0
 31
0.0
  0
LINE
  5
1F3
330
31
100
AcDbEntity
  8
0
  6
AUSGEZOGEN
 62
     9
100
AcDbLine
 10
-56.99993896484375
 20
409.0
 30
0.0
 11
-56.99993896484375
 21
404.0
 31
0.0
  0
LINE
  5
1F4
330
31
100
AcDbEntity
  8
0
  6
AUSGEZOGEN
 62
     9
100
AcDbLine
 10
-578.0
 20
355.0
 30
0.0
 11
-583.0
 21
355.0
 31
0.0
  0
LINE
  5
1F5
330
31
100
AcDbEntity
  8
0
  6
AUSGEZOGEN
 62
     9
100
AcDbLine
 10
0.0
 20
355.0
 30
0.0
 11
-5.0
 21
355.0
 31
0.0
  0
LINE
  5
1F6
330
31
100
AcDbEntity
  8
0
  6
AUSGEZOGEN
 62
     9
100
AcDbLine
 10
-578.0
 20
305.0
 30
0.0
 11
-583.0
 21
305.0
 31
0.0
  0
LINE
  5
1F7
330
31
100
AcDbEntity
  8
0
  6
AUSGEZOGEN
 62
     9
100
AcDbLine
 10
0.0
 20
305.0
 30
0.0
 11
-5.0
 21
305.0
 31
0.0
  0
LINE
  5
1F8
330
31
100
AcDbEntity
  8
0
  6
AUSGEZOGEN
 62
     9
100
AcDbLine
 10
-578.0
 20
255.0
 30
0.0
 11
-583.0
 21
255.0
 31
0.0
  0
LINE
  5
1F9
330
31
100
AcDbEntity
  8
0
  6
AUSGEZOGEN
 62
     9
100
AcDbLine
 10
0.0
 20
255.0
 30
0.0
 11
-5.0
 21
255.0
 31
0.0
  0
LINE
  5
1FA
330
31
100
AcDbEntity
  8
0
  6
AUSGEZOGEN
 62
     9
100
AcDbLine
 10
-578.0
 20
205.0
 30
0.0
 11
-583.0
 21
205.0
 31
0.0
  0
LINE
  5
1FB
330
31
100
AcDbEntity
  8
0
  6
AUSGEZOGEN
 62
     9
100
AcDbLine
 10
0.0
 20
205.0
 30
0.0
 11
-5.0
 21
205.0
 31
0.0
  0
LINE
  5
1FC
330
31
100
AcDbEntity
  8
0
  6
AUSGEZOGEN
 62
     9
100
AcDbLine
 10
-578.0
 20
155.0
 30
0.0
 11
-583.0
 21
155.0
 31
0.0
  0
LINE
  5
1FD
330
31
100
AcDbEntity
  8
0
  6
AUSGEZOGEN
 62
     9
100
AcDbLine
 10
0.0
 20
155.0
 30
0.0
 11
-5.0
 21
155.0
 31
0.0
  0
LINE
  5
1FE
330
31
100
AcDbEntity
  8
0
  6
AUSGEZOGEN
 62
     9
100
AcDbLine
 10
-578.0
 20
105.0
 30
0.0
 11
-583.0
 21
105.0
 31
0.0
  0
LINE
  5
1FF
330
31
100
AcDbEntity
  8
0
  6
AUSGEZOGEN
 62
     9
100
AcDbLine
 10
0.0
 20
105.0
 30
0.0
 11
-5.0
 21
105.0
 31
0.0
  0
LINE
  5
200
330
31
100
AcDbEntity
  8
0
  6
AUSGEZOGEN
 62
     9
100
AcDbLine
 10
-578.0
 20
55.0
 30
0.0
 11
-583.0
 21
55.0
 31
0.0
  0
TEXT
  5
201
330
31
100
AcDbEntity
  8
0
  6
AUSGEZOGEN
 62
     9
100
AcDbText
 10
-580.6113452911376
 20
29.38534778356552
 30
0.0
 40
3.0
  1
A
 41
0.7333333492279053
100
AcDbText
  0
TEXT
  5
202
330
31
100
AcDbEntity
  8
0
  6
AUSGEZOGEN
 62
     9
100
AcDbText
 10
-580.6196455955505
 20
80.18481296300889
 30
0.0
 40
3.0
  1
B
 41
0.7333333492279053
100
AcDbText
  0
TEXT
  5
203
330
31
100
AcDbEntity
  8
0
  6
AUSGEZOGEN
 62
     9
100
AcDbText
 10
-580.4854574203491
 20
129.3247436881065
 30
0.0
 40
3.0
  1
C
 41
0.7333333492279053
100
AcDbText
  0
TEXT
  5
204
330
31
100
AcDbEntity
  8
0
  6
AUSGEZOGEN
 62
     9
100
AcDbText
 10
-580.590594291687
 20
178.8923553824424
 30
0.0
 40
3.0
  1
D
 41
0.7333333492279053
100
AcDbText
  0
TEXT
  5
205
330
31
100
AcDbEntity
  8
0
  6
AUSGEZOGEN
 62
     9
100
AcDbText
 10
-580.590594291687
 20
227.9782928824424
 30
0.0
 40
3.0
  1
E
 41
0.7333333492279053
100
AcDbText
  0
TEXT
  5
206
330
31
100
AcDbEntity
  8
0
  6
AUSGEZOGEN
 62
     9
100
AcDbText
 10
-580.594744682312
 20
278.087072789669
 30
0.0
 40
3.0
  1
F
 41
0.7333333492279053
100
AcDbText
  0
TEXT
  5
207
330
31
100
AcDbEntity
  8
0
  6
AUSGEZOGEN
 62
     9
100
AcDbText
 10
-580.4854574203491
 20
327.2851318717002
 30
0.0
 40
3.0
  1
G
 41
0.7333333492279053
100
AcDbText
  0
TEXT
  5
208
330
31
100
AcDbEntity
  8
0
  6
AUSGEZOGEN
 62
     9
100
AcDbText
 10
-580.4896073341369
 20
378.5676636099815
 30
0.0
 40
3.0
  1
H
 41
0.7333333492279053
100
AcDbText
  0
TEXT
  5
209
330
31
100
AcDbEntity
  8
0
  6
AUSGEZOGEN
 62
     9
100
AcDbText
 10
-554.1824302673339
 20
405.0107788443565
 30
0.0
 40
3.0
  1
11
 41
0.7333333492279053
100
AcDbText
  0
TEXT
  5
20A
330
31
100
AcDbEntity
  8
0
  6
AUSGEZOGEN
 62
     9
100
AcDbText
 10
-502.2606887817382
 20
405.0206360220909
 30
0.0
 40
3.0
  1
10
 41
0.7333333492279053
100
AcDbText
  0
TEXT
  5
20B
330
31
100
AcDbEntity
  8
0
  6
AUSGEZOGEN
 62
     9
100
AcDbText
 10
-450.4920196533203
 20
405.0275329947472
 30
0.0
 40
3.0
  1
9
 41
0.7333333492279053
100
AcDbText
  0
TEXT
  5
20C
330
31
100
AcDbEntity
  8
0
  6
AUSGEZOGEN
 62
     9
100
AcDbText
 10
-398.5835418701171
 20
404.9378723502159
 30
0.0
 40
3.0
  1
8
 41
0.7333333492279053
100
AcDbText
  0
TEXT
  5
20D
330
31
100
AcDbEntity
  8
0
  6
AUSGEZOGEN
 62
     9
100
AcDbText
 10
-347.3121490478515
 20
404.995031774044
 30
0.0
 40
3.0
  1
7
 41
0.7333333492279053
100
AcDbText
  0
TEXT
  5
20E
330
31
100
AcDbEntity
  8
0
  6
AUSGEZOGEN
 62
     9
100
AcDbText
 10
-293.8182983398437
 20
404.9762939810753
 30
0.0
 40
3.0
  1
6
 41
0.7333333492279053
100
AcDbText
  0
TEXT
  5
20F
330
31
100
AcDbEntity
  8
0
  6
AUSGEZOGEN
 62
     9
100
AcDbText
 10
-242.0319213867187
 20
404.9615234732628
 30
0.0
 40
3.0
  1
5
 41
0.7333333492279053
100
AcDbText
  0
TEXT
  5
210
330
31
100
AcDbEntity
  8
0
  6
AUSGEZOGEN
 62
     9
100
AcDbText
 10
-188.8374023437499
 20
405.0275329947472
 30
0.0
 40
3.0
  1
4
 41
0.7333333492279053
100
AcDbText
  0
TEXT
  5
211
330
31
100
AcDbEntity
  8
0
  6
AUSGEZOGEN
 62
     9
100
AcDbText
 10
-136.4395141601562
 20
404.9762939810753
 30
0.0
 40
3.0
  1
3
 41
0.7333333492279053
100
AcDbText
  0
TEXT
  5
212
330
31
100
AcDbEntity
  8
0
  6
AUSGEZOGEN
 62
     9
100
AcDbText
 10
-83.61032104492187
 20
405.0255798697471
 30
0.0
 40
3.0
  1
2
 41
0.7333333492279053
100
AcDbText
  0
TEXT
  5
213
330
31
100
AcDbEntity
  8
0
  6
AUSGEZOGEN
 62
     9
100
AcDbText
 10
-32.27197265625
 20
405.0295166373253
 30
0.0
 40
3.0
  1
1
 41
0.7333333492279053
100
AcDbText
  0
TEXT
  5
214
330
31
100
AcDbEntity
  8
0
  6
AUSGEZOGEN
 62
     9
100
AcDbText
 10
-3.9488525390625
 20
378.7365173697471
 30
0.0
 40
3.0
  1
H
 41
0.7333333492279053
100
AcDbText
  0
TEXT
  5
215
330
31
100
AcDbEntity
  8
0
  6
AUSGEZOGEN
 62
     9
100
AcDbText
 10
-3.9447021484375
 20
328.4533142447471
 30
0.0
 40
3.0
  1
G
 41
0.7333333492279053
100
AcDbText
  0
TEXT
  5
216
330
31
100
AcDbEntity
  8
0
  6
AUSGEZOGEN
 62
     9
100
AcDbText
 10
-4.0360107421875
 20
279.087805211544
 30
0.0
 40
3.0
  1
F
 41
0.7333333492279053
100
AcDbText
  0
TEXT
  5
217
330
31
100
AcDbEntity
  8
0
  6
AUSGEZOGEN
 62
     9
100
AcDbText
 10
-3.9405517578125
 20
228.0820984244346
 30
0.0
 40
3.0
  1
E
 41
0.7333333492279053
100
AcDbText
  0
TEXT
  5
218
330
31
100
AcDbEntity
  8
0
  6
AUSGEZOGEN
 62
     9
100
AcDbText
 10
-4.0277099609375
 20
176.4507812857627
 30
0.0
 40
3.0
  1
D
 41
0.7333333492279053
100
AcDbText
  0
TEXT
  5
219
330
31
100
AcDbEntity
  8
0
  6
AUSGEZOGEN
 62
     9
100
AcDbText
 10
-4.0360107421875
 20
128.0818085074424
 30
0.0
 40
3.0
  1
C
 41
0.7333333492279053
100
AcDbText
  0
TEXT
  5
21A
330
31
100
AcDbEntity
  8
0
  6
AUSGEZOGEN
 62
     9
100
AcDbText
 10
-3.9737548828125
 20
80.48931735754013
 30
0.0
 40
3.0
  1
B
 41
0.7333333492279053
100
AcDbText
  0
TEXT
  5
21B
330
31
100
AcDbEntity
  8
0
  6
AUSGEZOGEN
 62
     9
100
AcDbText
 10
-554.5625228881836
 20
1.020645558834075
 30
0.0
 40
3.0
  1
11
 41
0.7333333492279053
100
AcDbText
  0
TEXT
  5
21C
330
31
100
AcDbEntity
  8
0
  6
AUSGEZOGEN
 62
     9
100
AcDbText
 10
-502.9115753173828
 20
1.011778771877288
 30
0.0
 40
3.0
  1
10
 41
0.7333333492279053
100
AcDbText
  0
TEXT
  5
21D
330
31
100
AcDbEntity
  8
0
  6
AUSGEZOGEN
 62
     9
100
AcDbText
 10
-449.7466125488281
 20
1.008822858333587
 30
0.0
 40
3.0
  1
9
 41
0.7333333492279053
100
AcDbText
  0
TEXT
  5
21E
330
31
100
AcDbEntity
  8
0
  6
AUSGEZOGEN
 62
     9
100
AcDbText
 10
-398.8887939453125
 20
0.9497098326683044
 30
0.0
 40
3.0
  1
8
 41
0.7333333492279053
100
AcDbText
  0
TEXT
  5
21F
330
31
100
AcDbEntity
  8
0
  6
AUSGEZOGEN
 62
     9
100
AcDbText
 10
-345.3516082763671
 20
1.047246396541595
 30
0.0
 40
3.0
  1
7
 41
0.7333333492279053
100
AcDbText
  0
TEXT
  5
220
330
31
100
AcDbEntity
  8
0
  6
AUSGEZOGEN
 62
     9
100
AcDbText
 10
-293.4588928222656
 20
0.9871482253074645
 30
0.0
 40
3.0
  1
6
 41
0.7333333492279053
100
AcDbText
  0
TEXT
  5
221
330
31
100
AcDbEntity
  8
0
  6
AUSGEZOGEN
 62
     9
100
AcDbText
 10
-241.9846496582031
 20
0.9871481895446779
 30
0.0
 40
3.0
  1
5
 41
0.7333333492279053
100
AcDbText
  0
LINE
  5
222
330
31
100
AcDbEntity
  8
0
  6
AUSGEZOGEN
 62
     9
100
AcDbLine
 10
-578.0
 20
31.09948348999023
 30
0.0
 11
-215.0
 21
31.09948348999023
 31
0.0
  0
LINE
  5
223
330
31
100
AcDbEntity
  8
0
  6
AUSGEZOGEN
 62
     9
100
AcDbLine
 10
-578.0
 20
21.11319351196289
 30
0.0
 11
-215.0
 21
21.11319351196289
 31
0.0
  0
LINE
  5
224
330
31
100
AcDbEntity
  8
0
  6
AUSGEZOGEN
 62
     9
100
AcDbLine
 10
-578.0
 20
11.12688064575195
 30
0.0
 11
-215.0
 21
11.12688064575195
 31
0.0
  0
LINE
  5
225
330
31
100
AcDbEntity
  8
0
  6
AUSGEZOGEN
 62
     9
100
AcDbLine
 10
-215.0
 20
36.09264755249023
 30
0.0
 11
-578.0
 21
36.09264755249023
 31
0.0
  0
LINE
  5
226
330
31
100
AcDbEntity
  8
0
  6
AUSGEZOGEN
 62
     9
100
AcDbLine
 10
-215.0
 20
16.12003707885742
 30
0.0
 11
-578.0
 21
16.12003707885742
 31
0.0
  0
LINE
  5
227
330
31
100
AcDbEntity
  8
0
  6
AUSGEZOGEN
 62
     9
100
AcDbLine
 10
-215.0
 20
26.10633468627929
 30
0.0
 11
-577.4446048736572
 21
26.10633468627929
 31
0.0
  0
TEXT
  5
228
330
31
100
AcDbEntity
  8
0
  6
AUSGEZOGEN
 62
     9
100
AcDbText
 10
-575.4273014068603
 20
32.52983245849609
 30
0.0
 40
2.0
  1
neu
 41
0.7000000029802323
100
AcDbText
  0
TEXT
  5
229
330
31
100
AcDbEntity
  8
0
  6
AUSGEZOGEN
 62
     9
100
AcDbText
 10
-575.4273014068603
 20
27.39182434082031
 30
0.0
 40
2.0
  1
alt
 41
0.7000000029802323
100
AcDbText
  0
TEXT
  5
22A
330
31
100
AcDbEntity
  8
0
  6
AUSGEZOGEN
 62
     9
100
AcDbText
 10
-575.4273014068603
 20
22.50444183349609
 30
0.0
 40
2.0
  1
Feld
 41
0.7000000029802323
100
AcDbText
  0
TEXT
  5
22B
330
31
100
AcDbEntity
  8
0
  6
AUSGEZOGEN
 62
     9
100
AcDbText
 10
-575.4273014068603
 20
17.49174652099609
 30
0.0
 40
2.0
  1
Dat. Name
 41
0.7000000029802323
100
AcDbText
  0
TEXT
  5
22C
330
31
100
AcDbEntity
  8
0
  6
AUSGEZOGEN
 62
     9
100
AcDbText
 10
-575.4273014068603
 20
12.60436782836914
 30
0.0
 40
2.0
  1
Mitteil. Nr
 41
0.7000000029802323
100
AcDbText
  0
TEXT
  5
22D
330
31
100
AcDbEntity
  8
0
  6
AUSGEZOGEN
 62
     9
100
AcDbText
 10
-575.4273014068603
 20
7.090398406982421
 30
0.0
 40
2.0
  1
Änd. Buchst
 41
0.7000000029802323
100
AcDbText
  0
LINE
  5
22E
330
31
100
AcDbEntity
  8
0
  6
AUSGEZOGEN
 62
   134
100
AcDbLine
 10
-215.0
 20
75.0
 30
0.0
 11
0.0
 21
75.0
 31
0.0
  0
LINE
  5
22F
330
31
100
AcDbEntity
  8
0
  6
AUSGEZOGEN
 62
   134
100
AcDbLine
 10
0.0
 20
75.0
 30
0.0
 11
0.0
 21
0.0
 31
0.0
  0
LINE
  5
230
330
31
100
AcDbEntity
  8
0
  6
AUSGEZOGEN
 62
   134
100
AcDbLine
 10
-215.0
 20
0.0
 30
0.0
 11
0.0
 21
0.0
 31
0.0
  0
LINE
  5
231
330
31
100
AcDbEntity
  8
0
  6
AUSGEZOGEN
 62
     9
100
AcDbLine
 10
-85.0
 20
71.0
 30
0.0
 11
0.0
 21
71.0
 31
0.0
  0
LINE
  5
232
330
31
100
AcDbEntity
  8
0
  6
AUSGEZOGEN
 62
     9
100
AcDbLine
 10
-85.0
 20
64.0
 30
0.0
 11
0.0
 21
64.0
 31
0.0
  0
LINE
  5
233
330
31
100
AcDbEntity
  8
0
  6
AUSGEZOGEN
 62
    14
100
AcDbLine
 10
-186.0
 20
57.0
 30
0.0
 11
0.0
 21
57.0
 31
0.0
  0
LINE
  5
234
330
31
100
AcDbEntity
  8
0
  6
AUSGEZOGEN
 62
     9
100
AcDbLine
 10
-85.0
 20
50.0
 30
0.0
 11
0.0
 21
50.0
 31
0.0
  0
LINE
  5
235
330
31
100
AcDbEntity
  8
0
  6
AUSGEZOGEN
 62
    14
100
AcDbLine
 10
-85.0
 20
41.0
 30
0.0
 11
0.0
 21
41.0
 31
0.0
  0
LINE
  5
236
330
31
100
AcDbEntity
  8
0
  6
AUSGEZOGEN
 62
    14
100
AcDbLine
 10
-85.0
 20
19.0
 30
0.0
 11
0.0
 21
19.0
 31
0.0
  0
LINE
  5
237
330
31
100
AcDbEntity
  8
0
  6
AUSGEZOGEN
 62
     9
100
AcDbLine
 10
-127.0
 20
6.0
 30
0.0
 11
0.0
 21
6.0
 31
0.0
  0
LINE
  5
238
330
31
100
AcDbEntity
  8
0
  6
AUSGEZOGEN
 62
    14
100
AcDbLine
 10
-85.0
 20
75.0
 30
0.0
 11
-85.0
 21
0.0
 31
0.0
  0
LINE
  5
239
330
31
100
AcDbEntity
  8
0
  6
AUSGEZOGEN
 62
    14
100
AcDbLine
 10
-12.0
 20
19.0
 30
0.0
 11
-12.0
 21
6.0
 31
0.0
  0
LINE
  5
23A
330
31
100
AcDbEntity
  8
0
  6
AUSGEZOGEN
 62
     9
100
AcDbLine
 10
-42.0
 20
6.0
 30
0.0
 11
-42.0
 21
0.0
 31
0.0
  0
LINE
  5
23B
330
31
100
AcDbEntity
  8
0
  6
AUSGEZOGEN
 62
     9
100
AcDbLine
 10
-15.5
 20
71.0
 30
0.0
 11
-15.5
 21
57.0
 31
0.0
  0
LINE
  5
23C
330
31
100
AcDbEntity
  8
0
  6
AUSGEZOGEN
 62
     9
100
AcDbLine
 10
-31.0
 20
71.0
 30
0.0
 11
-31.0
 21
57.0
 31
0.0
  0
LINE
  5
23D
330
31
100
AcDbEntity
  8
0
  6
AUSGEZOGEN
 62
     9
100
AcDbLine
 10
-46.5
 20
71.0
 30
0.0
 11
-46.5
 21
57.0
 31
0.0
  0
LINE
  5
23E
330
31
100
AcDbEntity
  8
0
  6
AUSGEZOGEN
 62
     9
100
AcDbLine
 10
-62.0
 20
71.0
 30
0.0
 11
-62.0
 21
57.0
 31
0.0
  0
LINE
  5
23F
330
31
100
AcDbEntity
  8
0
  6
AUSGEZOGEN
 62
    14
100
AcDbLine
 10
-127.0
 20
75.0
 30
0.0
 11
-127.0
 21
0.0
 31
0.0
  0
LINE
  5
240
330
31
100
AcDbEntity
  8
0
  6
AUSGEZOGEN
 62
    14
100
AcDbLine
 10
-85.0
 20
41.0
 30
0.0
 11
-186.0
 21
41.0
 31
0.0
  0
LINE
  5
241
330
31
100
AcDbEntity
  8
0
  6
AUSGEZOGEN
 62
     9
100
AcDbLine
 10
-85.0
 20
36.59999084472656
 30
0.0
 11
-127.0
 21
36.59999084472656
 31
0.0
  0
LINE
  5
242
330
31
100
AcDbEntity
  8
0
  6
AUSGEZOGEN
 62
     9
100
AcDbLine
 10
-85.0
 20
32.19999694824219
 30
0.0
 11
-186.0
 21
32.19999694824219
 31
0.0
  0
LINE
  5
243
330
31
100
AcDbEntity
  8
0
  6
AUSGEZOGEN
 62
     9
100
AcDbLine
 10
-85.0
 20
27.79998779296875
 30
0.0
 11
-127.0
 21
27.79998779296875
 31
0.0
  0
LINE
  5
244
330
31
100
AcDbEntity
  8
0
  6
AUSGEZOGEN
 62
     9
100
AcDbLine
 10
-85.0
 20
23.39999389648437
 30
0.0
 11
-127.0
 21
23.39999389648437
 31
0.0
  0
LINE
  5
245
330
31
100
AcDbEntity
  8
0
  6
AUSGEZOGEN
 62
     9
100
AcDbLine
 10
-85.0
 20
18.99998474121093
 30
0.0
 11
-186.0
 21
18.99998474121093
 31
0.0
  0
LINE
  5
246
330
31
100
AcDbEntity
  8
0
  6
AUSGEZOGEN
 62
     9
100
AcDbLine
 10
-85.0
 20
14.59999084472656
 30
0.0
 11
-186.0
 21
14.59999084472656
 31
0.0
  0
LINE
  5
247
330
31
100
AcDbEntity
  8
0
  6
AUSGEZOGEN
 62
     9
100
AcDbLine
 10
-117.0
 20
41.0
 30
0.0
 11
-117.0
 21
23.39999389648437
 31
0.0
  0
LINE
  5
248
330
31
100
AcDbEntity
  8
0
  6
AUSGEZOGEN
 62
     9
100
AcDbLine
 10
-102.0
 20
41.0
 30
0.0
 11
-102.0
 21
14.59999084472656
 31
0.0
  0
LINE
  5
249
330
31
100
AcDbEntity
  8
0
  6
AUSGEZOGEN
 62
    14
100
AcDbLine
 10
-186.0
 20
75.0
 30
0.0
 11
-186.0
 21
0.0
 31
0.0
  0
LINE
  5
24A
330
31
100
AcDbEntity
  8
0
  6
AUSGEZOGEN
 62
     9
100
AcDbLine
 10
-127.0
 20
10.19998168945312
 30
0.0
 11
-186.0
 21
10.19998168945312
 31
0.0
  0
LINE
  5
24B
330
31
100
AcDbEntity
  8
0
  6
AUSGEZOGEN
 62
     9
100
AcDbLine
 10
-141.7499999999999
 20
28.49455261230469
 30
0.0
 11
-141.7499999999999
 21
10.19998168945312
 31
0.0
  0
LINE
  5
24C
330
31
100
AcDbEntity
  8
0
  6
AUSGEZOGEN
 62
     9
100
AcDbLine
 10
-156.4999999999999
 20
28.17271423339843
 30
0.0
 11
-156.4999999999999
 21
10.19998168945312
 31
0.0
  0
LINE
  5
24D
330
31
100
AcDbEntity
  8
0
  6
AUSGEZOGEN
 62
     9
100
AcDbLine
 10
-171.25
 20
32.19999694824219
 30
0.0
 11
-171.25
 21
10.19998168945312
 31
0.0
  0
LINE
  5
24E
330
31
100
AcDbEntity
  8
0
  6
AUSGEZOGEN
 62
    14
100
AcDbLine
 10
-215.0
 20
65.14999389648437
 30
0.0
 11
-186.0
 21
65.14999389648437
 31
0.0
  0
LINE
  5
24F
330
31
100
AcDbEntity
  8
0
  6
AUSGEZOGEN
 62
    14
100
AcDbLine
 10
-215.0
 20
55.30000305175781
 30
0.0
 11
-186.0
 21
55.30000305175781
 31
0.0
  0
LINE
  5
250
330
31
100
AcDbEntity
  8
0
  6
AUSGEZOGEN
 62
    14
100
AcDbLine
 10
-215.0
 20
45.44999694824219
 30
0.0
 11
-186.0
 21
45.44999694824219
 31
0.0
  0
LINE
  5
251
330
31
100
AcDbEntity
  8
0
  6
AUSGEZOGEN
 62
    14
100
AcDbLine
 10
-215.0
 20
35.60000610351562
 30
0.0
 11
-186.0
 21
35.60000610351562
 31
0.0
  0
LINE
  5
252
330
31
100
AcDbEntity
  8
0
  6
AUSGEZOGEN
 62
    14
100
AcDbLine
 10
-215.0
 20
25.75
 30
0.0
 11
-186.0
 21
25.75
 31
0.0
  0
LINE
  5
253
330
31
100
AcDbEntity
  8
0
  6
AUSGEZOGEN
 62
    14
100
AcDbLine
 10
-215.0
 20
15.90000915527343
 30
0.0
 11
-186.0
 21
15.90000915527343
 31
0.0
  0
LINE
  5
254
330
31
100
AcDbEntity
  8
0
  6
AUSGEZOGEN
 62
    14
100
AcDbLine
 10
-215.0
 20
6.050003051757812
 30
0.0
 11
-186.0
 21
6.050003051757812
 31
0.0
  0
LINE
  5
255
330
31
100
AcDbEntity
  8
0
  6
AUSGEZOGEN
 62
    14
100
AcDbLine
 10
-198.0
 20
75.0
 30
0.0
 11
-198.0
 21
0.0
 31
0.0
  0
LINE
  5
256
330
31
100
AcDbEntity
  8
0
  6
AUSGEZOGEN
 62
     9
100
AcDbLine
 10
-198.0
 20
70.07499694824218
 30
0.0
 11
-186.0
 21
70.07499694824218
 31
0.0
  0
LINE
  5
257
330
31
100
AcDbEntity
  8
0
  6
AUSGEZOGEN
 62
     9
100
AcDbLine
 10
-198.0
 20
60.22499084472656
 30
0.0
 11
-186.0
 21
60.22499084472656
 31
0.0
  0
LINE
  5
258
330
31
100
AcDbEntity
  8
0
  6
AUSGEZOGEN
 62
     9
100
AcDbLine
 10
-198.0
 20
50.375
 30
0.0
 11
-186.0
 21
50.375
 31
0.0
  0
LINE
  5
259
330
31
100
AcDbEntity
  8
0
  6
AUSGEZOGEN
 62
     9
100
AcDbLine
 10
-198.0
 20
40.52499389648438
 30
0.0
 11
-186.0
 21
40.52499389648438
 31
0.0
  0
LINE
  5
25A
330
31
100
AcDbEntity
  8
0
  6
AUSGEZOGEN
 62
     9
100
AcDbLine
 10
-198.0
 20
30.67500305175781
 30
0.0
 11
-186.0
 21
30.67500305175781
 31
0.0
  0
LINE
  5
25B
330
31
100
AcDbEntity
  8
0
  6
AUSGEZOGEN
 62
     9
100
AcDbLine
 10
-198.0
 20
20.82501220703125
 30
0.0
 11
-186.0
 21
20.82501220703125
 31
0.0
  0
LINE
  5
25C
330
31
100
AcDbEntity
  8
0
  6
AUSGEZOGEN
 62
     9
100
AcDbLine
 10
-198.0
 20
10.97500610351562
 30
0.0
 11
-186.0
 21
10.97500610351562
 31
0.0
  0
TEXT
  5
25D
330
31
100
AcDbEntity
  8
0
  6
AUSGEZOGEN
 62
     9
100
AcDbText
 10
-94.96307373046875
 20
37.4515394449234
 30
0.0
 40
2.299999952316284
  1
Name
 41
0.7826086911452065
100
AcDbText
  0
TEXT
  5
25E
330
31
100
AcDbEntity
  8
0
  6
AUSGEZOGEN
 62
     9
100
AcDbText
 10
-113.3741455078125
 20
37.26396315097808
 30
0.0
 40
2.299999952316284
  1
Datum
 41
0.7826086911452065
100
AcDbText
  0
TEXT
  5
25F
330
31
100
AcDbEntity
  8
0
  6
AUSGEZOGEN
 62
     9
100
AcDbText
 10
-126.2693481445312
 20
33.14894239902496
 30
0.0
 40
2.299999952316284
  1
Bearb.
 41
0.6521739395219127
100
AcDbText
  0
TEXT
  5
260
330
31
100
AcDbEntity
  8
0
  6
AUSGEZOGEN
 62
     9
100
AcDbText
 10
-126.2693481445312
 20
29.20994703769684
 30
0.0
 40
2.299999952316284
  1
Gepr.
 41
0.6521739395219127
100
AcDbText
  0
TEXT
  5
261
330
31
100
AcDbEntity
  8
0
  6
AUSGEZOGEN
 62
     9
100
AcDbText
 10
-126.2467651367187
 20
24.84672491550445
 30
0.0
 40
2.299999952316284
  1
Norm
 41
0.6521739395219127
100
AcDbText
  0
TEXT
  5
262
330
31
100
AcDbEntity
  8
0
  6
AUSGEZOGEN
 62
     9
100
AcDbText
 10
-40.697509765625
 20
2.625488209724426
 30
0.0
 40
2.299999952316284
  1
(Ers.d.:)
 41
0.6956521987013651
100
AcDbText
  0
TEXT
  5
263
330
31
100
AcDbEntity
  8
0
  6
AUSGEZOGEN
 62
     9
100
AcDbText
 10
-83.49755859374999
 20
2.625488209724426
 30
0.0
 40
2.299999952316284
  1
(Ers.f.:)
 41
0.6956521987013651
100
AcDbText
  0
TEXT
  5
264
330
31
100
AcDbEntity
  8
0
  6
AUSGEZOGEN
 62
     9
100
AcDbText
 10
-126.2975463867187
 20
2.625488209724426
 30
0.0
 40
2.299999952316284
  1
(Urspr.)
 41
0.6956521987013651
100
AcDbText
  0
TEXT
  5
265
330
31
100
AcDbEntity
  8
0
  6
AUSGEZOGEN
 62
     9
100
AcDbText
 10
-83.21746826171875
 20
51.9617919921875
 30
0.0
 40
2.5
  1
Maßstab:
 41
0.7199999809265137
100
AcDbText
  0
TEXT
  5
266
330
31
100
AcDbEntity
  8
0
  6
AUSGEZOGEN
 62
     9
100
AcDbText
 10
-83.21746826171875
 20
45.9617919921875
 30
0.0
 40
2.5
  1
Werkstoff
 41
0.7199999809265137
100
AcDbText
  0
TEXT
  5
267
330
31
100
AcDbEntity
  8
0
  6
AUSGEZOGEN
 62
     9
100
AcDbText
 10
-83.21746826171875
 20
41.96179199218749
 30
0.0
 40
2.5
  1
Rohteil-Nr.
 41
0.7199999809265137
100
AcDbText
  0
TEXT
  5
268
330
31
100
AcDbEntity
  8
0
  6
AUSGEZOGEN
 62
     9
100
AcDbText
 10
-126.2467651367187
 20
20.44671576023101
 30
0.0
 40
2.299999952316284
  1
VDE-gepr. Konstr
 41
0.6521739395219127
100
AcDbText
  0
TEXT
  5
269
330
31
100
AcDbEntity
  8
0
  6
AUSGEZOGEN
 62
     9
100
AcDbText
 10
-126.2467651367187
 20
16.04672186374664
 30
0.0
 40
2.299999952316284
  1
VDE-gepr. Norm
 41
0.6521739395219127
100
AcDbText
  0
TEXT
  5
26A
330
31
100
AcDbEntity
  8
0
  6
AUSGEZOGEN
 62
     9
100
AcDbText
 10
-83.65960693359374
 20
71.88078460693358
 30
0.0
 40
2.0
  1
Symbole für die Oberflächenbeschaffenheit
 41
0.9000000357627868
100
AcDbText
  0
TEXT
  5
26B
330
31
100
AcDbEntity
  8
0
  6
AUSGEZOGEN
 62
     9
100
AcDbText
 10
-84.01879882812499
 20
59.25633392333985
 30
0.0
 40
2.0
  1
DIN ISO 4763
 41
0.8500000238418579
100
AcDbText
  0
LINE
  5
26C
330
31
100
AcDbEntity
  8
0
  6
AUSGEZOGEN
 62
     9
100
AcDbLine
 10
-39.98028564453125
 20
57.0
 30
0.0
 11
-39.98028564453125
 21
50.0
 31
0.0
  0
LINE
  5
26D
330
31
100
AcDbEntity
  8
0
  6
AUSGEZOGEN
 62
     9
100
AcDbLine
 10
-17.92303466796875
 20
54.66740417480469
 30
0.0
 11
-17.92303466796875
 21
52.16740417480469
 31
0.0
  0
LINE
  5
26E
330
31
100
AcDbEntity
  8
0
  6
STRICHPUNKT
 62
    54
100
AcDbLine
 10
-8.120361328125
 20
53.41740417480469
 30
0.0
 11
-3.120361328125
 21
53.41740417480469
 31
0.0
  0
LINE
  5
26F
330
31
100
AcDbEntity
  8
0
  6
STRICHPUNKT
 62
    54
100
AcDbLine
 10
-17.92303466796875
 20
53.41740417480469
 30
0.0
 11
-12.92303466796875
 21
53.41740417480469
 31
0.0
  0
LINE
  5
270
330
31
100
AcDbEntity
  8
0
  6
AUSGEZOGEN
 62
     9
100
AcDbLine
 10
-12.92303466796875
 20
55.84162902832031
 30
0.0
 11
-12.92303466796875
 21
50.99317932128906
 31
0.0
  0
LINE
  5
271
330
31
100
AcDbEntity
  8
0
  6
AUSGEZOGEN
 62
     9
100
AcDbLine
 10
-12.92303466796875
 20
55.84162902832031
 30
0.0
 11
-17.92303466796875
 21
54.66740417480469
 31
0.0
  0
LINE
  5
272
330
31
100
AcDbEntity
  8
0
  6
AUSGEZOGEN
 62
     9
100
AcDbLine
 10
-12.92303466796875
 20
50.99317932128906
 30
0.0
 11
-17.92303466796875
 21
52.16740417480469
 31
0.0
  0
CIRCLE
  5
273
330
31
100
AcDbEntity
  8
0
  6
AUSGEZOGEN
 62
     9
100
AcDbCircle
 10
-5.620361328125
 20
53.41740417480469
 30
0.0
 40
2.5
  0
CIRCLE
  5
274
330
31
100
AcDbEntity
  8
0
  6
AUSGEZOGEN
 62
     9
100
AcDbCircle
 10
-5.620361328125
 20
53.41740417480469
 30
0.0
 40
1.25
  0
LINE
  5
275
330
31
100
AcDbEntity
  8
0
  6
STRICHPUNKT
 62
    54
100
AcDbLine
 10
-5.620361328125
 20
55.91740417480469
 30
0.0
 11
-5.620361328125
 21
50.91740417480469
 31
0.0
  0
LINE
  5
276
330
31
100
AcDbEntity
  8
0
  6
AUSGEZOGEN
 62
     9
100
AcDbLine
 10
-54.8507080078125
 20
64.92915344238281
 30
0.0
 11
-56.2940673828125
 21
67.42915344238281
 31
0.0
  0
LINE
  5
277
330
31
100
AcDbEntity
  8
0
  6
AUSGEZOGEN
 62
     9
100
AcDbLine
 10
-54.8507080078125
 20
64.92915344238281
 30
0.0
 11
-51.96392822265625
 21
69.92915344238281
 31
0.0
  0
LINE
  5
278
330
31
100
AcDbEntity
  8
0
  6
AUSGEZOGEN
 62
     9
100
AcDbLine
 10
-55.30621337890625
 20
57.86512756347656
 30
0.0
 11
-56.74957275390625
 21
60.36512756347656
 31
0.0
  0
LINE
  5
279
330
31
100
AcDbEntity
  8
0
  6
AUSGEZOGEN
 62
     9
100
AcDbLine
 10
-55.30621337890625
 20
57.86512756347656
 30
0.0
 11
-52.41943359375
 21
62.86512756347656
 31
0.0
  0
LINE
  5
27A
330
31
100
AcDbEntity
  8
0
  6
AUSGEZOGEN
 62
     9
100
AcDbLine
 10
-44.26019287109375
 20
57.86512756347656
 30
0.0
 11
-45.70355224609374
 21
60.36512756347656
 31
0.0
  0
LINE
  5
27B
330
31
100
AcDbEntity
  8
0
  6
AUSGEZOGEN
 62
     9
100
AcDbLine
 10
-44.26019287109375
 20
57.86512756347656
 30
0.0
 11
-41.37341308593749
 21
62.86512756347656
 31
0.0
  0
LINE
  5
27C
330
31
100
AcDbEntity
  8
0
  6
AUSGEZOGEN
 62
     9
100
AcDbLine
 10
-45.70355224609374
 20
60.36512756347656
 30
0.0
 11
-42.8167724609375
 21
60.36512756347656
 31
0.0
  0
LINE
  5
27D
330
31
100
AcDbEntity
  8
0
  6
AUSGEZOGEN
 62
     9
100
AcDbLine
 10
-41.37341308593749
 20
62.86512756347656
 30
0.0
 11
-33.426513671875
 21
62.86512756347656
 31
0.0
  0
TEXT
  5
27E
330
31
100
AcDbEntity
  8
0
  6
AUSGEZOGEN
 62
     9
100
AcDbText
 10
-41.4739990234375
 20
59.61050720214844
 30
0.0
 40
1.5
  1
Rz25
 41
0.8666666746139526
100
AcDbText
  0
LINE
  5
27F
330
31
100
AcDbEntity
  8
0
  6
AUSGEZOGEN
 62
     9
100
AcDbLine
 10
-28.8868408203125
 20
57.75119018554687
 30
0.0
 11
-30.3302001953125
 21
60.25119018554687
 31
0.0
  0
LINE
  5
280
330
31
100
AcDbEntity
  8
0
  6
AUSGEZOGEN
 62
     9
100
AcDbLine
 10
-28.8868408203125
 20
57.75119018554687
 30
0.0
 11
-26.00006103515625
 21
62.75119018554687
 31
0.0
  0
LINE
  5
281
330
31
100
AcDbEntity
  8
0
  6
AUSGEZOGEN
 62
     9
100
AcDbLine
 10
-30.3302001953125
 20
60.25119018554687
 30
0.0
 11
-27.44342041015625
 21
60.25119018554687
 31
0.0
  0
LINE
  5
282
330
31
100
AcDbEntity
  8
0
  6
AUSGEZOGEN
 62
     9
100
AcDbLine
 10
-26.00006103515625
 20
62.75119018554687
 30
0.0
 11
-18.05316162109375
 21
62.75119018554687
 31
0.0
  0
TEXT
  5
283
330
31
100
AcDbEntity
  8
0
  6
AUSGEZOGEN
 62
     9
100
AcDbText
 10
-26.10064697265625
 20
59.49656982421875
 30
0.0
 40
1.5
  1
Rz6,3
 41
0.8666666746139526
100
AcDbText
  0
LINE
  5
284
330
31
100
AcDbEntity
  8
0
  6
AUSGEZOGEN
 62
     9
100
AcDbLine
 10
-13.0579833984375
 20
57.75119018554687
 30
0.0
 11
-14.5013427734375
 21
60.25119018554687
 31
0.0
  0
LINE
  5
285
330
31
100
AcDbEntity
  8
0
  6
AUSGEZOGEN
 62
     9
100
AcDbLine
 10
-13.0579833984375
 20
57.75119018554687
 30
0.0
 11
-10.17120361328125
 21
62.75119018554687
 31
0.0
  0
LINE
  5
286
330
31
100
AcDbEntity
  8
0
  6
AUSGEZOGEN
 62
     9
100
AcDbLine
 10
-14.5013427734375
 20
60.25119018554687
 30
0.0
 11
-11.61456298828124
 21
60.25119018554687
 31
0.0
  0
LINE
  5
287
330
31
100
AcDbEntity
  8
0
  6
AUSGEZOGEN
 62
     9
100
AcDbLine
 10
-10.17120361328125
 20
62.75119018554687
 30
0.0
 11
-2.22430419921875
 21
62.75119018554687
 31
0.0
  0
TEXT
  5
288
330
31
100
AcDbEntity
  8
0
  6
AUSGEZOGEN
 62
     9
100
AcDbText
 10
-10.27178955078124
 20
59.49656984210014
 30
0.0
 40
1.5
  1
Rz2,5
 41
0.8666666746139526
100
AcDbText
  0
LINE
  5
289
330
31
100
AcDbEntity
  8
0
  6
AUSGEZOGEN
 62
     9
100
AcDbLine
 10
-7.81964111328125
 20
64.92915344238281
 30
0.0
 11
-9.26300048828125
 21
67.42915344238281
 31
0.0
  0
LINE
  5
28A
330
31
100
AcDbEntity
  8
0
  6
AUSGEZOGEN
 62
     9
100
AcDbLine
 10
-7.81964111328125
 20
64.92915344238281
 30
0.0
 11
-4.932861328125
 21
69.92915344238281
 31
0.0
  0
LINE
  5
28B
330
31
100
AcDbEntity
  8
0
  6
AUSGEZOGEN
 62
     9
100
AcDbLine
 10
-23.64849853515625
 20
64.92915344238281
 30
0.0
 11
-25.09185791015625
 21
67.42915344238281
 31
0.0
  0
LINE
  5
28C
330
31
100
AcDbEntity
  8
0
  6
AUSGEZOGEN
 62
     9
100
AcDbLine
 10
-23.64849853515625
 20
64.92915344238281
 30
0.0
 11
-20.76171875
 21
69.92915344238281
 31
0.0
  0
LINE
  5
28D
330
31
100
AcDbEntity
  8
0
  6
AUSGEZOGEN
 62
     9
100
AcDbLine
 10
-39.1357421875
 20
64.92915344238281
 30
0.0
 11
-40.5791015625
 21
67.42915344238281
 31
0.0
  0
LINE
  5
28E
330
31
100
AcDbEntity
  8
0
  6
AUSGEZOGEN
 62
     9
100
AcDbLine
 10
-39.1357421875
 20
64.92915344238281
 30
0.0
 11
-36.24896240234375
 21
69.92915344238281
 31
0.0
  0
CIRCLE
  5
28F
330
31
100
AcDbEntity
  8
0
  6
AUSGEZOGEN
 62
     9
100
AcDbCircle
 10
-54.84625244140625
 20
66.95063781738281
 30
0.0
 40
1.0
  0
CIRCLE
  5
290
330
31
100
AcDbEntity
  8
0
  6
AUSGEZOGEN
 62
     9
100
AcDbCircle
 10
-55.2982177734375
 20
60.03184509277343
 30
0.0
 40
1.0
  0
TEXT
  5
291
330
31
100
AcDbEntity
  8
0
  6
AUSGEZOGEN
 62
     9
100
AcDbText
 10
-39.90234375
 20
67.19925079345703
 30
0.0
 40
2.0
  1
w
 41
0.7999999821186066
100
AcDbText
  0
TEXT
  5
292
330
31
100
AcDbEntity
  8
0
  6
AUSGEZOGEN
 62
     9
100
AcDbText
 10
-24.2171630859375
 20
67.4444595336914
 30
0.0
 40
2.0
  1
x
 41
0.7999999821186066
100
AcDbText
  0
TEXT
  5
293
330
31
100
AcDbEntity
  8
0
  6
AUSGEZOGEN
 62
     9
100
AcDbText
 10
-8.409423828125
 20
67.4444595336914
 30
0.0
 40
2.0
  1
y
 41
0.7999999821186066
100
AcDbText
  0
TEXT
  5
294
330
31
100
AcDbEntity
  8
0
  6
AUSGEZOGEN
 62
     9
100
AcDbText
 10
-9.7740478515625
 20
15.31469669938087
 30
0.0
 40
2.299999952316284
  1
Blatt
 41
0.6956521987013651
100
AcDbText
  0
TEXT
  5
295
330
31
100
AcDbEntity
  8
0
  6
AUSGEZOGEN
 62
     9
100
AcDbText
 10
-4.7576904296875
 20
7.397430807352066
 30
0.0
 40
2.299999952316284
  1
Bl.
 41
0.6956521987013651
100
AcDbText
  0
TEXT
  5
296
330
31
100
AcDbEntity
  8
0
  6
AUSGEZOGEN
 62
     9
100
AcDbText
 10
-183.556396484375
 20
68.1602767944336
 30
0.0
 40
3.0
  1
Für diese Zeichnung behalten
 41
0.6333333253860474
100
AcDbText
  0
TEXT
  5
297
330
31
100
AcDbEntity
  8
0
  6
AUSGEZOGEN
 62
     9
100
AcDbText
 10
-183.556396484375
 20
63.3602767944336
 30
0.0
 40
3.0
  1
wir uns alle Rechte vor.
 41
0.6333333253860474
100
AcDbText
  0
TEXT
  5
298
330
31
100
AcDbEntity
  8
0
  6
AUSGEZOGEN
 62
     9
100
AcDbText
 10
-164.8905029296875
 20
29.18658599853515
 30
0.0
 40
2.0
  1
Nennmaßbereich  (mm)
 41
0.8500000238418579
100
AcDbText
  0
TEXT
  5
299
330
31
100
AcDbEntity
  8
0
  6
AUSGEZOGEN
 62
     9
100
AcDbText
 10
-182.3128662109374
 20
15.91395530700683
 30
0.0
 40
2.0
  1
fein
 41
0.7500000149011612
100
AcDbText
  0
TEXT
  5
29A
330
31
100
AcDbEntity
  8
0
  6
AUSGEZOGEN
 62
     9
100
AcDbText
 10
-183.8898315429687
 20
11.39082298278808
 30
0.0
 40
2.0
  1
mittel
 41
0.7500000149011612
100
AcDbText
  0
TEXT
  5
29B
330
31
100
AcDbEntity
  8
0
  6
AUSGEZOGEN
 62
     9
100
AcDbText
 10
-185.0853271484375
 20
5.03837547302246
 30
0.0
 40
2.0
  1
"fein" für Bohrungen u. Lochmittenabstand
 41
0.7000000029802323
100
AcDbText
  0
TEXT
  5
29C
330
31
100
AcDbEntity
  8
0
  6
AUSGEZOGEN
 62
     9
100
AcDbText
 10
-185.0853271484375
 20
1.83837547302246
 30
0.0
 40
2.0
  1
"mittel" für alle anderen Maße
 41
0.7000000029802323
100
AcDbText
  0
TEXT
  5
29D
330
31
100
AcDbEntity
  8
0
  6
AUSGEZOGEN
 62
     9
100
AcDbText
 10
-164.1904296874999
 20
15.70356712341308
 30
0.0
 40
2.0
  1
0,1
 41
0.8000000119209289
100
AcDbText
  0
TEXT
  5
29E
330
31
100
AcDbEntity
  8
0
  6
AUSGEZOGEN
 62
     9
100
AcDbText
 10
-149.3793945312499
 20
15.59838829040527
 30
0.0
 40
2.0
  1
0,15
 41
0.8000000119209289
100
AcDbText
  0
TEXT
  5
29F
330
31
100
AcDbEntity
  8
0
  6
AUSGEZOGEN
 62
     9
100
AcDbText
 10
-135.4104614257812
 20
15.90002403259277
 30
0.0
 40
2.0
  1
0,2
 41
0.8000000119209289
100
AcDbText
  0
TEXT
  5
2A0
330
31
100
AcDbEntity
  8
0
  6
AUSGEZOGEN
 62
     9
100
AcDbText
 10
-135.186279296875
 20
11.60119590759277
 30
0.0
 40
2.0
  1
0,5
 41
0.8000000119209289
100
AcDbText
  0
TEXT
  5
2A1
330
31
100
AcDbEntity
  8
0
  6
AUSGEZOGEN
 62
     9
100
AcDbText
 10
-149.3515625
 20
11.39082298278808
 30
0.0
 40
2.0
  1
0,3
 41
0.8000000119209289
100
AcDbText
  0
TEXT
  5
2A2
330
31
100
AcDbEntity
  8
0
  6
AUSGEZOGEN
 62
     9
100
AcDbText
 10
-164.5263671875
 20
11.39082298278808
 30
0.0
 40
2.0
  1
0,2
 41
0.8000000119209289
100
AcDbText
  0
LINE
  5
2A3
330
31
100
AcDbEntity
  8
0
  6
AUSGEZOGEN
 62
     9
100
AcDbLine
 10
-167.5855102539062
 20
13.42669677734375
 30
0.0
 11
-167.5855102539062
 21
11.98603820800781
 31
0.0
  0
LINE
  5
2A4
330
31
100
AcDbEntity
  8
0
  6
AUSGEZOGEN
 62
     9
100
AcDbLine
 10
-168.3058471679687
 20
12.70635986328125
 30
0.0
 11
-166.865234375
 21
12.70635986328125
 31
0.0
  0
LINE
  5
2A5
330
31
100
AcDbEntity
  8
0
  6
AUSGEZOGEN
 62
     9
100
AcDbLine
 10
-168.3058471679687
 20
11.51724243164062
 30
0.0
 11
-166.865234375
 21
11.51724243164062
 31
0.0
  0
LINE
  5
2A6
330
31
100
AcDbEntity
  8
0
  6
AUSGEZOGEN
 62
     9
100
AcDbLine
 10
-152.8222045898437
 20
13.30757141113281
 30
0.0
 11
-152.8222045898437
 21
11.86691284179687
 31
0.0
  0
LINE
  5
2A7
330
31
100
AcDbEntity
  8
0
  6
AUSGEZOGEN
 62
     9
100
AcDbLine
 10
-153.5425415039062
 20
12.58723449707031
 30
0.0
 11
-152.1018676757812
 21
12.58723449707031
 31
0.0
  0
LINE
  5
2A8
330
31
100
AcDbEntity
  8
0
  6
AUSGEZOGEN
 62
     9
100
AcDbLine
 10
-153.5425415039062
 20
11.39811706542968
 30
0.0
 11
-152.1018676757812
 21
11.39811706542968
 31
0.0
  0
LINE
  5
2A9
330
31
100
AcDbEntity
  8
0
  6
AUSGEZOGEN
 62
     9
100
AcDbLine
 10
-152.703125
 20
17.71505737304687
 30
0.0
 11
-152.703125
 21
16.27439880371093
 31
0.0
  0
LINE
  5
2AA
330
31
100
AcDbEntity
  8
0
  6
AUSGEZOGEN
 62
     9
100
AcDbLine
 10
-153.4234619140625
 20
16.99472045898437
 30
0.0
 11
-151.9827880859375
 21
16.99472045898437
 31
0.0
  0
LINE
  5
2AB
330
31
100
AcDbEntity
  8
0
  6
AUSGEZOGEN
 62
     9
100
AcDbLine
 10
-153.4234619140625
 20
15.80560302734375
 30
0.0
 11
-151.9827880859375
 21
15.80560302734375
 31
0.0
  0
LINE
  5
2AC
330
31
100
AcDbEntity
  8
0
  6
AUSGEZOGEN
 62
     9
100
AcDbLine
 10
-138.5350952148437
 20
17.71505737304687
 30
0.0
 11
-138.5350952148437
 21
16.27439880371093
 31
0.0
  0
LINE
  5
2AD
330
31
100
AcDbEntity
  8
0
  6
AUSGEZOGEN
 62
     9
100
AcDbLine
 10
-139.2554321289062
 20
16.99472045898437
 30
0.0
 11
-137.8147583007812
 21
16.99472045898437
 31
0.0
  0
LINE
  5
2AE
330
31
100
AcDbEntity
  8
0
  6
AUSGEZOGEN
 62
     9
100
AcDbLine
 10
-139.2554321289062
 20
15.80560302734375
 30
0.0
 11
-137.8147583007812
 21
15.80560302734375
 31
0.0
  0
LINE
  5
2AF
330
31
100
AcDbEntity
  8
0
  6
AUSGEZOGEN
 62
     9
100
AcDbLine
 10
-138.416015625
 20
13.30757141113281
 30
0.0
 11
-138.416015625
 21
11.86691284179687
 31
0.0
  0
LINE
  5
2B0
330
31
100
AcDbEntity
  8
0
  6
AUSGEZOGEN
 62
     9
100
AcDbLine
 10
-139.1363525390625
 20
12.58723449707031
 30
0.0
 11
-137.6956787109375
 21
12.58723449707031
 31
0.0
  0
LINE
  5
2B1
330
31
100
AcDbEntity
  8
0
  6
AUSGEZOGEN
 62
     9
100
AcDbLine
 10
-139.1363525390625
 20
11.39811706542968
 30
0.0
 11
-137.6956787109375
 21
11.39811706542968
 31
0.0
  0
LINE
  5
2B2
330
31
100
AcDbEntity
  8
0
  6
AUSGEZOGEN
 62
     9
100
AcDbLine
 10
-167.4664916992187
 20
17.59593200683593
 30
0.0
 11
-167.4664916992187
 21
16.15528869628906
 31
0.0
  0
LINE
  5
2B3
330
31
100
AcDbEntity
  8
0
  6
AUSGEZOGEN
 62
     9
100
AcDbLine
 10
-168.1868286132812
 20
16.8756103515625
 30
0.0
 11
-166.7461547851562
 21
16.8756103515625
 31
0.0
  0
LINE
  5
2B4
330
31
100
AcDbEntity
  8
0
  6
AUSGEZOGEN
 62
     9
100
AcDbLine
 10
-168.1868286132812
 20
15.68649291992187
 30
0.0
 11
-166.7461547851562
 21
15.68649291992187
 31
0.0
  0
TEXT
  5
2B5
330
31
100
AcDbEntity
  8
0
  6
AUSGEZOGEN
 62
     9
100
AcDbText
 10
-182.5210571289062
 20
37.70758056640625
 30
0.0
 40
2.5
  1
   Zulässige Abweichung
 41
0.7599999904632569
100
AcDbText
  0
TEXT
  5
2B6
330
31
100
AcDbEntity
  8
0
  6
AUSGEZOGEN
 62
     9
100
AcDbText
 10
-182.5210571289062
 20
33.70758056640625
 30
0.0
 40
2.5
  1
für Maße ohne Toleranzangabe
 41
0.7599999904632569
100
AcDbText
  0
TEXT
  5
2B7
330
31
100
AcDbEntity
  8
0
  6
AUSGEZOGEN
 62
     9
100
AcDbText
 10
-183.9574584960937
 20
51.31889343261718
 30
0.0
 40
2.5
  1
Unbemaßte Radien    R =   mm
 41
0.7599999904632569
100
AcDbText
  0
TEXT
  5
2B8
330
31
100
AcDbEntity
  8
0
  6
AUSGEZOGEN
 62
     9
100
AcDbText
 10
-183.9574584960937
 20
47.31889343261719
 30
0.0
 40
2.5
  1
Bearbeitungszugabe  Z =   mm
 41
0.7599999904632569
100
AcDbText
  0
TEXT
  5
2B9
330
31
100
AcDbEntity
  8
0
  6
AUSGEZOGEN
 62
     9
100
AcDbText
 10
-183.9574584960937
 20
43.31889343261718
 30
0.0
 40
2.5
  1
Alle Kanten entgratet
 41
0.7599999904632569
100
AcDbText
  0
TEXT
  5
2BA
330
31
100
AcDbEntity
  8
0
  6
AUSGEZOGEN
 62
     9
100
AcDbText
 10
-185.2591857910156
 20
27.75071868896484
 30
0.0
 40
2.0
  1
Genauig-
 41
0.8500000238418579
100
AcDbText
  0
TEXT
  5
2BB
330
31
100
AcDbEntity
  8
0
  6
AUSGEZOGEN
 62
     9
100
AcDbText
 10
-185.2591857910156
 20
24.55071868896484
 30
0.0
 40
2.0
  1
 keits-
 41
0.8500000238418579
100
AcDbText
  0
TEXT
  5
2BC
330
31
100
AcDbEntity
  8
0
  6
AUSGEZOGEN
 62
     9
100
AcDbText
 10
-185.2591857910156
 20
21.35071868896484
 30
0.0
 40
2.0
  1
  grad
 41
0.8500000238418579
100
AcDbText
  0
TEXT
  5
2BD
330
31
100
AcDbEntity
  8
0
  6
AUSGEZOGEN
 62
     9
100
AcDbText
 10
-154.9282836914062
 20
23.38236961364746
 30
0.0
 40
2.0
  1
über30
 41
0.8500000238418579
100
AcDbText
  0
TEXT
  5
2BE
330
31
100
AcDbEntity
  8
0
  6
AUSGEZOGEN
 62
     9
100
AcDbText
 10
-154.9282836914062
 20
20.18236961364746
 30
0.0
 40
2.0
  1
bis 120
 41
0.8500000238418579
100
AcDbText
  0
TEXT
  5
2BF
330
31
100
AcDbEntity
  8
0
  6
AUSGEZOGEN
 62
     9
100
AcDbText
 10
-141.208984375
 20
23.47502098083496
 30
0.0
 40
2.0
  1
über 120
 41
0.8500000238418579
100
AcDbText
  0
TEXT
  5
2C0
330
31
100
AcDbEntity
  8
0
  6
AUSGEZOGEN
 62
     9
100
AcDbText
 10
-168.3252258300781
 20
20.22669944763183
 30
0.0
 40
2.0
  1
bis 30
 41
0.8500000238418579
100
AcDbText
  0
TEXT
  5
2C1
330
31
100
AcDbEntity
  8
0
  6
AUSGEZOGEN
 62
     9
100
AcDbText
 10
-83.85766601562499
 20
68.27705535888672
 30
0.0
 40
2.0
  1
Symbol in der
 41
0.8500000238418579
100
AcDbText
  0
TEXT
  5
2C2
330
31
100
AcDbEntity
  8
0
  6
AUSGEZOGEN
 62
     9
100
AcDbText
 10
-83.85766601562499
 20
65.07705535888671
 30
0.0
 40
2.0
  1
Zeichnung
 41
0.8500000238418579
100
AcDbText
  0
TEXT
  5
2C3
330
31
100
AcDbEntity
  8
0
  6
AUSGEZOGEN
 62
     9
100
AcDbText
 10
-39.38946533203125
 20
54.14639434814453
 30
0.0
 40
2.0
  1
Projektions-
 41
0.8500000238418579
100
AcDbText
  0
TEXT
  5
2C4
330
31
100
AcDbEntity
  8
0
  6
AUSGEZOGEN
 62
     9
100
AcDbText
 10
-39.38946533203125
 20
50.94639434814453
 30
0.0
 40
2.0
  1
Methode 1
 41
0.8500000238418579
100
AcDbText
  0
LINE
  5
2C5
330
31
100
AcDbEntity
  8
0
  6
AUSGEZOGEN
 62
   134
100
AcDbLine
 10
-215.0
 20
75.0
 30
0.0
 11
-215.0
 21
0.0
 31
0.0
  0
TEXT
  5
2C6
330
31
100
AcDbEntity
  8
0
  6
AUSGEZOGEN
 62
     9
100
AcDbText
 10
-211.5203857421875
 20
1.494354152679443
 30
0.0
 40
3.0
  1
Paßmaß
 41
0.5666666825612387
100
AcDbText
  0
TEXT
  5
2C7
330
31
100
AcDbEntity
  8
0
  6
AUSGEZOGEN
 62
     9
100
AcDbText
 10
-197.1044616699218
 20
1.494354152679443
 30
0.0
 40
3.0
  1
Abmaß
 41
0.5666666825612387
100
AcDbText
  0
LINE
  5
2C8
330
31
100
AcDbEntity
  8
0
  6
AUSGEZOGEN
 62
     9
100
AcDbLine
 10
-550.5127646567951
 20
36.02345657348632
 30
0.0
 11
-550.5127646567951
 21
5.0
 31
0.0
  0
LINE
  5
2C9
330
31
100
AcDbEntity
  8
0
  6
PUNKT3
 62
     9
100
AcDbLine
 10
-379.0
 20
409.0
 30
0.0
 11
-379.0
 21
404.0
 31
0.0
  0
LINE
  5
2CA
330
31
100
AcDbEntity
  8
0
  6
PUNKT3
 62
     9
100
AcDbLine
 10
-187.0
 20
409.0
 30
0.0
 11
-187.0
 21
404.0
 31
0.0
  0
LINE
  5
2CB
330
31
100
AcDbEntity
  8
0
  6
PUNKT3
 62
     9
100
AcDbLine
 10
-5.0
 20
292.0
 30
0.0
 11
0.0
 21
292.0
 31
0.0
  0
TEXT
  5
2CC
330
31
100
AcDbEntity
  8
0
  6
AUSGEZOGEN
 62
     9
100
AcDbText
 10
-115.9162104537783
 20
33.19758253669579
 30
0.0
 40
2.0
  1
14.08.02
 41
0.8000000268220901
100
AcDbText
  0
TEXT
  5
2CD
330
31
100
AcDbEntity
  8
0
  6
AUSGEZOGEN
 62
     9
100
AcDbText
 10
-100.8785230395749
 20
33.19758253669579
 30
0.0
 40
2.0
  1
Kostka
 41
0.8000000268220901
100
AcDbText
  0
TEXT
  5
2CE
330
31
100
AcDbEntity
  8
0
  6
AUSGEZOGEN
 62
    94
100
AcDbText
 10
-83.24172915871901
 20
32.91910684384018
 30
0.0
 40
5.0
  1
DSD 36 S/M/L
 41
0.6800000190734864
100
AcDbText
  0
TEXT
  5
2CF
330
31
100
AcDbEntity
  8
0
  6
AUSGEZOGEN
 62
    94
100
AcDbText
 10
-83.42737962062278
 20
22.70833143913415
 30
0.0
 40
5.0
  1
Maßblatt
 41
0.6800000190734864
100
AcDbText
  0
TEXT
  5
2D0
330
31
100
AcDbEntity
  8
0
  6
AUSGEZOGEN
 62
    94
100
AcDbText
 10
-83.52020485157465
 20
10.0841000296794
 30
0.0
 40
5.0
  1
M0360003C
 41
0.6800000190734864
100
AcDbText
  0
TEXT
  5
2D1
330
31
100
AcDbEntity
  8
0
  6
AUSGEZOGEN
 62
    14
100
AcDbText
 10
-66.44036235643
 20
51.76262872707044
 30
0.0
 40
3.0
  1
1:1
 41
0.7333333492279053
100
AcDbText
  0
TEXT
  5
2D2
330
31
100
AcDbEntity
  8
0
  6
AUSGEZOGEN
 62
    14
100
AcDbText
 10
-61.79910080883633
 20
43.50118317235373
 30
0.0
 40
3.0
  1
 
 41
0.7333333492279053
100
AcDbText
  0
LINE
  5
2D3
330
31
100
AcDbEntity
  8
2
  6
AUSGEZOGEN
 62
     9
100
AcDbLine
 10
-588.4999999999999
 20
414.5
 30
0.0
 11
-588.4999999999999
 21
-5.5
 31
0.0
  0
LINE
  5
2D4
330
31
100
AcDbEntity
  8
2
  6
AUSGEZOGEN
 62
     9
100
AcDbLine
 10
5.5
 20
414.5
 30
0.0
 11
-588.4999999999999
 21
414.5
 31
0.0
  0
LINE
  5
2D5
330
31
100
AcDbEntity
  8
2
  6
AUSGEZOGEN
 62
     9
100
AcDbLine
 10
5.5
 20
-5.5
 30
0.0
 11
5.5
 21
414.5
 31
0.0
  0
LINE
  5
2D6
330
31
100
AcDbEntity
  8
2
  6
AUSGEZOGEN
 62
     9
100
AcDbLine
 10
-588.4999999999999
 20
-5.5
 30
0.0
 11
5.5
 21
-5.5
 31
0.0
  0
ENDBLK
  5
2D7
330
31
100
AcDbEntity
  8
0
  6
ByBlock
 62
     0
100
AcDbBlockEnd
  0
BLOCK
  5
2D8
330
32
100
AcDbEntity
  8
0
100
AcDbBlockBegin
  2
ZEICHNUNGS-LOGO UND ADR_2
 70
     0
 71
     1
 10
0.0
 20
0.0
 30
0.0
  3
ZEICHNUNGS-LOGO UND ADR_2
  1

  0
TEXT
  5
2D9
330
32
100
AcDbEntity
  8
1
  6
AUSGEZOGEN
 62
    14
100
AcDbText
 10
-40.93171359223305
 20
-22.99791666666666
 30
0.0
 40
2.729166666666666
  1
Baumüller Nürnberg
 41
0.6058252427184466
100
AcDbText
  0
TEXT
  5
2DA
330
32
100
AcDbEntity
  8
1
  6
AUSGEZOGEN
 62
    14
100
AcDbText
 10
-40.93171359223305
 20
-27.36458333333333
 30
0.0
 40
2.729166666666666
  1
GmbH
 41
0.6058252427184466
100
AcDbText
  0
TEXT
  5
2DB
330
32
100
AcDbEntity
  8
1
  6
AUSGEZOGEN
 62
    14
100
AcDbText
 10
-40.93171359223305
 20
-31.73124999999999
 30
0.0
 40
2.729166666666666
  1
37581 Bad Gandersheim
 41
0.6058252427184466
100
AcDbText
  0
TEXT
  5
2DC
330
32
100
AcDbEntity
  8
1
  6
AUSGEZOGEN
 62
    14
100
AcDbText
 10
-3.839109861060649
 20
-22.58623165928999
 30
0.0
 40
2.729166666666666
  1
 
 41
0.6058252427184466
100
AcDbText
  0
TEXT
  5
2DD
330
32
100
AcDbEntity
  8
1
  6
AUSGEZOGEN
 62
    14
100
AcDbText
 10
-15.31144319439397
 20
-26.99529314796316
 30
0.0
 40
2.729166666666666
  1
 
 41
0.6058252427184466
100
AcDbText
  0
ENDBLK
  5
2DE
330
32
100
AcDbEntity
  8
0
  6
ByBlock
 62
     0
100
AcDbBlockEnd
  0
BLOCK
  5
2DF
330
33
100
AcDbEntity
  8
0
100
AcDbBlockBegin
  2
ZEICHNUNGS-LOGO_3
 70
     0
 71
     1
 10
0.0
 20
0.0
 30
0.0
  3
ZEICHNUNGS-LOGO_3
  1

  0
ENDBLK
  5
2E0
330
33
100
AcDbEntity
  8
0
  6
ByBlock
 62
     0
100
AcDbBlockEnd
  0
BLOCK
  5
2E1
330
34
100
AcDbEntity
  8
0
100
AcDbBlockBegin
  2
BAUMüLLER - LOGO - SCHR_4
 70
     0
 71
     1
 10
0.0
 20
0.0
 30
0.0
  3
BAUMüLLER - LOGO - SCHR_4
  1

  0
ENDBLK
  5
2E2
330
34
100
AcDbEntity
  8
0
  6
ByBlock
 62
     0
100
AcDbBlockEnd
  0
BLOCK
  5
2E3
330
35
100
AcDbEntity
  8
0
100
AcDbBlockBegin
  2
ISOTOLWE_5
 70
     0
 71
     1
 10
0.0
 20
0.0
 30
0.0
  3
ISOTOLWE_5
  1

  0
TEXT
  5
2E4
330
35
100
AcDbEntity
  8
0
  6
AUSGEZOGEN
 62
     9
100
AcDbText
 10
-5.415808430503432
 20
2.18236921096983
 30
0.0
 40
2.0
  1
h6
 41
0.7000000029802323
100
AcDbText
  0
TEXT
  5
2E5
330
35
100
AcDbEntity
  8
0
  6
AUSGEZOGEN
 62
     9
100
AcDbText
 10
4.267880686928208
 20
5.864093759309673
 30
0.0
 40
2.0
  1
  0
 41
0.7000000029802323
100
AcDbText
  0
TEXT
  5
2E6
330
35
100
AcDbEntity
  8
0
  6
AUSGEZOGEN
 62
     9
100
AcDbText
 10
4.364720591713364
 20
1.988590219270611
 30
0.0
 40
2.0
  1
-11
 41
0.7000000029802323
100
AcDbText
  0
TEXT
  5
2E7
330
35
100
AcDbEntity
  8
0
  6
AUSGEZOGEN
 62
   214
100
AcDbText
 10
-13.18573424729078
 20
3.221802499544049
 30
0.0
 40
3.0
  1
 11
 41
0.7333333492279053
100
AcDbText
  0
ENDBLK
  5
2E8
330
35
100
AcDbEntity
  8
0
  6
ByBlock
 62
     0
100
AcDbBlockEnd
  0
BLOCK
  5
2E9
330
36
100
AcDbEntity
  8
0
100
AcDbBlockBegin
  2
ISOTOLWE_6
 70
     0
 71
     1
 10
0.0
 20
0.0
 30
0.0
  3
ISOTOLWE_6
  1

  0
TEXT
  5
2EA
330
36
100
AcDbEntity
  8
0
  6
AUSGEZOGEN
 62
     9
100
AcDbText
 10
-5.415808430503432
 20
2.18236921096983
 30
0.0
 40
2.0
  1
j6
 41
0.7000000029802323
100
AcDbText
  0
TEXT
  5
2EB
330
36
100
AcDbEntity
  8
0
  6
AUSGEZOGEN
 62
     9
100
AcDbText
 10
4.267880686928208
 20
5.864093759309673
 30
0.0
 40
2.0
  1
+12
 41
0.7000000029802323
100
AcDbText
  0
TEXT
  5
2EC
330
36
100
AcDbEntity
  8
0
  6
AUSGEZOGEN
 62
     9
100
AcDbText
 10
4.364720591713364
 20
1.988590219270611
 30
0.0
 40
2.0
  1
 -7
 41
0.7000000029802323
100
AcDbText
  0
TEXT
  5
2ED
330
36
100
AcDbEntity
  8
0
  6
AUSGEZOGEN
 62
   214
100
AcDbText
 10
-13.18573424729078
 20
3.221802499544049
 30
0.0
 40
3.0
  1
 60
 41
0.7333333492279053
100
AcDbText
  0
ENDBLK
  5
2EE
330
36
100
AcDbEntity
  8
0
  6
ByBlock
 62
     0
100
AcDbBlockEnd
  0
BLOCK
  5
2EF
330
37
100
AcDbEntity
  8
0
100
AcDbBlockBegin
  2
M25-KOPF_7
 70
     0
 71
     1
 10
0.0
 20
0.0
 30
0.0
  3
M25-KOPF_7
  1

  0
LINE
  5
2F0
330
37
100
AcDbEntity
  8
5
  6
AUSGEZOGEN
 62
    14
100
AcDbLine
 10
0.0
 20
2.33333333323992
 30
0.0
 11
0.0
 21
-2.333333333240034
 31
0.0
  0
LINE
  5
2F1
330
37
100
AcDbEntity
  8
5
  6
AUSGEZOGEN
 62
    14
100
AcDbLine
 10
1.499999999939973
 20
2.166666666579999
 30
0.0
 11
1.499999999939973
 21
-2.166666666580113
 31
0.0
  0
LINE
  5
2F2
330
37
100
AcDbEntity
  8
5
  6
AUSGEZOGEN
 62
    14
100
AcDbLine
 10
0.0
 20
2.33333333323992
 30
0.0
 11
1.499999999939973
 21
2.166666666579999
 31
0.0
  0
LINE
  5
2F3
330
37
100
AcDbEntity
  8
5
  6
AUSGEZOGEN
 62
    14
100
AcDbLine
 10
1.499999999939973
 20
-2.166666666580113
 30
0.0
 11
0.0
 21
-2.333333333240034
 31
0.0
  0
ARC
  5
2F4
330
37
100
AcDbEntity
  8
5
  6
AUSGEZOGEN
 62
    14
100
AcDbCircle
 10
-2.944444444326791
 20
0.0
 30
0.0
 40
4.944444444246812
100
AcDbArc
 50
2.898213389674822
 51
25.98923358383257
  0
ARC
  5
2F5
330
37
100
AcDbEntity
  8
5
  6
AUSGEZOGEN
 62
    14
100
AcDbCircle
 10
-2.944444444326791
 20
0.0
 30
0.0
 40
4.944444444246812
100
AcDbArc
 50
334.0107664161674
 51
357.1017866103251
  0
LINE
  5
2F6
330
37
100
AcDbEntity
  8
5
  6
AUSGEZOGEN
 62
    14
100
AcDbLine
 10
1.999999999919964
 20
0.2499999999898819
 30
0.0
 11
1.749999999929968
 21
0.2499999999898819
 31
0.0
  0
LINE
  5
2F7
330
37
100
AcDbEntity
  8
5
  6
AUSGEZOGEN
 62
    14
100
AcDbLine
 10
1.993675730623181
 20
-0.2499999999899956
 30
0.0
 11
1.749999999929968
 21
-0.2499999999899956
 31
0.0
  0
LINE
  5
2F8
330
37
100
AcDbEntity
  8
5
  6
AUSGEZOGEN
 62
    14
100
AcDbLine
 10
1.749999999929968
 20
-0.2499999999899956
 30
0.0
 11
1.749999999929968
 21
0.2499999999898819
 31
0.0
  0
LINE
  5
2F9
330
37
100
AcDbEntity
  8
5
  6
VERDECKT
 62
   214
100
AcDbLine
 10
1.710633759601364
 20
1.666666666600008
 30
0.0
 11
0.4166666666499168
 21
0.0
 31
0.0
  0
LINE
  5
2FA
330
37
100
AcDbEntity
  8
5
  6
VERDECKT
 62
   214
100
AcDbLine
 10
0.4166666666499168
 20
0.0
 30
0.0
 11
1.710633759601364
 21
-1.666666666600008
 31
0.0
  0
LINE
  5
2FB
330
37
100
AcDbEntity
  8
5
  6
VERDECKT
 62
   214
100
AcDbLine
 10
0.6107617305926852
 20
0.2499999999898819
 30
0.0
 11
0.6107617305926852
 21
-0.2499999999899956
 31
0.0
  0
LINE
  5
2FC
330
37
100
AcDbEntity
  8
5
  6
VERDECKT
 62
   214
100
AcDbLine
 10
1.749999999929968
 20
0.2499999999898819
 30
0.0
 11
0.6107617305926852
 21
0.2499999999897682
 31
0.0
  0
LINE
  5
2FD
330
37
100
AcDbEntity
  8
5
  6
VERDECKT
 62
   214
100
AcDbLine
 10
0.6107617305926852
 20
-0.2499999999898819
 30
0.0
 11
1.749999999929968
 21
-0.2499999999899956
 31
0.0
  0
ENDBLK
  5
2FE
330
37
100
AcDbEntity
  8
0
  6
ByBlock
 62
     0
100
AcDbBlockEnd
  0
BLOCK
  5
2FF
330
38
100
AcDbEntity
  8
0
100
AcDbBlockBegin
  2
M25-KOPF_8
 70
     0
 71
     1
 10
0.0
 20
0.0
 30
0.0
  3
M25-KOPF_8
  1

  0
LINE
  5
300
330
38
100
AcDbEntity
  8
5
  6
AUSGEZOGEN
 62
    14
100
AcDbLine
 10
0.0
 20
2.33333333323992
 30
0.0
 11
0.0
 21
-2.333333333240034
 31
0.0
  0
LINE
  5
301
330
38
100
AcDbEntity
  8
5
  6
AUSGEZOGEN
 62
    14
100
AcDbLine
 10
1.499999999939973
 20
2.166666666579999
 30
0.0
 11
1.499999999939973
 21
-2.166666666580113
 31
0.0
  0
LINE
  5
302
330
38
100
AcDbEntity
  8
5
  6
AUSGEZOGEN
 62
    14
100
AcDbLine
 10
0.0
 20
2.33333333323992
 30
0.0
 11
1.499999999939973
 21
2.166666666579999
 31
0.0
  0
LINE
  5
303
330
38
100
AcDbEntity
  8
5
  6
AUSGEZOGEN
 62
    14
100
AcDbLine
 10
1.499999999939973
 20
-2.166666666580113
 30
0.0
 11
0.0
 21
-2.333333333240034
 31
0.0
  0
ARC
  5
304
330
38
100
AcDbEntity
  8
5
  6
AUSGEZOGEN
 62
    14
100
AcDbCircle
 10
-2.944444444326791
 20
0.0
 30
0.0
 40
4.944444444246812
100
AcDbArc
 50
2.898213389674822
 51
25.98923358383257
  0
ARC
  5
305
330
38
100
AcDbEntity
  8
5
  6
AUSGEZOGEN
 62
    14
100
AcDbCircle
 10
-2.944444444326791
 20
0.0
 30
0.0
 40
4.944444444246812
100
AcDbArc
 50
334.0107664161674
 51
357.1017866103251
  0
LINE
  5
306
330
38
100
AcDbEntity
  8
5
  6
AUSGEZOGEN
 62
    14
100
AcDbLine
 10
1.999999999919964
 20
0.2499999999898819
 30
0.0
 11
1.749999999929968
 21
0.2499999999898819
 31
0.0
  0
LINE
  5
307
330
38
100
AcDbEntity
  8
5
  6
AUSGEZOGEN
 62
    14
100
AcDbLine
 10
1.993675730623181
 20
-0.2499999999899956
 30
0.0
 11
1.749999999929968
 21
-0.2499999999899956
 31
0.0
  0
LINE
  5
308
330
38
100
AcDbEntity
  8
5
  6
AUSGEZOGEN
 62
    14
100
AcDbLine
 10
1.749999999929968
 20
-0.2499999999899956
 30
0.0
 11
1.749999999929968
 21
0.2499999999898819
 31
0.0
  0
LINE
  5
309
330
38
100
AcDbEntity
  8
5
  6
VERDECKT
 62
   214
100
AcDbLine
 10
1.710633759601364
 20
1.666666666600008
 30
0.0
 11
0.4166666666499168
 21
0.0
 31
0.0
  0
LINE
  5
30A
330
38
100
AcDbEntity
  8
5
  6
VERDECKT
 62
   214
100
AcDbLine
 10
0.4166666666499168
 20
0.0
 30
0.0
 11
1.710633759601364
 21
-1.666666666600008
 31
0.0
  0
LINE
  5
30B
330
38
100
AcDbEntity
  8
5
  6
VERDECKT
 62
   214
100
AcDbLine
 10
0.6107617305926852
 20
0.2499999999898819
 30
0.0
 11
0.6107617305926852
 21
-0.2499999999899956
 31
0.0
  0
LINE
  5
30C
330
38
100
AcDbEntity
  8
5
  6
VERDECKT
 62
   214
100
AcDbLine
 10
1.749999999929968
 20
0.2499999999898819
 30
0.0
 11
0.6107617305926852
 21
0.2499999999897682
 31
0.0
  0
LINE
  5
30D
330
38
100
AcDbEntity
  8
5
  6
VERDECKT
 62
   214
100
AcDbLine
 10
0.6107617305926852
 20
-0.2499999999898819
 30
0.0
 11
1.749999999929968
 21
-0.2499999999899956
 31
0.0
  0
ENDBLK
  5
30E
330
38
100
AcDbEntity
  8
0
  6
ByBlock
 62
     0
100
AcDbBlockEnd
  0
BLOCK
  5
30F
330
39
100
AcDbEntity
  8
0
100
AcDbBlockBegin
  2
M25-KOPF_9
 70
     0
 71
     1
 10
0.0
 20
0.0
 30
0.0
  3
M25-KOPF_9
  1

  0
LINE
  5
310
330
39
100
AcDbEntity
  8
5
  6
AUSGEZOGEN
 62
    14
100
AcDbLine
 10
0.0
 20
2.33333333323992
 30
0.0
 11
0.0
 21
-2.333333333240034
 31
0.0
  0
LINE
  5
311
330
39
100
AcDbEntity
  8
5
  6
AUSGEZOGEN
 62
    14
100
AcDbLine
 10
1.499999999939973
 20
2.166666666579999
 30
0.0
 11
1.499999999939973
 21
-2.166666666580113
 31
0.0
  0
LINE
  5
312
330
39
100
AcDbEntity
  8
5
  6
AUSGEZOGEN
 62
    14
100
AcDbLine
 10
0.0
 20
2.33333333323992
 30
0.0
 11
1.499999999939973
 21
2.166666666579999
 31
0.0
  0
LINE
  5
313
330
39
100
AcDbEntity
  8
5
  6
AUSGEZOGEN
 62
    14
100
AcDbLine
 10
1.499999999939973
 20
-2.166666666580113
 30
0.0
 11
0.0
 21
-2.333333333240034
 31
0.0
  0
ARC
  5
314
330
39
100
AcDbEntity
  8
5
  6
AUSGEZOGEN
 62
    14
100
AcDbCircle
 10
-2.944444444326791
 20
0.0
 30
0.0
 40
4.944444444246812
100
AcDbArc
 50
2.898213389674822
 51
25.98923358383257
  0
ARC
  5
315
330
39
100
AcDbEntity
  8
5
  6
AUSGEZOGEN
 62
    14
100
AcDbCircle
 10
-2.944444444326791
 20
0.0
 30
0.0
 40
4.944444444246812
100
AcDbArc
 50
334.0107664161674
 51
357.1017866103251
  0
LINE
  5
316
330
39
100
AcDbEntity
  8
5
  6
AUSGEZOGEN
 62
    14
100
AcDbLine
 10
1.999999999919964
 20
0.2499999999898819
 30
0.0
 11
1.749999999929968
 21
0.2499999999898819
 31
0.0
  0
LINE
  5
317
330
39
100
AcDbEntity
  8
5
  6
AUSGEZOGEN
 62
    14
100
AcDbLine
 10
1.993675730623181
 20
-0.2499999999899956
 30
0.0
 11
1.749999999929968
 21
-0.2499999999899956
 31
0.0
  0
LINE
  5
318
330
39
100
AcDbEntity
  8
5
  6
AUSGEZOGEN
 62
    14
100
AcDbLine
 10
1.749999999929968
 20
-0.2499999999899956
 30
0.0
 11
1.749999999929968
 21
0.2499999999898819
 31
0.0
  0
LINE
  5
319
330
39
100
AcDbEntity
  8
5
  6
VERDECKT
 62
   214
100
AcDbLine
 10
1.710633759601364
 20
1.666666666600008
 30
0.0
 11
0.4166666666499168
 21
0.0
 31
0.0
  0
LINE
  5
31A
330
39
100
AcDbEntity
  8
5
  6
VERDECKT
 62
   214
100
AcDbLine
 10
0.4166666666499168
 20
0.0
 30
0.0
 11
1.710633759601364
 21
-1.666666666600008
 31
0.0
  0
LINE
  5
31B
330
39
100
AcDbEntity
  8
5
  6
VERDECKT
 62
   214
100
AcDbLine
 10
0.6107617305926852
 20
0.2499999999898819
 30
0.0
 11
0.6107617305926852
 21
-0.2499999999899956
 31
0.0
  0
LINE
  5
31C
330
39
100
AcDbEntity
  8
5
  6
VERDECKT
 62
   214
100
AcDbLine
 10
1.749999999929968
 20
0.2499999999898819
 30
0.0
 11
0.6107617305926852
 21
0.2499999999897682
 31
0.0
  0
LINE
  5
31D
330
39
100
AcDbEntity
  8
5
  6
VERDECKT
 62
   214
100
AcDbLine
 10
0.6107617305926852
 20
-0.2499999999898819
 30
0.0
 11
1.749999999929968
 21
-0.2499999999899956
 31
0.0
  0
ENDBLK
  5
31E
330
39
100
AcDbEntity
  8
0
  6
ByBlock
 62
     0
100
AcDbBlockEnd
  0
BLOCK
  5
31F
330
3A
100
AcDbEntity
  8
0
100
AcDbBlockBegin
  2
M25-KOPF_10
 70
     0
 71
     1
 10
0.0
 20
0.0
 30
0.0
  3
M25-KOPF_10
  1

  0
LINE
  5
320
330
3A
100
AcDbEntity
  8
5
  6
AUSGEZOGEN
 62
    14
100
AcDbLine
 10
0.0
 20
2.33333333323992
 30
0.0
 11
0.0
 21
-2.333333333240034
 31
0.0
  0
LINE
  5
321
330
3A
100
AcDbEntity
  8
5
  6
AUSGEZOGEN
 62
    14
100
AcDbLine
 10
1.499999999939973
 20
2.166666666579999
 30
0.0
 11
1.499999999939973
 21
-2.166666666580113
 31
0.0
  0
LINE
  5
322
330
3A
100
AcDbEntity
  8
5
  6
AUSGEZOGEN
 62
    14
100
AcDbLine
 10
0.0
 20
2.33333333323992
 30
0.0
 11
1.499999999939973
 21
2.166666666579999
 31
0.0
  0
LINE
  5
323
330
3A
100
AcDbEntity
  8
5
  6
AUSGEZOGEN
 62
    14
100
AcDbLine
 10
1.499999999939973
 20
-2.166666666580113
 30
0.0
 11
0.0
 21
-2.333333333240034
 31
0.0
  0
ARC
  5
324
330
3A
100
AcDbEntity
  8
5
  6
AUSGEZOGEN
 62
    14
100
AcDbCircle
 10
-2.944444444326791
 20
0.0
 30
0.0
 40
4.944444444246812
100
AcDbArc
 50
2.898213389674822
 51
25.98923358383257
  0
ARC
  5
325
330
3A
100
AcDbEntity
  8
5
  6
AUSGEZOGEN
 62
    14
100
AcDbCircle
 10
-2.944444444326791
 20
0.0
 30
0.0
 40
4.944444444246812
100
AcDbArc
 50
334.0107664161674
 51
357.1017866103251
  0
LINE
  5
326
330
3A
100
AcDbEntity
  8
5
  6
AUSGEZOGEN
 62
    14
100
AcDbLine
 10
1.999999999919964
 20
0.2499999999898819
 30
0.0
 11
1.749999999929968
 21
0.2499999999898819
 31
0.0
  0
LINE
  5
327
330
3A
100
AcDbEntity
  8
5
  6
AUSGEZOGEN
 62
    14
100
AcDbLine
 10
1.993675730623181
 20
-0.2499999999899956
 30
0.0
 11
1.749999999929968
 21
-0.2499999999899956
 31
0.0
  0
LINE
  5
328
330
3A
100
AcDbEntity
  8
5
  6
AUSGEZOGEN
 62
    14
100
AcDbLine
 10
1.749999999929968
 20
-0.2499999999899956
 30
0.0
 11
1.749999999929968
 21
0.2499999999898819
 31
0.0
  0
LINE
  5
329
330
3A
100
AcDbEntity
  8
5
  6
VERDECKT
 62
   214
100
AcDbLine
 10
1.710633759601364
 20
1.666666666600008
 30
0.0
 11
0.4166666666499168
 21
0.0
 31
0.0
  0
LINE
  5
32A
330
3A
100
AcDbEntity
  8
5
  6
VERDECKT
 62
   214
100
AcDbLine
 10
0.4166666666499168
 20
0.0
 30
0.0
 11
1.710633759601364
 21
-1.666666666600008
 31
0.0
  0
LINE
  5
32B
330
3A
100
AcDbEntity
  8
5
  6
VERDECKT
 62
   214
100
AcDbLine
 10
0.6107617305926852
 20
0.2499999999898819
 30
0.0
 11
0.6107617305926852
 21
-0.2499999999899956
 31
0.0
  0
LINE
  5
32C
330
3A
100
AcDbEntity
  8
5
  6
VERDECKT
 62
   214
100
AcDbLine
 10
1.749999999929968
 20
0.2499999999898819
 30
0.0
 11
0.6107617305926852
 21
0.2499999999897682
 31
0.0
  0
LINE
  5
32D
330
3A
100
AcDbEntity
  8
5
  6
VERDECKT
 62
   214
100
AcDbLine
 10
0.6107617305926852
 20
-0.2499999999898819
 30
0.0
 11
1.749999999929968
 21
-0.2499999999899956
 31
0.0
  0
ENDBLK
  5
32E
330
3A
100
AcDbEntity
  8
0
  6
ByBlock
 62
     0
100
AcDbBlockEnd
  0
BLOCK
  5
32F
330
3B
100
AcDbEntity
  8
0
100
AcDbBlockBegin
  2
M25-KOPF_11
 70
     0
 71
     1
 10
0.0
 20
0.0
 30
0.0
  3
M25-KOPF_11
  1

  0
LINE
  5
330
330
3B
100
AcDbEntity
  8
5
  6
AUSGEZOGEN
 62
    14
100
AcDbLine
 10
0.0
 20
2.33333333323992
 30
0.0
 11
0.0
 21
-2.333333333240034
 31
0.0
  0
LINE
  5
331
330
3B
100
AcDbEntity
  8
5
  6
AUSGEZOGEN
 62
    14
100
AcDbLine
 10
1.499999999939973
 20
2.166666666579999
 30
0.0
 11
1.499999999939973
 21
-2.166666666580113
 31
0.0
  0
LINE
  5
332
330
3B
100
AcDbEntity
  8
5
  6
AUSGEZOGEN
 62
    14
100
AcDbLine
 10
0.0
 20
2.33333333323992
 30
0.0
 11
1.499999999939973
 21
2.166666666579999
 31
0.0
  0
LINE
  5
333
330
3B
100
AcDbEntity
  8
5
  6
AUSGEZOGEN
 62
    14
100
AcDbLine
 10
1.499999999939973
 20
-2.166666666580113
 30
0.0
 11
0.0
 21
-2.333333333240034
 31
0.0
  0
ARC
  5
334
330
3B
100
AcDbEntity
  8
5
  6
AUSGEZOGEN
 62
    14
100
AcDbCircle
 10
-2.944444444326791
 20
0.0
 30
0.0
 40
4.944444444246812
100
AcDbArc
 50
2.898213389674822
 51
25.98923358383257
  0
ARC
  5
335
330
3B
100
AcDbEntity
  8
5
  6
AUSGEZOGEN
 62
    14
100
AcDbCircle
 10
-2.944444444326791
 20
0.0
 30
0.0
 40
4.944444444246812
100
AcDbArc
 50
334.0107664161674
 51
357.1017866103251
  0
LINE
  5
336
330
3B
100
AcDbEntity
  8
5
  6
AUSGEZOGEN
 62
    14
100
AcDbLine
 10
1.999999999919964
 20
0.2499999999898819
 30
0.0
 11
1.749999999929968
 21
0.2499999999898819
 31
0.0
  0
LINE
  5
337
330
3B
100
AcDbEntity
  8
5
  6
AUSGEZOGEN
 62
    14
100
AcDbLine
 10
1.993675730623181
 20
-0.2499999999899956
 30
0.0
 11
1.749999999929968
 21
-0.2499999999899956
 31
0.0
  0
LINE
  5
338
330
3B
100
AcDbEntity
  8
5
  6
AUSGEZOGEN
 62
    14
100
AcDbLine
 10
1.749999999929968
 20
-0.2499999999899956
 30
0.0
 11
1.749999999929968
 21
0.2499999999898819
 31
0.0
  0
LINE
  5
339
330
3B
100
AcDbEntity
  8
5
  6
VERDECKT
 62
   214
100
AcDbLine
 10
1.710633759601364
 20
1.666666666600008
 30
0.0
 11
0.4166666666499168
 21
0.0
 31
0.0
  0
LINE
  5
33A
330
3B
100
AcDbEntity
  8
5
  6
VERDECKT
 62
   214
100
AcDbLine
 10
0.4166666666499168
 20
0.0
 30
0.0
 11
1.710633759601364
 21
-1.666666666600008
 31
0.0
  0
LINE
  5
33B
330
3B
100
AcDbEntity
  8
5
  6
VERDECKT
 62
   214
100
AcDbLine
 10
0.6107617305926852
 20
0.2499999999898819
 30
0.0
 11
0.6107617305926852
 21
-0.2499999999899956
 31
0.0
  0
LINE
  5
33C
330
3B
100
AcDbEntity
  8
5
  6
VERDECKT
 62
   214
100
AcDbLine
 10
1.749999999929968
 20
0.2499999999898819
 30
0.0
 11
0.6107617305926852
 21
0.2499999999897682
 31
0.0
  0
LINE
  5
33D
330
3B
100
AcDbEntity
  8
5
  6
VERDECKT
 62
   214
100
AcDbLine
 10
0.6107617305926852
 20
-0.2499999999898819
 30
0.0
 11
1.749999999929968
 21
-0.2499999999899956
 31
0.0
  0
ENDBLK
  5
33E
330
3B
100
AcDbEntity
  8
0
  6
ByBlock
 62
     0
100
AcDbBlockEnd
  0
BLOCK
  5
33F
330
3C
100
AcDbEntity
  8
0
100
AcDbBlockBegin
  2
M25-KOPF_12
 70
     0
 71
     1
 10
0.0
 20
0.0
 30
0.0
  3
M25-KOPF_12
  1

  0
LINE
  5
340
330
3C
100
AcDbEntity
  8
5
  6
AUSGEZOGEN
 62
    14
100
AcDbLine
 10
0.0
 20
2.33333333323992
 30
0.0
 11
0.0
 21
-2.333333333240034
 31
0.0
  0
LINE
  5
341
330
3C
100
AcDbEntity
  8
5
  6
AUSGEZOGEN
 62
    14
100
AcDbLine
 10
1.499999999939973
 20
2.166666666579999
 30
0.0
 11
1.499999999939973
 21
-2.166666666580113
 31
0.0
  0
LINE
  5
342
330
3C
100
AcDbEntity
  8
5
  6
AUSGEZOGEN
 62
    14
100
AcDbLine
 10
0.0
 20
2.33333333323992
 30
0.0
 11
1.499999999939973
 21
2.166666666579999
 31
0.0
  0
LINE
  5
343
330
3C
100
AcDbEntity
  8
5
  6
AUSGEZOGEN
 62
    14
100
AcDbLine
 10
1.499999999939973
 20
-2.166666666580113
 30
0.0
 11
0.0
 21
-2.333333333240034
 31
0.0
  0
ARC
  5
344
330
3C
100
AcDbEntity
  8
5
  6
AUSGEZOGEN
 62
    14
100
AcDbCircle
 10
-2.944444444326791
 20
0.0
 30
0.0
 40
4.944444444246812
100
AcDbArc
 50
2.898213389674822
 51
25.98923358383257
  0
ARC
  5
345
330
3C
100
AcDbEntity
  8
5
  6
AUSGEZOGEN
 62
    14
100
AcDbCircle
 10
-2.944444444326791
 20
0.0
 30
0.0
 40
4.944444444246812
100
AcDbArc
 50
334.0107664161674
 51
357.1017866103251
  0
LINE
  5
346
330
3C
100
AcDbEntity
  8
5
  6
AUSGEZOGEN
 62
    14
100
AcDbLine
 10
1.999999999919964
 20
0.2499999999898819
 30
0.0
 11
1.749999999929968
 21
0.2499999999898819
 31
0.0
  0
LINE
  5
347
330
3C
100
AcDbEntity
  8
5
  6
AUSGEZOGEN
 62
    14
100
AcDbLine
 10
1.993675730623181
 20
-0.2499999999899956
 30
0.0
 11
1.749999999929968
 21
-0.2499999999899956
 31
0.0
  0
LINE
  5
348
330
3C
100
AcDbEntity
  8
5
  6
AUSGEZOGEN
 62
    14
100
AcDbLine
 10
1.749999999929968
 20
-0.2499999999899956
 30
0.0
 11
1.749999999929968
 21
0.2499999999898819
 31
0.0
  0
LINE
  5
349
330
3C
100
AcDbEntity
  8
5
  6
VERDECKT
 62
   214
100
AcDbLine
 10
1.710633759601364
 20
1.666666666600008
 30
0.0
 11
0.4166666666499168
 21
0.0
 31
0.0
  0
LINE
  5
34A
330
3C
100
AcDbEntity
  8
5
  6
VERDECKT
 62
   214
100
AcDbLine
 10
0.4166666666499168
 20
0.0
 30
0.0
 11
1.710633759601364
 21
-1.666666666600008
 31
0.0
  0
LINE
  5
34B
330
3C
100
AcDbEntity
  8
5
  6
VERDECKT
 62
   214
100
AcDbLine
 10
0.6107617305926852
 20
0.2499999999898819
 30
0.0
 11
0.6107617305926852
 21
-0.2499999999899956
 31
0.0
  0
LINE
  5
34C
330
3C
100
AcDbEntity
  8
5
  6
VERDECKT
 62
   214
100
AcDbLine
 10
1.749999999929968
 20
0.2499999999898819
 30
0.0
 11
0.6107617305926852
 21
0.2499999999897682
 31
0.0
  0
LINE
  5
34D
330
3C
100
AcDbEntity
  8
5
  6
VERDECKT
 62
   214
100
AcDbLine
 10
0.6107617305926852
 20
-0.2499999999898819
 30
0.0
 11
1.749999999929968
 21
-0.2499999999899956
 31
0.0
  0
ENDBLK
  5
34E
330
3C
100
AcDbEntity
  8
0
  6
ByBlock
 62
     0
100
AcDbBlockEnd
  0
BLOCK
  5
34F
330
3D
100
AcDbEntity
  8
0
100
AcDbBlockBegin
  2
M25-KOPF_13
 70
     0
 71
     1
 10
0.0
 20
0.0
 30
0.0
  3
M25-KOPF_13
  1

  0
LINE
  5
350
330
3D
100
AcDbEntity
  8
5
  6
AUSGEZOGEN
 62
    14
100
AcDbLine
 10
0.0
 20
2.33333333323992
 30
0.0
 11
0.0
 21
-2.333333333240034
 31
0.0
  0
LINE
  5
351
330
3D
100
AcDbEntity
  8
5
  6
AUSGEZOGEN
 62
    14
100
AcDbLine
 10
1.499999999939973
 20
2.166666666579999
 30
0.0
 11
1.499999999939973
 21
-2.166666666580113
 31
0.0
  0
LINE
  5
352
330
3D
100
AcDbEntity
  8
5
  6
AUSGEZOGEN
 62
    14
100
AcDbLine
 10
0.0
 20
2.33333333323992
 30
0.0
 11
1.499999999939973
 21
2.166666666579999
 31
0.0
  0
LINE
  5
353
330
3D
100
AcDbEntity
  8
5
  6
AUSGEZOGEN
 62
    14
100
AcDbLine
 10
1.499999999939973
 20
-2.166666666580113
 30
0.0
 11
0.0
 21
-2.333333333240034
 31
0.0
  0
ARC
  5
354
330
3D
100
AcDbEntity
  8
5
  6
AUSGEZOGEN
 62
    14
100
AcDbCircle
 10
-2.944444444326791
 20
0.0
 30
0.0
 40
4.944444444246812
100
AcDbArc
 50
2.898213389674822
 51
25.98923358383257
  0
ARC
  5
355
330
3D
100
AcDbEntity
  8
5
  6
AUSGEZOGEN
 62
    14
100
AcDbCircle
 10
-2.944444444326791
 20
0.0
 30
0.0
 40
4.944444444246812
100
AcDbArc
 50
334.0107664161674
 51
357.1017866103251
  0
LINE
  5
356
330
3D
100
AcDbEntity
  8
5
  6
AUSGEZOGEN
 62
    14
100
AcDbLine
 10
1.999999999919964
 20
0.2499999999898819
 30
0.0
 11
1.749999999929968
 21
0.2499999999898819
 31
0.0
  0
LINE
  5
357
330
3D
100
AcDbEntity
  8
5
  6
AUSGEZOGEN
 62
    14
100
AcDbLine
 10
1.993675730623181
 20
-0.2499999999899956
 30
0.0
 11
1.749999999929968
 21
-0.2499999999899956
 31
0.0
  0
LINE
  5
358
330
3D
100
AcDbEntity
  8
5
  6
AUSGEZOGEN
 62
    14
100
AcDbLine
 10
1.749999999929968
 20
-0.2499999999899956
 30
0.0
 11
1.749999999929968
 21
0.2499999999898819
 31
0.0
  0
LINE
  5
359
330
3D
100
AcDbEntity
  8
5
  6
VERDECKT
 62
   214
100
AcDbLine
 10
1.710633759601364
 20
1.666666666600008
 30
0.0
 11
0.4166666666499168
 21
0.0
 31
0.0
  0
LINE
  5
35A
330
3D
100
AcDbEntity
  8
5
  6
VERDECKT
 62
   214
100
AcDbLine
 10
0.4166666666499168
 20
0.0
 30
0.0
 11
1.710633759601364
 21
-1.666666666600008
 31
0.0
  0
LINE
  5
35B
330
3D
100
AcDbEntity
  8
5
  6
VERDECKT
 62
   214
100
AcDbLine
 10
0.6107617305926852
 20
0.2499999999898819
 30
0.0
 11
0.6107617305926852
 21
-0.2499999999899956
 31
0.0
  0
LINE
  5
35C
330
3D
100
AcDbEntity
  8
5
  6
VERDECKT
 62
   214
100
AcDbLine
 10
1.749999999929968
 20
0.2499999999898819
 30
0.0
 11
0.6107617305926852
 21
0.2499999999897682
 31
0.0
  0
LINE
  5
35D
330
3D
100
AcDbEntity
  8
5
  6
VERDECKT
 62
   214
100
AcDbLine
 10
0.6107617305926852
 20
-0.2499999999898819
 30
0.0
 11
1.749999999929968
 21
-0.2499999999899956
 31
0.0
  0
ENDBLK
  5
35E
330
3D
100
AcDbEntity
  8
0
  6
ByBlock
 62
     0
100
AcDbBlockEnd
  0
BLOCK
  5
35F
330
3E
100
AcDbEntity
  8
0
100
AcDbBlockBegin
  2
M25-KOPF_14
 70
     0
 71
     1
 10
0.0
 20
0.0
 30
0.0
  3
M25-KOPF_14
  1

  0
LINE
  5
360
330
3E
100
AcDbEntity
  8
5
  6
AUSGEZOGEN
 62
    14
100
AcDbLine
 10
0.0
 20
2.33333333323992
 30
0.0
 11
0.0
 21
-2.333333333240034
 31
0.0
  0
LINE
  5
361
330
3E
100
AcDbEntity
  8
5
  6
AUSGEZOGEN
 62
    14
100
AcDbLine
 10
1.499999999939973
 20
2.166666666579999
 30
0.0
 11
1.499999999939973
 21
-2.166666666580113
 31
0.0
  0
LINE
  5
362
330
3E
100
AcDbEntity
  8
5
  6
AUSGEZOGEN
 62
    14
100
AcDbLine
 10
0.0
 20
2.33333333323992
 30
0.0
 11
1.499999999939973
 21
2.166666666579999
 31
0.0
  0
LINE
  5
363
330
3E
100
AcDbEntity
  8
5
  6
AUSGEZOGEN
 62
    14
100
AcDbLine
 10
1.499999999939973
 20
-2.166666666580113
 30
0.0
 11
0.0
 21
-2.333333333240034
 31
0.0
  0
ARC
  5
364
330
3E
100
AcDbEntity
  8
5
  6
AUSGEZOGEN
 62
    14
100
AcDbCircle
 10
-2.944444444326791
 20
0.0
 30
0.0
 40
4.944444444246812
100
AcDbArc
 50
2.898213389674822
 51
25.98923358383257
  0
ARC
  5
365
330
3E
100
AcDbEntity
  8
5
  6
AUSGEZOGEN
 62
    14
100
AcDbCircle
 10
-2.944444444326791
 20
0.0
 30
0.0
 40
4.944444444246812
100
AcDbArc
 50
334.0107664161674
 51
357.1017866103251
  0
LINE
  5
366
330
3E
100
AcDbEntity
  8
5
  6
AUSGEZOGEN
 62
    14
100
AcDbLine
 10
1.999999999919964
 20
0.2499999999898819
 30
0.0
 11
1.749999999929968
 21
0.2499999999898819
 31
0.0
  0
LINE
  5
367
330
3E
100
AcDbEntity
  8
5
  6
AUSGEZOGEN
 62
    14
100
AcDbLine
 10
1.993675730623181
 20
-0.2499999999899956
 30
0.0
 11
1.749999999929968
 21
-0.2499999999899956
 31
0.0
  0
LINE
  5
368
330
3E
100
AcDbEntity
  8
5
  6
AUSGEZOGEN
 62
    14
100
AcDbLine
 10
1.749999999929968
 20
-0.2499999999899956
 30
0.0
 11
1.749999999929968
 21
0.2499999999898819
 31
0.0
  0
LINE
  5
369
330
3E
100
AcDbEntity
  8
5
  6
VERDECKT
 62
   214
100
AcDbLine
 10
1.710633759601364
 20
1.666666666600008
 30
0.0
 11
0.4166666666499168
 21
0.0
 31
0.0
  0
LINE
  5
36A
330
3E
100
AcDbEntity
  8
5
  6
VERDECKT
 62
   214
100
AcDbLine
 10
0.4166666666499168
 20
0.0
 30
0.0
 11
1.710633759601364
 21
-1.666666666600008
 31
0.0
  0
LINE
  5
36B
330
3E
100
AcDbEntity
  8
5
  6
VERDECKT
 62
   214
100
AcDbLine
 10
0.6107617305926852
 20
0.2499999999898819
 30
0.0
 11
0.6107617305926852
 21
-0.2499999999899956
 31
0.0
  0
LINE
  5
36C
330
3E
100
AcDbEntity
  8
5
  6
VERDECKT
 62
   214
100
AcDbLine
 10
1.749999999929968
 20
0.2499999999898819
 30
0.0
 11
0.6107617305926852
 21
0.2499999999897682
 31
0.0
  0
LINE
  5
36D
330
3E
100
AcDbEntity
  8
5
  6
VERDECKT
 62
   214
100
AcDbLine
 10
0.6107617305926852
 20
-0.2499999999898819
 30
0.0
 11
1.749999999929968
 21
-0.2499999999899956
 31
0.0
  0
ENDBLK
  5
36E
330
3E
100
AcDbEntity
  8
0
  6
ByBlock
 62
     0
100
AcDbBlockEnd
  0
BLOCK
  5
36F
330
3F
100
AcDbEntity
  8
0
100
AcDbBlockBegin
  2
M25-KOPF_15
 70
     0
 71
     1
 10
0.0
 20
0.0
 30
0.0
  3
M25-KOPF_15
  1

  0
LINE
  5
370
330
3F
100
AcDbEntity
  8
5
  6
AUSGEZOGEN
 62
    14
100
AcDbLine
 10
0.0
 20
9.333333333239892
 30
0.0
 11
0.0
 21
4.666666666759994
 31
0.0
  0
LINE
  5
371
330
3F
100
AcDbEntity
  8
5
  6
AUSGEZOGEN
 62
    14
100
AcDbLine
 10
1.499999999939973
 20
9.16666666657997
 30
0.0
 11
1.499999999939973
 21
4.833333333419915
 31
0.0
  0
LINE
  5
372
330
3F
100
AcDbEntity
  8
5
  6
AUSGEZOGEN
 62
    14
100
AcDbLine
 10
0.0
 20
9.333333333239892
 30
0.0
 11
1.499999999939973
 21
9.16666666657997
 31
0.0
  0
LINE
  5
373
330
3F
100
AcDbEntity
  8
5
  6
AUSGEZOGEN
 62
    14
100
AcDbLine
 10
1.499999999939973
 20
4.833333333419915
 30
0.0
 11
0.0
 21
4.666666666759994
 31
0.0
  0
ARC
  5
374
330
3F
100
AcDbEntity
  8
5
  6
AUSGEZOGEN
 62
    14
100
AcDbCircle
 10
-2.944444444327359
 20
6.999999999999857
 30
0.0
 40
4.944444444247332
100
AcDbArc
 50
2.898213389675903
 51
25.9892335838311
  0
ARC
  5
375
330
3F
100
AcDbEntity
  8
5
  6
AUSGEZOGEN
 62
    14
100
AcDbCircle
 10
-2.944444444327359
 20
7.000000000000085
 30
0.0
 40
4.944444444247332
100
AcDbArc
 50
334.0107664161688
 51
357.1017866103241
  0
LINE
  5
376
330
3F
100
AcDbEntity
  8
5
  6
AUSGEZOGEN
 62
    14
100
AcDbLine
 10
1.999999999919964
 20
7.24999999998991
 30
0.0
 11
1.749999999929968
 21
7.24999999998991
 31
0.0
  0
LINE
  5
377
330
3F
100
AcDbEntity
  8
5
  6
AUSGEZOGEN
 62
    14
100
AcDbLine
 10
1.993675730623181
 20
6.750000000009976
 30
0.0
 11
1.749999999929968
 21
6.750000000009976
 31
0.0
  0
LINE
  5
378
330
3F
100
AcDbEntity
  8
5
  6
AUSGEZOGEN
 62
    14
100
AcDbLine
 10
1.749999999929968
 20
6.750000000009976
 30
0.0
 11
1.749999999929968
 21
7.24999999998991
 31
0.0
  0
LINE
  5
379
330
3F
100
AcDbEntity
  8
5
  6
VERDECKT
 62
   214
100
AcDbLine
 10
1.710633759601364
 20
8.666666666599979
 30
0.0
 11
0.4166666666499168
 21
6.999999999999971
 31
0.0
  0
LINE
  5
37A
330
3F
100
AcDbEntity
  8
5
  6
VERDECKT
 62
   214
100
AcDbLine
 10
0.4166666666499168
 20
6.999999999999971
 30
0.0
 11
1.710633759601364
 21
5.333333333399963
 31
0.0
  0
LINE
  5
37B
330
3F
100
AcDbEntity
  8
5
  6
VERDECKT
 62
   214
100
AcDbLine
 10
0.6107617305925715
 20
7.24999999998991
 30
0.0
 11
0.6107617305925715
 21
6.750000000009976
 31
0.0
  0
LINE
  5
37C
330
3F
100
AcDbEntity
  8
5
  6
VERDECKT
 62
   214
100
AcDbLine
 10
1.749999999929968
 20
7.24999999998991
 30
0.0
 11
0.6107617305925715
 21
7.249999999989796
 31
0.0
  0
LINE
  5
37D
330
3F
100
AcDbEntity
  8
5
  6
VERDECKT
 62
   214
100
AcDbLine
 10
0.6107617305925715
 20
6.750000000010089
 30
0.0
 11
1.749999999929968
 21
6.750000000009976
 31
0.0
  0
ENDBLK
  5
37E
330
3F
100
AcDbEntity
  8
0
  6
ByBlock
 62
     0
100
AcDbBlockEnd
  0
BLOCK
  5
37F
330
40
100
AcDbEntity
  8
0
100
AcDbBlockBegin
  2
M25-KOPF_16
 70
     0
 71
     1
 10
0.0
 20
0.0
 30
0.0
  3
M25-KOPF_16
  1

  0
LINE
  5
380
330
40
100
AcDbEntity
  8
5
  6
AUSGEZOGEN
 62
    14
100
AcDbLine
 10
0.0
 20
9.333333333239892
 30
0.0
 11
0.0
 21
4.666666666759994
 31
0.0
  0
LINE
  5
381
330
40
100
AcDbEntity
  8
5
  6
AUSGEZOGEN
 62
    14
100
AcDbLine
 10
1.499999999939973
 20
9.16666666657997
 30
0.0
 11
1.499999999939973
 21
4.833333333419915
 31
0.0
  0
LINE
  5
382
330
40
100
AcDbEntity
  8
5
  6
AUSGEZOGEN
 62
    14
100
AcDbLine
 10
0.0
 20
9.333333333239892
 30
0.0
 11
1.499999999939973
 21
9.16666666657997
 31
0.0
  0
LINE
  5
383
330
40
100
AcDbEntity
  8
5
  6
AUSGEZOGEN
 62
    14
100
AcDbLine
 10
1.499999999939973
 20
4.833333333419915
 30
0.0
 11
0.0
 21
4.666666666759994
 31
0.0
  0
ARC
  5
384
330
40
100
AcDbEntity
  8
5
  6
AUSGEZOGEN
 62
    14
100
AcDbCircle
 10
-2.944444444327359
 20
6.999999999999857
 30
0.0
 40
4.944444444247332
100
AcDbArc
 50
2.898213389675903
 51
25.9892335838311
  0
ARC
  5
385
330
40
100
AcDbEntity
  8
5
  6
AUSGEZOGEN
 62
    14
100
AcDbCircle
 10
-2.944444444327359
 20
7.000000000000085
 30
0.0
 40
4.944444444247332
100
AcDbArc
 50
334.0107664161688
 51
357.1017866103241
  0
LINE
  5
386
330
40
100
AcDbEntity
  8
5
  6
AUSGEZOGEN
 62
    14
100
AcDbLine
 10
1.999999999919964
 20
7.24999999998991
 30
0.0
 11
1.749999999929968
 21
7.24999999998991
 31
0.0
  0
LINE
  5
387
330
40
100
AcDbEntity
  8
5
  6
AUSGEZOGEN
 62
    14
100
AcDbLine
 10
1.993675730623181
 20
6.750000000009976
 30
0.0
 11
1.749999999929968
 21
6.750000000009976
 31
0.0
  0
LINE
  5
388
330
40
100
AcDbEntity
  8
5
  6
AUSGEZOGEN
 62
    14
100
AcDbLine
 10
1.749999999929968
 20
6.750000000009976
 30
0.0
 11
1.749999999929968
 21
7.24999999998991
 31
0.0
  0
LINE
  5
389
330
40
100
AcDbEntity
  8
5
  6
VERDECKT
 62
   214
100
AcDbLine
 10
1.710633759601364
 20
8.666666666599979
 30
0.0
 11
0.4166666666499168
 21
6.999999999999971
 31
0.0
  0
LINE
  5
38A
330
40
100
AcDbEntity
  8
5
  6
VERDECKT
 62
   214
100
AcDbLine
 10
0.4166666666499168
 20
6.999999999999971
 30
0.0
 11
1.710633759601364
 21
5.333333333399963
 31
0.0
  0
LINE
  5
38B
330
40
100
AcDbEntity
  8
5
  6
VERDECKT
 62
   214
100
AcDbLine
 10
0.6107617305925715
 20
7.24999999998991
 30
0.0
 11
0.6107617305925715
 21
6.750000000009976
 31
0.0
  0
LINE
  5
38C
330
40
100
AcDbEntity
  8
5
  6
VERDECKT
 62
   214
100
AcDbLine
 10
1.749999999929968
 20
7.24999999998991
 30
0.0
 11
0.6107617305925715
 21
7.249999999989796
 31
0.0
  0
LINE
  5
38D
330
40
100
AcDbEntity
  8
5
  6
VERDECKT
 62
   214
100
AcDbLine
 10
0.6107617305925715
 20
6.750000000010089
 30
0.0
 11
1.749999999929968
 21
6.750000000009976
 31
0.0
  0
ENDBLK
  5
38E
330
40
100
AcDbEntity
  8
0
  6
ByBlock
 62
     0
100
AcDbBlockEnd
  0
BLOCK
  5
38F
330
41
100
AcDbEntity
  8
0
100
AcDbBlockBegin
  2
M3D_17
 70
     0
 71
     1
 10
0.0
 20
0.0
 30
0.0
  3
M3D_17
  1

  0
LINE
  5
390
330
41
100
AcDbEntity
  8
5
  6
AUSGEZOGEN
 62
    14
100
AcDbLine
 10
0.7216878364870354
 20
1.25
 30
0.0
 11
-0.7216878364870354
 21
1.25
 31
0.0
  0
LINE
  5
391
330
41
100
AcDbEntity
  8
5
  6
AUSGEZOGEN
 62
    14
100
AcDbLine
 10
-0.7216878364870354
 20
1.25
 30
0.0
 11
-1.44337567297407
 21
0.0
 31
0.0
  0
LINE
  5
392
330
41
100
AcDbEntity
  8
5
  6
AUSGEZOGEN
 62
    14
100
AcDbLine
 10
-1.44337567297407
 20
0.0
 30
0.0
 11
-0.7216878364870354
 21
-1.25
 31
0.0
  0
LINE
  5
393
330
41
100
AcDbEntity
  8
5
  6
AUSGEZOGEN
 62
    14
100
AcDbLine
 10
-0.7216878364870354
 20
-1.25
 30
0.0
 11
0.7216878364870354
 21
-1.25
 31
0.0
  0
LINE
  5
394
330
41
100
AcDbEntity
  8
5
  6
AUSGEZOGEN
 62
    14
100
AcDbLine
 10
0.7216878364870354
 20
-1.25
 30
0.0
 11
1.44337567297407
 21
0.0
 31
0.0
  0
LINE
  5
395
330
41
100
AcDbEntity
  8
5
  6
AUSGEZOGEN
 62
    14
100
AcDbLine
 10
1.44337567297407
 20
0.0
 30
0.0
 11
0.7216878364870354
 21
1.25
 31
0.0
  0
CIRCLE
  5
396
330
41
100
AcDbEntity
  8
1
  6
AUSGEZOGEN
 62
    14
100
AcDbCircle
 10
0.0
 20
0.0
 30
0.0
 40
2.75
  0
ENDBLK
  5
397
330
41
100
AcDbEntity
  8
0
  6
ByBlock
 62
     0
100
AcDbBlockEnd
  0
BLOCK
  5
398
330
42
100
AcDbEntity
  8
0
100
AcDbBlockBegin
  2
M3D_18
 70
     0
 71
     1
 10
0.0
 20
0.0
 30
0.0
  3
M3D_18
  1

  0
LINE
  5
399
330
42
100
AcDbEntity
  8
5
  6
AUSGEZOGEN
 62
    14
100
AcDbLine
 10
0.7216878364870354
 20
1.25
 30
0.0
 11
-0.7216878364870354
 21
1.25
 31
0.0
  0
LINE
  5
39A
330
42
100
AcDbEntity
  8
5
  6
AUSGEZOGEN
 62
    14
100
AcDbLine
 10
-0.7216878364870354
 20
1.25
 30
0.0
 11
-1.44337567297407
 21
0.0
 31
0.0
  0
LINE
  5
39B
330
42
100
AcDbEntity
  8
5
  6
AUSGEZOGEN
 62
    14
100
AcDbLine
 10
-1.44337567297407
 20
0.0
 30
0.0
 11
-0.7216878364870354
 21
-1.25
 31
0.0
  0
LINE
  5
39C
330
42
100
AcDbEntity
  8
5
  6
AUSGEZOGEN
 62
    14
100
AcDbLine
 10
-0.7216878364870354
 20
-1.25
 30
0.0
 11
0.7216878364870354
 21
-1.25
 31
0.0
  0
LINE
  5
39D
330
42
100
AcDbEntity
  8
5
  6
AUSGEZOGEN
 62
    14
100
AcDbLine
 10
0.7216878364870354
 20
-1.25
 30
0.0
 11
1.44337567297407
 21
0.0
 31
0.0
  0
LINE
  5
39E
330
42
100
AcDbEntity
  8
5
  6
AUSGEZOGEN
 62
    14
100
AcDbLine
 10
1.44337567297407
 20
0.0
 30
0.0
 11
0.7216878364870354
 21
1.25
 31
0.0
  0
CIRCLE
  5
39F
330
42
100
AcDbEntity
  8
1
  6
AUSGEZOGEN
 62
    14
100
AcDbCircle
 10
0.0
 20
0.0
 30
0.0
 40
2.75
  0
ENDBLK
  5
3A0
330
42
100
AcDbEntity
  8
0
  6
ByBlock
 62
     0
100
AcDbBlockEnd
  0
BLOCK
  5
3A1
330
43
100
AcDbEntity
  8
0
100
AcDbBlockBegin
  2
M3D_19
 70
     0
 71
     1
 10
0.0
 20
0.0
 30
0.0
  3
M3D_19
  1

  0
LINE
  5
3A2
330
43
100
AcDbEntity
  8
5
  6
AUSGEZOGEN
 62
    14
100
AcDbLine
 10
0.7216878364870354
 20
1.25
 30
0.0
 11
-0.7216878364870354
 21
1.25
 31
0.0
  0
LINE
  5
3A3
330
43
100
AcDbEntity
  8
5
  6
AUSGEZOGEN
 62
    14
100
AcDbLine
 10
-0.7216878364870354
 20
1.25
 30
0.0
 11
-1.44337567297407
 21
0.0
 31
0.0
  0
LINE
  5
3A4
330
43
100
AcDbEntity
  8
5
  6
AUSGEZOGEN
 62
    14
100
AcDbLine
 10
-1.44337567297407
 20
0.0
 30
0.0
 11
-0.7216878364870354
 21
-1.25
 31
0.0
  0
LINE
  5
3A5
330
43
100
AcDbEntity
  8
5
  6
AUSGEZOGEN
 62
    14
100
AcDbLine
 10
-0.7216878364870354
 20
-1.25
 30
0.0
 11
0.7216878364870354
 21
-1.25
 31
0.0
  0
LINE
  5
3A6
330
43
100
AcDbEntity
  8
5
  6
AUSGEZOGEN
 62
    14
100
AcDbLine
 10
0.7216878364870354
 20
-1.25
 30
0.0
 11
1.44337567297407
 21
0.0
 31
0.0
  0
LINE
  5
3A7
330
43
100
AcDbEntity
  8
5
  6
AUSGEZOGEN
 62
    14
100
AcDbLine
 10
1.44337567297407
 20
0.0
 30
0.0
 11
0.7216878364870354
 21
1.25
 31
0.0
  0
CIRCLE
  5
3A8
330
43
100
AcDbEntity
  8
1
  6
AUSGEZOGEN
 62
    14
100
AcDbCircle
 10
0.0
 20
0.0
 30
0.0
 40
2.75
  0
ENDBLK
  5
3A9
330
43
100
AcDbEntity
  8
0
  6
ByBlock
 62
     0
100
AcDbBlockEnd
  0
BLOCK
  5
3AA
330
44
100
AcDbEntity
  8
0
100
AcDbBlockBegin
  2
M3D_20
 70
     0
 71
     1
 10
0.0
 20
0.0
 30
0.0
  3
M3D_20
  1

  0
LINE
  5
3AB
330
44
100
AcDbEntity
  8
5
  6
AUSGEZOGEN
 62
    14
100
AcDbLine
 10
0.7216878364870354
 20
1.25
 30
0.0
 11
-0.7216878364870354
 21
1.25
 31
0.0
  0
LINE
  5
3AC
330
44
100
AcDbEntity
  8
5
  6
AUSGEZOGEN
 62
    14
100
AcDbLine
 10
-0.7216878364870354
 20
1.25
 30
0.0
 11
-1.44337567297407
 21
0.0
 31
0.0
  0
LINE
  5
3AD
330
44
100
AcDbEntity
  8
5
  6
AUSGEZOGEN
 62
    14
100
AcDbLine
 10
-1.44337567297407
 20
0.0
 30
0.0
 11
-0.7216878364870354
 21
-1.25
 31
0.0
  0
LINE
  5
3AE
330
44
100
AcDbEntity
  8
5
  6
AUSGEZOGEN
 62
    14
100
AcDbLine
 10
-0.7216878364870354
 20
-1.25
 30
0.0
 11
0.7216878364870354
 21
-1.25
 31
0.0
  0
LINE
  5
3AF
330
44
100
AcDbEntity
  8
5
  6
AUSGEZOGEN
 62
    14
100
AcDbLine
 10
0.7216878364870354
 20
-1.25
 30
0.0
 11
1.44337567297407
 21
0.0
 31
0.0
  0
LINE
  5
3B0
330
44
100
AcDbEntity
  8
5
  6
AUSGEZOGEN
 62
    14
100
AcDbLine
 10
1.44337567297407
 20
0.0
 30
0.0
 11
0.7216878364870354
 21
1.25
 31
0.0
  0
CIRCLE
  5
3B1
330
44
100
AcDbEntity
  8
1
  6
AUSGEZOGEN
 62
    14
100
AcDbCircle
 10
0.0
 20
0.0
 30
0.0
 40
2.75
  0
ENDBLK
  5
3B2
330
44
100
AcDbEntity
  8
0
  6
ByBlock
 62
     0
100
AcDbBlockEnd
  0
BLOCK
  5
3B3
330
45
100
AcDbEntity
  8
0
100
AcDbBlockBegin
  2
*D21
 70
     1
 71
     1
 10
0.0
 20
0.0
 30
0.0
  3
*D21
  1

  0
LINE
  5
E20
330
45
100
AcDbEntity
  8
5
  6
AUSGEZOGEN
 62
     0
370
    -2
100
AcDbLine
 10
496.5158906169814
 20
222.3486360835547
 30
0.0
 11
525.9702056623893
 21
222.3486360835547
 31
0.0
  0
LINE
  5
E21
330
45
100
AcDbEntity
  8
5
  6
AUSGEZOGEN
 62
     0
370
    -2
100
AcDbLine
 10
496.5158906169814
 20
292.3486360835547
 30
0.0
 11
525.9702056623894
 21
292.3486360835547
 31
0.0
  0
LINE
  5
E22
330
45
100
AcDbEntity
  8
5
  6
AUSGEZOGEN
 62
     0
370
    -2
100
AcDbLine
 10
524.2602056623893
 20
225.3486360835547
 30
0.0
 11
524.2602056623894
 21
289.3486360835547
 31
0.0
  0
MTEXT
  5
E23
330
45
100
AcDbEntity
  8
5
  6
AUSGEZOGEN
 62
    54
100
AcDbMText
 10
521.5483627622663
 20
255.173255947588
 30
0.0
 40
3.5
 41
0.0
 71
     5
 72
     1
  1
\A1;70
 11
0.0000000000000001
 21
1.0
 31
0.0
 73
     1
 44
1.0
  0
SOLID
  5
E24
330
45
100
AcDbEntity
  8
5
  6
AUSGEZOGEN
 62
     0
370
     0
100
AcDbTrace
 10
523.7602056623893
 20
225.3486360835547
 30
0.0
 11
524.7602056623893
 21
225.3486360835547
 31
0.0
 12
524.2602056623893
 22
222.3486360835547
 32
0.0
 13
524.2602056623893
 23
222.3486360835547
 33
0.0
  0
SOLID
  5
E25
330
45
100
AcDbEntity
  8
5
  6
AUSGEZOGEN
 62
     0
370
     0
100
AcDbTrace
 10
523.7602056623894
 20
289.3486360835547
 30
0.0
 11
524.7602056623894
 21
289.3486360835547
 31
0.0
 12
524.2602056623894
 22
292.3486360835547
 32
0.0
 13
524.2602056623894
 23
292.3486360835547
 33
0.0
  0
POINT
  5
E26
330
45
100
AcDbEntity
  8
Defpoints
  6
AUSGEZOGEN
 62
     0
370
     0
100
AcDbPoint
 10
496.4158906169814
 20
222.3486360835547
 30
0.0
  0
POINT
  5
E27
330
45
100
AcDbEntity
  8
Defpoints
  6
AUSGEZOGEN
 62
     0
370
     0
100
AcDbPoint
 10
496.4158906169814
 20
292.3486360835547
 30
0.0
  0
POINT
  5
E28
330
45
100
AcDbEntity
  8
Defpoints
  6
AUSGEZOGEN
 62
     0
370
     0
100
AcDbPoint
 10
524.2602056623894
 20
292.3486360835547
 30
0.0
  0
ENDBLK
  5
3BA
330
45
100
AcDbEntity
  8
0
  6
ByBlock
 62
     0
100
AcDbBlockEnd
  0
BLOCK
  5
3BB
330
46
100
AcDbEntity
  8
0
100
AcDbBlockBegin
  2
*D22
 70
     1
 71
     1
 10
0.0
 20
0.0
 30
0.0
  3
*D22
  1

  0
LINE
  5
E17
330
46
100
AcDbEntity
  8
5
  6
AUSGEZOGEN
 62
     0
370
    -2
100
AcDbLine
 10
430.0471163342652
 20
225.8798618008385
 30
0.0
 11
430.0471163342652
 21
193.8748351875187
 31
0.0
  0
LINE
  5
E18
330
46
100
AcDbEntity
  8
5
  6
AUSGEZOGEN
 62
     0
370
    -2
100
AcDbLine
 10
500.0471163342651
 20
225.8798618008385
 30
0.0
 11
500.0471163342651
 21
193.8748351875187
 31
0.0
  0
LINE
  5
E19
330
46
100
AcDbEntity
  8
5
  6
AUSGEZOGEN
 62
     0
370
    -2
100
AcDbLine
 10
433.0471163342651
 20
195.5848351875187
 30
0.0
 11
497.0471163342652
 21
195.5848351875187
 31
0.0
  0
MTEXT
  5
E1A
330
46
100
AcDbEntity
  8
5
  6
AUSGEZOGEN
 62
    54
100
AcDbMText
 10
463.9783347605741
 20
198.2791146593678
 30
0.0
 40
3.5
 41
0.0
 71
     5
 72
     1
  1
\A1;70
 73
     1
 44
1.0
  0
SOLID
  5
E1B
330
46
100
AcDbEntity
  8
5
  6
AUSGEZOGEN
 62
     0
370
     0
100
AcDbTrace
 10
433.0471163342651
 20
196.0848351875187
 30
0.0
 11
433.0471163342651
 21
195.0848351875187
 31
0.0
 12
430.0471163342652
 22
195.5848351875187
 32
0.0
 13
430.0471163342652
 23
195.5848351875187
 33
0.0
  0
SOLID
  5
E1C
330
46
100
AcDbEntity
  8
5
  6
AUSGEZOGEN
 62
     0
370
     0
100
AcDbTrace
 10
497.0471163342652
 20
196.0848351875187
 30
0.0
 11
497.0471163342652
 21
195.0848351875187
 31
0.0
 12
500.0471163342651
 22
195.5848351875187
 32
0.0
 13
500.0471163342651
 23
195.5848351875187
 33
0.0
  0
POINT
  5
E1D
330
46
100
AcDbEntity
  8
Defpoints
  6
AUSGEZOGEN
 62
     0
370
     0
100
AcDbPoint
 10
430.0471163342652
 20
225.9798618008385
 30
0.0
  0
POINT
  5
E1E
330
46
100
AcDbEntity
  8
Defpoints
  6
AUSGEZOGEN
 62
     0
370
     0
100
AcDbPoint
 10
500.0471163342651
 20
225.9798618008385
 30
0.0
  0
POINT
  5
E1F
330
46
100
AcDbEntity
  8
Defpoints
  6
AUSGEZOGEN
 62
     0
370
     0
100
AcDbPoint
 10
500.0471163342651
 20
195.5848351875187
 30
0.0
  0
ENDBLK
  5
3C2
330
46
100
AcDbEntity
  8
0
  6
ByBlock
 62
     0
100
AcDbBlockEnd
  0
BLOCK
  5
3C3
330
47
100
AcDbEntity
  8
0
100
AcDbBlockBegin
  2
*D23
 70
     1
 71
     1
 10
0.0
 20
0.0
 30
0.0
  3
*D23
  1

  0
LINE
  5
E0E
330
47
100
AcDbEntity
  8
5
  6
AUSGEZOGEN
 62
     0
370
    -2
100
AcDbLine
 10
427.5471163342651
 20
257.2486360835548
 30
0.0
 11
427.5471163342651
 21
182.796366069396
 31
0.0
  0
LINE
  5
E0F
330
47
100
AcDbEntity
  8
5
  6
AUSGEZOGEN
 62
     0
370
    -2
100
AcDbLine
 10
502.5471163342651
 20
257.2486360835548
 30
0.0
 11
502.5471163342651
 21
182.796366069396
 31
0.0
  0
LINE
  5
E10
330
47
100
AcDbEntity
  8
5
  6
AUSGEZOGEN
 62
     0
370
    -2
100
AcDbLine
 10
430.5471163342652
 20
184.5063660693959
 30
0.0
 11
499.5471163342651
 21
184.5063660693959
 31
0.0
  0
MTEXT
  5
E11
330
47
100
AcDbEntity
  8
5
  6
AUSGEZOGEN
 62
    54
100
AcDbMText
 10
464.6005901566089
 20
187.7084858203401
 30
0.0
 40
3.5
 41
0.0
 71
     5
 72
     1
  1
\A1;%%c75
 73
     1
 44
1.0
  0
SOLID
  5
E12
330
47
100
AcDbEntity
  8
5
  6
AUSGEZOGEN
 62
     0
370
     0
100
AcDbTrace
 10
430.5471163342652
 20
185.006366069396
 30
0.0
 11
430.5471163342652
 21
184.0063660693959
 31
0.0
 12
427.5471163342651
 22
184.5063660693959
 32
0.0
 13
427.5471163342651
 23
184.5063660693959
 33
0.0
  0
SOLID
  5
E13
330
47
100
AcDbEntity
  8
5
  6
AUSGEZOGEN
 62
     0
370
     0
100
AcDbTrace
 10
499.5471163342651
 20
185.006366069396
 30
0.0
 11
499.5471163342651
 21
184.0063660693959
 31
0.0
 12
502.5471163342651
 22
184.5063660693959
 32
0.0
 13
502.5471163342651
 23
184.5063660693959
 33
0.0
  0
POINT
  5
E14
330
47
100
AcDbEntity
  8
Defpoints
  6
AUSGEZOGEN
 62
     0
370
     0
100
AcDbPoint
 10
427.5471163342651
 20
257.3486360835548
 30
0.0
  0
POINT
  5
E15
330
47
100
AcDbEntity
  8
Defpoints
  6
AUSGEZOGEN
 62
     0
370
     0
100
AcDbPoint
 10
502.5471163342651
 20
257.3486360835548
 30
0.0
  0
POINT
  5
E16
330
47
100
AcDbEntity
  8
Defpoints
  6
AUSGEZOGEN
 62
     0
370
     0
100
AcDbPoint
 10
502.5471163342651
 20
184.5063660693959
 30
0.0
  0
ENDBLK
  5
3CA
330
47
100
AcDbEntity
  8
0
  6
ByBlock
 62
     0
100
AcDbBlockEnd
  0
BLOCK
  5
3CB
330
48
100
AcDbEntity
  8
0
100
AcDbBlockBegin
  2
*D24
 70
     1
 71
     1
 10
0.0
 20
0.0
 30
0.0
  3
*D24
  1

  0
LINE
  5
E05
330
48
100
AcDbEntity
  8
5
  6
AUSGEZOGEN
 62
     0
370
    -2
100
AcDbLine
 10
418.0471163342652
 20
257.2486360835548
 30
0.0
 11
418.0471163342652
 21
172.074596302632
 31
0.0
  0
LINE
  5
E06
330
48
100
AcDbEntity
  8
5
  6
AUSGEZOGEN
 62
     0
370
    -2
100
AcDbLine
 10
512.0471163342651
 20
257.2486360835548
 30
0.0
 11
512.0471163342651
 21
172.074596302632
 31
0.0
  0
LINE
  5
E07
330
48
100
AcDbEntity
  8
5
  6
AUSGEZOGEN
 62
     0
370
    -2
100
AcDbLine
 10
421.0471163342651
 20
173.784596302632
 30
0.0
 11
509.0471163342652
 21
173.784596302632
 31
0.0
  0
MTEXT
  5
E08
330
48
100
AcDbEntity
  8
5
  6
AUSGEZOGEN
 62
    54
100
AcDbMText
 10
464.9117170213147
 20
176.8269557205977
 30
0.0
 40
3.5
 41
0.0
 71
     5
 72
     1
  1
\A1;%%c94
 73
     1
 44
1.0
  0
SOLID
  5
E09
330
48
100
AcDbEntity
  8
5
  6
AUSGEZOGEN
 62
     0
370
     0
100
AcDbTrace
 10
421.0471163342651
 20
174.2845963026319
 30
0.0
 11
421.0471163342651
 21
173.284596302632
 31
0.0
 12
418.0471163342652
 22
173.784596302632
 32
0.0
 13
418.0471163342652
 23
173.784596302632
 33
0.0
  0
SOLID
  5
E0A
330
48
100
AcDbEntity
  8
5
  6
AUSGEZOGEN
 62
     0
370
     0
100
AcDbTrace
 10
509.0471163342652
 20
174.2845963026319
 30
0.0
 11
509.0471163342652
 21
173.284596302632
 31
0.0
 12
512.0471163342651
 22
173.784596302632
 32
0.0
 13
512.0471163342651
 23
173.784596302632
 33
0.0
  0
POINT
  5
E0B
330
48
100
AcDbEntity
  8
Defpoints
  6
AUSGEZOGEN
 62
     0
370
     0
100
AcDbPoint
 10
418.0471163342652
 20
257.3486360835548
 30
0.0
  0
POINT
  5
E0C
330
48
100
AcDbEntity
  8
Defpoints
  6
AUSGEZOGEN
 62
     0
370
     0
100
AcDbPoint
 10
512.0471163342651
 20
257.3486360835548
 30
0.0
  0
POINT
  5
E0D
330
48
100
AcDbEntity
  8
Defpoints
  6
AUSGEZOGEN
 62
     0
370
     0
100
AcDbPoint
 10
512.0471163342651
 20
173.784596302632
 30
0.0
  0
ENDBLK
  5
3D2
330
48
100
AcDbEntity
  8
0
  6
ByBlock
 62
     0
100
AcDbBlockEnd
  0
BLOCK
  5
3D3
330
49
100
AcDbEntity
  8
0
100
AcDbBlockBegin
  2
*D25
 70
     1
 71
     1
 10
0.0
 20
0.0
 30
0.0
  3
*D25
  1

  0
LINE
  5
E7C
330
49
100
AcDbEntity
  8
5
  6
AUSGEZOGEN
 62
     0
370
    -2
100
AcDbLine
 10
435.7806120397696
 20
230.7321317890593
 30
0.0
 11
435.7806120397696
 21
204.2848196639661
 31
0.0
  0
LINE
  5
E7D
330
49
100
AcDbEntity
  8
5
  6
AUSGEZOGEN
 62
     0
370
    -2
100
AcDbLine
 10
441.2806120397696
 20
230.7321317890593
 30
0.0
 11
441.2806120397696
 21
204.2848196639661
 31
0.0
  0
LINE
  5
E7E
330
49
100
AcDbEntity
  8
5
  6
AUSGEZOGEN
 62
     0
370
    -2
100
AcDbLine
 10
432.7806120397696
 20
205.9948196639661
 30
0.0
 11
429.7806120397695
 21
205.9948196639661
 31
0.0
  0
LINE
  5
E7F
330
49
100
AcDbEntity
  8
5
  6
AUSGEZOGEN
 62
     0
370
    -2
100
AcDbLine
 10
444.2806120397696
 20
205.9948196639661
 30
0.0
 11
447.2806120397696
 21
205.9948196639661
 31
0.0
  0
MTEXT
  5
E80
330
49
100
AcDbEntity
  8
5
  6
AUSGEZOGEN
 62
    54
100
AcDbMText
 10
454.333386955086
 20
206.0516361591838
 30
0.0
 40
3.5
 41
0.0
 71
     5
 72
     1
  1
\A1;%%c5.5
 73
     1
 44
1.0
  0
SOLID
  5
E81
330
49
100
AcDbEntity
  8
5
  6
AUSGEZOGEN
 62
     0
370
     0
100
AcDbTrace
 10
432.7806120397696
 20
206.4948196639661
 30
0.0
 11
432.7806120397696
 21
205.4948196639661
 31
0.0
 12
435.7806120397696
 22
205.9948196639661
 32
0.0
 13
435.7806120397696
 23
205.9948196639661
 33
0.0
  0
SOLID
  5
E82
330
49
100
AcDbEntity
  8
5
  6
AUSGEZOGEN
 62
     0
370
     0
100
AcDbTrace
 10
444.2806120397696
 20
206.4948196639661
 30
0.0
 11
444.2806120397696
 21
205.4948196639661
 31
0.0
 12
441.2806120397696
 22
205.9948196639661
 32
0.0
 13
441.2806120397696
 23
205.9948196639661
 33
0.0
  0
POINT
  5
E83
330
49
100
AcDbEntity
  8
Defpoints
  6
AUSGEZOGEN
 62
     0
370
     0
100
AcDbPoint
 10
435.7806120397696
 20
230.8321317890593
 30
0.0
  0
POINT
  5
E84
330
49
100
AcDbEntity
  8
Defpoints
  6
AUSGEZOGEN
 62
     0
370
     0
100
AcDbPoint
 10
441.2806120397696
 20
230.8321317890593
 30
0.0
  0
POINT
  5
E85
330
49
100
AcDbEntity
  8
Defpoints
  6
AUSGEZOGEN
 62
     0
370
     0
100
AcDbPoint
 10
441.2806120397696
 20
205.9948196639661
 30
0.0
  0
ENDBLK
  5
3DC
330
49
100
AcDbEntity
  8
0
  6
ByBlock
 62
     0
100
AcDbBlockEnd
  0
BLOCK
  5
3DD
330
4A
100
AcDbEntity
  8
0
100
AcDbBlockBegin
  2
*D26
 70
     1
 71
     1
 10
0.0
 20
0.0
 30
0.0
  3
*D26
  1

  0
LINE
  5
E86
330
4A
100
AcDbEntity
  8
5
  6
AUSGEZOGEN
 62
     0
370
    -2
100
AcDbLine
 10
414.7254374046952
 20
257.3486360835547
 30
0.0
 11
406.3809978823235
 21
257.3486360835547
 31
0.0
  0
LINE
  5
E87
330
4A
100
AcDbEntity
  8
5
  6
AUSGEZOGEN
 62
     0
370
    -2
100
AcDbLine
 10
438.7471163342651
 20
324.3486360835547
 30
0.0
 11
406.3809978823235
 21
324.3486360835547
 31
0.0
  0
LINE
  5
E88
330
4A
100
AcDbEntity
  8
5
  6
AUSGEZOGEN
 62
     0
370
    -2
100
AcDbLine
 10
408.0909978823235
 20
260.3486360835547
 30
0.0
 11
408.0909978823235
 21
321.3486360835547
 31
0.0
  0
MTEXT
  5
E89
330
4A
100
AcDbEntity
  8
5
  6
AUSGEZOGEN
 62
    54
100
AcDbMText
 10
404.5530119374931
 20
291.1632548522062
 30
0.0
 40
3.5
 41
0.0
 71
     5
 72
     1
  1
\A1;67
 11
0.0000000000000001
 21
1.0
 31
0.0
 73
     1
 44
1.0
  0
SOLID
  5
E8A
330
4A
100
AcDbEntity
  8
5
  6
AUSGEZOGEN
 62
     0
370
     0
100
AcDbTrace
 10
407.5909978823236
 20
260.3486360835547
 30
0.0
 11
408.5909978823235
 21
260.3486360835547
 31
0.0
 12
408.0909978823235
 22
257.3486360835547
 32
0.0
 13
408.0909978823235
 23
257.3486360835547
 33
0.0
  0
SOLID
  5
E8B
330
4A
100
AcDbEntity
  8
5
  6
AUSGEZOGEN
 62
     0
370
     0
100
AcDbTrace
 10
407.5909978823236
 20
321.3486360835547
 30
0.0
 11
408.5909978823235
 21
321.3486360835547
 31
0.0
 12
408.0909978823235
 22
324.3486360835547
 32
0.0
 13
408.0909978823235
 23
324.3486360835547
 33
0.0
  0
POINT
  5
E8C
330
4A
100
AcDbEntity
  8
Defpoints
  6
AUSGEZOGEN
 62
     0
370
     0
100
AcDbPoint
 10
414.8254374046953
 20
257.3486360835547
 30
0.0
  0
POINT
  5
E8D
330
4A
100
AcDbEntity
  8
Defpoints
  6
AUSGEZOGEN
 62
     0
370
     0
100
AcDbPoint
 10
438.8471163342651
 20
324.3486360835547
 30
0.0
  0
POINT
  5
E8E
330
4A
100
AcDbEntity
  8
Defpoints
  6
AUSGEZOGEN
 62
     0
370
     0
100
AcDbPoint
 10
408.0909978823235
 20
324.3486360835547
 30
0.0
  0
ENDBLK
  5
3E4
330
4A
100
AcDbEntity
  8
0
  6
ByBlock
 62
     0
100
AcDbBlockEnd
  0
BLOCK
  5
3E5
330
4B
100
AcDbEntity
  8
0
100
AcDbBlockBegin
  2
*D27
 70
     1
 71
     1
 10
0.0
 20
0.0
 30
0.0
  3
*D27
  1

  0
LINE
  5
E4D
330
4B
100
AcDbEntity
  8
5
  6
AUSGEZOGEN
 62
     0
370
    -2
100
AcDbLine
 10
243.1679636910337
 20
227.2486360835547
 30
0.0
 11
243.1679636910337
 21
214.1471403662079
 31
0.0
  0
LINE
  5
E4E
330
4B
100
AcDbEntity
  8
5
  6
AUSGEZOGEN
 62
     0
370
    -2
100
AcDbLine
 10
245.6679636910337
 20
222.2486360835547
 30
0.0
 11
245.6679636910337
 21
214.1471403662079
 31
0.0
  0
LINE
  5
E4F
330
4B
100
AcDbEntity
  8
5
  6
AUSGEZOGEN
 62
     0
370
    -2
100
AcDbLine
 10
240.1679636910337
 20
215.857140366208
 30
0.0
 11
237.1679636910337
 21
215.857140366208
 31
0.0
  0
LINE
  5
E50
330
4B
100
AcDbEntity
  8
5
  6
AUSGEZOGEN
 62
     0
370
    -2
100
AcDbLine
 10
248.6679636910337
 20
215.857140366208
 30
0.0
 11
251.6679636910337
 21
215.857140366208
 31
0.0
  0
MTEXT
  5
E51
330
4B
100
AcDbEntity
  8
5
  6
AUSGEZOGEN
 62
    54
100
AcDbMText
 10
232.8601580007185
 20
215.9237241902818
 30
0.0
 40
3.5
 41
0.0
 71
     5
 72
     1
  1
\A1;2.5
 73
     1
 44
1.0
  0
SOLID
  5
E52
330
4B
100
AcDbEntity
  8
5
  6
AUSGEZOGEN
 62
     0
370
     0
100
AcDbTrace
 10
240.1679636910337
 20
216.3571403662079
 30
0.0
 11
240.1679636910337
 21
215.357140366208
 31
0.0
 12
243.1679636910337
 22
215.857140366208
 32
0.0
 13
243.1679636910337
 23
215.857140366208
 33
0.0
  0
SOLID
  5
E53
330
4B
100
AcDbEntity
  8
5
  6
AUSGEZOGEN
 62
     0
370
     0
100
AcDbTrace
 10
248.6679636910337
 20
216.3571403662079
 30
0.0
 11
248.6679636910337
 21
215.357140366208
 31
0.0
 12
245.6679636910337
 22
215.857140366208
 32
0.0
 13
245.6679636910337
 23
215.857140366208
 33
0.0
  0
POINT
  5
E54
330
4B
100
AcDbEntity
  8
Defpoints
  6
AUSGEZOGEN
 62
     0
370
     0
100
AcDbPoint
 10
243.1679636910337
 20
227.3486360835547
 30
0.0
  0
POINT
  5
E55
330
4B
100
AcDbEntity
  8
Defpoints
  6
AUSGEZOGEN
 62
     0
370
     0
100
AcDbPoint
 10
245.6679636910337
 20
222.3486360835547
 30
0.0
  0
POINT
  5
E56
330
4B
100
AcDbEntity
  8
Defpoints
  6
AUSGEZOGEN
 62
     0
370
     0
100
AcDbPoint
 10
245.6679636910337
 20
215.857140366208
 30
0.0
  0
ENDBLK
  5
3EE
330
4B
100
AcDbEntity
  8
0
  6
ByBlock
 62
     0
100
AcDbBlockEnd
  0
BLOCK
  5
3EF
330
4C
100
AcDbEntity
  8
0
100
AcDbBlockBegin
  2
*D28
 70
     1
 71
     1
 10
0.0
 20
0.0
 30
0.0
  3
*D28
  1

  0
LINE
  5
E3B
330
4C
100
AcDbEntity
  8
5
  6
AUSGEZOGEN
 62
     0
370
    -2
100
AcDbLine
 10
245.6679636910337
 20
222.2486360835547
 30
0.0
 11
245.6679636910337
 21
203.8734508541495
 31
0.0
  0
LINE
  5
E3C
330
4C
100
AcDbEntity
  8
5
  6
AUSGEZOGEN
 62
     0
370
    -2
100
AcDbLine
 10
222.6679636910337
 20
252.2486360835547
 30
0.0
 11
222.6679636910337
 21
203.8734508541495
 31
0.0
  0
LINE
  5
E3D
330
4C
100
AcDbEntity
  8
5
  6
AUSGEZOGEN
 62
     0
370
    -2
100
AcDbLine
 10
242.6679636910337
 20
205.5834508541495
 30
0.0
 11
225.6679636910337
 21
205.5834508541495
 31
0.0
  0
MTEXT
  5
E3E
330
4C
100
AcDbEntity
  8
5
  6
AUSGEZOGEN
 62
    54
100
AcDbMText
 10
233.566516197647
 20
208.394729538883
 30
0.0
 40
3.5
 41
0.0
 71
     5
 72
     1
  1
\A1;23
 73
     1
 44
1.0
  0
SOLID
  5
E3F
330
4C
100
AcDbEntity
  8
5
  6
AUSGEZOGEN
 62
     0
370
     0
100
AcDbTrace
 10
242.6679636910337
 20
206.0834508541495
 30
0.0
 11
242.6679636910337
 21
205.0834508541495
 31
0.0
 12
245.6679636910337
 22
205.5834508541495
 32
0.0
 13
245.6679636910337
 23
205.5834508541495
 33
0.0
  0
SOLID
  5
E40
330
4C
100
AcDbEntity
  8
5
  6
AUSGEZOGEN
 62
     0
370
     0
100
AcDbTrace
 10
225.6679636910337
 20
206.0834508541495
 30
0.0
 11
225.6679636910337
 21
205.0834508541495
 31
0.0
 12
222.6679636910337
 22
205.5834508541495
 32
0.0
 13
222.6679636910337
 23
205.5834508541495
 33
0.0
  0
POINT
  5
E41
330
4C
100
AcDbEntity
  8
Defpoints
  6
AUSGEZOGEN
 62
     0
370
     0
100
AcDbPoint
 10
245.6679636910337
 20
222.3486360835547
 30
0.0
  0
POINT
  5
E42
330
4C
100
AcDbEntity
  8
Defpoints
  6
AUSGEZOGEN
 62
     0
370
     0
100
AcDbPoint
 10
222.6679636910337
 20
252.3486360835547
 30
0.0
  0
POINT
  5
E43
330
4C
100
AcDbEntity
  8
Defpoints
  6
AUSGEZOGEN
 62
     0
370
     0
100
AcDbPoint
 10
222.6679636910337
 20
205.5834508541495
 30
0.0
  0
ENDBLK
  5
3F6
330
4C
100
AcDbEntity
  8
0
  6
ByBlock
 62
     0
100
AcDbBlockEnd
  0
BLOCK
  5
3F7
330
4D
100
AcDbEntity
  8
0
100
AcDbBlockBegin
  2
*D29
 70
     1
 71
     1
 10
0.0
 20
0.0
 30
0.0
  3
*D29
  1

  0
LINE
  5
E32
330
4D
100
AcDbEntity
  8
5
  6
AUSGEZOGEN
 62
     0
370
    -2
100
AcDbLine
 10
243.0679636910337
 20
227.3486360835547
 30
0.0
 11
195.1148859526035
 21
227.3486360835547
 31
0.0
  0
LINE
  5
E33
330
4D
100
AcDbEntity
  8
5
  6
AUSGEZOGEN
 62
     0
370
    -2
100
AcDbLine
 10
243.0679636910337
 20
287.3486360835546
 30
0.0
 11
195.1148859526035
 21
287.3486360835546
 31
0.0
  0
LINE
  5
E34
330
4D
100
AcDbEntity
  8
5
  6
AUSGEZOGEN
 62
     0
370
    -2
100
AcDbLine
 10
196.8248859526035
 20
230.3486360835547
 30
0.0
 11
196.8248859526035
 21
284.3486360835547
 31
0.0
  0
MTEXT
  5
E35
330
4D
100
AcDbEntity
  8
5
  6
AUSGEZOGEN
 62
    54
100
AcDbMText
 10
192.5977841079949
 20
256.3920713181304
 30
0.0
 40
3.5
 41
0.0
 71
     5
 72
     1
  1
\A1;%%c60
 11
0.0000000000000001
 21
1.0
 31
0.0
 73
     1
 44
1.0
  0
SOLID
  5
E36
330
4D
100
AcDbEntity
  8
5
  6
AUSGEZOGEN
 62
     0
370
     0
100
AcDbTrace
 10
196.3248859526035
 20
230.3486360835547
 30
0.0
 11
197.3248859526035
 21
230.3486360835547
 31
0.0
 12
196.8248859526035
 22
227.3486360835547
 32
0.0
 13
196.8248859526035
 23
227.3486360835547
 33
0.0
  0
SOLID
  5
E37
330
4D
100
AcDbEntity
  8
5
  6
AUSGEZOGEN
 62
     0
370
     0
100
AcDbTrace
 10
196.3248859526035
 20
284.3486360835547
 30
0.0
 11
197.3248859526035
 21
284.3486360835547
 31
0.0
 12
196.8248859526035
 22
287.3486360835546
 32
0.0
 13
196.8248859526035
 23
287.3486360835546
 33
0.0
  0
POINT
  5
E38
330
4D
100
AcDbEntity
  8
Defpoints
  6
AUSGEZOGEN
 62
     0
370
     0
100
AcDbPoint
 10
243.1679636910337
 20
227.3486360835547
 30
0.0
  0
POINT
  5
E39
330
4D
100
AcDbEntity
  8
Defpoints
  6
AUSGEZOGEN
 62
     0
370
     0
100
AcDbPoint
 10
243.1679636910337
 20
287.3486360835546
 30
0.0
  0
POINT
  5
E3A
330
4D
100
AcDbEntity
  8
Defpoints
  6
AUSGEZOGEN
 62
     0
370
     0
100
AcDbPoint
 10
196.8248859526035
 20
287.3486360835546
 30
0.0
  0
ENDBLK
  5
3FF
330
4D
100
AcDbEntity
  8
0
  6
ByBlock
 62
     0
100
AcDbBlockEnd
  0
BLOCK
  5
400
330
4E
100
AcDbEntity
  8
0
100
AcDbBlockBegin
  2
*D30
 70
     1
 71
     1
 10
0.0
 20
0.0
 30
0.0
  3
*D30
  1

  0
LINE
  5
E61
330
4E
100
AcDbEntity
  8
5
  6
AUSGEZOGEN
 62
     0
370
    -2
100
AcDbLine
 10
223.0679636910337
 20
251.8486360835547
 30
0.0
 11
207.9325853720407
 21
251.8486360835547
 31
0.0
  0
LINE
  5
E62
330
4E
100
AcDbEntity
  8
5
  6
AUSGEZOGEN
 62
     0
370
    -2
100
AcDbLine
 10
223.0679636910337
 20
262.8486360835547
 30
0.0
 11
207.9325853720407
 21
262.8486360835547
 31
0.0
  0
LINE
  5
E63
330
4E
100
AcDbEntity
  8
5
  6
AUSGEZOGEN
 62
     0
370
    -2
100
AcDbLine
 10
209.6425853720407
 20
254.8486360835547
 30
0.0
 11
209.6425853720407
 21
259.8486360835547
 31
0.0
  0
MTEXT
  5
E64
330
4E
100
AcDbEntity
  8
5
  6
AUSGEZOGEN
 62
    54
100
AcDbMText
 10
204.6058601227945
 20
257.0979152867465
 30
0.0
 40
3.5
 41
0.0
 71
     5
 72
     1
  1
\A1;%%c11
 11
0.0000000000000001
 21
1.0
 31
0.0
 73
     1
 44
1.0
  0
SOLID
  5
E65
330
4E
100
AcDbEntity
  8
5
  6
AUSGEZOGEN
 62
     0
370
     0
100
AcDbTrace
 10
209.1425853720407
 20
254.8486360835547
 30
0.0
 11
210.1425853720407
 21
254.8486360835547
 31
0.0
 12
209.6425853720407
 22
251.8486360835547
 32
0.0
 13
209.6425853720407
 23
251.8486360835547
 33
0.0
  0
SOLID
  5
E66
330
4E
100
AcDbEntity
  8
5
  6
AUSGEZOGEN
 62
     0
370
     0
100
AcDbTrace
 10
209.1425853720407
 20
259.8486360835547
 30
0.0
 11
210.1425853720407
 21
259.8486360835547
 31
0.0
 12
209.6425853720407
 22
262.8486360835547
 32
0.0
 13
209.6425853720407
 23
262.8486360835547
 33
0.0
  0
POINT
  5
E67
330
4E
100
AcDbEntity
  8
Defpoints
  6
AUSGEZOGEN
 62
     0
370
     0
100
AcDbPoint
 10
223.1679636910337
 20
251.8486360835547
 30
0.0
  0
POINT
  5
E68
330
4E
100
AcDbEntity
  8
Defpoints
  6
AUSGEZOGEN
 62
     0
370
     0
100
AcDbPoint
 10
223.1679636910337
 20
262.8486360835547
 30
0.0
  0
POINT
  5
E69
330
4E
100
AcDbEntity
  8
Defpoints
  6
AUSGEZOGEN
 62
     0
370
     0
100
AcDbPoint
 10
209.6425853720407
 20
262.8486360835547
 30
0.0
  0
ENDBLK
  5
40A
330
4E
100
AcDbEntity
  8
0
  6
ByBlock
 62
     0
100
AcDbBlockEnd
  0
BLOCK
  5
40B
330
4F
100
AcDbEntity
  8
0
100
AcDbBlockBegin
  2
*D31
 70
     1
 71
     1
 10
0.0
 20
0.0
 30
0.0
  3
*D31
  1

  0
LINE
  5
E44
330
4F
100
AcDbEntity
  8
5
  6
AUSGEZOGEN
 62
     0
370
    -2
100
AcDbLine
 10
245.6679636910337
 20
222.2486360835547
 30
0.0
 11
245.6679636910337
 21
195.467704889738
 31
0.0
  0
LINE
  5
E45
330
4F
100
AcDbEntity
  8
5
  6
AUSGEZOGEN
 62
     0
370
    -2
100
AcDbLine
 10
253.6679636910337
 20
222.2486360835547
 30
0.0
 11
253.6679636910337
 21
195.467704889738
 31
0.0
  0
LINE
  5
E46
330
4F
100
AcDbEntity
  8
5
  6
AUSGEZOGEN
 62
     0
370
    -2
100
AcDbLine
 10
248.6679636910337
 20
197.177704889738
 30
0.0
 11
250.6679636910337
 21
197.177704889738
 31
0.0
  0
MTEXT
  5
E47
330
4F
100
AcDbEntity
  8
5
  6
AUSGEZOGEN
 62
    54
100
AcDbMText
 10
249.8127380607714
 20
200.3951719078048
 30
0.0
 40
3.5
 41
0.0
 71
     5
 72
     1
  1
\A1;8
 73
     1
 44
1.0
  0
SOLID
  5
E48
330
4F
100
AcDbEntity
  8
5
  6
AUSGEZOGEN
 62
     0
370
     0
100
AcDbTrace
 10
248.6679636910337
 20
197.677704889738
 30
0.0
 11
248.6679636910337
 21
196.677704889738
 31
0.0
 12
245.6679636910337
 22
197.177704889738
 32
0.0
 13
245.6679636910337
 23
197.177704889738
 33
0.0
  0
SOLID
  5
E49
330
4F
100
AcDbEntity
  8
5
  6
AUSGEZOGEN
 62
     0
370
     0
100
AcDbTrace
 10
250.6679636910337
 20
197.677704889738
 30
0.0
 11
250.6679636910337
 21
196.677704889738
 31
0.0
 12
253.6679636910337
 22
197.177704889738
 32
0.0
 13
253.6679636910337
 23
197.177704889738
 33
0.0
  0
POINT
  5
E4A
330
4F
100
AcDbEntity
  8
Defpoints
  6
AUSGEZOGEN
 62
     0
370
     0
100
AcDbPoint
 10
245.6679636910337
 20
222.3486360835547
 30
0.0
  0
POINT
  5
E4B
330
4F
100
AcDbEntity
  8
Defpoints
  6
AUSGEZOGEN
 62
     0
370
     0
100
AcDbPoint
 10
253.6679636910337
 20
222.3486360835547
 30
0.0
  0
POINT
  5
E4C
330
4F
100
AcDbEntity
  8
Defpoints
  6
AUSGEZOGEN
 62
     0
370
     0
100
AcDbPoint
 10
253.6679636910337
 20
197.177704889738
 30
0.0
  0
ENDBLK
  5
414
330
4F
100
AcDbEntity
  8
0
  6
ByBlock
 62
     0
100
AcDbBlockEnd
  0
BLOCK
  5
415
330
50
100
AcDbEntity
  8
0
100
AcDbBlockBegin
  2
*D32
 70
     1
 71
     1
 10
0.0
 20
0.0
 30
0.0
  3
*D32
  1

  0
LINE
  5
E29
330
50
100
AcDbEntity
  8
5
  6
AUSGEZOGEN
 62
     0
370
    -2
100
AcDbLine
 10
245.6679636910337
 20
222.2486360835547
 30
0.0
 11
245.6679636910337
 21
184.8826914530717
 31
0.0
  0
LINE
  5
E2A
330
50
100
AcDbEntity
  8
5
  6
AUSGEZOGEN
 62
     0
370
    -2
100
AcDbLine
 10
362.8179636910338
 20
223.2486360835547
 30
0.0
 11
362.8179636910338
 21
184.8826914530717
 31
0.0
  0
LINE
  5
E2B
330
50
100
AcDbEntity
  8
5
  6
AUSGEZOGEN
 62
     0
370
    -2
100
AcDbLine
 10
248.6679636910337
 20
186.5926914530717
 30
0.0
 11
359.8179636910338
 21
186.5926914530717
 31
0.0
  0
MTEXT
  5
E2C
330
50
100
AcDbEntity
  8
5
  6
AUSGEZOGEN
 62
    54
100
AcDbMText
 10
302.0831879682949
 20
190.042804387357
 30
0.0
 40
3.5
 41
0.0
 71
     5
 72
     1
  1
\A1;K,K1
 73
     1
 44
1.0
  0
SOLID
  5
E2D
330
50
100
AcDbEntity
  8
5
  6
AUSGEZOGEN
 62
     0
370
     0
100
AcDbTrace
 10
248.6679636910337
 20
187.0926914530717
 30
0.0
 11
248.6679636910337
 21
186.0926914530717
 31
0.0
 12
245.6679636910337
 22
186.5926914530717
 32
0.0
 13
245.6679636910337
 23
186.5926914530717
 33
0.0
  0
SOLID
  5
E2E
330
50
100
AcDbEntity
  8
5
  6
AUSGEZOGEN
 62
     0
370
     0
100
AcDbTrace
 10
359.8179636910338
 20
187.0926914530717
 30
0.0
 11
359.8179636910338
 21
186.0926914530717
 31
0.0
 12
362.8179636910338
 22
186.5926914530717
 32
0.0
 13
362.8179636910338
 23
186.5926914530717
 33
0.0
  0
POINT
  5
E2F
330
50
100
AcDbEntity
  8
Defpoints
  6
AUSGEZOGEN
 62
     0
370
     0
100
AcDbPoint
 10
245.6679636910337
 20
222.3486360835547
 30
0.0
  0
POINT
  5
E30
330
50
100
AcDbEntity
  8
Defpoints
  6
AUSGEZOGEN
 62
     0
370
     0
100
AcDbPoint
 10
362.8179636910338
 20
223.3486360835547
 30
0.0
  0
POINT
  5
E31
330
50
100
AcDbEntity
  8
Defpoints
  6
AUSGEZOGEN
 62
     0
370
     0
100
AcDbPoint
 10
362.8179636910338
 20
186.5926914530717
 30
0.0
  0
ENDBLK
  5
41C
330
50
100
AcDbEntity
  8
0
  6
ByBlock
 62
     0
100
AcDbBlockEnd
  0
BLOCK
  5
41D
330
51
100
AcDbEntity
  8
0
100
AcDbBlockBegin
  2
*D33
 70
     1
 71
     1
 10
0.0
 20
0.0
 30
0.0
  3
*D33
  1

  0
LINE
  5
E73
330
51
100
AcDbEntity
  8
5
  6
AUSGEZOGEN
 62
     0
370
    -2
100
AcDbLine
 10
378.3179636910338
 20
300.9986360835548
 30
0.0
 11
378.3179636910338
 21
184.8695748969563
 31
0.0
  0
LINE
  5
E74
330
51
100
AcDbEntity
  8
5
  6
AUSGEZOGEN
 62
     0
370
    -2
100
AcDbLine
 10
362.8179636910338
 20
223.2486360835547
 30
0.0
 11
362.8179636910338
 21
184.8695748969563
 31
0.0
  0
LINE
  5
E75
330
51
100
AcDbEntity
  8
5
  6
AUSGEZOGEN
 62
     0
370
    -2
100
AcDbLine
 10
375.3179636910338
 20
186.5795748969563
 30
0.0
 11
365.8179636910338
 21
186.5795748969563
 31
0.0
  0
MTEXT
  5
E76
330
51
100
AcDbEntity
  8
5
  6
AUSGEZOGEN
 62
    54
100
AcDbMText
 10
370.1289553854059
 20
190.7486473541679
 30
0.0
 40
3.5
 41
0.0
 71
     5
 72
     1
  1
\A1;15.5
 73
     1
 44
1.0
  0
SOLID
  5
E77
330
51
100
AcDbEntity
  8
5
  6
AUSGEZOGEN
 62
     0
370
     0
100
AcDbTrace
 10
375.3179636910338
 20
187.0795748969563
 30
0.0
 11
375.3179636910338
 21
186.0795748969563
 31
0.0
 12
378.3179636910338
 22
186.5795748969563
 32
0.0
 13
378.3179636910338
 23
186.5795748969563
 33
0.0
  0
SOLID
  5
E78
330
51
100
AcDbEntity
  8
5
  6
AUSGEZOGEN
 62
     0
370
     0
100
AcDbTrace
 10
365.8179636910338
 20
187.0795748969563
 30
0.0
 11
365.8179636910338
 21
186.0795748969563
 31
0.0
 12
362.8179636910338
 22
186.5795748969563
 32
0.0
 13
362.8179636910338
 23
186.5795748969563
 33
0.0
  0
POINT
  5
E79
330
51
100
AcDbEntity
  8
Defpoints
  6
AUSGEZOGEN
 62
     0
370
     0
100
AcDbPoint
 10
378.3179636910338
 20
301.0986360835548
 30
0.0
  0
POINT
  5
E7A
330
51
100
AcDbEntity
  8
Defpoints
  6
AUSGEZOGEN
 62
     0
370
     0
100
AcDbPoint
 10
362.8179636910338
 20
223.3486360835547
 30
0.0
  0
POINT
  5
E7B
330
51
100
AcDbEntity
  8
Defpoints
  6
AUSGEZOGEN
 62
     0
370
     0
100
AcDbPoint
 10
362.8179636910338
 20
186.5795748969563
 30
0.0
  0
ENDBLK
  5
424
330
51
100
AcDbEntity
  8
0
  6
ByBlock
 62
     0
100
AcDbBlockEnd
  0
BLOCK
  5
425
330
52
100
AcDbEntity
  8
0
100
AcDbBlockBegin
  2
*D34
 70
     1
 71
     1
 10
0.0
 20
0.0
 30
0.0
  3
*D34
  1

  0
LINE
  5
E57
330
52
100
AcDbEntity
  8
5
  6
AUSGEZOGEN
 62
     0
370
    -2
100
AcDbLine
 10
222.6679636910337
 20
262.4486360835547
 30
0.0
 11
222.6679636910337
 21
275.3007070596293
 31
0.0
  0
LINE
  5
E58
330
52
100
AcDbEntity
  8
5
  6
AUSGEZOGEN
 62
     0
370
    -2
100
AcDbLine
 10
226.6679636910337
 20
264.7486360835547
 30
0.0
 11
226.6679636910337
 21
275.3007070596293
 31
0.0
  0
LINE
  5
E59
330
52
100
AcDbEntity
  8
5
  6
AUSGEZOGEN
 62
     0
370
    -2
100
AcDbLine
 10
219.6679636910337
 20
273.5907070596293
 30
0.0
 11
216.6679636910337
 21
273.5907070596293
 31
0.0
  0
LINE
  5
E5A
330
52
100
AcDbEntity
  8
5
  6
AUSGEZOGEN
 62
     0
370
    -2
100
AcDbLine
 10
229.6679636910337
 20
273.5907070596293
 30
0.0
 11
232.6679636910337
 21
273.5907070596293
 31
0.0
  0
MTEXT
  5
E5B
330
52
100
AcDbEntity
  8
5
  6
AUSGEZOGEN
 62
    54
100
AcDbMText
 10
215.6721274305203
 20
275.9204024161464
 30
0.0
 40
3.5
 41
0.0
 71
     5
 72
     1
  1
\A1;4
 73
     1
 44
1.0
  0
SOLID
  5
E5C
330
52
100
AcDbEntity
  8
5
  6
AUSGEZOGEN
 62
     0
370
     0
100
AcDbTrace
 10
219.6679636910337
 20
274.0907070596293
 30
0.0
 11
219.6679636910337
 21
273.0907070596293
 31
0.0
 12
222.6679636910337
 22
273.5907070596293
 32
0.0
 13
222.6679636910337
 23
273.5907070596293
 33
0.0
  0
SOLID
  5
E5D
330
52
100
AcDbEntity
  8
5
  6
AUSGEZOGEN
 62
     0
370
     0
100
AcDbTrace
 10
229.6679636910337
 20
274.0907070596293
 30
0.0
 11
229.6679636910337
 21
273.0907070596293
 31
0.0
 12
226.6679636910337
 22
273.5907070596293
 32
0.0
 13
226.6679636910337
 23
273.5907070596293
 33
0.0
  0
POINT
  5
E5E
330
52
100
AcDbEntity
  8
Defpoints
  6
AUSGEZOGEN
 62
     0
370
     0
100
AcDbPoint
 10
222.6679636910337
 20
262.3486360835547
 30
0.0
  0
POINT
  5
E5F
330
52
100
AcDbEntity
  8
Defpoints
  6
AUSGEZOGEN
 62
     0
370
     0
100
AcDbPoint
 10
226.6679636910337
 20
264.6486360835548
 30
0.0
  0
POINT
  5
E60
330
52
100
AcDbEntity
  8
Defpoints
  6
AUSGEZOGEN
 62
     0
370
     0
100
AcDbPoint
 10
226.6679636910337
 20
273.5907070596293
 30
0.0
  0
ENDBLK
  5
42E
330
52
100
AcDbEntity
  8
0
  6
ByBlock
 62
     0
100
AcDbBlockEnd
  0
BLOCK
  5
42F
330
53
100
AcDbEntity
  8
0
100
AcDbBlockBegin
  2
*D35
 70
     1
 71
     1
 10
0.0
 20
0.0
 30
0.0
  3
*D35
  1

  0
LINE
  5
E6A
330
53
100
AcDbEntity
  8
5
  6
AUSGEZOGEN
 62
     0
370
    -2
100
AcDbLine
 10
226.6679636910337
 20
262.9486360835548
 30
0.0
 11
226.6679636910337
 21
275.2979573180005
 31
0.0
  0
LINE
  5
E6B
330
53
100
AcDbEntity
  8
5
  6
AUSGEZOGEN
 62
     0
370
    -2
100
AcDbLine
 10
242.6679636910337
 20
262.9486360835548
 30
0.0
 11
242.6679636910337
 21
275.2979573180005
 31
0.0
  0
LINE
  5
E6C
330
53
100
AcDbEntity
  8
5
  6
AUSGEZOGEN
 62
     0
370
    -2
100
AcDbLine
 10
229.6679636910337
 20
273.5879573180005
 30
0.0
 11
239.6679636910338
 21
273.5879573180005
 31
0.0
  0
MTEXT
  5
E6D
330
53
100
AcDbEntity
  8
5
  6
AUSGEZOGEN
 62
    54
100
AcDbMText
 10
234.5083265713441
 20
276.3909643940204
 30
0.0
 40
3.5
 41
0.0
 71
     5
 72
     1
  1
\A1;16
 73
     1
 44
1.0
  0
SOLID
  5
E6E
330
53
100
AcDbEntity
  8
5
  6
AUSGEZOGEN
 62
     0
370
     0
100
AcDbTrace
 10
229.6679636910337
 20
274.0879573180005
 30
0.0
 11
229.6679636910337
 21
273.0879573180005
 31
0.0
 12
226.6679636910337
 22
273.5879573180005
 32
0.0
 13
226.6679636910337
 23
273.5879573180005
 33
0.0
  0
SOLID
  5
E6F
330
53
100
AcDbEntity
  8
5
  6
AUSGEZOGEN
 62
     0
370
     0
100
AcDbTrace
 10
239.6679636910338
 20
274.0879573180005
 30
0.0
 11
239.6679636910338
 21
273.0879573180005
 31
0.0
 12
242.6679636910337
 22
273.5879573180005
 32
0.0
 13
242.6679636910337
 23
273.5879573180005
 33
0.0
  0
POINT
  5
E70
330
53
100
AcDbEntity
  8
Defpoints
  6
AUSGEZOGEN
 62
     0
370
     0
100
AcDbPoint
 10
226.6679636910337
 20
262.8486360835547
 30
0.0
  0
POINT
  5
E71
330
53
100
AcDbEntity
  8
Defpoints
  6
AUSGEZOGEN
 62
     0
370
     0
100
AcDbPoint
 10
242.6679636910337
 20
262.8486360835547
 30
0.0
  0
POINT
  5
E72
330
53
100
AcDbEntity
  8
Defpoints
  6
AUSGEZOGEN
 62
     0
370
     0
100
AcDbPoint
 10
242.6679636910337
 20
273.5879573180005
 30
0.0
  0
ENDBLK
  5
436
330
53
100
AcDbEntity
  8
0
  6
ByBlock
 62
     0
100
AcDbBlockEnd
  0
BLOCK
  5
437
330
54
100
AcDbEntity
  8
0
100
AcDbBlockBegin
  2
*D36
 70
     1
 71
     1
 10
0.0
 20
0.0
 30
0.0
  3
*D36
  1

  0
LINE
  5
E8F
330
54
100
AcDbEntity
  8
5
  6
AUSGEZOGEN
 62
     0
370
    -2
100
AcDbLine
 10
463.0471163342652
 20
264.4486360835547
 30
0.0
 11
463.0471163342652
 21
279.1495011209527
 31
0.0
  0
LINE
  5
E90
330
54
100
AcDbEntity
  8
5
  6
AUSGEZOGEN
 62
     0
370
    -2
100
AcDbLine
 10
467.0471163342652
 20
264.4486360835547
 30
0.0
 11
467.0471163342652
 21
279.1495011209527
 31
0.0
  0
LINE
  5
E91
330
54
100
AcDbEntity
  8
5
  6
AUSGEZOGEN
 62
     0
370
    -2
100
AcDbLine
 10
460.0471163342652
 20
277.4395011209528
 30
0.0
 11
457.0471163342651
 21
277.4395011209528
 31
0.0
  0
LINE
  5
E92
330
54
100
AcDbEntity
  8
5
  6
AUSGEZOGEN
 62
     0
370
    -2
100
AcDbLine
 10
470.0471163342651
 20
277.4395011209528
 30
0.0
 11
473.0471163342651
 21
277.4395011209528
 31
0.0
  0
MTEXT
  5
E93
330
54
100
AcDbEntity
  8
5
  6
AUSGEZOGEN
 62
    54
100
AcDbMText
 10
473.0010271700274
 20
280.6678435592231
 30
0.0
 40
3.5
 41
0.0
 71
     5
 72
     1
  1
\A1;4
 73
     1
 44
1.0
  0
SOLID
  5
E94
330
54
100
AcDbEntity
  8
5
  6
AUSGEZOGEN
 62
     0
370
     0
100
AcDbTrace
 10
460.0471163342652
 20
277.9395011209528
 30
0.0
 11
460.0471163342652
 21
276.9395011209528
 31
0.0
 12
463.0471163342652
 22
277.4395011209528
 32
0.0
 13
463.0471163342652
 23
277.4395011209528
 33
0.0
  0
SOLID
  5
E95
330
54
100
AcDbEntity
  8
5
  6
AUSGEZOGEN
 62
     0
370
     0
100
AcDbTrace
 10
470.0471163342651
 20
277.9395011209528
 30
0.0
 11
470.0471163342651
 21
276.9395011209528
 31
0.0
 12
467.0471163342652
 22
277.4395011209528
 32
0.0
 13
467.0471163342652
 23
277.4395011209528
 33
0.0
  0
POINT
  5
E96
330
54
100
AcDbEntity
  8
Defpoints
  6
AUSGEZOGEN
 62
     0
370
     0
100
AcDbPoint
 10
463.0471163342652
 20
264.3486360835547
 30
0.0
  0
POINT
  5
E97
330
54
100
AcDbEntity
  8
Defpoints
  6
AUSGEZOGEN
 62
     0
370
     0
100
AcDbPoint
 10
467.0471163342652
 20
264.3486360835547
 30
0.0
  0
POINT
  5
E98
330
54
100
AcDbEntity
  8
Defpoints
  6
AUSGEZOGEN
 62
     0
370
     0
100
AcDbPoint
 10
467.0471163342652
 20
277.4395011209528
 30
0.0
  0
ENDBLK
  5
440
330
54
100
AcDbEntity
  8
0
  6
ByBlock
 62
     0
100
AcDbBlockEnd
  0
BLOCK
  5
441
330
55
100
AcDbEntity
  8
0
100
AcDbBlockBegin
  2
*D37
 70
     1
 71
     1
 10
0.0
 20
0.0
 30
0.0
  3
*D37
  1

  0
LINE
  5
E99
330
55
100
AcDbEntity
  8
5
  6
AUSGEZOGEN
 62
     0
370
    -2
100
AcDbLine
 10
465.1471163342652
 20
251.8486360835547
 30
0.0
 11
487.0678177805134
 21
251.8486360835547
 31
0.0
  0
LINE
  5
E9A
330
55
100
AcDbEntity
  8
5
  6
AUSGEZOGEN
 62
     0
370
    -2
100
AcDbLine
 10
467.1471163342651
 20
264.3486360835547
 30
0.0
 11
487.0678177805134
 21
264.3486360835547
 31
0.0
  0
LINE
  5
E9B
330
55
100
AcDbEntity
  8
5
  6
AUSGEZOGEN
 62
     0
370
    -2
100
AcDbLine
 10
485.3578177805133
 20
248.8486360835547
 30
0.0
 11
485.3578177805133
 21
245.8486360835547
 31
0.0
  0
LINE
  5
E9C
330
55
100
AcDbEntity
  8
5
  6
AUSGEZOGEN
 62
     0
370
    -2
100
AcDbLine
 10
485.3578177805133
 20
267.3486360835547
 30
0.0
 11
485.3578177805133
 21
270.3486360835547
 31
0.0
  0
MTEXT
  5
E9D
330
55
100
AcDbEntity
  8
5
  6
AUSGEZOGEN
 62
    54
100
AcDbMText
 10
481.712592714775
 20
272.5844218004975
 30
0.0
 40
3.5
 41
0.0
 71
     5
 72
     1
  1
\A1;12.5
 11
0.0000000000000001
 21
1.0
 31
0.0
 73
     1
 44
1.0
  0
SOLID
  5
E9E
330
55
100
AcDbEntity
  8
5
  6
AUSGEZOGEN
 62
     0
370
     0
100
AcDbTrace
 10
484.8578177805134
 20
248.8486360835547
 30
0.0
 11
485.8578177805134
 21
248.8486360835547
 31
0.0
 12
485.3578177805133
 22
251.8486360835547
 32
0.0
 13
485.3578177805133
 23
251.8486360835547
 33
0.0
  0
SOLID
  5
E9F
330
55
100
AcDbEntity
  8
5
  6
AUSGEZOGEN
 62
     0
370
     0
100
AcDbTrace
 10
484.8578177805134
 20
267.3486360835547
 30
0.0
 11
485.8578177805134
 21
267.3486360835547
 31
0.0
 12
485.3578177805133
 22
264.3486360835547
 32
0.0
 13
485.3578177805133
 23
264.3486360835547
 33
0.0
  0
POINT
  5
EA0
330
55
100
AcDbEntity
  8
Defpoints
  6
AUSGEZOGEN
 62
     0
370
     0
100
AcDbPoint
 10
465.0471163342651
 20
251.8486360835547
 30
0.0
  0
POINT
  5
EA1
330
55
100
AcDbEntity
  8
Defpoints
  6
AUSGEZOGEN
 62
     0
370
     0
100
AcDbPoint
 10
467.0471163342652
 20
264.3486360835547
 30
0.0
  0
POINT
  5
EA2
330
55
100
AcDbEntity
  8
Defpoints
  6
AUSGEZOGEN
 62
     0
370
     0
100
AcDbPoint
 10
485.3578177805133
 20
264.3486360835547
 30
0.0
  0
ENDBLK
  5
44A
330
55
100
AcDbEntity
  8
0
  6
ByBlock
 62
     0
100
AcDbBlockEnd
  0
BLOCK
  5
49C
330
49A
100
AcDbEntity
  8
0
370
     0
100
AcDbBlockBegin
  2
GENAXEH
 70
     0
 10
0.0
 20
0.0
 30
0.0
  3
GENAXEH
  1

  0
LINE
  5
49B
330
49A
100
AcDbEntity
  8
0
100
AcDbLine
 10
-1.0
 20
0.0
 30
0.0
 11
1.0
 21
0.0
 31
0.0
  0
ENDBLK
  5
49D
330
49A
100
AcDbEntity
  8
0
370
     0
100
AcDbBlockEnd
  0
BLOCK
  5
8B4
330
801
100
AcDbEntity
  8
0
370
     0
100
AcDbBlockBegin
  2
METRIC_C
 70
     2
 10
0.0
 20
0.0
 30
0.0
  3
METRIC_C
  1

  0
LINE
  5
EB8
330
801
100
AcDbEntity
  8
BORDER
  6
Continuous
100
AcDbLine
 10
0.0
 20
425.806403616429
 30
0.0
 11
558.8
 21
425.806403616429
 31
0.0
  0
LINE
  5
EB9
330
801
100
AcDbEntity
  8
BORDER
100
AcDbLine
 10
12.7
 20
13.05640361642906
 30
0.0
 11
546.1
 21
13.05640361642906
 31
0.0
  0
LINE
  5
EBA
330
801
100
AcDbEntity
  8
BORDER
100
AcDbLine
 10
12.7
 20
406.756403616429
 30
0.0
 11
546.1
 21
406.756403616429
 31
0.0
  0
ATTDEF
  5
EBB
330
801
100
AcDbEntity
  8
TITLE BLOCK
  6
Continuous
100
AcDbText
 10
442.5949999999999
 20
41.63140361642906
 30
0.0
 40
2.566953004259999
  1

  7
STANDARD
100
AcDbAttributeDefinition
  3
Drawn by
  2
GEN-TITLE-NAME{5}
 70
     0
1001
GENIUS_GENBLLY_14
1000
BOR2
  0
ATTDEF
  5
EBC
330
801
100
AcDbEntity
  8
TITLE BLOCK
  6
Continuous
100
AcDbText
 10
442.5949999999999
 20
35.28140361642906
 30
0.0
 40
2.566953004259999
  1

  7
STANDARD
100
AcDbAttributeDefinition
  3
Check by
  2
GEN-TITLE-CHKM{5}
 70
     0
1001
GENIUS_GENBLLY_14
1000
BOR2
  0
ATTDEF
  5
EBD
330
801
100
AcDbEntity
  8
TITLE BLOCK
  6
Continuous
100
AcDbText
 10
442.5949999999999
 20
28.93140361642906
 30
0.0
 40
2.566953004259999
  1

  7
STANDARD
100
AcDbAttributeDefinition
  3
Approved by
  2
GEN-TITLE-APPM{5}
 70
     0
1001
GENIUS_GENBLLY_14
1000
BOR2
1001
GENIUS_GENTRA_14
1002
{
1070
     3
1000
GENTRAPR,%s,(GENMSG gentitus 73)
1000
Approved by
1000
gb
1070
     0
1002
}
  0
LINE
  5
EBE
330
801
100
AcDbEntity
  8
TITLE BLOCK
  6
Continuous
100
AcDbLine
 10
396.2312723140906
 20
27.02640361642906
 30
0.0
 11
546.1
 21
27.02640361642906
 31
0.0
  0
LINE
  5
EBF
330
801
100
AcDbEntity
  8
TITLE BLOCK
  6
Continuous
100
AcDbLine
 10
433.7098248608992
 20
33.37640361642906
 30
0.0
 11
546.1
 21
33.37640361642906
 31
0.0
  0
LINE
  5
EC0
330
801
100
AcDbEntity
  8
TITLE BLOCK
  6
Continuous
100
AcDbLine
 10
433.7098248608992
 20
39.72640361642906
 30
0.0
 11
546.1
 21
39.72640361642906
 31
0.0
  0
LINE
  5
EC1
330
801
100
AcDbEntity
  8
TITLE BLOCK
  6
Continuous
100
AcDbLine
 10
433.7098248608992
 20
46.07640361642906
 30
0.0
 11
546.1
 21
46.07640361642906
 31
0.0
  0
LINE
  5
EC2
330
801
100
AcDbEntity
  8
TITLE BLOCK
  6
Continuous
100
AcDbLine
 10
323.8499999999999
 20
63.85640361642907
 30
0.0
 11
546.1
 21
63.85640361642907
 31
0.0
  0
TEXT
  5
EC3
330
801
100
AcDbEntity
  8
TITLE BLOCK
  6
Continuous
100
AcDbText
 10
437.0500486115596
 20
53.59895048557155
 30
0.0
 40
2.566953004259999
  1
  DRAWING
 50
0.09999996
  7
AE
100
AcDbText
  0
TEXT
  5
EC4
330
801
100
AcDbEntity
  8
TITLE BLOCK
  6
Continuous
100
AcDbText
 10
437.0500486115596
 20
58.91728567531223
 30
0.0
 40
2.566953004259999
  1
DO NOT SCALE
 50
0.09999996
  7
AE
100
AcDbText
  0
LINE
  5
EC5
330
801
100
AcDbEntity
  8
BORDER
  6
Continuous
100
AcDbLine
 10
0.0
 20
0.2456391960479891
 30
0.0
 11
0.0
 21
425.806403616429
 31
0.0
  0
LINE
  5
EC6
330
801
100
AcDbEntity
  8
BORDER
100
AcDbLine
 10
12.7
 20
13.05640361642906
 30
0.0
 11
12.7
 21
406.756403616429
 31
0.0
  0
TEXT
  5
EC7
330
801
100
AcDbEntity
  8
BORDER
100
AcDbText
 10
4.535779599999938
 20
45.44139345642906
 30
0.0
 40
5.079999745999999
  1
A
  7
AE
100
AcDbText
  0
LINE
  5
EC8
330
801
100
AcDbEntity
  8
BORDER
100
AcDbLine
 10
2.540152400000012
 20
209.906380756429
 30
0.0
 11
7.620076200000005
 21
209.906380756429
 31
0.0
  0
LINE
  5
EC9
330
801
100
AcDbEntity
  8
BORDER
100
AcDbLine
 10
7.620457199999946
 20
207.365860056429
 30
0.0
 11
12.70038099999994
 21
209.905821956429
 31
0.0
  0
TEXT
  5
ECA
330
801
100
AcDbEntity
  8
BORDER
100
AcDbText
 10
4.535779599999938
 20
153.391393456429
 30
0.0
 40
5.079999745999999
  1
B
  7
AE
100
AcDbText
  0
LINE
  5
ECB
330
801
100
AcDbEntity
  8
BORDER
100
AcDbLine
 10
2.540152400000012
 20
101.956403616429
 30
0.0
 11
12.7
 21
101.956403616429
 31
0.0
  0
LINE
  5
ECC
330
801
100
AcDbEntity
  8
BORDER
100
AcDbLine
 10
7.620863600000003
 20
212.445806716429
 30
0.0
 11
12.70076199999997
 21
209.905870216429
 31
0.0
  0
LINE
  5
ECD
330
801
100
AcDbEntity
  8
BORDER
100
AcDbLine
 10
7.620457199999946
 20
207.3662232764291
 30
0.0
 11
7.620457199999946
 21
212.446147076429
 31
0.0
  0
TEXT
  5
ECE
330
801
100
AcDbEntity
  8
BORDER
100
AcDbText
 10
68.03577959999994
 20
0.991403108429065
 30
0.0
 40
5.079999745999999
  1
4
  7
AE
100
AcDbText
  0
LINE
  5
ECF
330
801
100
AcDbEntity
  8
BORDER
100
AcDbLine
 10
139.7
 20
2.896402600429065
 30
0.0
 11
139.7
 21
13.05640361642906
 31
0.0
  0
TEXT
  5
ED0
330
801
100
AcDbEntity
  8
BORDER
100
AcDbText
 10
207.7357287999999
 20
0.991403108429065
 30
0.0
 40
5.079999745999999
  1
3
  7
AE
100
AcDbText
  0
TEXT
  5
ED1
330
801
100
AcDbEntity
  8
BORDER
100
AcDbText
 10
345.0077199399999
 20
2.463397116429065
 30
0.0
 40
1.016
  1
FULL SIZE   50   02
 50
0.0999999600000013
 41
0.7749084200000001
  7
AE
100
AcDbText
  0
TEXT
  5
ED2
330
801
100
AcDbEntity
  8
TITLE BLOCK
  6
Continuous
100
AcDbText
 10
352.3879941939002
 20
15.34301838387497
 30
0.0
 40
1.928801505622495
  1
REVISION
 50
0.09999996
  7
AE
100
AcDbText
  0
LINE
  5
ED3
330
801
100
AcDbEntity
  8
TITLE BLOCK
  6
Continuous
100
AcDbLine
 10
323.8499999999999
 20
19.40640361642906
 30
0.0
 11
396.2312723140906
 21
19.40640361642906
 31
0.0
  0
LINE
  5
ED4
330
801
100
AcDbEntity
  8
TITLE BLOCK
  6
Continuous
100
AcDbLine
 10
323.8499999999999
 20
38.45640361642906
 30
0.0
 11
396.2312723140906
 21
38.45640361642906
 31
0.0
  0
LINE
  5
ED5
330
801
100
AcDbEntity
  8
TITLE BLOCK
  6
Continuous
100
AcDbLine
 10
323.8499999999999
 20
44.80640361642906
 30
0.0
 11
396.2312723140906
 21
44.80640361642906
 31
0.0
  0
LINE
  5
ED6
330
801
100
AcDbEntity
  8
TITLE BLOCK
  6
Continuous
100
AcDbLine
 10
323.8499999999999
 20
51.15640361642906
 30
0.0
 11
396.2312723140906
 21
51.15640361642906
 31
0.0
  0
LINE
  5
ED7
330
801
100
AcDbEntity
  8
TITLE BLOCK
  6
Continuous
100
AcDbLine
 10
323.8499999999999
 20
57.50640361642906
 30
0.0
 11
396.2312723140906
 21
57.50640361642906
 31
0.0
  0
LINE
  5
ED8
330
801
100
AcDbEntity
  8
TITLE BLOCK
  6
Continuous
100
AcDbLine
 10
323.8499999999999
 20
32.10640361642906
 30
0.0
 11
396.2312723140906
 21
32.10640361642906
 31
0.0
  0
LINE
  5
ED9
330
801
100
AcDbEntity
  8
TITLE BLOCK
  6
Continuous
100
AcDbLine
 10
323.8499999999999
 20
25.75640361642906
 30
0.0
 11
396.2312723140906
 21
25.75640361642906
 31
0.0
  0
LINE
  5
EDA
330
801
100
AcDbEntity
  8
BORDER
  6
LS
100
AcDbLine
 10
347.4720330199999
 20
8.230402092429063
 30
0.0
 11
347.4720330199999
 21
11.78640336242906
 31
0.0
  0
LINE
  5
EDB
330
801
100
AcDbEntity
  8
BORDER
  6
LS
100
AcDbLine
 10
350.01204064
 20
8.230402092429063
 30
0.0
 11
350.01204064
 21
11.78640336242906
 31
0.0
  0
LINE
  5
EDC
330
801
100
AcDbEntity
  8
BORDER
  6
LS
100
AcDbLine
 10
352.5520508
 20
8.230402092429063
 30
0.0
 11
352.5520508
 21
11.78640336242906
 31
0.0
  0
LINE
  5
EDD
330
801
100
AcDbEntity
  8
BORDER
  6
LS
100
AcDbLine
 10
347.98004318
 20
10.26240336242906
 30
0.0
 11
347.98004318
 21
11.78640336242906
 31
0.0
  0
LINE
  5
EDE
330
801
100
AcDbEntity
  8
BORDER
  6
LS
100
AcDbLine
 10
348.48805588
 20
9.246402600429064
 30
0.0
 11
348.48805588
 21
11.78640336242906
 31
0.0
  0
LINE
  5
EDF
330
801
100
AcDbEntity
  8
BORDER
  6
LS
100
AcDbLine
 10
348.99606604
 20
9.246402600429064
 30
0.0
 11
348.99606604
 21
11.78640336242906
 31
0.0
  0
LINE
  5
EE0
330
801
100
AcDbEntity
  8
BORDER
  6
LS
100
AcDbLine
 10
349.50405334
 20
10.26240336242906
 30
0.0
 11
349.50405334
 21
11.78640336242906
 31
0.0
  0
LINE
  5
EE1
330
801
100
AcDbEntity
  8
BORDER
  6
LS
100
AcDbLine
 10
350.5200533399999
 20
10.26240336242906
 30
0.0
 11
350.5200533399999
 21
11.78640336242906
 31
0.0
  0
LINE
  5
EE2
330
801
100
AcDbEntity
  8
BORDER
  6
LS
100
AcDbLine
 10
351.0280660399999
 20
9.246402600429064
 30
0.0
 11
351.0280660399999
 21
11.78640336242906
 31
0.0
  0
LINE
  5
EE3
330
801
100
AcDbEntity
  8
BORDER
  6
LS
100
AcDbLine
 10
351.5360761999999
 20
9.246402600429064
 30
0.0
 11
351.5360761999999
 21
11.78640336242906
 31
0.0
  0
LINE
  5
EE4
330
801
100
AcDbEntity
  8
BORDER
  6
LS
100
AcDbLine
 10
352.0440634999999
 20
10.26240336242906
 30
0.0
 11
352.0440634999999
 21
11.78640336242906
 31
0.0
  0
LINE
  5
EE5
330
801
100
AcDbEntity
  8
BORDER
  6
LS
100
AcDbLine
 10
353.0600634999999
 20
10.26240336242906
 30
0.0
 11
353.0600634999999
 21
11.78640336242906
 31
0.0
  0
LINE
  5
EE6
330
801
100
AcDbEntity
  8
BORDER
  6
LS
100
AcDbLine
 10
353.5680736599999
 20
9.246402600429064
 30
0.0
 11
353.5680736599999
 21
11.78640336242906
 31
0.0
  0
LINE
  5
EE7
330
801
100
AcDbEntity
  8
BORDER
  6
LS
100
AcDbLine
 10
342.3920127
 20
8.230402092429063
 30
0.0
 11
342.3920127
 21
11.78640336242906
 31
0.0
  0
LINE
  5
EE8
330
801
100
AcDbEntity
  8
BORDER
  6
LS
100
AcDbLine
 10
344.9320228599999
 20
8.230402092429063
 30
0.0
 11
344.9320228599999
 21
11.78640336242906
 31
0.0
  0
LINE
  5
EE9
330
801
100
AcDbEntity
  8
BORDER
  6
LS
100
AcDbLine
 10
340.36001524
 20
10.26240336242906
 30
0.0
 11
340.36001524
 21
11.78640336242906
 31
0.0
  0
LINE
  5
EEA
330
801
100
AcDbEntity
  8
BORDER
  6
LS
100
AcDbLine
 10
340.8680253999999
 20
9.246402600429064
 30
0.0
 11
340.8680253999999
 21
11.78640336242906
 31
0.0
  0
LINE
  5
EEB
330
801
100
AcDbEntity
  8
BORDER
  6
LS
100
AcDbLine
 10
341.3760380999999
 20
9.246402600429064
 30
0.0
 11
341.3760380999999
 21
11.78640336242906
 31
0.0
  0
LINE
  5
EEC
330
801
100
AcDbEntity
  8
BORDER
  6
LS
100
AcDbLine
 10
341.8840254
 20
10.26240336242906
 30
0.0
 11
341.8840254
 21
11.78640336242906
 31
0.0
  0
LINE
  5
EED
330
801
100
AcDbEntity
  8
BORDER
  6
LS
100
AcDbLine
 10
342.9000228599999
 20
10.26240336242906
 30
0.0
 11
342.9000228599999
 21
11.78640336242906
 31
0.0
  0
LINE
  5
EEE
330
801
100
AcDbEntity
  8
BORDER
  6
LS
100
AcDbLine
 10
343.40803556
 20
9.246402600429064
 30
0.0
 11
343.40803556
 21
11.78640336242906
 31
0.0
  0
LINE
  5
EEF
330
801
100
AcDbEntity
  8
BORDER
  6
LS
100
AcDbLine
 10
343.9160482599999
 20
9.246402600429064
 30
0.0
 11
343.9160482599999
 21
11.78640336242906
 31
0.0
  0
LINE
  5
EF0
330
801
100
AcDbEntity
  8
BORDER
  6
LS
100
AcDbLine
 10
344.4240355599999
 20
10.26240336242906
 30
0.0
 11
344.4240355599999
 21
11.78640336242906
 31
0.0
  0
LINE
  5
EF1
330
801
100
AcDbEntity
  8
BORDER
  6
LS
100
AcDbLine
 10
345.4400330199999
 20
10.26240336242906
 30
0.0
 11
345.4400330199999
 21
11.78640336242906
 31
0.0
  0
LINE
  5
EF2
330
801
100
AcDbEntity
  8
BORDER
  6
LS
100
AcDbLine
 10
345.9480457199999
 20
9.246402600429064
 30
0.0
 11
345.9480457199999
 21
11.78640336242906
 31
0.0
  0
LINE
  5
EF3
330
801
100
AcDbEntity
  8
BORDER
  6
LS
100
AcDbLine
 10
346.4560558799999
 20
9.246402600429064
 30
0.0
 11
346.4560558799999
 21
11.78640336242906
 31
0.0
  0
LINE
  5
EF4
330
801
100
AcDbEntity
  8
BORDER
  6
LS
100
AcDbLine
 10
346.9640431799999
 20
10.26240336242906
 30
0.0
 11
346.9640431799999
 21
11.78640336242906
 31
0.0
  0
TEXT
  5
EF5
330
801
100
AcDbEntity
  8
BORDER
100
AcDbText
 10
349.2881025399999
 20
4.673135394429065
 30
0.0
 40
2.031999491999999
  1
4
 50
0.0999999600000013
  7
AE
100
AcDbText
  0
TEXT
  5
EF6
330
801
100
AcDbEntity
  8
BORDER
100
AcDbText
 10
339.1280644399999
 20
3.149135394429065
 30
0.0
 40
2.031999491999999
  1
0
 50
0.0999999600000013
  7
AE
100
AcDbText
  0
TEXT
  5
EF7
330
801
100
AcDbEntity
  8
BORDER
100
AcDbText
 10
344.20808476
 20
4.673135394429065
 30
0.0
 40
2.031999491999999
  1
2
 50
0.0999999600000013
  7
AE
100
AcDbText
  0
TEXT
  5
EF8
330
801
100
AcDbEntity
  8
BORDER
100
AcDbText
 10
325.34215602
 20
0.988240300429066
 30
0.0
 40
5.079999745999999
  1
2
 50
0.0999999600000013
  7
AE
100
AcDbText
  0
LINE
  5
EF9
330
801
100
AcDbEntity
  8
BORDER
  6
LS
100
AcDbLine
 10
339.8520025399999
 20
6.706402092429064
 30
0.0
 11
339.8520025399999
 21
11.78640336242906
 31
0.0
  0
LINE
  5
EFA
330
801
100
AcDbEntity
  8
BORDER
100
AcDbLine
 10
276.8600508
 20
7.976414538429065
 30
0.0
 11
279.4000507999999
 21
13.05640361642906
 31
0.0
  0
LINE
  5
EFB
330
801
100
AcDbEntity
  8
BORDER
100
AcDbLine
 10
279.4000761999999
 20
13.05638837642906
 30
0.0
 11
281.9400761999999
 21
7.976408442429065
 31
0.0
  0
LINE
  5
EFC
330
801
100
AcDbEntity
  8
BORDER
100
AcDbLine
 10
276.8600253999999
 20
7.976402346429065
 30
0.0
 11
281.9399999999999
 21
7.976402346429065
 31
0.0
  0
LINE
  5
EFD
330
801
100
AcDbEntity
  8
BORDER
100
AcDbLine
 10
279.4
 20
2.896401076429066
 30
0.0
 11
279.4
 21
7.976402346429065
 31
0.0
  0
LINE
  5
EFE
330
801
100
AcDbEntity
  8
BORDER
100
AcDbLine
 10
279.4
 20
2.896401076429066
 30
0.0
 11
279.4
 21
7.976402346429065
 31
0.0
  0
LINE
  5
EFF
330
801
100
AcDbEntity
  8
TITLE BLOCK
  6
Continuous
100
AcDbLine
 10
353.06
 20
19.40640361642906
 30
0.0
 11
353.06
 21
63.85640361642907
 31
0.0
  0
TEXT
  5
F00
330
801
100
AcDbEntity
  8
TITLE BLOCK
  6
Continuous
100
AcDbText
 10
326.0913501590238
 20
21.7012888945138
 30
0.0
 40
1.959662772596353
  1
NO.
 50
0.09999996
  7
AE
100
AcDbText
  0
LINE
  5
F01
330
801
100
AcDbEntity
  8
TITLE BLOCK
  6
Continuous
100
AcDbLine
 10
323.8499999999999
 20
13.05553211761991
 30
0.0
 11
323.8499999999999
 21
63.85640361642907
 31
0.0
  0
LINE
  5
F02
330
801
100
AcDbEntity
  8
TITLE BLOCK
  6
Continuous
100
AcDbLine
 10
332.7399999999999
 20
19.40640361642906
 30
0.0
 11
332.7399999999999
 21
63.85640361642907
 31
0.0
  0
TEXT
  5
F03
330
801
100
AcDbEntity
  8
TITLE BLOCK
  6
Continuous
100
AcDbText
 10
340.3949001676238
 20
21.71673912463373
 30
0.0
 40
1.928801505622495
  1
DATE
 50
0.09999996
  7
AE
100
AcDbText
  0
LINE
  5
F04
330
801
100
AcDbEntity
  8
BORDER
  6
LS
100
AcDbLine
 10
385.5721523999999
 20
8.230402092429063
 30
0.0
 11
385.5721523999999
 21
11.78640336242906
 31
0.0
  0
LINE
  5
F05
330
801
100
AcDbEntity
  8
BORDER
  6
LS
100
AcDbLine
 10
380.49213462
 20
8.230402092429063
 30
0.0
 11
380.49213462
 21
11.78640336242906
 31
0.0
  0
LINE
  5
F06
330
801
100
AcDbEntity
  8
BORDER
  6
LS
100
AcDbLine
 10
375.4121142999999
 20
8.230402092429063
 30
0.0
 11
375.4121142999999
 21
11.78640336242906
 31
0.0
  0
LINE
  5
F07
330
801
100
AcDbEntity
  8
BORDER
  6
LS
100
AcDbLine
 10
370.3321193799999
 20
8.230402092429063
 30
0.0
 11
370.3321193799999
 21
11.78640336242906
 31
0.0
  0
LINE
  5
F08
330
801
100
AcDbEntity
  8
BORDER
  6
LS
100
AcDbLine
 10
364.74411176
 20
10.26240336242906
 30
0.0
 11
364.74411176
 21
11.78640336242906
 31
0.0
  0
LINE
  5
F09
330
801
100
AcDbEntity
  8
BORDER
  6
LS
100
AcDbLine
 10
357.6320711199999
 20
8.230402092429063
 30
0.0
 11
357.6320711199999
 21
11.78640336242906
 31
0.0
  0
LINE
  5
F0A
330
801
100
AcDbEntity
  8
BORDER
  6
LS
100
AcDbLine
 10
360.17208128
 20
8.230402092429063
 30
0.0
 11
360.17208128
 21
11.78640336242906
 31
0.0
  0
LINE
  5
F0B
330
801
100
AcDbEntity
  8
BORDER
  6
LS
100
AcDbLine
 10
362.7120888999999
 20
8.230402092429063
 30
0.0
 11
362.7120888999999
 21
11.78640336242906
 31
0.0
  0
LINE
  5
F0C
330
801
100
AcDbEntity
  8
BORDER
  6
LS
100
AcDbLine
 10
363.2201015999999
 20
10.26240336242906
 30
0.0
 11
363.2201015999999
 21
11.78640336242906
 31
0.0
  0
LINE
  5
F0D
330
801
100
AcDbEntity
  8
BORDER
  6
LS
100
AcDbLine
 10
363.7281142999999
 20
9.246402600429064
 30
0.0
 11
363.7281142999999
 21
11.78640336242906
 31
0.0
  0
LINE
  5
F0E
330
801
100
AcDbEntity
  8
BORDER
  6
LS
100
AcDbLine
 10
364.2361244599999
 20
9.246402600429064
 30
0.0
 11
364.2361244599999
 21
11.78640336242906
 31
0.0
  0
LINE
  5
F0F
330
801
100
AcDbEntity
  8
BORDER
  6
LS
100
AcDbLine
 10
356.1080838199999
 20
9.246402600429064
 30
0.0
 11
356.1080838199999
 21
11.78640336242906
 31
0.0
  0
LINE
  5
F10
330
801
100
AcDbEntity
  8
BORDER
  6
LS
100
AcDbLine
 10
356.6160965199999
 20
9.246402600429064
 30
0.0
 11
356.6160965199999
 21
11.78640336242906
 31
0.0
  0
LINE
  5
F11
330
801
100
AcDbEntity
  8
BORDER
  6
LS
100
AcDbLine
 10
357.1240838199999
 20
10.26240336242906
 30
0.0
 11
357.1240838199999
 21
11.78640336242906
 31
0.0
  0
LINE
  5
F12
330
801
100
AcDbEntity
  8
BORDER
  6
LS
100
AcDbLine
 10
358.1400812799999
 20
10.26240336242906
 30
0.0
 11
358.1400812799999
 21
11.78640336242906
 31
0.0
  0
LINE
  5
F13
330
801
100
AcDbEntity
  8
BORDER
  6
LS
100
AcDbLine
 10
358.6480939799999
 20
9.246402600429064
 30
0.0
 11
358.6480939799999
 21
11.78640336242906
 31
0.0
  0
LINE
  5
F14
330
801
100
AcDbEntity
  8
BORDER
  6
LS
100
AcDbLine
 10
359.15610668
 20
9.246402600429064
 30
0.0
 11
359.15610668
 21
11.78640336242906
 31
0.0
  0
LINE
  5
F15
330
801
100
AcDbEntity
  8
BORDER
  6
LS
100
AcDbLine
 10
359.66409398
 20
10.26240336242906
 30
0.0
 11
359.66409398
 21
11.78640336242906
 31
0.0
  0
LINE
  5
F16
330
801
100
AcDbEntity
  8
BORDER
  6
LS
100
AcDbLine
 10
360.6800914399999
 20
10.26240336242906
 30
0.0
 11
360.6800914399999
 21
11.78640336242906
 31
0.0
  0
LINE
  5
F17
330
801
100
AcDbEntity
  8
BORDER
  6
LS
100
AcDbLine
 10
361.18810414
 20
9.246402600429064
 30
0.0
 11
361.18810414
 21
11.78640336242906
 31
0.0
  0
LINE
  5
F18
330
801
100
AcDbEntity
  8
BORDER
  6
LS
100
AcDbLine
 10
361.6961142999999
 20
9.246402600429064
 30
0.0
 11
361.6961142999999
 21
11.78640336242906
 31
0.0
  0
LINE
  5
F19
330
801
100
AcDbEntity
  8
BORDER
  6
LS
100
AcDbLine
 10
362.2041015999999
 20
10.26240336242906
 30
0.0
 11
362.2041015999999
 21
11.78640336242906
 31
0.0
  0
LINE
  5
F1A
330
801
100
AcDbEntity
  8
BORDER
  6
LS
100
AcDbLine
 10
355.0920609599999
 20
8.230402092429063
 30
0.0
 11
355.0920609599999
 21
11.78640336242906
 31
0.0
  0
LINE
  5
F1B
330
801
100
AcDbEntity
  8
BORDER
  6
LS
100
AcDbLine
 10
354.0760863599999
 20
9.246402600429064
 30
0.0
 11
354.0760863599999
 21
11.78640336242906
 31
0.0
  0
LINE
  5
F1C
330
801
100
AcDbEntity
  8
BORDER
  6
LS
100
AcDbLine
 10
354.58407366
 20
10.26240336242906
 30
0.0
 11
354.58407366
 21
11.78640336242906
 31
0.0
  0
LINE
  5
F1D
330
801
100
AcDbEntity
  8
BORDER
  6
LS
100
AcDbLine
 10
355.60007366
 20
10.26240336242906
 30
0.0
 11
355.60007366
 21
11.78640336242906
 31
0.0
  0
TEXT
  5
F1E
330
801
100
AcDbEntity
  8
BORDER
100
AcDbText
 10
415.3280644399999
 20
3.149135394429065
 30
0.0
 40
2.031999491999999
  1
3
 50
0.0999999600000013
  7
AE
100
AcDbText
  0
TEXT
  5
F1F
330
801
100
AcDbEntity
  8
BORDER
100
AcDbText
 10
389.9280644399999
 20
3.149135394429065
 30
0.0
 40
2.031999491999999
  1
2
 50
0.0999999600000013
  7
AE
100
AcDbText
  0
TEXT
  5
F20
330
801
100
AcDbEntity
  8
BORDER
100
AcDbText
 10
384.8482143
 20
4.673135394429065
 30
0.0
 40
2.031999491999999
  1
8
 50
0.0999999600000013
  7
AE
100
AcDbText
  0
TEXT
  5
F21
330
801
100
AcDbEntity
  8
BORDER
100
AcDbText
 10
374.6881762
 20
4.673135394429065
 30
0.0
 40
2.031999491999999
  1
4
 50
0.0999999600000013
  7
AE
100
AcDbText
  0
TEXT
  5
F22
330
801
100
AcDbEntity
  8
BORDER
100
AcDbText
 10
364.5280644399999
 20
3.149135394429065
 30
0.0
 40
2.031999491999999
  1
1
 50
0.0999999600000013
  7
AE
100
AcDbText
  0
TEXT
  5
F23
330
801
100
AcDbEntity
  8
BORDER
100
AcDbText
 10
369.60818128
 20
4.673135394429065
 30
0.0
 40
2.031999491999999
  1
2
 50
0.0999999600000013
  7
AE
100
AcDbText
  0
TEXT
  5
F24
330
801
100
AcDbEntity
  8
BORDER
100
AcDbText
 10
379.7681939799999
 20
4.673135394429065
 30
0.0
 40
2.031999491999999
  1
6
 50
0.0999999600000013
  7
AE
100
AcDbText
  0
TEXT
  5
F25
330
801
100
AcDbEntity
  8
BORDER
100
AcDbText
 10
359.4481431799999
 20
4.673135394429065
 30
0.0
 40
2.031999491999999
  1
8
 50
0.0999999600000013
  7
AE
100
AcDbText
  0
TEXT
  5
F26
330
801
100
AcDbEntity
  8
BORDER
100
AcDbText
 10
354.36812286
 20
4.673135394429065
 30
0.0
 40
2.031999491999999
  1
6
 50
0.0999999600000013
  7
AE
100
AcDbText
  0
LINE
  5
F27
330
801
100
AcDbEntity
  8
BORDER
  6
LS
100
AcDbLine
 10
416.05200254
 20
6.706402092429064
 30
0.0
 11
416.05200254
 21
11.78640336242906
 31
0.0
  0
LINE
  5
F28
330
801
100
AcDbEntity
  8
BORDER
  6
LS
100
AcDbLine
 10
365.2520025399999
 20
6.706402092429064
 30
0.0
 11
365.2520025399999
 21
11.78640336242906
 31
0.0
  0
LINE
  5
F29
330
801
100
AcDbEntity
  8
BORDER
  6
LS
100
AcDbLine
 10
390.6520025399999
 20
6.706402092429064
 30
0.0
 11
390.6520025399999
 21
11.78640336242906
 31
0.0
  0
TEXT
  5
F2A
330
801
100
AcDbEntity
  8
TITLE BLOCK
  6
Continuous
100
AcDbText
 10
434.34
 20
43.53640361642905
 30
0.0
 40
1.928801505622495
  1
DR
 50
0.09999996
  7
AE
100
AcDbText
  0
TEXT
  5
F2B
330
801
100
AcDbEntity
  8
TITLE BLOCK
  6
Continuous
100
AcDbText
 10
434.34
 20
40.36140361642906
 30
0.0
 40
1.928801505622495
  1
BY
 50
0.09999996
  7
AE
100
AcDbText
  0
TEXT
  5
F2C
330
801
100
AcDbEntity
  8
TITLE BLOCK
  6
Continuous
100
AcDbText
 10
434.4974894630538
 20
34.01140361642905
 30
0.0
 40
1.928801505622495
  1
BY
 50
0.09999996
  7
AE
100
AcDbText
  0
TEXT
  5
F2D
330
801
100
AcDbEntity
  8
TITLE BLOCK
  6
Continuous
100
AcDbText
 10
434.34
 20
37.18640361642905
 30
0.0
 40
1.928801505622495
  1
CHK
 50
0.09999996
  7
AE
100
AcDbText
  0
TEXT
  5
F2E
330
801
100
AcDbEntity
  8
TITLE BLOCK
  6
Continuous
100
AcDbText
 10
434.5939999999999
 20
30.83640361642906
 30
0.0
 40
1.928801505622495
  1
APPD
 50
0.09999996
  7
AE
100
AcDbText
  0
TEXT
  5
F2F
330
801
100
AcDbEntity
  8
TITLE BLOCK
  6
Continuous
100
AcDbText
 10
434.34
 20
27.66140361642907
 30
0.0
 40
1.928801505622495
  1
BY
 50
0.09999996
  7
AE
100
AcDbText
  0
TEXT
  5
F30
330
801
100
AcDbEntity
  8
TITLE BLOCK
  6
Continuous
100
AcDbText
 10
397.5099999999999
 20
23.21640361642906
 30
0.0
 40
1.928801505622495
  1
DRAWING NAME
 50
0.09999996
  7
AE
100
AcDbText
  0
TEXT
  5
F31
330
801
100
AcDbEntity
  8
TITLE BLOCK
  6
Continuous
100
AcDbText
 10
396.6209999999999
 20
60.04640361642906
 30
0.0
 40
1.639481230787539
  1
NOTICE: This drawing or material
 50
0.09999996
 41
0.7005041199999999
  7
AE
100
AcDbText
  0
LINE
  5
F32
330
801
100
AcDbEntity
  8
TITLE BLOCK
  6
Continuous
100
AcDbLine
 10
433.7098248608992
 20
28.29640361642907
 30
0.0
 11
433.7098248608992
 21
63.85640361642907
 31
0.0
  0
LINE
  5
F33
330
801
100
AcDbEntity
  8
TITLE BLOCK
  6
Continuous
100
AcDbLine
 10
396.2312723140906
 20
13.05553211761991
 30
0.0
 11
396.2312723140906
 21
63.85640361642907
 31
0.0
  0
TEXT
  5
F34
330
801
100
AcDbEntity
  8
TITLE BLOCK
  6
Continuous
100
AcDbText
 10
396.7809578592263
 20
43.69512345296911
 30
0.0
 40
1.639481230787539
  1
reproduced, will be used only for
 50
0.09999996
 41
0.6799434399999999
  7
AE
100
AcDbText
  0
TEXT
  5
F35
330
801
100
AcDbEntity
  8
TITLE BLOCK
  6
Continuous
100
AcDbText
 10
397.1326561753694
 20
30.71039712514257
 30
0.0
 40
1.639481230787539
  1
consent of G & L Motion Control Inc..
 50
0.09999996
 41
0.79688752
  7
AE
100
AcDbText
  0
TEXT
  5
F36
330
801
100
AcDbEntity
  8
TITLE BLOCK
  6
Continuous
100
AcDbText
 10
396.719470974786
 20
34.26666663583747
 30
0.0
 40
1.639481230787539
  1
as authorized by specific written
 50
0.09999996
 41
0.6799434399999999
  7
AE
100
AcDbText
  0
TEXT
  5
F37
330
801
100
AcDbEntity
  8
TITLE BLOCK
  6
Continuous
100
AcDbText
 10
396.7205683862122
 20
37.36167305738174
 30
0.0
 40
1.639481230787539
  1
used or disclosed to anyone except
 50
0.09999996
 41
0.6605569100000001
  7
AE
100
AcDbText
  0
TEXT
  5
F38
330
801
100
AcDbEntity
  8
TITLE BLOCK
  6
Continuous
100
AcDbText
 10
396.6374737647244
 20
40.62062735704644
 30
0.0
 40
1.639481230787539
  1
your information, and will not be
 50
0.09999996
 41
0.6799434399999999
  7
AE
100
AcDbText
  0
TEXT
  5
F39
330
801
100
AcDbEntity
  8
TITLE BLOCK
  6
Continuous
100
AcDbText
 10
396.7561485223225
 20
47.02579652888414
 30
0.0
 40
1.639481230787539
  1
will not be copied or otherwise
 50
0.09999996
 41
0.72234601
  7
AE
100
AcDbText
  0
TEXT
  5
F3A
330
801
100
AcDbEntity
  8
TITLE BLOCK
  6
Continuous
100
AcDbText
 10
396.6078289587201
 20
50.35656023922454
 30
0.0
 40
1.639481230787539
  1
in confidence on condition that it
 50
0.09999996
 41
0.6605569100000001
  7
AE
100
AcDbText
  0
TEXT
  5
F3B
330
801
100
AcDbEntity
  8
TITLE BLOCK
  6
Continuous
100
AcDbText
 10
396.5639569974307
 20
56.93593122720363
 30
0.0
 40
1.639481230787539
  1
contains proprietary information
 50
0.09999996
 41
0.7005041199999999
  7
AE
100
AcDbText
  0
TEXT
  5
F3C
330
801
100
AcDbEntity
  8
TITLE BLOCK
  6
Continuous
100
AcDbText
 10
396.7092145871849
 20
53.59497971747735
 30
0.0
 40
1.639481230787539
  1
of G & L Motion Control Inc., is submitted
 50
0.09999996
 41
0.6799434399999999
  7
AE
100
AcDbText
  0
ATTDEF
  5
F3D
330
801
100
AcDbEntity
  8
TITLE BLOCK
  6
Continuous
100
AcDbText
 10
397.4988187523695
 20
15.32015091637034
 30
0.0
 40
4.059999999999999
  1

 41
0.8
  7
STANDARD
100
AcDbAttributeDefinition
  3
Drawing Name
  2
GEN-TITLE-DES1{15.54}
 70
     0
1001
GENIUS_GENBLLY_14
1000
BOR5
  0
TEXT
  5
F3E
330
801
100
AcDbEntity
  8
BORDER
100
AcDbText
 10
4.535779599999938
 20
369.291403616429
 30
0.0
 40
5.079999745999999
  1
D
  7
AE
100
AcDbText
  0
LINE
  5
F3F
330
801
100
AcDbEntity
  8
BORDER
100
AcDbLine
 10
2.540152400000012
 20
317.856403616429
 30
0.0
 11
12.7
 21
317.856403616429
 31
0.0
  0
TEXT
  5
F40
330
801
100
AcDbEntity
  8
BORDER
100
AcDbText
 10
4.535779599999938
 20
261.341403616429
 30
0.0
 40
5.079999745999999
  1
C
  7
AE
100
AcDbText
  0
TEXT
  5
F41
330
801
100
AcDbEntity
  8
BORDER
100
AcDbText
 10
68.03577959999994
 20
413.7412512164289
 30
0.0
 40
5.079999745999999
  1
4
  7
AE
100
AcDbText
  0
LINE
  5
F42
330
801
100
AcDbEntity
  8
BORDER
100
AcDbLine
 10
139.7
 20
406.756403616429
 30
0.0
 11
139.7
 21
416.916251216429
 31
0.0
  0
TEXT
  5
F43
330
801
100
AcDbEntity
  8
BORDER
100
AcDbText
 10
207.7357287999999
 20
413.7412512164289
 30
0.0
 40
5.079999745999999
  1
3
  7
AE
100
AcDbText
  0
TEXT
  5
F44
330
801
100
AcDbEntity
  8
BORDER
100
AcDbText
 10
347.43572118
 20
413.7412512164289
 30
0.0
 40
5.079999745999999
  1
2
  7
AE
100
AcDbText
  0
LINE
  5
F45
330
801
100
AcDbEntity
  8
BORDER
100
AcDbLine
 10
276.8602793999999
 20
411.835946416429
 30
0.0
 11
279.4003809999999
 21
406.7560226164291
 31
0.0
  0
LINE
  5
F46
330
801
100
AcDbEntity
  8
BORDER
100
AcDbLine
 10
276.8600253999999
 20
411.8363274164289
 30
0.0
 11
281.9399999999999
 21
411.8363274164289
 31
0.0
  0
LINE
  5
F47
330
801
100
AcDbEntity
  8
BORDER
100
AcDbLine
 10
279.4002793999999
 20
406.756403616429
 30
0.0
 11
281.940254
 21
411.8363274164289
 31
0.0
  0
LINE
  5
F48
330
801
100
AcDbEntity
  8
BORDER
100
AcDbLine
 10
276.8600253999999
 20
411.8363274164289
 30
0.0
 11
281.9399999999999
 21
411.8363274164289
 31
0.0
  0
LINE
  5
F49
330
801
100
AcDbEntity
  8
BORDER
100
AcDbLine
 10
279.4
 20
411.8363274164289
 30
0.0
 11
279.4
 21
416.916251216429
 31
0.0
  0
LINE
  5
F4A
330
801
100
AcDbEntity
  8
BORDER
100
AcDbLine
 10
419.0999999999999
 20
406.756403616429
 30
0.0
 11
419.0999999999999
 21
416.916251216429
 31
0.0
  0
LINE
  5
F4B
330
801
100
AcDbEntity
  8
BORDER
  6
Continuous
100
AcDbLine
 10
558.8
 20
0.2456391960479891
 30
0.0
 11
558.8
 21
425.806403616429
 31
0.0
  0
LINE
  5
F4C
330
801
100
AcDbEntity
  8
BORDER
100
AcDbLine
 10
546.1
 20
13.05640361642906
 30
0.0
 11
546.1
 21
406.756403616429
 31
0.0
  0
ATTDEF
  5
F4D
330
801
100
AcDbEntity
  8
TITLE BLOCK
  6
Continuous
100
AcDbText
 10
530.8599999999999
 20
28.93140361642906
 30
0.0
 40
2.999484585477809
  1

 41
0.8
  7
STANDARD
100
AcDbAttributeDefinition
  3
Sheet of
  2
GEN-TITLE-SHEET-OF{2.62}
 70
     0
1001
GENIUS_GENBLLY_14
1000
BOR3
  0
ATTDEF
  5
F4E
330
801
100
AcDbEntity
  8
TITLE BLOCK
  6
Continuous
100
AcDbText
 10
520.6999999999999
 20
28.93140361642906
 30
0.0
 40
2.999484585477809
  1

 41
0.8
  7
STANDARD
100
AcDbAttributeDefinition
  3
Sheet
  2
GEN-TITLE-SHEET{2.62}
 70
     0
1001
GENIUS_GENBLLY_14
1000
BOR3
  0
TEXT
  5
F4F
330
801
100
AcDbEntity
  8
BORDER
100
AcDbText
 10
550.635715084
 20
45.44139345642906
 30
0.0
 40
5.079999745999999
  1
A
  7
AE
100
AcDbText
  0
TEXT
  5
F50
330
801
100
AcDbEntity
  8
BORDER
100
AcDbText
 10
487.1357211799999
 20
0.991403108429065
 30
0.0
 40
5.079999745999999
  1
1
  7
AE
100
AcDbText
  0
TEXT
  5
F51
330
801
100
AcDbEntity
  8
TITLE BLOCK
  6
Continuous
100
AcDbText
 10
509.905
 20
37.18640361642905
 30
0.0
 40
1.928801505622495
  1
DATE
 50
0.09999996
  7
AE
100
AcDbText
  0
TEXT
  5
F52
330
801
100
AcDbEntity
  8
TITLE BLOCK
  6
Continuous
100
AcDbText
 10
509.905
 20
30.83640361642906
 30
0.0
 40
1.928801505622495
  1
SHEET   OF
 50
0.09999996
  7
AE
100
AcDbText
  0
ATTDEF
  5
F53
330
801
100
AcDbEntity
  8
TITLE BLOCK
  6
Continuous
100
AcDbText
 10
481.3299999999999
 20
28.93140361642906
 30
0.0
 40
2.566953004259999
  1

 41
0.8
  7
STANDARD
100
AcDbAttributeDefinition
  3
Material
  2
GEN-TITLE-MAT{11.15}
 70
     0
1001
GENIUS_GENBLLY_14
1000
BOR3
  0
ATTDEF
  5
F54
330
801
100
AcDbEntity
  8
TITLE BLOCK
  6
Continuous
100
AcDbText
 10
481.3299999999999
 20
35.28140361642906
 30
0.0
 40
2.566953004259999
  1

  7
STANDARD
100
AcDbAttributeDefinition
  3
Machine
  2
GEN-TITLE-MACH{5}
 70
     0
1001
GENIUS_GENBLLY_14
1000
BOR2
  0
ATTDEF
  5
F55
330
801
100
AcDbEntity
  8
TITLE BLOCK
  6
Continuous
100
AcDbText
 10
481.3299999999999
 20
41.63140361642906
 30
0.0
 40
2.566953004259999
  1

  7
STANDARD
100
AcDbAttributeDefinition
  3
Ref. No.
  2
GEN-TITLE-REF{5}
 70
     0
1001
GENIUS_GENBLLY_14
1000
BOR2
  0
TEXT
  5
F56
330
801
100
AcDbEntity
  8
TITLE BLOCK
  6
Continuous
100
AcDbText
 10
472.44
 20
30.83640361642906
 30
0.0
 40
1.928801505622495
  1
MATL
 50
0.09999996
  7
AE
100
AcDbText
  0
TEXT
  5
F57
330
801
100
AcDbEntity
  8
TITLE BLOCK
  6
Continuous
100
AcDbText
 10
472.44
 20
37.18640361642905
 30
0.0
 40
1.928801505622495
  1
MACH
 50
0.09999996
  7
AE
100
AcDbText
  0
TEXT
  5
F58
330
801
100
AcDbEntity
  8
TITLE BLOCK
  6
Continuous
100
AcDbText
 10
472.44
 20
43.53640361642905
 30
0.0
 40
1.928801505622495
  1
REF
 50
0.09999996
  7
AE
100
AcDbText
  0
TEXT
  5
F59
330
801
100
AcDbEntity
  8
TITLE BLOCK
  6
Continuous
100
AcDbText
 10
472.44
 20
23.21640361642906
 30
0.0
 40
1.928801505622495
  1
DRAWING NUMBER
 50
0.09999996
  7
AE
100
AcDbText
  0
LINE
  5
F5A
330
801
100
AcDbEntity
  8
TITLE BLOCK
  6
Continuous
100
AcDbLine
 10
471.1699999999999
 20
13.05553211761991
 30
0.0
 11
471.1699999999999
 21
63.85640361642907
 31
0.0
  0
LINE
  5
F5B
330
801
100
AcDbEntity
  8
TITLE BLOCK
  6
Continuous
100
AcDbLine
 10
508.6669324040948
 20
27.02640361642905
 30
0.0
 11
508.6669324040939
 21
39.72640361642906
 31
0.0
  0
ATTDEF
  5
F5C
330
801
100
AcDbEntity
  8
TITLE BLOCK
  6
Continuous
100
AcDbText
 10
518.7949999999998
 20
35.28140361642906
 30
0.0
 40
2.566953004259999
  1

  7
STANDARD
100
AcDbAttributeDefinition
  3
Date
  2
GEN-TITLE-PLOT{5}
 70
     0
1001
GENIUS_GENBLLY_14
1000
BOR2
  0
ATTDEF
  5
F5D
330
801
100
AcDbEntity
  8
TITLE BLOCK
  6
Continuous
100
AcDbText
 10
472.6291438818832
 20
15.59640361642906
 30
0.0
 40
4.059999999999999
  1

 41
0.8
  7
STANDARD
100
AcDbAttributeDefinition
  3
Drawing Number
  2
GEN-TITLE-NR{13.37}
 70
     0
1001
GENIUS_GENBLLY_14
1000
BOR5
  0
LINE
  5
F5E
330
801
100
AcDbEntity
  8
BORDER
100
AcDbLine
 10
551.1800800099999
 20
209.906403616429
 30
0.0
 11
556.26000254
 21
209.906403616429
 31
0.0
  0
LINE
  5
F5F
330
801
100
AcDbEntity
  8
BORDER
100
AcDbLine
 10
546.100287528
 20
209.905943876429
 30
0.0
 11
551.1801813559999
 21
207.365981976429
 31
0.0
  0
TEXT
  5
F60
330
801
100
AcDbEntity
  8
BORDER
100
AcDbText
 10
550.635715084
 20
153.391393456429
 30
0.0
 40
5.079999745999999
  1
B
  7
AE
100
AcDbText
  0
LINE
  5
F61
330
801
100
AcDbEntity
  8
BORDER
100
AcDbLine
 10
546.0999878079998
 20
209.905966736429
 30
0.0
 11
551.1798907799998
 21
212.445905776429
 31
0.0
  0
LINE
  5
F62
330
801
100
AcDbEntity
  8
BORDER
100
AcDbLine
 10
551.1800800099999
 20
207.366248676429
 30
0.0
 11
551.1800800099999
 21
212.446169936429
 31
0.0
  0
TEXT
  5
F63
330
801
100
AcDbEntity
  8
BORDER
100
AcDbText
 10
550.635715084
 20
369.291403616429
 30
0.0
 40
5.079999745999999
  1
D
  7
AE
100
AcDbText
  0
LINE
  5
F64
330
801
100
AcDbEntity
  8
BORDER
100
AcDbLine
 10
546.1
 20
317.856403616429
 30
0.0
 11
556.2600010159997
 21
317.856403616429
 31
0.0
  0
TEXT
  5
F65
330
801
100
AcDbEntity
  8
BORDER
100
AcDbText
 10
550.635715084
 20
261.341403616429
 30
0.0
 40
5.079999745999999
  1
C
  7
AE
100
AcDbText
  0
TEXT
  5
F66
330
801
100
AcDbEntity
  8
BORDER
100
AcDbText
 10
487.1357211799999
 20
413.7412512164289
 30
0.0
 40
5.079999745999999
  1
1
  7
AE
100
AcDbText
  0
LINE
  5
F67
330
801
100
AcDbEntity
  8
BORDER
  6
Continuous
 62
    15
100
AcDbLine
 10
0.0
 20
0.2456391960479891
 30
0.0
 11
558.8
 21
0.2456391960479891
 31
0.0
  0
MTEXT
  5
F68
330
801
100
AcDbEntity
  8
BORDER
  6
Continuous
100
AcDbMText
 10
508.0784807513111
 20
60.04640361642906
 30
0.0
 40
3.174999999999999
 41
67.64020000000001
 71
     2
 72
     5
  1
{\fArial|b0|i0|c0|p34;\C1;G & L Motion Control Inc.}
  7
STANDARD
 73
     1
 44
1.0
  0
MTEXT
  5
F69
330
801
100
AcDbEntity
  8
BORDER
  6
Continuous
100
AcDbMText
 10
508.1048658720428
 20
51.87433048398901
 30
0.0
 40
1.999996
 41
72.6948
 71
     5
 72
     1
  1
{\Fromans.shx;\C9;672 South Military Road\PFond du Lac, Wisconsin 54936 U.S.A.}
  7
STANDARD
 73
     1
 44
1.0
  0
ENDBLK
  5
8B5
330
801
100
AcDbEntity
  8
0
370
     0
100
AcDbBlockEnd
  0
BLOCK
  5
C6D
330
BA9
100
AcDbEntity
  8
0
370
     0
100
AcDbBlockBegin
  2
METRIC_D
 70
     2
 10
0.0
 20
0.0
 30
0.0
  3
METRIC_D
  1

  0
LINE
  5
BAA
330
BA9
100
AcDbEntity
  8
BORDER
100
AcDbLine
 10
25.4
 20
546.1
 30
0.0
 11
838.1999999999999
 21
546.1
 31
0.0
  0
LINE
  5
BAB
330
BA9
100
AcDbEntity
  8
BORDER
100
AcDbLine
 10
25.4
 20
12.7
 30
0.0
 11
838.1999999999999
 21
12.7
 31
0.0
  0
LINE
  5
BAC
330
BA9
100
AcDbEntity
  8
BORDER
100
AcDbLine
 10
25.4
 20
12.7
 30
0.0
 11
25.4
 21
546.1
 31
0.0
  0
TEXT
  5
BAD
330
BA9
100
AcDbEntity
  8
BORDER
100
AcDbText
 10
10.88577959999993
 20
67.30998984
 30
0.0
 40
5.079999745999999
  1
A
  7
AE
100
AcDbText
  0
LINE
  5
BAE
330
BA9
100
AcDbEntity
  8
BORDER
100
AcDbLine
 10
107.9499999999999
 20
2.539998983999999
 30
0.0
 11
107.9499999999999
 21
12.7
 31
0.0
  0
TEXT
  5
BAF
330
BA9
100
AcDbEntity
  8
BORDER
100
AcDbText
 10
52.16077959999993
 20
3.809999492
 30
0.0
 40
5.079999745999999
  1
8
  7
AE
100
AcDbText
  0
LINE
  5
BB0
330
BA9
100
AcDbEntity
  8
BORDER
100
AcDbLine
 10
15.24015240000001
 20
139.7
 30
0.0
 11
25.4
 21
139.7
 31
0.0
  0
TEXT
  5
BB1
330
BA9
100
AcDbEntity
  8
BORDER
100
AcDbText
 10
10.88577959999993
 20
207.0099898399999
 30
0.0
 40
5.079999745999999
  1
B
  7
AE
100
AcDbText
  0
LINE
  5
BB2
330
BA9
100
AcDbEntity
  8
BORDER
100
AcDbLine
 10
215.8999999999999
 20
2.539998983999999
 30
0.0
 11
215.8999999999999
 21
12.7
 31
0.0
  0
TEXT
  5
BB3
330
BA9
100
AcDbEntity
  8
BORDER
100
AcDbText
 10
160.1107795999999
 20
3.809999492
 30
0.0
 40
5.079999745999999
  1
7
  7
AE
100
AcDbText
  0
LINE
  5
BB4
330
BA9
100
AcDbEntity
  8
BORDER
100
AcDbLine
 10
323.8499999999999
 20
2.539998983999999
 30
0.0
 11
323.8499999999999
 21
12.7
 31
0.0
  0
TEXT
  5
BB5
330
BA9
100
AcDbEntity
  8
BORDER
100
AcDbText
 10
268.0607795999999
 20
3.809999492
 30
0.0
 40
5.079999745999999
  1
6
  7
AE
100
AcDbText
  0
LINE
  5
BB6
330
BA9
100
AcDbEntity
  8
BORDER
100
AcDbLine
 10
20.32007620000009
 20
281.9392125999999
 30
0.0
 11
25.4
 21
279.3992633999999
 31
0.0
  0
LINE
  5
BB7
330
BA9
100
AcDbEntity
  8
BORDER
100
AcDbLine
 10
20.31969519999997
 20
276.8593395999999
 30
0.0
 11
25.39961899999987
 21
279.3992887999999
 31
0.0
  0
TEXT
  5
BB8
330
BA9
100
AcDbEntity
  8
BORDER
100
AcDbText
 10
10.88577959999993
 20
346.7099999999999
 30
0.0
 40
5.079999745999999
  1
C
  7
AE
100
AcDbText
  0
LINE
  5
BB9
330
BA9
100
AcDbEntity
  8
BORDER
100
AcDbLine
 10
15.24015240000001
 20
279.4
 30
0.0
 11
20.32007620000009
 21
279.4
 31
0.0
  0
LINE
  5
BBA
330
BA9
100
AcDbEntity
  8
BORDER
100
AcDbLine
 10
20.32007620000009
 20
276.8598475999999
 30
0.0
 11
20.32007620000009
 21
281.9397713999999
 31
0.0
  0
LINE
  5
BBB
330
BA9
100
AcDbEntity
  8
BORDER
100
AcDbLine
 10
15.24015240000001
 20
419.0999999999999
 30
0.0
 11
25.4
 21
419.0999999999999
 31
0.0
  0
TEXT
  5
BBC
330
BA9
100
AcDbEntity
  8
BORDER
100
AcDbText
 10
10.88577959999993
 20
486.4098475999999
 30
0.0
 40
5.079999745999999
  1
D
  7
AE
100
AcDbText
  0
LINE
  5
BBD
330
BA9
100
AcDbEntity
  8
BORDER
100
AcDbLine
 10
107.9499999999999
 20
546.1
 30
0.0
 11
107.9499999999999
 21
556.2598475999999
 31
0.0
  0
TEXT
  5
BBE
330
BA9
100
AcDbEntity
  8
BORDER
100
AcDbText
 10
52.16077959999993
 20
549.9098475999999
 30
0.0
 40
5.079999745999999
  1
8
  7
AE
100
AcDbText
  0
LINE
  5
BBF
330
BA9
100
AcDbEntity
  8
BORDER
100
AcDbLine
 10
215.8999999999999
 20
546.1
 30
0.0
 11
215.8999999999999
 21
556.2598475999999
 31
0.0
  0
TEXT
  5
BC0
330
BA9
100
AcDbEntity
  8
BORDER
100
AcDbText
 10
160.1107795999999
 20
549.9098475999999
 30
0.0
 40
5.079999745999999
  1
7
  7
AE
100
AcDbText
  0
LINE
  5
BC1
330
BA9
100
AcDbEntity
  8
BORDER
100
AcDbLine
 10
323.8499999999999
 20
546.1
 30
0.0
 11
323.8499999999999
 21
556.2598475999999
 31
0.0
  0
TEXT
  5
BC2
330
BA9
100
AcDbEntity
  8
BORDER
100
AcDbText
 10
268.0607795999999
 20
549.9098475999999
 30
0.0
 40
5.079999745999999
  1
6
  7
AE
100
AcDbText
  0
LINE
  5
BC3
330
BA9
100
AcDbEntity
  8
BORDER
100
AcDbLine
 10
838.1999999999999
 20
12.7
 30
0.0
 11
838.1999999999999
 21
546.1
 31
0.0
  0
ATTDEF
  5
BC4
330
BA9
100
AcDbEntity
  8
TITLE BLOCK
  6
Continuous
100
AcDbText
 10
734.6949999999999
 20
41.275
 30
0.0
 40
2.566953004259999
  1

  7
STANDARD
100
AcDbAttributeDefinition
  3
Drawn by
  2
GEN-TITLE-NAME{5}
 70
     0
1001
GENIUS_GENBLLY_14
1000
BOR2
  0
ATTDEF
  5
BC5
330
BA9
100
AcDbEntity
  8
TITLE BLOCK
  6
Continuous
100
AcDbText
 10
734.6949999999999
 20
34.92499999999999
 30
0.0
 40
2.566953004259999
  1

  7
STANDARD
100
AcDbAttributeDefinition
  3
Check by
  2
GEN-TITLE-CHKM{5}
 70
     0
1001
GENIUS_GENBLLY_14
1000
BOR2
  0
ATTDEF
  5
BC6
330
BA9
100
AcDbEntity
  8
TITLE BLOCK
  6
Continuous
100
AcDbText
 10
734.6949999999999
 20
28.57499999999999
 30
0.0
 40
2.566953004259999
  1

  7
STANDARD
100
AcDbAttributeDefinition
  3
Approved by
  2
GEN-TITLE-APPM{5}
 70
     0
1001
GENIUS_GENBLLY_14
1000
BOR2
1001
GENIUS_GENTRA_14
1002
{
1070
     3
1000
GENTRAPR,%s,(GENMSG gentitus 73)
1000
Approved by
1000
gb
1070
     0
1002
}
  0
TEXT
  5
BC7
330
BA9
100
AcDbEntity
  8
TITLE BLOCK
  6
Continuous
100
AcDbText
 10
729.1500486115596
 20
53.24254686914248
 30
0.0
 40
2.566953004259999
  1
  DRAWING
 50
0.09999996
  7
AE
100
AcDbText
  0
TEXT
  5
BC8
330
BA9
100
AcDbEntity
  8
TITLE BLOCK
  6
Continuous
100
AcDbText
 10
729.1500486115596
 20
58.56088205888316
 30
0.0
 40
2.566953004259999
  1
DO NOT SCALE
 50
0.09999996
  7
AE
100
AcDbText
  0
LINE
  5
BC9
330
BA9
100
AcDbEntity
  8
TITLE BLOCK
  6
Continuous
100
AcDbLine
 10
688.3312723140906
 20
26.66999999999999
 30
0.0
 11
838.1999999999999
 21
26.66999999999999
 31
0.0
  0
LINE
  5
BCA
330
BA9
100
AcDbEntity
  8
TITLE BLOCK
  6
Continuous
100
AcDbLine
 10
725.8098248608992
 20
33.01999999999999
 30
0.0
 11
838.1999999999999
 21
33.01999999999999
 31
0.0
  0
LINE
  5
BCB
330
BA9
100
AcDbEntity
  8
TITLE BLOCK
  6
Continuous
100
AcDbLine
 10
725.8098248608992
 20
39.36999999999999
 30
0.0
 11
838.1999999999999
 21
39.36999999999999
 31
0.0
  0
LINE
  5
BCC
330
BA9
100
AcDbEntity
  8
TITLE BLOCK
  6
Continuous
100
AcDbLine
 10
725.8098248608992
 20
45.71999999999999
 30
0.0
 11
838.1999999999999
 21
45.71999999999999
 31
0.0
  0
LINE
  5
BCD
330
BA9
100
AcDbEntity
  8
TITLE BLOCK
  6
Continuous
100
AcDbLine
 10
615.9499999999999
 20
63.50000000000001
 30
0.0
 11
838.1999999999999
 21
63.50000000000001
 31
0.0
  0
LINE
  5
BCE
330
BA9
100
AcDbEntity
  8
BORDER
100
AcDbLine
 10
431.8003809999999
 20
12.699963678
 30
0.0
 11
434.3401523999999
 21
7.619983743999998
 31
0.0
  0
LINE
  5
BCF
330
BA9
100
AcDbEntity
  8
BORDER
100
AcDbLine
 10
429.2602286
 20
7.620009397999999
 30
0.0
 11
431.8003809999999
 21
12.7
 31
0.0
  0
LINE
  5
BD0
330
BA9
100
AcDbEntity
  8
BORDER
100
AcDbLine
 10
429.2602286
 20
7.619998729999999
 30
0.0
 11
434.3401523999999
 21
7.619998729999999
 31
0.0
  0
LINE
  5
BD1
330
BA9
100
AcDbEntity
  8
BORDER
100
AcDbLine
 10
431.7999999999999
 20
2.53999746
 30
0.0
 11
431.7999999999999
 21
7.619998729999999
 31
0.0
  0
LINE
  5
BD2
330
BA9
100
AcDbEntity
  8
BORDER
100
AcDbLine
 10
431.7999999999999
 20
2.53999746
 30
0.0
 11
431.7999999999999
 21
7.619998729999999
 31
0.0
  0
TEXT
  5
BD3
330
BA9
100
AcDbEntity
  8
BORDER
100
AcDbText
 10
376.0107795999999
 20
3.809999492
 30
0.0
 40
5.079999745999999
  1
5
  7
AE
100
AcDbText
  0
LINE
  5
BD4
330
BA9
100
AcDbEntity
  8
BORDER
100
AcDbLine
 10
539.7499999999999
 20
2.539998983999999
 30
0.0
 11
539.7499999999999
 21
12.7
 31
0.0
  0
TEXT
  5
BD5
330
BA9
100
AcDbEntity
  8
BORDER
100
AcDbText
 10
483.9607288
 20
3.809999492
 30
0.0
 40
5.079999745999999
  1
4
  7
AE
100
AcDbText
  0
TEXT
  5
BD6
330
BA9
100
AcDbEntity
  8
TITLE BLOCK
  6
Continuous
100
AcDbText
 10
644.4879941939002
 20
14.9866147674459
 30
0.0
 40
1.928801505622495
  1
REVISION
 50
0.09999996
  7
AE
100
AcDbText
  0
LINE
  5
BD7
330
BA9
100
AcDbEntity
  8
TITLE BLOCK
  6
Continuous
100
AcDbLine
 10
615.9499999999999
 20
19.04999999999999
 30
0.0
 11
688.3312723140906
 21
19.04999999999999
 31
0.0
  0
LINE
  5
BD8
330
BA9
100
AcDbEntity
  8
TITLE BLOCK
  6
Continuous
100
AcDbLine
 10
615.9499999999999
 20
38.09999999999999
 30
0.0
 11
688.3312723140906
 21
38.09999999999999
 31
0.0
  0
LINE
  5
BD9
330
BA9
100
AcDbEntity
  8
TITLE BLOCK
  6
Continuous
100
AcDbLine
 10
615.9499999999999
 20
44.44999999999999
 30
0.0
 11
688.3312723140906
 21
44.44999999999999
 31
0.0
  0
LINE
  5
BDA
330
BA9
100
AcDbEntity
  8
TITLE BLOCK
  6
Continuous
100
AcDbLine
 10
615.9499999999999
 20
50.8
 30
0.0
 11
688.3312723140906
 21
50.8
 31
0.0
  0
LINE
  5
BDB
330
BA9
100
AcDbEntity
  8
TITLE BLOCK
  6
Continuous
100
AcDbLine
 10
615.9499999999999
 20
57.14999999999999
 30
0.0
 11
688.3312723140906
 21
57.14999999999999
 31
0.0
  0
LINE
  5
BDC
330
BA9
100
AcDbEntity
  8
TITLE BLOCK
  6
Continuous
100
AcDbLine
 10
615.9499999999999
 20
31.75
 30
0.0
 11
688.3312723140906
 21
31.75
 31
0.0
  0
LINE
  5
BDD
330
BA9
100
AcDbEntity
  8
TITLE BLOCK
  6
Continuous
100
AcDbLine
 10
615.9499999999999
 20
25.4
 30
0.0
 11
688.3312723140906
 21
25.4
 31
0.0
  0
TEXT
  5
BDE
330
BA9
100
AcDbEntity
  8
BORDER
100
AcDbText
 10
637.1077199399999
 20
2.106991976
 30
0.0
 40
1.016
  1
FULL SIZE   50   02
 50
0.0999999600000001
 41
0.7749084200000001
  7
AE
100
AcDbText
  0
LINE
  5
BDF
330
BA9
100
AcDbEntity
  8
TITLE BLOCK
  6
Continuous
100
AcDbLine
 10
645.16
 20
19.04999999999999
 30
0.0
 11
645.16
 21
63.50000000000001
 31
0.0
  0
TEXT
  5
BE0
330
BA9
100
AcDbEntity
  8
TITLE BLOCK
  6
Continuous
100
AcDbText
 10
632.4949001676237
 20
21.36033550820467
 30
0.0
 40
1.928801505622495
  1
DATE
 50
0.09999996
  7
AE
100
AcDbText
  0
TEXT
  5
BE1
330
BA9
100
AcDbEntity
  8
TITLE BLOCK
  6
Continuous
100
AcDbText
 10
618.1913501590238
 20
21.34488527808474
 30
0.0
 40
1.959662772596353
  1
NO.
 50
0.09999996
  7
AE
100
AcDbText
  0
LINE
  5
BE2
330
BA9
100
AcDbEntity
  8
TITLE BLOCK
  6
Continuous
100
AcDbLine
 10
615.9499999999999
 20
12.69912850119085
 30
0.0
 11
615.9499999999999
 21
63.50000000000001
 31
0.0
  0
LINE
  5
BE3
330
BA9
100
AcDbEntity
  8
TITLE BLOCK
  6
Continuous
100
AcDbLine
 10
624.84
 20
19.04999999999999
 30
0.0
 11
624.84
 21
63.50000000000001
 31
0.0
  0
LINE
  5
BE4
330
BA9
100
AcDbEntity
  8
BORDER
  6
LS
100
AcDbLine
 10
642.1120406399999
 20
7.873996951999999
 30
0.0
 11
642.1120406399999
 21
11.42999822199999
 31
0.0
  0
LINE
  5
BE5
330
BA9
100
AcDbEntity
  8
BORDER
  6
LS
100
AcDbLine
 10
644.6520507999999
 20
7.873996951999999
 30
0.0
 11
644.6520507999999
 21
11.42999822199999
 31
0.0
  0
LINE
  5
BE6
330
BA9
100
AcDbEntity
  8
BORDER
  6
LS
100
AcDbLine
 10
641.6040533399999
 20
9.905998221999999
 30
0.0
 11
641.6040533399999
 21
11.42999822199999
 31
0.0
  0
LINE
  5
BE7
330
BA9
100
AcDbEntity
  8
BORDER
  6
LS
100
AcDbLine
 10
642.62005334
 20
9.905998221999999
 30
0.0
 11
642.62005334
 21
11.42999822199999
 31
0.0
  0
LINE
  5
BE8
330
BA9
100
AcDbEntity
  8
BORDER
  6
LS
100
AcDbLine
 10
643.12806604
 20
8.88999746
 30
0.0
 11
643.12806604
 21
11.42999822199999
 31
0.0
  0
LINE
  5
BE9
330
BA9
100
AcDbEntity
  8
BORDER
  6
LS
100
AcDbLine
 10
643.6360761999999
 20
8.88999746
 30
0.0
 11
643.6360761999999
 21
11.42999822199999
 31
0.0
  0
LINE
  5
BEA
330
BA9
100
AcDbEntity
  8
BORDER
  6
LS
100
AcDbLine
 10
644.1440635
 20
9.905998221999999
 30
0.0
 11
644.1440635
 21
11.42999822199999
 31
0.0
  0
LINE
  5
BEB
330
BA9
100
AcDbEntity
  8
BORDER
  6
LS
100
AcDbLine
 10
637.0320228599999
 20
7.873996951999999
 30
0.0
 11
637.0320228599999
 21
11.42999822199999
 31
0.0
  0
LINE
  5
BEC
330
BA9
100
AcDbEntity
  8
BORDER
  6
LS
100
AcDbLine
 10
639.5720330199999
 20
7.873996951999999
 30
0.0
 11
639.5720330199999
 21
11.42999822199999
 31
0.0
  0
LINE
  5
BED
330
BA9
100
AcDbEntity
  8
BORDER
  6
LS
100
AcDbLine
 10
637.54003302
 20
9.905998221999999
 30
0.0
 11
637.54003302
 21
11.42999822199999
 31
0.0
  0
LINE
  5
BEE
330
BA9
100
AcDbEntity
  8
BORDER
  6
LS
100
AcDbLine
 10
638.04804572
 20
8.88999746
 30
0.0
 11
638.04804572
 21
11.42999822199999
 31
0.0
  0
LINE
  5
BEF
330
BA9
100
AcDbEntity
  8
BORDER
  6
LS
100
AcDbLine
 10
638.5560558799999
 20
8.88999746
 30
0.0
 11
638.5560558799999
 21
11.42999822199999
 31
0.0
  0
LINE
  5
BF0
330
BA9
100
AcDbEntity
  8
BORDER
  6
LS
100
AcDbLine
 10
639.0640431799998
 20
9.905998221999999
 30
0.0
 11
639.0640431799998
 21
11.42999822199999
 31
0.0
  0
LINE
  5
BF1
330
BA9
100
AcDbEntity
  8
BORDER
  6
LS
100
AcDbLine
 10
640.0800431799999
 20
9.905998221999999
 30
0.0
 11
640.0800431799999
 21
11.42999822199999
 31
0.0
  0
LINE
  5
BF2
330
BA9
100
AcDbEntity
  8
BORDER
  6
LS
100
AcDbLine
 10
640.5880558799999
 20
8.88999746
 30
0.0
 11
640.5880558799999
 21
11.42999822199999
 31
0.0
  0
LINE
  5
BF3
330
BA9
100
AcDbEntity
  8
BORDER
  6
LS
100
AcDbLine
 10
641.0960660399999
 20
8.88999746
 30
0.0
 11
641.0960660399999
 21
11.42999822199999
 31
0.0
  0
LINE
  5
BF4
330
BA9
100
AcDbEntity
  8
BORDER
  6
LS
100
AcDbLine
 10
645.1600635
 20
9.905998221999999
 30
0.0
 11
645.1600635
 21
11.42999822199999
 31
0.0
  0
LINE
  5
BF5
330
BA9
100
AcDbEntity
  8
BORDER
  6
LS
100
AcDbLine
 10
631.9520025399998
 20
6.349996952000001
 30
0.0
 11
631.9520025399998
 21
11.42999822199999
 31
0.0
  0
LINE
  5
BF6
330
BA9
100
AcDbEntity
  8
BORDER
  6
LS
100
AcDbLine
 10
632.4600152399999
 20
9.905998221999999
 30
0.0
 11
632.4600152399999
 21
11.42999822199999
 31
0.0
  0
LINE
  5
BF7
330
BA9
100
AcDbEntity
  8
BORDER
  6
LS
100
AcDbLine
 10
632.9680254
 20
8.88999746
 30
0.0
 11
632.9680254
 21
11.42999822199999
 31
0.0
  0
LINE
  5
BF8
330
BA9
100
AcDbEntity
  8
BORDER
  6
LS
100
AcDbLine
 10
634.4920127
 20
7.873996951999999
 30
0.0
 11
634.4920127
 21
11.42999822199999
 31
0.0
  0
LINE
  5
BF9
330
BA9
100
AcDbEntity
  8
BORDER
  6
LS
100
AcDbLine
 10
633.4760380999999
 20
8.88999746
 30
0.0
 11
633.4760380999999
 21
11.42999822199999
 31
0.0
  0
LINE
  5
BFA
330
BA9
100
AcDbEntity
  8
BORDER
  6
LS
100
AcDbLine
 10
633.9840253999999
 20
9.905998221999999
 30
0.0
 11
633.9840253999999
 21
11.42999822199999
 31
0.0
  0
LINE
  5
BFB
330
BA9
100
AcDbEntity
  8
BORDER
  6
LS
100
AcDbLine
 10
635.0000228599999
 20
9.905998221999999
 30
0.0
 11
635.0000228599999
 21
11.42999822199999
 31
0.0
  0
LINE
  5
BFC
330
BA9
100
AcDbEntity
  8
BORDER
  6
LS
100
AcDbLine
 10
635.5080355600001
 20
8.88999746
 30
0.0
 11
635.5080355600001
 21
11.42999822199999
 31
0.0
  0
LINE
  5
BFD
330
BA9
100
AcDbEntity
  8
BORDER
  6
LS
100
AcDbLine
 10
636.0160482599999
 20
8.88999746
 30
0.0
 11
636.0160482599999
 21
11.42999822199999
 31
0.0
  0
LINE
  5
BFE
330
BA9
100
AcDbEntity
  8
BORDER
  6
LS
100
AcDbLine
 10
636.52403556
 20
9.905998221999999
 30
0.0
 11
636.52403556
 21
11.42999822199999
 31
0.0
  0
TEXT
  5
BFF
330
BA9
100
AcDbEntity
  8
BORDER
100
AcDbText
 10
631.2280644399999
 20
2.792730253999998
 30
0.0
 40
2.031999491999999
  1
0
 50
0.0999999600000001
  7
AE
100
AcDbText
  0
TEXT
  5
C00
330
BA9
100
AcDbEntity
  8
BORDER
100
AcDbText
 10
641.38810254
 20
4.316730253999999
 30
0.0
 40
2.031999491999999
  1
4
 50
0.0999999600000001
  7
AE
100
AcDbText
  0
TEXT
  5
C01
330
BA9
100
AcDbEntity
  8
BORDER
100
AcDbText
 10
636.30808476
 20
4.316730253999999
 30
0.0
 40
2.031999491999999
  1
2
 50
0.0999999600000001
  7
AE
100
AcDbText
  0
TEXT
  5
C02
330
BA9
100
AcDbEntity
  8
BORDER
100
AcDbText
 10
591.9107288
 20
3.809999492
 30
0.0
 40
5.079999745999999
  1
3
  7
AE
100
AcDbText
  0
TEXT
  5
C03
330
BA9
100
AcDbEntity
  8
TITLE BLOCK
  6
Continuous
100
AcDbText
 10
689.6099999999998
 20
22.85999999999999
 30
0.0
 40
1.928801505622495
  1
DRAWING NAME
 50
0.09999996
  7
AE
100
AcDbText
  0
TEXT
  5
C04
330
BA9
100
AcDbEntity
  8
TITLE BLOCK
  6
Continuous
100
AcDbText
 10
688.721
 20
59.69
 30
0.0
 40
1.639481230787539
  1
NOTICE: This drawing or material
 50
0.09999996
 41
0.7005041199999999
  7
AE
100
AcDbText
  0
LINE
  5
C05
330
BA9
100
AcDbEntity
  8
TITLE BLOCK
  6
Continuous
100
AcDbLine
 10
725.8098248608992
 20
27.94
 30
0.0
 11
725.8098248608992
 21
63.50000000000001
 31
0.0
  0
LINE
  5
C06
330
BA9
100
AcDbEntity
  8
TITLE BLOCK
  6
Continuous
100
AcDbLine
 10
688.3312723140906
 20
12.69912850119085
 30
0.0
 11
688.3312723140906
 21
63.50000000000001
 31
0.0
  0
TEXT
  5
C07
330
BA9
100
AcDbEntity
  8
TITLE BLOCK
  6
Continuous
100
AcDbText
 10
688.8809578592262
 20
43.33871983654005
 30
0.0
 40
1.639481230787539
  1
reproduced, will be used only for
 50
0.09999996
 41
0.6799434399999999
  7
AE
100
AcDbText
  0
TEXT
  5
C08
330
BA9
100
AcDbEntity
  8
TITLE BLOCK
  6
Continuous
100
AcDbText
 10
689.2326561753694
 20
30.35399350871351
 30
0.0
 40
1.639481230787539
  1
consent of G & L Motion Control Inc..
 50
0.09999996
 41
0.79688752
  7
AE
100
AcDbText
  0
TEXT
  5
C09
330
BA9
100
AcDbEntity
  8
TITLE BLOCK
  6
Continuous
100
AcDbText
 10
688.8194709747859
 20
33.91026301940841
 30
0.0
 40
1.639481230787539
  1
as authorized by specific written
 50
0.09999996
 41
0.6799434399999999
  7
AE
100
AcDbText
  0
TEXT
  5
C0A
330
BA9
100
AcDbEntity
  8
TITLE BLOCK
  6
Continuous
100
AcDbText
 10
688.8205683862122
 20
37.00526944095268
 30
0.0
 40
1.639481230787539
  1
used or disclosed to anyone except
 50
0.09999996
 41
0.6605569100000001
  7
AE
100
AcDbText
  0
TEXT
  5
C0B
330
BA9
100
AcDbEntity
  8
TITLE BLOCK
  6
Continuous
100
AcDbText
 10
688.7374737647244
 20
40.26422374061738
 30
0.0
 40
1.639481230787539
  1
your information, and will not be
 50
0.09999996
 41
0.6799434399999999
  7
AE
100
AcDbText
  0
TEXT
  5
C0C
330
BA9
100
AcDbEntity
  8
TITLE BLOCK
  6
Continuous
100
AcDbText
 10
688.8561485223225
 20
46.66939291245507
 30
0.0
 40
1.639481230787539
  1
will not be copied or otherwise
 50
0.09999996
 41
0.72234601
  7
AE
100
AcDbText
  0
TEXT
  5
C0D
330
BA9
100
AcDbEntity
  8
TITLE BLOCK
  6
Continuous
100
AcDbText
 10
688.7078289587201
 20
50.00015662279547
 30
0.0
 40
1.639481230787539
  1
in confidence on condition that it
 50
0.09999996
 41
0.6605569100000001
  7
AE
100
AcDbText
  0
TEXT
  5
C0E
330
BA9
100
AcDbEntity
  8
TITLE BLOCK
  6
Continuous
100
AcDbText
 10
688.6639569974306
 20
56.57952761077456
 30
0.0
 40
1.639481230787539
  1
contains proprietary information
 50
0.09999996
 41
0.7005041199999999
  7
AE
100
AcDbText
  0
TEXT
  5
C0F
330
BA9
100
AcDbEntity
  8
TITLE BLOCK
  6
Continuous
100
AcDbText
 10
688.8092145871849
 20
53.23857610104829
 30
0.0
 40
1.639481230787539
  1
of G & L Motion Control Inc., is submitted
 50
0.09999996
 41
0.6799434399999999
  7
AE
100
AcDbText
  0
TEXT
  5
C10
330
BA9
100
AcDbEntity
  8
TITLE BLOCK
  6
Continuous
100
AcDbText
 10
726.4399999999999
 20
43.17999999999999
 30
0.0
 40
1.928801505622495
  1
DR
 50
0.09999996
  7
AE
100
AcDbText
  0
TEXT
  5
C11
330
BA9
100
AcDbEntity
  8
TITLE BLOCK
  6
Continuous
100
AcDbText
 10
726.4399999999999
 20
40.00499999999998
 30
0.0
 40
1.928801505622495
  1
BY
 50
0.09999996
  7
AE
100
AcDbText
  0
TEXT
  5
C12
330
BA9
100
AcDbEntity
  8
TITLE BLOCK
  6
Continuous
100
AcDbText
 10
726.5974894630538
 20
33.65499999999999
 30
0.0
 40
1.928801505622495
  1
BY
 50
0.09999996
  7
AE
100
AcDbText
  0
TEXT
  5
C13
330
BA9
100
AcDbEntity
  8
TITLE BLOCK
  6
Continuous
100
AcDbText
 10
726.4399999999999
 20
36.82999999999999
 30
0.0
 40
1.928801505622495
  1
CHK
 50
0.09999996
  7
AE
100
AcDbText
  0
TEXT
  5
C14
330
BA9
100
AcDbEntity
  8
TITLE BLOCK
  6
Continuous
100
AcDbText
 10
726.6939999999999
 20
30.48
 30
0.0
 40
1.928801505622495
  1
APPD
 50
0.09999996
  7
AE
100
AcDbText
  0
TEXT
  5
C15
330
BA9
100
AcDbEntity
  8
TITLE BLOCK
  6
Continuous
100
AcDbText
 10
726.4399999999999
 20
27.305
 30
0.0
 40
1.928801505622495
  1
BY
 50
0.09999996
  7
AE
100
AcDbText
  0
ATTDEF
  5
C16
330
BA9
100
AcDbEntity
  8
TITLE BLOCK
  6
Continuous
100
AcDbText
 10
690.88
 20
15.19919781782121
 30
0.0
 40
4.059999999999999
  1

 41
0.8
  7
STANDARD
100
AcDbAttributeDefinition
  3
Drawing Name
  2
GEN-TITLE-DES1{15.54}
 70
     0
1001
GENIUS_GENBLLY_14
1000
BOR5
  0
TEXT
  5
C17
330
BA9
100
AcDbEntity
  8
BORDER
100
AcDbText
 10
728.7617428799999
 20
4.26640625
 30
0.0
 40
4.167187499999999
  1
2
  7
AE
100
AcDbText
  0
LINE
  5
C18
330
BA9
100
AcDbEntity
  8
BORDER
  6
LS
100
AcDbLine
 10
708.15200254
 20
6.349996952000001
 30
0.0
 11
708.15200254
 21
11.42999822199999
 31
0.0
  0
TEXT
  5
C19
330
BA9
100
AcDbEntity
  8
BORDER
100
AcDbText
 10
707.4280644399999
 20
2.792730253999998
 30
0.0
 40
2.031999491999999
  1
3
 50
0.0999999600000001
  7
AE
100
AcDbText
  0
LINE
  5
C1A
330
BA9
100
AcDbEntity
  8
BORDER
  6
LS
100
AcDbLine
 10
682.7520025399999
 20
6.349996952000001
 30
0.0
 11
682.7520025399999
 21
11.42999822199999
 31
0.0
  0
LINE
  5
C1B
330
BA9
100
AcDbEntity
  8
BORDER
  6
LS
100
AcDbLine
 10
677.6721524
 20
7.873996951999999
 30
0.0
 11
677.6721524
 21
11.42999822199999
 31
0.0
  0
LINE
  5
C1C
330
BA9
100
AcDbEntity
  8
BORDER
  6
LS
100
AcDbLine
 10
672.59213462
 20
7.873996951999999
 30
0.0
 11
672.59213462
 21
11.42999822199999
 31
0.0
  0
TEXT
  5
C1D
330
BA9
100
AcDbEntity
  8
BORDER
100
AcDbText
 10
682.02806444
 20
2.792730253999998
 30
0.0
 40
2.031999491999999
  1
2
 50
0.0999999600000001
  7
AE
100
AcDbText
  0
TEXT
  5
C1E
330
BA9
100
AcDbEntity
  8
BORDER
100
AcDbText
 10
676.9482143
 20
4.316730253999999
 30
0.0
 40
2.031999491999999
  1
8
 50
0.0999999600000001
  7
AE
100
AcDbText
  0
TEXT
  5
C1F
330
BA9
100
AcDbEntity
  8
BORDER
100
AcDbText
 10
671.8681939799999
 20
4.316730253999999
 30
0.0
 40
2.031999491999999
  1
6
 50
0.0999999600000001
  7
AE
100
AcDbText
  0
LINE
  5
C20
330
BA9
100
AcDbEntity
  8
BORDER
  6
LS
100
AcDbLine
 10
667.5121143
 20
7.873996951999999
 30
0.0
 11
667.5121143
 21
11.42999822199999
 31
0.0
  0
LINE
  5
C21
330
BA9
100
AcDbEntity
  8
BORDER
  6
LS
100
AcDbLine
 10
662.43211938
 20
7.873996951999999
 30
0.0
 11
662.43211938
 21
11.42999822199999
 31
0.0
  0
LINE
  5
C22
330
BA9
100
AcDbEntity
  8
BORDER
  6
LS
100
AcDbLine
 10
654.8120888999999
 20
7.873996951999999
 30
0.0
 11
654.8120888999999
 21
11.42999822199999
 31
0.0
  0
LINE
  5
C23
330
BA9
100
AcDbEntity
  8
BORDER
  6
LS
100
AcDbLine
 10
655.3201016
 20
9.905998221999999
 30
0.0
 11
655.3201016
 21
11.42999822199999
 31
0.0
  0
LINE
  5
C24
330
BA9
100
AcDbEntity
  8
BORDER
  6
LS
100
AcDbLine
 10
655.8281142999999
 20
8.88999746
 30
0.0
 11
655.8281142999999
 21
11.42999822199999
 31
0.0
  0
LINE
  5
C25
330
BA9
100
AcDbEntity
  8
BORDER
  6
LS
100
AcDbLine
 10
652.78009144
 20
9.905998221999999
 30
0.0
 11
652.78009144
 21
11.42999822199999
 31
0.0
  0
LINE
  5
C26
330
BA9
100
AcDbEntity
  8
BORDER
  6
LS
100
AcDbLine
 10
653.2881041399999
 20
8.88999746
 30
0.0
 11
653.2881041399999
 21
11.42999822199999
 31
0.0
  0
LINE
  5
C27
330
BA9
100
AcDbEntity
  8
BORDER
  6
LS
100
AcDbLine
 10
653.7961142999998
 20
8.88999746
 30
0.0
 11
653.7961142999998
 21
11.42999822199999
 31
0.0
  0
LINE
  5
C28
330
BA9
100
AcDbEntity
  8
BORDER
  6
LS
100
AcDbLine
 10
654.3041016
 20
9.905998221999999
 30
0.0
 11
654.3041016
 21
11.42999822199999
 31
0.0
  0
LINE
  5
C29
330
BA9
100
AcDbEntity
  8
BORDER
  6
LS
100
AcDbLine
 10
649.73207112
 20
7.873996951999999
 30
0.0
 11
649.73207112
 21
11.42999822199999
 31
0.0
  0
LINE
  5
C2A
330
BA9
100
AcDbEntity
  8
BORDER
  6
LS
100
AcDbLine
 10
652.2720812799999
 20
7.873996951999999
 30
0.0
 11
652.2720812799999
 21
11.42999822199999
 31
0.0
  0
LINE
  5
C2B
330
BA9
100
AcDbEntity
  8
BORDER
  6
LS
100
AcDbLine
 10
648.7160965199999
 20
8.88999746
 30
0.0
 11
648.7160965199999
 21
11.42999822199999
 31
0.0
  0
LINE
  5
C2C
330
BA9
100
AcDbEntity
  8
BORDER
  6
LS
100
AcDbLine
 10
649.22408382
 20
9.905998221999999
 30
0.0
 11
649.22408382
 21
11.42999822199999
 31
0.0
  0
LINE
  5
C2D
330
BA9
100
AcDbEntity
  8
BORDER
  6
LS
100
AcDbLine
 10
650.2400812799999
 20
9.905998221999999
 30
0.0
 11
650.2400812799999
 21
11.42999822199999
 31
0.0
  0
LINE
  5
C2E
330
BA9
100
AcDbEntity
  8
BORDER
  6
LS
100
AcDbLine
 10
650.7480939799998
 20
8.88999746
 30
0.0
 11
650.7480939799998
 21
11.42999822199999
 31
0.0
  0
LINE
  5
C2F
330
BA9
100
AcDbEntity
  8
BORDER
  6
LS
100
AcDbLine
 10
651.25610668
 20
8.88999746
 30
0.0
 11
651.25610668
 21
11.42999822199999
 31
0.0
  0
LINE
  5
C30
330
BA9
100
AcDbEntity
  8
BORDER
  6
LS
100
AcDbLine
 10
651.7640939799998
 20
9.905998221999999
 30
0.0
 11
651.7640939799998
 21
11.42999822199999
 31
0.0
  0
LINE
  5
C31
330
BA9
100
AcDbEntity
  8
BORDER
  6
LS
100
AcDbLine
 10
657.3520025399998
 20
6.349996952000001
 30
0.0
 11
657.3520025399998
 21
11.42999822199999
 31
0.0
  0
LINE
  5
C32
330
BA9
100
AcDbEntity
  8
BORDER
  6
LS
100
AcDbLine
 10
656.3361244599999
 20
8.88999746
 30
0.0
 11
656.3361244599999
 21
11.42999822199999
 31
0.0
  0
LINE
  5
C33
330
BA9
100
AcDbEntity
  8
BORDER
  6
LS
100
AcDbLine
 10
656.84411176
 20
9.905998221999999
 30
0.0
 11
656.84411176
 21
11.42999822199999
 31
0.0
  0
TEXT
  5
C34
330
BA9
100
AcDbEntity
  8
BORDER
100
AcDbText
 10
656.6280644399999
 20
2.792730253999998
 30
0.0
 40
2.031999491999999
  1
1
 50
0.0999999600000001
  7
AE
100
AcDbText
  0
TEXT
  5
C35
330
BA9
100
AcDbEntity
  8
BORDER
100
AcDbText
 10
651.54814318
 20
4.316730253999999
 30
0.0
 40
2.031999491999999
  1
8
 50
0.0999999600000001
  7
AE
100
AcDbText
  0
TEXT
  5
C36
330
BA9
100
AcDbEntity
  8
BORDER
100
AcDbText
 10
666.7881761999999
 20
4.316730253999999
 30
0.0
 40
2.031999491999999
  1
4
 50
0.0999999600000001
  7
AE
100
AcDbText
  0
TEXT
  5
C37
330
BA9
100
AcDbEntity
  8
BORDER
100
AcDbText
 10
661.7081812799999
 20
4.316730253999999
 30
0.0
 40
2.031999491999999
  1
2
 50
0.0999999600000001
  7
AE
100
AcDbText
  0
LINE
  5
C38
330
BA9
100
AcDbEntity
  8
BORDER
  6
LS
100
AcDbLine
 10
647.1920609599999
 20
7.873996951999999
 30
0.0
 11
647.1920609599999
 21
11.42999822199999
 31
0.0
  0
LINE
  5
C39
330
BA9
100
AcDbEntity
  8
BORDER
  6
LS
100
AcDbLine
 10
645.66807366
 20
8.88999746
 30
0.0
 11
645.66807366
 21
11.42999822199999
 31
0.0
  0
LINE
  5
C3A
330
BA9
100
AcDbEntity
  8
BORDER
  6
LS
100
AcDbLine
 10
646.17608636
 20
8.88999746
 30
0.0
 11
646.17608636
 21
11.42999822199999
 31
0.0
  0
LINE
  5
C3B
330
BA9
100
AcDbEntity
  8
BORDER
  6
LS
100
AcDbLine
 10
646.68407366
 20
9.905998221999999
 30
0.0
 11
646.68407366
 21
11.42999822199999
 31
0.0
  0
LINE
  5
C3C
330
BA9
100
AcDbEntity
  8
BORDER
  6
LS
100
AcDbLine
 10
647.7000736599999
 20
9.905998221999999
 30
0.0
 11
647.7000736599999
 21
11.42999822199999
 31
0.0
  0
LINE
  5
C3D
330
BA9
100
AcDbEntity
  8
BORDER
  6
LS
100
AcDbLine
 10
648.2080838199999
 20
8.88999746
 30
0.0
 11
648.2080838199999
 21
11.42999822199999
 31
0.0
  0
TEXT
  5
C3E
330
BA9
100
AcDbEntity
  8
BORDER
100
AcDbText
 10
646.4681228599999
 20
4.316730253999999
 30
0.0
 40
2.031999491999999
  1
6
 50
0.0999999600000001
  7
AE
100
AcDbText
  0
ATTDEF
  5
C3F
330
BA9
100
AcDbEntity
  8
TITLE BLOCK
  6
Continuous
100
AcDbText
 10
822.9599999999999
 20
28.57499999999999
 30
0.0
 40
2.999484585477809
  1

 41
0.8
  7
STANDARD
100
AcDbAttributeDefinition
  3
Sheet of
  2
GEN-TITLE-SHEET-OF{2.62}
 70
     0
1001
GENIUS_GENBLLY_14
1000
BOR3
  0
ATTDEF
  5
C40
330
BA9
100
AcDbEntity
  8
TITLE BLOCK
  6
Continuous
100
AcDbText
 10
812.8
 20
28.57499999999999
 30
0.0
 40
2.999484585477809
  1

 41
0.8
  7
STANDARD
100
AcDbAttributeDefinition
  3
Sheet
  2
GEN-TITLE-SHEET{2.62}
 70
     0
1001
GENIUS_GENBLLY_14
1000
BOR3
  0
TEXT
  5
C41
330
BA9
100
AcDbEntity
  8
TITLE BLOCK
  6
Continuous
100
AcDbText
 10
802.0049999999999
 20
36.82999999999999
 30
0.0
 40
1.928801505622495
  1
DATE
 50
0.09999996
  7
AE
100
AcDbText
  0
TEXT
  5
C42
330
BA9
100
AcDbEntity
  8
TITLE BLOCK
  6
Continuous
100
AcDbText
 10
802.0049999999999
 20
30.48
 30
0.0
 40
1.928801505622495
  1
SHEET   OF
 50
0.09999996
  7
AE
100
AcDbText
  0
ATTDEF
  5
C43
330
BA9
100
AcDbEntity
  8
TITLE BLOCK
  6
Continuous
100
AcDbText
 10
773.4299999999999
 20
28.57499999999999
 30
0.0
 40
2.566953004259999
  1

 41
0.8
  7
STANDARD
100
AcDbAttributeDefinition
  3
Material
  2
GEN-TITLE-MAT{11.15}
 70
     0
1001
GENIUS_GENBLLY_14
1000
BOR3
  0
ATTDEF
  5
C44
330
BA9
100
AcDbEntity
  8
TITLE BLOCK
  6
Continuous
100
AcDbText
 10
773.4299999999999
 20
34.92499999999999
 30
0.0
 40
2.566953004259999
  1

  7
STANDARD
100
AcDbAttributeDefinition
  3
Machine
  2
GEN-TITLE-MACH{5}
 70
     0
1001
GENIUS_GENBLLY_14
1000
BOR2
  0
ATTDEF
  5
C45
330
BA9
100
AcDbEntity
  8
TITLE BLOCK
  6
Continuous
100
AcDbText
 10
773.4299999999999
 20
41.275
 30
0.0
 40
2.566953004259999
  1

  7
STANDARD
100
AcDbAttributeDefinition
  3
Ref. No.
  2
GEN-TITLE-REF{5}
 70
     0
1001
GENIUS_GENBLLY_14
1000
BOR2
  0
TEXT
  5
C46
330
BA9
100
AcDbEntity
  8
TITLE BLOCK
  6
Continuous
100
AcDbText
 10
764.5399999999999
 20
30.48
 30
0.0
 40
1.928801505622495
  1
MATL
 50
0.09999996
  7
AE
100
AcDbText
  0
TEXT
  5
C47
330
BA9
100
AcDbEntity
  8
TITLE BLOCK
  6
Continuous
100
AcDbText
 10
764.5399999999999
 20
36.82999999999999
 30
0.0
 40
1.928801505622495
  1
MACH
 50
0.09999996
  7
AE
100
AcDbText
  0
TEXT
  5
C48
330
BA9
100
AcDbEntity
  8
TITLE BLOCK
  6
Continuous
100
AcDbText
 10
764.5399999999999
 20
43.17999999999999
 30
0.0
 40
1.928801505622495
  1
REF
 50
0.09999996
  7
AE
100
AcDbText
  0
TEXT
  5
C49
330
BA9
100
AcDbEntity
  8
TITLE BLOCK
  6
Continuous
100
AcDbText
 10
764.5399999999999
 20
22.85999999999999
 30
0.0
 40
1.928801505622495
  1
DRAWING NUMBER
 50
0.09999996
  7
AE
100
AcDbText
  0
LINE
  5
C4A
330
BA9
100
AcDbEntity
  8
TITLE BLOCK
  6
Continuous
100
AcDbLine
 10
763.2699999999998
 20
12.69912850119085
 30
0.0
 11
763.2699999999998
 21
63.50000000000001
 31
0.0
  0
LINE
  5
C4B
330
BA9
100
AcDbEntity
  8
TITLE BLOCK
  6
Continuous
100
AcDbLine
 10
800.7669324040948
 20
26.66999999999999
 30
0.0
 11
800.7669324040938
 21
39.36999999999999
 31
0.0
  0
ATTDEF
  5
C4C
330
BA9
100
AcDbEntity
  8
TITLE BLOCK
  6
Continuous
100
AcDbText
 10
810.8949999999998
 20
34.92499999999999
 30
0.0
 40
2.566953004259999
  1

  7
STANDARD
100
AcDbAttributeDefinition
  3
Date
  2
GEN-TITLE-PLOT{5}
 70
     0
1001
GENIUS_GENBLLY_14
1000
BOR2
  0
ATTDEF
  5
C4D
330
BA9
100
AcDbEntity
  8
TITLE BLOCK
  6
Continuous
100
AcDbText
 10
766.3727223710517
 20
15.24
 30
0.0
 40
4.059999999999999
  1

 41
0.8
  7
STANDARD
100
AcDbAttributeDefinition
  3
Drawing Number
  2
GEN-TITLE-NR{13.37}
 70
     0
1001
GENIUS_GENBLLY_14
1000
BOR5
  0
TEXT
  5
C4E
330
BA9
100
AcDbEntity
  8
BORDER
100
AcDbText
 10
849.085715084
 20
67.30998984
 30
0.0
 40
5.079999745999999
  1
A
  7
AE
100
AcDbText
  0
TEXT
  5
C4F
330
BA9
100
AcDbEntity
  8
BORDER
100
AcDbText
 10
807.8107211799999
 20
3.809999492
 30
0.0
 40
5.079999745999999
  1
1
  7
AE
100
AcDbText
  0
LINE
  5
C50
330
BA9
100
AcDbEntity
  8
BORDER
100
AcDbLine
 10
755.6499999999999
 20
2.539998983999999
 30
0.0
 11
755.6499999999999
 21
12.7
 31
0.0
  0
TEXT
  5
C51
330
BA9
100
AcDbEntity
  8
BORDER
100
AcDbText
 10
849.085715084
 20
207.0099898399999
 30
0.0
 40
5.079999745999999
  1
B
  7
AE
100
AcDbText
  0
LINE
  5
C52
330
BA9
100
AcDbEntity
  8
BORDER
100
AcDbLine
 10
838.1999999999999
 20
139.7
 30
0.0
 11
848.3600010159999
 21
139.7
 31
0.0
  0
LINE
  5
C53
330
BA9
100
AcDbEntity
  8
BORDER
100
AcDbLine
 10
431.7999999999999
 20
551.1799238
 30
0.0
 11
431.7999999999999
 21
556.2598475999999
 31
0.0
  0
LINE
  5
C54
330
BA9
100
AcDbEntity
  8
BORDER
100
AcDbLine
 10
429.2602286
 20
551.1799238
 30
0.0
 11
434.3401523999999
 21
551.1799238
 31
0.0
  0
LINE
  5
C55
330
BA9
100
AcDbEntity
  8
BORDER
100
AcDbLine
 10
429.2610159999999
 20
551.1799238
 30
0.0
 11
431.8011683999999
 21
546.1
 31
0.0
  0
LINE
  5
C56
330
BA9
100
AcDbEntity
  8
BORDER
100
AcDbLine
 10
431.8007619999999
 20
546.1003809999998
 30
0.0
 11
434.3409398
 21
551.1803048
 31
0.0
  0
TEXT
  5
C57
330
BA9
100
AcDbEntity
  8
BORDER
100
AcDbText
 10
376.0107795999999
 20
549.9098475999999
 30
0.0
 40
5.079999745999999
  1
5
  7
AE
100
AcDbText
  0
LINE
  5
C58
330
BA9
100
AcDbEntity
  8
BORDER
100
AcDbLine
 10
539.7499999999999
 20
546.1
 30
0.0
 11
539.7499999999999
 21
556.2598475999999
 31
0.0
  0
TEXT
  5
C59
330
BA9
100
AcDbEntity
  8
BORDER
100
AcDbText
 10
483.9607288
 20
549.9098475999999
 30
0.0
 40
5.079999745999999
  1
4
  7
AE
100
AcDbText
  0
TEXT
  5
C5A
330
BA9
100
AcDbEntity
  8
BORDER
100
AcDbText
 10
591.9107288
 20
549.9098475999999
 30
0.0
 40
5.079999745999999
  1
3
  7
AE
100
AcDbText
  0
TEXT
  5
C5B
330
BA9
100
AcDbEntity
  8
BORDER
100
AcDbText
 10
699.8607211799999
 20
549.9098475999999
 30
0.0
 40
5.079999745999999
  1
2
  7
AE
100
AcDbText
  0
LINE
  5
C5C
330
BA9
100
AcDbEntity
  8
BORDER
100
AcDbLine
 10
647.6999999999999
 20
546.1
 30
0.0
 11
647.6999999999999
 21
556.2598475999999
 31
0.0
  0
TEXT
  5
C5D
330
BA9
100
AcDbEntity
  8
BORDER
100
AcDbText
 10
849.085715084
 20
346.7099999999999
 30
0.0
 40
5.079999745999999
  1
C
  7
AE
100
AcDbText
  0
LINE
  5
C5E
330
BA9
100
AcDbEntity
  8
BORDER
100
AcDbLine
 10
843.28008001
 20
279.4
 30
0.0
 11
848.3600025399999
 21
279.4
 31
0.0
  0
LINE
  5
C5F
330
BA9
100
AcDbEntity
  8
BORDER
100
AcDbLine
 10
838.1999745999999
 20
279.3995428
 30
0.0
 11
843.2798679199999
 21
281.9394665999999
 31
0.0
  0
LINE
  5
C60
330
BA9
100
AcDbEntity
  8
BORDER
100
AcDbLine
 10
843.28008001
 20
276.8598475999999
 30
0.0
 11
843.28008001
 21
281.9397713999999
 31
0.0
  0
LINE
  5
C61
330
BA9
100
AcDbEntity
  8
BORDER
100
AcDbLine
 10
838.200305816
 20
279.399492
 30
0.0
 11
843.280199644
 21
276.8595682
 31
0.0
  0
TEXT
  5
C62
330
BA9
100
AcDbEntity
  8
BORDER
100
AcDbText
 10
849.085715084
 20
486.4098475999999
 30
0.0
 40
5.079999745999999
  1
D
  7
AE
100
AcDbText
  0
LINE
  5
C63
330
BA9
100
AcDbEntity
  8
BORDER
100
AcDbLine
 10
838.1999999999999
 20
419.0999999999999
 30
0.0
 11
848.3600010159999
 21
419.0999999999999
 31
0.0
  0
TEXT
  5
C64
330
BA9
100
AcDbEntity
  8
BORDER
100
AcDbText
 10
807.8107211799999
 20
549.9098475999999
 30
0.0
 40
5.079999745999999
  1
1
  7
AE
100
AcDbText
  0
LINE
  5
C65
330
BA9
100
AcDbEntity
  8
BORDER
100
AcDbLine
 10
755.6499999999999
 20
546.1
 30
0.0
 11
755.6499999999999
 21
556.2598475999999
 31
0.0
  0
LINE
  5
C66
330
BA9
100
AcDbEntity
  8
BORDER
  6
Continuous
100
AcDbLine
 10
0.0
 20
0.0
 30
0.0
 11
0.0
 21
558.8
 31
0.0
  0
LINE
  5
C67
330
BA9
100
AcDbEntity
  8
BORDER
  6
Continuous
100
AcDbLine
 10
0.0
 20
558.8
 30
0.0
 11
863.5999999999999
 21
558.8
 31
0.0
  0
LINE
  5
C68
330
BA9
100
AcDbEntity
  8
BORDER
  6
Continuous
100
AcDbLine
 10
863.5999999999999
 20
558.8
 30
0.0
 11
863.5999999999999
 21
0.0
 31
0.0
  0
LINE
  5
C69
330
BA9
100
AcDbEntity
  8
BORDER
  6
Continuous
100
AcDbLine
 10
863.5999999999999
 20
0.0
 30
0.0
 11
0.0
 21
0.0
 31
0.0
  0
LINE
  5
C6A
330
BA9
100
AcDbEntity
  8
BORDER
100
AcDbLine
 10
0.0
 20
0.0
 30
0.0
 11
0.0
 21
0.0
 31
0.0
  0
MTEXT
  5
C6B
330
BA9
100
AcDbEntity
  8
BORDER
  6
Continuous
100
AcDbMText
 10
800.1784807513111
 20
59.69
 30
0.0
 40
3.174999999999999
 41
67.64020000000001
 71
     2
 72
     5
  1
{\fArial|b0|i0|c0|p34;\C1;G & L Motion Control Inc.}
  7
STANDARD
 73
     1
 44
1.0
  0
MTEXT
  5
C6C
330
BA9
100
AcDbEntity
  8
BORDER
  6
Continuous
100
AcDbMText
 10
800.2048658720429
 20
51.51792686755995
 30
0.0
 40
1.999996
 41
72.6948
 71
     5
 72
     1
  1
{\Fromans.shx;\C9;672 South Military Road\PFond du Lac, Wisconsin 54936 U.S.A.}
  7
STANDARD
 73
     1
 44
1.0
  0
ENDBLK
  5
C6E
330
BA9
100
AcDbEntity
  8
0
370
     0
100
AcDbBlockEnd
  0
ENDSEC
  0
SECTION
  2
ENTITIES
  0
INSERT
  5
58
330
A
100
AcDbEntity
  8
1
  6
AUSGEZOGEN
 62
    14
100
AcDbBlockReference
  2
ZEICHNUNGS-LOGO_3
 10
362.1328310666991
 20
-147.9581804337902
 30
0.0
  0
INSERT
  5
59
330
A
100
AcDbEntity
  8
1
  6
AUSGEZOGEN
 62
    14
100
AcDbBlockReference
  2
BAUMüLLER - LOGO - SCHR_4
 10
341.0847662395325
 20
-162.8766521616704
 30
0.0
  0
INSERT
  5
5C
330
A
100
AcDbEntity
  8
0
  6
AUSGEZOGEN
 62
     9
100
AcDbBlockReference
  2
M25-KOPF_7
 10
80.51314413658673
 20
294.8486360835547
 30
0.0
 50
90.0
  0
INSERT
  5
5D
330
A
100
AcDbEntity
  8
0
  6
AUSGEZOGEN
 62
     9
100
AcDbBlockReference
  2
M25-KOPF_8
 10
100.5131441365867
 20
294.8486360835547
 30
0.0
 50
90.0
  0
INSERT
  5
5E
330
A
100
AcDbEntity
  8
0
  6
AUSGEZOGEN
 62
     9
100
AcDbBlockReference
  2
M25-KOPF_9
 10
107.9131441365867
 20
294.8486360835547
 30
0.0
 50
90.0
  0
INSERT
  5
5F
330
A
100
AcDbEntity
  8
0
  6
AUSGEZOGEN
 62
     9
100
AcDbBlockReference
  2
M25-KOPF_10
 10
127.9131441365867
 20
294.8486360835547
 30
0.0
 50
90.0
  0
INSERT
  5
60
330
A
100
AcDbEntity
  8
0
  6
AUSGEZOGEN
 62
     9
100
AcDbBlockReference
  2
M25-KOPF_11
 10
441.3471163342651
 20
294.8486360835547
 30
0.0
 50
90.0
  0
INSERT
  5
61
330
A
100
AcDbEntity
  8
0
  6
AUSGEZOGEN
 62
     9
100
AcDbBlockReference
  2
M25-KOPF_12
 10
461.3471163342651
 20
294.8486360835547
 30
0.0
 50
90.0
  0
INSERT
  5
62
330
A
100
AcDbEntity
  8
0
  6
AUSGEZOGEN
 62
     9
100
AcDbBlockReference
  2
M25-KOPF_13
 10
468.747116334265
 20
294.8486360835547
 30
0.0
 50
90.0
  0
INSERT
  5
63
330
A
100
AcDbEntity
  8
0
  6
AUSGEZOGEN
 62
     9
100
AcDbBlockReference
  2
M25-KOPF_14
 10
488.7471163342651
 20
294.8486360835547
 30
0.0
 50
90.0
  0
INSERT
  5
64
330
A
100
AcDbEntity
  8
0
  6
AUSGEZOGEN
 62
     9
100
AcDbBlockReference
  2
M25-KOPF_15
 10
362.3179636910338
 20
293.9486360835549
 30
0.0
 50
90.00000000000003
  0
INSERT
  5
65
330
A
100
AcDbEntity
  8
0
  6
AUSGEZOGEN
 62
     9
100
AcDbBlockReference
  2
M25-KOPF_16
 10
342.3179636910337
 20
293.9486360835549
 30
0.0
 50
90.00000000000003
  0
INSERT
  5
66
330
A
100
AcDbEntity
  8
0
  6
AUSGEZOGEN
 62
     9
100
AcDbBlockReference
  2
M3D_17
 10
75.04498941264171
 20
228.1804813596096
 30
0.0
  0
INSERT
  5
67
330
A
100
AcDbEntity
  8
0
  6
AUSGEZOGEN
 62
     9
100
AcDbBlockReference
  2
M3D_18
 10
75.04498941264171
 20
286.5167908074998
 30
0.0
  0
INSERT
  5
68
330
A
100
AcDbEntity
  8
0
  6
AUSGEZOGEN
 62
     9
100
AcDbBlockReference
  2
M3D_19
 10
133.3812988605318
 20
286.5167908074998
 30
0.0
  0
INSERT
  5
69
330
A
100
AcDbEntity
  8
0
  6
AUSGEZOGEN
 62
     9
100
AcDbBlockReference
  2
M3D_20
 10
133.3812988605318
 20
228.1804813596097
 30
0.0
  0
TEXT
  5
6B
330
A
100
AcDbEntity
  8
1
  6
AUSGEZOGEN
 62
    14
100
AcDbText
 10
235.935870682265
 20
347.558150700584
 30
0.0
 40
5.0
  1
Spec.: Key / Housing IP65 / Shaft IP44
 41
0.6800000190734864
100
AcDbText
  0
TEXT
  5
6C
330
A
100
AcDbEntity
  8
1
  6
AUSGEZOGEN
 62
    14
100
AcDbText
 10
268.4178195493784
 20
104.3227182272567
 30
0.0
 40
4.0
  1
K1 = with Encoder M21
 41
0.7333333492279053
100
AcDbText
  0
TEXT
  5
6D
330
A
100
AcDbEntity
  8
1
  6
AUSGEZOGEN
 62
    14
100
AcDbText
 10
268.4178195493784
 20
95.29871809278871
 30
0.0
 40
4.0
  1
K  = with Encoder M21 and Brake
 41
0.7333333492279053
100
AcDbText
  0
LINE
  5
6E
330
A
100
AcDbEntity
  8
1
  6
AUSGEZOGEN
 62
    14
100
AcDbLine
 10
354.2867075613021
 20
138.5574322555165
 30
0.0
 11
265.2250171222731
 21
138.5574322555165
 31
0.0
  0
LINE
  5
6F
330
A
100
AcDbEntity
  8
1
  6
AUSGEZOGEN
 62
    14
100
AcDbLine
 10
354.2867075613021
 20
149.8374322555165
 30
0.0
 11
265.2250171222731
 21
149.8374322555165
 31
0.0
  0
LINE
  5
70
330
A
100
AcDbEntity
  8
1
  6
AUSGEZOGEN
 62
    14
100
AcDbLine
 10
354.2867075613021
 20
161.1174322555165
 30
0.0
 11
265.2250171222731
 21
161.1174322555165
 31
0.0
  0
LINE
  5
71
330
A
100
AcDbEntity
  8
1
  6
AUSGEZOGEN
 62
    14
100
AcDbLine
 10
265.2250171222731
 20
161.1174322555165
 30
0.0
 11
265.2250171222731
 21
115.9974322555165
 31
0.0
  0
LINE
  5
72
330
A
100
AcDbEntity
  8
1
  6
AUSGEZOGEN
 62
    14
100
AcDbLine
 10
354.2867075613021
 20
127.2774322555165
 30
0.0
 11
265.2250171222731
 21
127.2774322555165
 31
0.0
  0
LINE
  5
73
330
A
100
AcDbEntity
  8
1
  6
AUSGEZOGEN
 62
    14
100
AcDbLine
 10
329.1423609753522
 20
115.9974322555165
 30
0.0
 11
329.1423609753522
 21
161.1174322555165
 31
0.0
  0
LINE
  5
74
330
A
100
AcDbEntity
  8
1
  6
AUSGEZOGEN
 62
    14
100
AcDbLine
 10
354.2867075613021
 20
115.9974322555165
 30
0.0
 11
265.2250171222731
 21
115.9974322555165
 31
0.0
  0
TEXT
  5
75
330
A
100
AcDbEntity
  8
1
  6
AUSGEZOGEN
 62
    14
100
AcDbText
 10
292.1473819848562
 20
152.5583000075641
 30
0.0
 40
4.0
  1
Typ           K1  K
 41
0.7333333492279053
100
AcDbText
  0
TEXT
  5
76
330
A
100
AcDbEntity
  8
1
  6
AUSGEZOGEN
 62
    14
100
AcDbText
 10
268.1473819848562
 20
129.9983000075641
 30
0.0
 40
4.0
  1
LSM75-21-602-E2-0/2KA  148 197
 41
0.7333333492279053
100
AcDbText
  0
TEXT
  5
77
330
A
100
AcDbEntity
  8
1
  6
AUSGEZOGEN
 62
    14
100
AcDbText
 10
268.1473819848562
 20
118.7183000075642
 30
0.0
 40
4.0
  1
LSM75-29-602-E2-0/2KA 178 227
 41
0.7333333492279053
100
AcDbText
  0
TEXT
  5
78
330
A
100
AcDbEntity
  8
1
  6
AUSGEZOGEN
 62
    14
100
AcDbText
 10
268.1473819848562
 20
141.2783000075642
 30
0.0
 40
4.0
  1
LSM75-10-602-E2-0/2KA  118  160
 41
0.7333333492279053
100
AcDbText
  0
LINE
  5
79
330
A
100
AcDbEntity
  8
1
  6
AUSGEZOGEN
 62
    14
100
AcDbLine
 10
341.6545342683271
 20
115.9974322555165
 30
0.0
 11
341.6545342683272
 21
161.1174322555165
 31
0.0
  0
LINE
  5
7A
330
A
100
AcDbEntity
  8
1
  6
AUSGEZOGEN
 62
    14
100
AcDbLine
 10
354.2867075613021
 20
115.9974322555165
 30
0.0
 11
354.2867075613021
 21
161.1174322555165
 31
0.0
  0
LINE
  5
7B
330
A
100
AcDbEntity
  8
5
  6
STRICHPUNKT
 62
    54
100
AcDbLine
 10
104.2131441365867
 20
218.7211511263213
 30
0.0
 11
104.2131441365867
 21
307.571134040533
 31
0.0
  0
ARC
  5
7C
330
A
100
AcDbEntity
  8
1
  6
AUSGEZOGEN
 62
    14
100
AcDbCircle
 10
104.2131441365867
 20
257.3486360835547
 30
0.0
 40
47.0
100
AcDbArc
 50
41.86830622629279
 51
48.13169377370721
  0
ARC
  5
7D
330
A
100
AcDbEntity
  8
1
  6
AUSGEZOGEN
 62
    14
100
AcDbCircle
 10
104.2131441365867
 20
257.3486360835547
 30
0.0
 40
47.0
100
AcDbArc
 50
311.8683062262928
 51
318.1316937737071
  0
ARC
  5
7E
330
A
100
AcDbEntity
  8
1
  6
AUSGEZOGEN
 62
    14
100
AcDbCircle
 10
104.2131441365867
 20
257.3486360835547
 30
0.0
 40
47.0
100
AcDbArc
 50
221.8683062262928
 51
228.1316937737072
  0
ARC
  5
7F
330
A
100
AcDbEntity
  8
1
  6
AUSGEZOGEN
 62
    14
100
AcDbCircle
 10
104.2131441365867
 20
257.3486360835547
 30
0.0
 40
47.0
100
AcDbArc
 50
131.8683062262927
 51
138.1316937737072
  0
LINE
  5
80
330
A
100
AcDbEntity
  8
1
  6
AUSGEZOGEN
 62
    14
100
AcDbLine
 10
139.2131441365867
 20
225.9798618008385
 30
0.0
 11
139.2131441365867
 21
288.7174103662709
 31
0.0
  0
LINE
  5
81
330
A
100
AcDbEntity
  8
1
  6
AUSGEZOGEN
 62
    14
100
AcDbLine
 10
69.21314413658677
 20
225.9798618008385
 30
0.0
 11
69.21314413658677
 21
288.7174103662709
 31
0.0
  0
LINE
  5
82
330
A
100
AcDbEntity
  8
1
  6
AUSGEZOGEN
 62
    14
100
AcDbLine
 10
135.581918419303
 20
222.3486360835547
 30
0.0
 11
72.84436985387054
 21
222.3486360835547
 31
0.0
  0
LINE
  5
83
330
A
100
AcDbEntity
  8
1
  6
AUSGEZOGEN
 62
    14
100
AcDbLine
 10
135.581918419303
 20
292.3486360835547
 30
0.0
 11
72.84436985387054
 21
292.3486360835547
 31
0.0
  0
LINE
  5
84
330
A
100
AcDbEntity
  8
3
  6
STRICHPUNKT
 62
    54
100
AcDbLine
 10
90.51314413658673
 20
287.6692797403319
 30
0.0
 11
90.51314413658673
 21
329.0792295916383
 31
0.0
  0
LINE
  5
85
330
A
100
AcDbEntity
  8
3
  6
STRICHPUNKT
 62
    54
100
AcDbLine
 10
117.9131441365867
 20
287.9471988668507
 30
0.0
 11
117.9131441365867
 21
328.2454722120819
 31
0.0
  0
LINE
  5
86
330
A
100
AcDbEntity
  8
5
  6
AUSGEZOGEN
 62
    14
100
AcDbLine
 10
103.0131441365867
 20
294.8486360835547
 30
0.0
 11
103.0131441365867
 21
324.3486360835547
 31
0.0
  0
LINE
  5
87
330
A
100
AcDbEntity
  8
5
  6
AUSGEZOGEN
 62
    14
100
AcDbLine
 10
78.01314413658673
 20
294.8486360835547
 30
0.0
 11
78.01314413658673
 21
324.3486360835547
 31
0.0
  0
LINE
  5
88
330
A
100
AcDbEntity
  8
5
  6
AUSGEZOGEN
 62
    14
100
AcDbLine
 10
78.01314413658673
 20
324.3486360835547
 30
0.0
 11
103.0131441365867
 21
324.3486360835547
 31
0.0
  0
LINE
  5
89
330
A
100
AcDbEntity
  8
5
  6
AUSGEZOGEN
 62
    14
100
AcDbLine
 10
100.5131441365867
 20
316.4312117785106
 30
0.0
 11
100.5131441365867
 21
324.3486360835547
 31
0.0
  0
LINE
  5
8A
330
A
100
AcDbEntity
  8
5
  6
AUSGEZOGEN
 62
    14
100
AcDbLine
 10
100.5131441365867
 20
296.5986360834847
 30
0.0
 11
100.5131441365867
 21
307.2660603885987
 31
0.0
  0
LINE
  5
8B
330
A
100
AcDbEntity
  8
5
  6
AUSGEZOGEN
 62
    14
100
AcDbLine
 10
80.51314413658673
 20
316.4312117785104
 30
0.0
 11
80.51314413658673
 21
324.3486360835547
 31
0.0
  0
LINE
  5
8C
330
A
100
AcDbEntity
  8
5
  6
AUSGEZOGEN
 62
    14
100
AcDbLine
 10
80.51314413658673
 20
296.5986360834847
 30
0.0
 11
80.51314413658673
 21
307.266060388599
 31
0.0
  0
LINE
  5
8D
330
A
100
AcDbEntity
  8
3
  6
STRICHPUNKT
 62
    54
100
AcDbLine
 10
80.51314413658685
 20
296.5986360834847
 30
0.0
 11
80.51314413658685
 21
291.4381797935242
 31
0.0
  0
LINE
  5
8E
330
A
100
AcDbEntity
  8
3
  6
STRICHPUNKT
 62
    54
100
AcDbLine
 10
100.5131441365868
 20
296.5986360834847
 30
0.0
 11
100.5131441365868
 21
291.5353053418268
 31
0.0
  0
LINE
  5
8F
330
A
100
AcDbEntity
  8
5
  6
AUSGEZOGEN
 62
    14
100
AcDbLine
 10
130.4131441365867
 20
294.8486360835547
 30
0.0
 11
130.4131441365867
 21
324.3486360835547
 31
0.0
  0
LINE
  5
90
330
A
100
AcDbEntity
  8
5
  6
AUSGEZOGEN
 62
    14
100
AcDbLine
 10
105.4131441365867
 20
294.8486360835547
 30
0.0
 11
105.4131441365867
 21
324.3486360835547
 31
0.0
  0
LINE
  5
91
330
A
100
AcDbEntity
  8
5
  6
AUSGEZOGEN
 62
    14
100
AcDbLine
 10
105.4131441365867
 20
324.3486360835547
 30
0.0
 11
130.4131441365867
 21
324.3486360835547
 31
0.0
  0
LINE
  5
92
330
A
100
AcDbEntity
  8
5
  6
AUSGEZOGEN
 62
    14
100
AcDbLine
 10
127.9131441365867
 20
307.2660603885987
 30
0.0
 11
127.9131441365867
 21
296.5986360834847
 31
0.0
  0
LINE
  5
93
330
A
100
AcDbEntity
  8
5
  6
AUSGEZOGEN
 62
    14
100
AcDbLine
 10
127.9131441365867
 20
324.3486360835547
 30
0.0
 11
127.9131441365867
 21
316.4312117785106
 31
0.0
  0
LINE
  5
94
330
A
100
AcDbEntity
  8
5
  6
AUSGEZOGEN
 62
    14
100
AcDbLine
 10
107.9131441365867
 20
307.266060388599
 30
0.0
 11
107.9131441365867
 21
296.5986360834847
 31
0.0
  0
LINE
  5
95
330
A
100
AcDbEntity
  8
5
  6
AUSGEZOGEN
 62
    14
100
AcDbLine
 10
107.9131441365867
 20
324.3486360835547
 30
0.0
 11
107.9131441365867
 21
316.4312117785104
 31
0.0
  0
LINE
  5
96
330
A
100
AcDbEntity
  8
3
  6
STRICHPUNKT
 62
    54
100
AcDbLine
 10
107.9131441365868
 20
296.5986360834847
 30
0.0
 11
107.9131441365868
 21
291.4381797935242
 31
0.0
  0
LINE
  5
97
330
A
100
AcDbEntity
  8
3
  6
STRICHPUNKT
 62
    54
100
AcDbLine
 10
127.9131441365868
 20
296.5986360834847
 30
0.0
 11
127.9131441365868
 21
291.5353053418268
 31
0.0
  0
LINE
  5
98
330
A
100
AcDbEntity
  8
1
  6
AUSGEZOGEN
 62
    14
100
AcDbLine
 10
103.7131441365867
 20
292.3486360835547
 30
0.0
 11
103.7131441365867
 21
294.8486360835547
 31
0.0
  0
LINE
  5
99
330
A
100
AcDbEntity
  8
1
  6
AUSGEZOGEN
 62
    14
100
AcDbLine
 10
104.7131441365867
 20
292.3486360835547
 30
0.0
 11
104.7131441365867
 21
294.8486360835547
 31
0.0
  0
LINE
  5
9A
330
A
100
AcDbEntity
  8
1
  6
AUSGEZOGEN
 62
    14
100
AcDbLine
 10
77.31314413658679
 20
292.3486360835547
 30
0.0
 11
77.31314413658679
 21
294.8486360835547
 31
0.0
  0
LINE
  5
9B
330
A
100
AcDbEntity
  8
1
  6
AUSGEZOGEN
 62
    14
100
AcDbLine
 10
77.31314413658679
 20
294.8486360835547
 30
0.0
 11
103.7131441365867
 21
294.8486360835547
 31
0.0
  0
LINE
  5
9C
330
A
100
AcDbEntity
  8
1
  6
AUSGEZOGEN
 62
    14
100
AcDbLine
 10
131.1131441365867
 20
292.3486360835547
 30
0.0
 11
131.1131441365867
 21
294.8486360835547
 31
0.0
  0
LINE
  5
9D
330
A
100
AcDbEntity
  8
1
  6
AUSGEZOGEN
 62
    14
100
AcDbLine
 10
104.7131441365867
 20
294.8486360835547
 30
0.0
 11
131.1131441365867
 21
294.8486360835547
 31
0.0
  0
TEXT
  5
9F
330
A
100
AcDbEntity
  8
1
  6
AUSGEZOGEN
 62
    14
100
AcDbText
 10
28.8771319103115
 20
346.576644043268
 30
0.0
 40
5.0
  1
Connector Motor / Brake
 41
0.6800000190734864
100
AcDbText
  0
CIRCLE
  5
A0
330
A
100
AcDbEntity
  8
0
  6
ByBlock
 62
     0
100
AcDbCircle
 10
95.37704692748855
 20
319.7474309870078
 30
0.0
 40
0.5
  0
POLYLINE
  5
A1
330
A
100
AcDbEntity
  8
2
  6
AUSGEZOGEN
 62
     9
100
AcDb2dPolyline
 66
     1
 10
0.0
 20
0.0
 30
0.0
  0
VERTEX
  5
A2
330
A1
100
AcDbEntity
  8
2
  6
AUSGEZOGEN
 62
     9
100
AcDbVertex
100
AcDb2dVertex
 10
95.37704692748855
 20
319.7474309870078
 30
0.0
  0
VERTEX
  5
A3
330
A1
100
AcDbEntity
  8
2
  6
AUSGEZOGEN
 62
     9
100
AcDbVertex
100
AcDb2dVertex
 10
108.016946426232
 20
341.7212190907723
 30
0.0
  0
VERTEX
  5
A4
330
A1
100
AcDbEntity
  8
2
  6
AUSGEZOGEN
 62
     9
100
AcDbVertex
100
AcDb2dVertex
 10
25.87796447826207
 20
341.7212190907723
 30
0.0
  0
SEQEND
  5
A5
330
A1
100
AcDbEntity
  8
2
  6
AUSGEZOGEN
 62
     9
  0
TEXT
  5
A7
330
A
100
AcDbEntity
  8
1
  6
AUSGEZOGEN
 62
    14
100
AcDbText
 10
126.190836461346
 20
358.9310333253165
 30
0.0
 40
5.0
  1
Connector Encoder
 41
0.6800000190734864
100
AcDbText
  0
LINE
  5
A8
330
A
100
AcDbEntity
  8
5
  6
STRICHPUNKT
 62
    54
100
AcDbLine
 10
487.2347564964652
 20
257.3486360835547
 30
0.0
 11
514.4180843100758
 21
257.3486360835547
 31
0.0
  0
LINE
  5
A9
330
A
100
AcDbEntity
  8
5
  6
STRICHPUNKT
 62
    54
100
AcDbLine
 10
482.5471163342651
 20
257.3486360835547
 30
0.0
 11
484.0281454564623
 21
257.3486360835547
 31
0.0
  0
LINE
  5
AA
330
A
100
AcDbEntity
  8
5
  6
STRICHPUNKT
 62
    54
100
AcDbLine
 10
465.0471163342651
 20
257.3486360835547
 30
0.0
 11
482.5471163342651
 21
257.3486360835547
 31
0.0
  0
LINE
  5
AB
330
A
100
AcDbEntity
  8
5
  6
STRICHPUNKT
 62
    54
100
AcDbLine
 10
414.8254374046953
 20
257.3486360835547
 30
0.0
 11
465.0471163342651
 21
257.3486360835547
 31
0.0
  0
LINE
  5
AC
330
A
100
AcDbEntity
  8
5
  6
STRICHPUNKT
 62
    54
100
AcDbLine
 10
465.0471163342651
 20
278.8078990159655
 30
0.0
 11
465.0471163342651
 21
307.571134040533
 31
0.0
  0
LINE
  5
AD
330
A
100
AcDbEntity
  8
5
  6
STRICHPUNKT
 62
    54
100
AcDbLine
 10
465.0471163342651
 20
274.8486360835547
 30
0.0
 11
465.0471163342651
 21
276.3167054619433
 31
0.0
  0
LINE
  5
AE
330
A
100
AcDbEntity
  8
5
  6
STRICHPUNKT
 62
    54
100
AcDbLine
 10
465.0471163342651
 20
206.2641415754708
 30
0.0
 11
465.0471163342651
 21
274.8486360835547
 31
0.0
  0
LINE
  5
AF
330
A
100
AcDbEntity
  8
5
  6
STRICHPUNKT
 62
    54
100
AcDbLine
 10
442.682633577658
 20
279.7131188401618
 30
0.0
 11
434.6443229873694
 21
287.7514294304505
 31
0.0
  0
LINE
  5
B0
330
A
100
AcDbEntity
  8
5
  6
STRICHPUNKT
 62
    54
100
AcDbLine
 10
442.8113868371169
 20
235.1129065864066
 30
0.0
 11
434.1203292468775
 21
226.4218489961671
 31
0.0
  0
LINE
  5
B1
330
A
100
AcDbEntity
  8
5
  6
STRICHPUNKT
 62
    54
100
AcDbLine
 10
487.2408353278895
 20
279.542355077179
 30
0.0
 11
495.4354093251245
 21
287.736929074414
 31
0.0
  0
LINE
  5
B2
330
A
100
AcDbEntity
  8
5
  6
STRICHPUNKT
 62
    54
100
AcDbLine
 10
488.3111374037765
 20
234.0846150140433
 30
0.0
 11
495.6758372726551
 21
226.7199151451646
 31
0.0
  0
ARC
  5
B3
330
A
100
AcDbEntity
  8
1
  6
AUSGEZOGEN
 62
    14
100
AcDbCircle
 10
465.0471163342651
 20
257.3486360835547
 30
0.0
 40
47.0
100
AcDbArc
 50
41.86830622629279
 51
48.13169377370721
  0
ARC
  5
B4
330
A
100
AcDbEntity
  8
1
  6
AUSGEZOGEN
 62
    14
100
AcDbCircle
 10
465.0471163342651
 20
257.3486360835547
 30
0.0
 40
47.0
100
AcDbArc
 50
311.8683062262928
 51
318.1316937737071
  0
ARC
  5
B5
330
A
100
AcDbEntity
  8
1
  6
AUSGEZOGEN
 62
    14
100
AcDbCircle
 10
465.0471163342651
 20
257.3486360835547
 30
0.0
 40
47.0
100
AcDbArc
 50
221.8683062262928
 51
228.1316937737072
  0
ARC
  5
B6
330
A
100
AcDbEntity
  8
1
  6
AUSGEZOGEN
 62
    14
100
AcDbCircle
 10
465.0471163342651
 20
257.3486360835547
 30
0.0
 40
47.0
100
AcDbArc
 50
131.8683062262927
 51
138.1316937737072
  0
CIRCLE
  5
B7
330
A
100
AcDbEntity
  8
1
  6
AUSGEZOGEN
 62
    14
100
AcDbCircle
 10
465.0471163342651
 20
257.3486360835547
 30
0.0
 40
30.0
  0
CIRCLE
  5
B8
330
A
100
AcDbEntity
  8
3
  6
STRICHPUNKT
 62
    54
100
AcDbCircle
 10
465.0471163342651
 20
257.3486360835547
 30
0.0
 40
37.5
  0
CIRCLE
  5
B9
330
A
100
AcDbEntity
  8
1
  6
AUSGEZOGEN
 62
    14
100
AcDbCircle
 10
465.0471163342651
 20
257.3486360835547
 30
0.0
 40
5.0
  0
CIRCLE
  5
BA
330
A
100
AcDbEntity
  8
1
  6
AUSGEZOGEN
 62
    14
100
AcDbCircle
 10
465.0471163342651
 20
257.3486360835547
 30
0.0
 40
5.5
  0
CIRCLE
  5
BB
330
A
100
AcDbEntity
  8
1
  6
AUSGEZOGEN
 62
    14
100
AcDbCircle
 10
465.0471163342651
 20
257.3486360835547
 30
0.0
 40
17.5
  0
CIRCLE
  5
BC
330
A
100
AcDbEntity
  8
1
  6
AUSGEZOGEN
 62
    14
100
AcDbCircle
 10
438.5306120397696
 20
283.8651403780502
 30
0.0
 40
2.75
  0
CIRCLE
  5
BD
330
A
100
AcDbEntity
  8
1
  6
AUSGEZOGEN
 62
    14
100
AcDbCircle
 10
491.5636206287606
 20
283.8651403780502
 30
0.0
 40
2.75
  0
CIRCLE
  5
BE
330
A
100
AcDbEntity
  8
1
  6
AUSGEZOGEN
 62
    14
100
AcDbCircle
 10
491.5636206287606
 20
230.8321317890592
 30
0.0
 40
2.75
  0
CIRCLE
  5
BF
330
A
100
AcDbEntity
  8
1
  6
AUSGEZOGEN
 62
    14
100
AcDbCircle
 10
438.5306120397696
 20
230.8321317890592
 30
0.0
 40
2.75
  0
LINE
  5
C0
330
A
100
AcDbEntity
  8
1
  6
AUSGEZOGEN
 62
    14
100
AcDbLine
 10
500.0471163342651
 20
225.9798618008385
 30
0.0
 11
500.0471163342651
 21
288.7174103662709
 31
0.0
  0
LINE
  5
C1
330
A
100
AcDbEntity
  8
1
  6
AUSGEZOGEN
 62
    14
100
AcDbLine
 10
430.0471163342652
 20
225.9798618008385
 30
0.0
 11
430.0471163342652
 21
288.7174103662709
 31
0.0
  0
LINE
  5
C2
330
A
100
AcDbEntity
  8
1
  6
AUSGEZOGEN
 62
    14
100
AcDbLine
 10
465.0471163342651
 20
222.3486360835547
 30
0.0
 11
496.4158906169814
 21
222.3486360835547
 31
0.0
  0
LINE
  5
C3
330
A
100
AcDbEntity
  8
1
  6
AUSGEZOGEN
 62
    14
100
AcDbLine
 10
433.6783420515489
 20
222.3486360835547
 30
0.0
 11
465.0471163342651
 21
222.3486360835547
 31
0.0
  0
LINE
  5
C4
330
A
100
AcDbEntity
  8
1
  6
AUSGEZOGEN
 62
    14
100
AcDbLine
 10
496.4158906169814
 20
292.3486360835547
 30
0.0
 11
433.6783420515489
 21
292.3486360835547
 31
0.0
  0
DIMENSION
  5
C5
330
A
100
AcDbEntity
  8
5
  6
AUSGEZOGEN
 62
    54
100
AcDbDimension
  2
*D21
 10
524.2602056623894
 20
292.3486360835547
 30
0.0
 11
521.5483627622663
 21
255.173255947588
 31
0.0
 70
   160
  1
70
 71
     5
 42
70.0
 53
90.0
  3
DIMS0
100
AcDbAlignedDimension
 13
496.4158906169814
 23
222.3486360835547
 33
0.0
 14
496.4158906169814
 24
292.3486360835547
 34
0.0
 50
90.0
100
AcDbRotatedDimension
1001
ACAD
1000
DSTYLE
1002
{
1070
   271
1070
     2
1070
   279
1070
     2
1002
}
  0
ARC
  5
C6
330
A
100
AcDbEntity
  8
3
  6
STRICHPUNKT
 62
    54
100
AcDbCircle
 10
465.0471163342651
 20
257.3486360835547
 30
0.0
 40
47.0
100
AcDbArc
 50
138.1316937737072
 51
221.8683062262928
  0
ARC
  5
C7
330
A
100
AcDbEntity
  8
3
  6
STRICHPUNKT
 62
    54
100
AcDbCircle
 10
465.047116334265
 20
257.3486360835547
 30
0.0
 40
47.0
100
AcDbArc
 50
228.1316937737072
 51
311.8683062262928
  0
ARC
  5
C8
330
A
100
AcDbEntity
  8
3
  6
STRICHPUNKT
 62
    54
100
AcDbCircle
 10
465.0471163342651
 20
257.3486360835547
 30
0.0
 40
47.0
100
AcDbArc
 50
318.1316937737071
 51
41.86830622629279
  0
ARC
  5
C9
330
A
100
AcDbEntity
  8
3
  6
STRICHPUNKT
 62
    54
100
AcDbCircle
 10
465.0471163342651
 20
257.3486360835547
 30
0.0
 40
47.0
100
AcDbArc
 50
48.13169377370719
 51
131.8683062262927
  0
DIMENSION
  5
CA
330
A
100
AcDbEntity
  8
5
  6
AUSGEZOGEN
 62
    54
100
AcDbDimension
  2
*D22
 10
500.0471163342651
 20
195.5848351875187
 30
0.0
 11
463.9783347605741
 21
198.2791146593678
 31
0.0
 70
   160
  1
70
 71
     5
 42
70.0
 53
-0.000000000000014
  3
DIMS0
100
AcDbAlignedDimension
 13
430.0471163342652
 23
225.9798618008385
 33
0.0
 14
500.0471163342651
 24
225.9798618008385
 34
0.0
100
AcDbRotatedDimension
1001
ACAD
1000
DSTYLE
1002
{
1070
   271
1070
     2
1070
   279
1070
     2
1002
}
  0
DIMENSION
  5
CB
330
A
100
AcDbEntity
  8
5
  6
AUSGEZOGEN
 62
    54
100
AcDbDimension
  2
*D23
 10
502.5471163342651
 20
184.5063660693959
 30
0.0
 11
464.6005901566089
 21
187.7084858203401
 31
0.0
 70
   160
  1
%%c75
 71
     5
 42
75.0
 53
-0.000000000000014
  3
DIMS0
100
AcDbAlignedDimension
 13
427.5471163342651
 23
257.3486360835548
 33
0.0
 14
502.5471163342651
 24
257.3486360835548
 34
0.0
100
AcDbRotatedDimension
1001
ACAD
1000
DSTYLE
1002
{
1070
   271
1070
     2
1070
   279
1070
     2
1002
}
  0
DIMENSION
  5
CC
330
A
100
AcDbEntity
  8
5
  6
AUSGEZOGEN
 62
    54
100
AcDbDimension
  2
*D24
 10
512.0471163342651
 20
173.784596302632
 30
0.0
 11
464.9117170213147
 21
176.8269557205977
 31
0.0
 70
   160
  1
%%c94
 71
     5
 42
94.0
 53
-0.000000000000014
  3
DIMS0
100
AcDbAlignedDimension
 13
418.0471163342652
 23
257.3486360835548
 33
0.0
 14
512.0471163342651
 24
257.3486360835548
 34
0.0
100
AcDbRotatedDimension
1001
ACAD
1000
DSTYLE
1002
{
1070
   271
1070
     2
1070
   279
1070
     2
1002
}
  0
DIMENSION
  5
CD
330
A
100
AcDbEntity
  8
5
  6
AUSGEZOGEN
 62
    54
100
AcDbDimension
  2
*D25
 10
441.2806120397696
 20
205.9948196639661
 30
0.0
 11
454.333386955086
 21
206.0516361591838
 31
0.0
 70
   160
  1
%%c5.5
 71
     5
 42
5.5
 53
-0.000000000000014
  3
DIMS0
100
AcDbAlignedDimension
 13
435.7806120397696
 23
230.8321317890593
 33
0.0
 14
441.2806120397696
 24
230.8321317890593
 34
0.0
100
AcDbRotatedDimension
1001
ACAD
1000
DSTYLE
1002
{
1070
   271
1070
     2
1070
   279
1070
     2
1002
}
  0
LINE
  5
CE
330
A
100
AcDbEntity
  8
3
  6
STRICHPUNKT
 62
    54
100
AcDbLine
 10
451.3471163342651
 20
287.6692797403319
 30
0.0
 11
451.3471163342651
 21
329.0792295916383
 31
0.0
  0
LINE
  5
CF
330
A
100
AcDbEntity
  8
3
  6
STRICHPUNKT
 62
    54
100
AcDbLine
 10
478.7471163342651
 20
287.9471988668507
 30
0.0
 11
478.7471163342651
 21
328.2454722120819
 31
0.0
  0
LINE
  5
D0
330
A
100
AcDbEntity
  8
5
  6
AUSGEZOGEN
 62
    14
100
AcDbLine
 10
463.8471163342651
 20
294.8486360835547
 30
0.0
 11
463.8471163342651
 21
324.3486360835547
 31
0.0
  0
LINE
  5
D1
330
A
100
AcDbEntity
  8
5
  6
AUSGEZOGEN
 62
    14
100
AcDbLine
 10
438.8471163342651
 20
294.8486360835547
 30
0.0
 11
438.8471163342651
 21
324.3486360835547
 31
0.0
  0
LINE
  5
D2
330
A
100
AcDbEntity
  8
5
  6
AUSGEZOGEN
 62
    14
100
AcDbLine
 10
438.8471163342651
 20
324.3486360835547
 30
0.0
 11
463.8471163342651
 21
324.3486360835547
 31
0.0
  0
LINE
  5
D3
330
A
100
AcDbEntity
  8
5
  6
AUSGEZOGEN
 62
    14
100
AcDbLine
 10
461.3471163342651
 20
296.5986360834847
 30
0.0
 11
461.3471163342651
 21
324.3486360835547
 31
0.0
  0
LINE
  5
D4
330
A
100
AcDbEntity
  8
5
  6
AUSGEZOGEN
 62
    14
100
AcDbLine
 10
441.3471163342651
 20
296.5986360834847
 30
0.0
 11
441.3471163342651
 21
324.3486360835547
 31
0.0
  0
LINE
  5
D5
330
A
100
AcDbEntity
  8
3
  6
STRICHPUNKT
 62
    54
100
AcDbLine
 10
441.3471163342652
 20
296.5986360834847
 30
0.0
 11
441.3471163342652
 21
291.4381797935242
 31
0.0
  0
LINE
  5
D6
330
A
100
AcDbEntity
  8
3
  6
STRICHPUNKT
 62
    54
100
AcDbLine
 10
461.3471163342652
 20
296.5986360834847
 30
0.0
 11
461.3471163342652
 21
291.5353053418268
 31
0.0
  0
LINE
  5
D7
330
A
100
AcDbEntity
  8
5
  6
AUSGEZOGEN
 62
    14
100
AcDbLine
 10
491.2471163342651
 20
294.8486360835547
 30
0.0
 11
491.2471163342651
 21
324.3486360835547
 31
0.0
  0
LINE
  5
D8
330
A
100
AcDbEntity
  8
5
  6
AUSGEZOGEN
 62
    14
100
AcDbLine
 10
466.2471163342651
 20
294.8486360835547
 30
0.0
 11
466.2471163342651
 21
324.3486360835547
 31
0.0
  0
LINE
  5
D9
330
A
100
AcDbEntity
  8
5
  6
AUSGEZOGEN
 62
    14
100
AcDbLine
 10
466.2471163342651
 20
324.3486360835547
 30
0.0
 11
491.2471163342651
 21
324.3486360835547
 31
0.0
  0
LINE
  5
DA
330
A
100
AcDbEntity
  8
5
  6
AUSGEZOGEN
 62
    14
100
AcDbLine
 10
488.7471163342651
 20
312.3486360835547
 30
0.0
 11
488.7471163342651
 21
324.3486360835547
 31
0.0
  0
LINE
  5
DB
330
A
100
AcDbEntity
  8
5
  6
AUSGEZOGEN
 62
    14
100
AcDbLine
 10
488.7471163342651
 20
296.5986360834847
 30
0.0
 11
488.7471163342651
 21
312.3486360835547
 31
0.0
  0
LINE
  5
DC
330
A
100
AcDbEntity
  8
5
  6
AUSGEZOGEN
 62
    14
100
AcDbLine
 10
468.747116334265
 20
324.3486360835547
 30
0.0
 11
468.747116334265
 21
296.5986360834847
 31
0.0
  0
LINE
  5
DD
330
A
100
AcDbEntity
  8
3
  6
STRICHPUNKT
 62
    54
100
AcDbLine
 10
468.7471163342652
 20
296.5986360834847
 30
0.0
 11
468.7471163342652
 21
291.4381797935242
 31
0.0
  0
LINE
  5
DE
330
A
100
AcDbEntity
  8
3
  6
STRICHPUNKT
 62
    54
100
AcDbLine
 10
488.7471163342651
 20
296.5986360834847
 30
0.0
 11
488.7471163342651
 21
291.5353053418268
 31
0.0
  0
LINE
  5
DF
330
A
100
AcDbEntity
  8
1
  6
AUSGEZOGEN
 62
    14
100
AcDbLine
 10
464.5471163342651
 20
292.3486360835547
 30
0.0
 11
464.5471163342651
 21
294.8486360835547
 31
0.0
  0
LINE
  5
E0
330
A
100
AcDbEntity
  8
1
  6
AUSGEZOGEN
 62
    14
100
AcDbLine
 10
465.5471163342651
 20
292.3486360835547
 30
0.0
 11
465.5471163342651
 21
294.8486360835547
 31
0.0
  0
LINE
  5
E1
330
A
100
AcDbEntity
  8
1
  6
AUSGEZOGEN
 62
    14
100
AcDbLine
 10
438.1471163342651
 20
292.3486360835547
 30
0.0
 11
438.1471163342651
 21
294.8486360835547
 31
0.0
  0
LINE
  5
E2
330
A
100
AcDbEntity
  8
1
  6
AUSGEZOGEN
 62
    14
100
AcDbLine
 10
438.1471163342651
 20
294.8486360835547
 30
0.0
 11
464.5471163342651
 21
294.8486360835547
 31
0.0
  0
LINE
  5
E3
330
A
100
AcDbEntity
  8
1
  6
AUSGEZOGEN
 62
    14
100
AcDbLine
 10
491.9471163342651
 20
292.3486360835547
 30
0.0
 11
491.9471163342651
 21
294.8486360835547
 31
0.0
  0
LINE
  5
E4
330
A
100
AcDbEntity
  8
1
  6
AUSGEZOGEN
 62
    14
100
AcDbLine
 10
465.5471163342651
 20
294.8486360835547
 30
0.0
 11
491.9471163342651
 21
294.8486360835547
 31
0.0
  0
DIMENSION
  5
E5
330
A
100
AcDbEntity
  8
5
  6
AUSGEZOGEN
 62
    54
100
AcDbDimension
  2
*D26
 10
408.0909978823235
 20
324.3486360835547
 30
0.0
 11
404.5530119374931
 21
291.1632548522062
 31
0.0
 70
   160
  1
67
 71
     5
 42
67.0
 53
90.0
  3
DIMS0
100
AcDbAlignedDimension
 13
414.8254374046953
 23
257.3486360835547
 33
0.0
 14
438.8471163342651
 24
324.3486360835547
 34
0.0
 50
90.0
100
AcDbRotatedDimension
1001
ACAD
1000
DSTYLE
1002
{
1070
   271
1070
     2
1070
   279
1070
     2
1002
}
  0
LINE
  5
E6
330
A
100
AcDbEntity
  8
3
  6
STRICHPUNKT
 62
    54
100
AcDbLine
 10
308.6679636910337
 20
257.3486360835547
 30
0.0
 11
369.2683199786755
 21
257.3486360835547
 31
0.0
  0
LINE
  5
E7
330
A
100
AcDbEntity
  8
3
  6
STRICHPUNKT
 62
    54
100
AcDbLine
 10
214.6708768288627
 20
257.3486360835547
 30
0.0
 11
260.6679636910337
 21
257.3486360835547
 31
0.0
  0
LINE
  5
E8
330
A
100
AcDbEntity
  8
1
  6
AUSGEZOGEN
 62
    14
100
AcDbLine
 10
245.6679636910337
 20
292.3486360835548
 30
0.0
 11
361.8179636910338
 21
292.3486360835548
 31
0.0
  0
LINE
  5
E9
330
A
100
AcDbEntity
  8
1
  6
AUSGEZOGEN
 62
    14
100
AcDbLine
 10
245.6679636910337
 20
222.3486360835547
 30
0.0
 11
361.8179636910338
 21
222.3486360835547
 31
0.0
  0
LINE
  5
EA
330
A
100
AcDbEntity
  8
1
  6
AUSGEZOGEN
 62
    14
100
AcDbLine
 10
245.6679636910337
 20
257.3486360835547
 30
0.0
 11
245.6679636910337
 21
222.3486360835547
 31
0.0
  0
LINE
  5
EB
330
A
100
AcDbEntity
  8
1
  6
AUSGEZOGEN
 62
    14
100
AcDbLine
 10
245.6679636910337
 20
292.3486360835548
 30
0.0
 11
245.6679636910337
 21
257.3486360835547
 31
0.0
  0
LINE
  5
EC
330
A
100
AcDbEntity
  8
1
  6
AUSGEZOGEN
 62
    14
100
AcDbLine
 10
243.1679636910337
 20
287.3486360835546
 30
0.0
 11
243.1679636910337
 21
257.3486360835547
 31
0.0
  0
LINE
  5
ED
330
A
100
AcDbEntity
  8
1
  6
AUSGEZOGEN
 62
    14
100
AcDbLine
 10
243.1679636910337
 20
227.3486360835547
 30
0.0
 11
243.1679636910337
 21
257.3486360835547
 31
0.0
  0
LINE
  5
EE
330
A
100
AcDbEntity
  8
1
  6
AUSGEZOGEN
 62
    14
100
AcDbLine
 10
259.6679636910337
 20
292.3486360835548
 30
0.0
 11
259.6679636910337
 21
257.3486360835547
 31
0.0
  0
LINE
  5
EF
330
A
100
AcDbEntity
  8
1
  6
AUSGEZOGEN
 62
    14
100
AcDbLine
 10
259.6679636910337
 20
222.3486360835547
 30
0.0
 11
259.6679636910337
 21
257.3486360835547
 31
0.0
  0
LINE
  5
F0
330
A
100
AcDbEntity
  8
1
  6
AUSGEZOGEN
 62
    14
100
AcDbLine
 10
309.6679636910338
 20
292.3486360835548
 30
0.0
 11
309.6679636910338
 21
257.3486360835547
 31
0.0
  0
LINE
  5
F1
330
A
100
AcDbEntity
  8
1
  6
AUSGEZOGEN
 62
    14
100
AcDbLine
 10
309.6679636910337
 20
222.3486360835547
 30
0.0
 11
309.6679636910337
 21
257.3486360835547
 31
0.0
  0
LINE
  5
F2
330
A
100
AcDbEntity
  8
1
  6
AUSGEZOGEN
 62
    14
100
AcDbLine
 10
223.1679636910337
 20
262.8486360835547
 30
0.0
 11
243.1679636910337
 21
262.8486360835547
 31
0.0
  0
LINE
  5
F3
330
A
100
AcDbEntity
  8
1
  6
AUSGEZOGEN
 62
    14
100
AcDbLine
 10
223.1679636910337
 20
251.8486360835547
 30
0.0
 11
243.1679636910337
 21
251.8486360835547
 31
0.0
  0
LINE
  5
F4
330
A
100
AcDbEntity
  8
1
  6
AUSGEZOGEN
 62
    14
100
AcDbLine
 10
222.6679636910337
 20
262.3486360835547
 30
0.0
 11
222.6679636910337
 21
252.3486360835547
 31
0.0
  0
LINE
  5
F5
330
A
100
AcDbEntity
  8
1
  6
AUSGEZOGEN
 62
    14
100
AcDbLine
 10
223.1679636910337
 20
262.8486360835547
 30
0.0
 11
223.1679636910337
 21
251.8486360835547
 31
0.0
  0
LINE
  5
F6
330
A
100
AcDbEntity
  8
1
  6
AUSGEZOGEN
 62
    14
100
AcDbLine
 10
223.1679636910337
 20
262.8486360835547
 30
0.0
 11
222.6679636910337
 21
262.3486360835547
 31
0.0
  0
LINE
  5
F7
330
A
100
AcDbEntity
  8
1
  6
AUSGEZOGEN
 62
    14
100
AcDbLine
 10
223.1679636910337
 20
251.8486360835547
 30
0.0
 11
222.6679636910337
 21
252.3486360835547
 31
0.0
  0
LINE
  5
F8
330
A
100
AcDbEntity
  8
1
  6
AUSGEZOGEN
 62
    14
100
AcDbLine
 10
243.1679636910337
 20
227.3486360835547
 30
0.0
 11
245.6679636910337
 21
227.3486360835547
 31
0.0
  0
LINE
  5
F9
330
A
100
AcDbEntity
  8
1
  6
AUSGEZOGEN
 62
    14
100
AcDbLine
 10
243.1679636910337
 20
287.3486360835546
 30
0.0
 11
245.6679636910337
 21
287.3486360835546
 31
0.0
  0
LINE
  5
FA
330
A
100
AcDbEntity
  8
1
  6
AUSGEZOGEN
 62
    14
100
AcDbLine
 10
331.3179636910338
 20
257.3486360835547
 30
0.0
 11
331.3179636910338
 21
222.3486360835547
 31
0.0
  0
LINE
  5
FB
330
A
100
AcDbEntity
  8
1
  6
AUSGEZOGEN
 62
    14
100
AcDbLine
 10
331.3179636910338
 20
292.3486360835548
 30
0.0
 11
331.3179636910338
 21
257.3486360835547
 31
0.0
  0
LINE
  5
FC
330
A
100
AcDbEntity
  8
1
  6
AUSGEZOGEN
 62
    14
100
AcDbLine
 10
253.6679636910337
 20
235.3486360835547
 30
0.0
 11
309.6679636910337
 21
235.3486360835547
 31
0.0
  0
LINE
  5
FD
330
A
100
AcDbEntity
  8
1
  6
AUSGEZOGEN
 62
    14
100
AcDbLine
 10
253.6679636910337
 20
279.3486360835547
 30
0.0
 11
309.6679636910338
 21
279.3486360835547
 31
0.0
  0
LINE
  5
FE
330
A
100
AcDbEntity
  8
1
  6
AUSGEZOGEN
 62
    14
100
AcDbLine
 10
253.6679636910337
 20
235.3486360835547
 30
0.0
 11
253.6679636910337
 21
222.3486360835547
 31
0.0
  0
LINE
  5
FF
330
A
100
AcDbEntity
  8
1
  6
AUSGEZOGEN
 62
    14
100
AcDbLine
 10
253.6679636910337
 20
292.3486360835548
 30
0.0
 11
253.6679636910337
 21
279.3486360835547
 31
0.0
  0
LINE
  5
100
330
A
100
AcDbEntity
  8
3
  6
STRICHPUNKT
 62
    54
100
AcDbLine
 10
240.8503884949938
 20
283.8651403780502
 30
0.0
 11
256.0242860903262
 21
283.8651403780502
 31
0.0
  0
LINE
  5
101
330
A
100
AcDbEntity
  8
4
  6
VERDECKT
 62
   214
100
AcDbLine
 10
245.6679636910337
 20
281.1151403780502
 30
0.0
 11
253.6679636910337
 21
281.1151403780502
 31
0.0
  0
LINE
  5
102
330
A
100
AcDbEntity
  8
4
  6
VERDECKT
 62
   214
100
AcDbLine
 10
245.6679636910337
 20
286.6151403780502
 30
0.0
 11
253.6679636910337
 21
286.6151403780502
 31
0.0
  0
LINE
  5
103
330
A
100
AcDbEntity
  8
3
  6
STRICHPUNKT
 62
    54
100
AcDbLine
 10
240.8503884949938
 20
230.8321317890592
 30
0.0
 11
256.0242860903262
 21
230.8321317890592
 31
0.0
  0
LINE
  5
104
330
A
100
AcDbEntity
  8
4
  6
VERDECKT
 62
   214
100
AcDbLine
 10
245.6679636910337
 20
233.5821317890592
 30
0.0
 11
253.6679636910337
 21
233.5821317890592
 31
0.0
  0
LINE
  5
105
330
A
100
AcDbEntity
  8
4
  6
VERDECKT
 62
   214
100
AcDbLine
 10
245.6679636910337
 20
228.0821317890592
 30
0.0
 11
253.6679636910337
 21
228.0821317890592
 31
0.0
  0
DIMENSION
  5
106
330
A
100
AcDbEntity
  8
5
  6
AUSGEZOGEN
 62
    54
100
AcDbDimension
  2
*D27
 10
245.6679636910337
 20
215.857140366208
 30
0.0
 11
232.8601580007185
 21
215.9237241902818
 31
0.0
 70
   160
  1
2.5
 71
     5
 42
2.5
  3
DIMS0
100
AcDbAlignedDimension
 13
243.1679636910337
 23
227.3486360835547
 33
0.0
 14
245.6679636910337
 24
222.3486360835547
 34
0.0
100
AcDbRotatedDimension
1001
ACAD
1000
DSTYLE
1002
{
1070
   271
1070
     2
1070
   279
1070
     2
1002
}
  0
DIMENSION
  5
107
330
A
100
AcDbEntity
  8
5
  6
AUSGEZOGEN
 62
    54
100
AcDbDimension
  2
*D28
 10
222.6679636910337
 20
205.5834508541495
 30
0.0
 11
233.566516197647
 21
208.394729538883
 31
0.0
 70
   160
  1
23
 71
     5
 42
23.0
  3
DIMS0
100
AcDbAlignedDimension
 13
245.6679636910337
 23
222.3486360835547
 33
0.0
 14
222.6679636910337
 24
252.3486360835547
 34
0.0
 50
180.0
100
AcDbRotatedDimension
1001
ACAD
1000
DSTYLE
1002
{
1070
   271
1070
     2
1070
   279
1070
     2
1002
}
  0
DIMENSION
  5
108
330
A
100
AcDbEntity
  8
5
  6
AUSGEZOGEN
 62
    54
100
AcDbDimension
  2
*D29
 10
196.8248859526035
 20
287.3486360835546
 30
0.0
 11
192.5977841079949
 21
256.3920713181304
 31
0.0
 70
   160
  1
%%c60
 71
     5
 42
59.99999999999994
 53
90.0
  3
DIMS0
100
AcDbAlignedDimension
 13
243.1679636910337
 23
227.3486360835547
 33
0.0
 14
243.1679636910337
 24
287.3486360835546
 34
0.0
 50
90.0
100
AcDbRotatedDimension
1001
ACAD
1000
DSTYLE
1002
{
1070
   271
1070
     2
1070
   279
1070
     2
1002
}
  0
DIMENSION
  5
109
330
A
100
AcDbEntity
  8
5
  6
AUSGEZOGEN
 62
    54
100
AcDbDimension
  2
*D30
 10
209.6425853720407
 20
262.8486360835547
 30
0.0
 11
204.6058601227945
 21
257.0979152867465
 31
0.0
 70
   160
  1
%%c11
 71
     5
 42
11.0
 53
90.0
  3
DIMS0
100
AcDbAlignedDimension
 13
223.1679636910337
 23
251.8486360835547
 33
0.0
 14
223.1679636910337
 24
262.8486360835547
 34
0.0
 50
90.0
100
AcDbRotatedDimension
1001
ACAD
1000
DSTYLE
1002
{
1070
   271
1070
     2
1070
   279
1070
     2
1002
}
  0
LINE
  5
10A
330
A
100
AcDbEntity
  8
1
  6
AUSGEZOGEN
 62
    14
100
AcDbLine
 10
245.6679636910337
 20
225.9798618008385
 30
0.0
 11
253.6679636910337
 21
225.9798618008385
 31
0.0
  0
LINE
  5
10B
330
A
100
AcDbEntity
  8
1
  6
AUSGEZOGEN
 62
    14
100
AcDbLine
 10
245.6679636910337
 20
288.7174103662709
 30
0.0
 11
253.6679636910337
 21
288.7174103662709
 31
0.0
  0
DIMENSION
  5
10C
330
A
100
AcDbEntity
  8
5
  6
AUSGEZOGEN
 62
    54
100
AcDbDimension
  2
*D31
 10
253.6679636910337
 20
197.177704889738
 30
0.0
 11
249.8127380607714
 21
200.3951719078048
 31
0.0
 70
   160
  1
8
 71
     5
 42
8.0
  3
DIMS0
100
AcDbAlignedDimension
 13
245.6679636910337
 23
222.3486360835547
 33
0.0
 14
253.6679636910337
 24
222.3486360835547
 34
0.0
100
AcDbRotatedDimension
1001
ACAD
1000
DSTYLE
1002
{
1070
   271
1070
     2
1070
   279
1070
     2
1002
}
  0
DIMENSION
  5
10D
330
A
100
AcDbEntity
  8
5
  6
AUSGEZOGEN
 62
    54
100
AcDbDimension
  2
*D32
 10
362.8179636910338
 20
186.5926914530717
 30
0.0
 11
302.0831879682949
 21
190.042804387357
 31
0.0
 70
   160
  1
K,K1
 71
     5
 42
117.15
  3
DIMS0
100
AcDbAlignedDimension
 13
245.6679636910337
 23
222.3486360835547
 33
0.0
 14
362.8179636910338
 24
223.3486360835547
 34
0.0
100
AcDbRotatedDimension
1001
ACAD
1000
DSTYLE
1002
{
1070
   271
1070
     2
1070
   279
1070
     2
1002
}
  0
LINE
  5
10E
330
A
100
AcDbEntity
  8
1
  6
AUSGEZOGEN
 62
    14
100
AcDbLine
 10
357.8179636910338
 20
292.3486360835548
 30
0.0
 11
332.8179636910338
 21
292.3486360835548
 31
0.0
  0
LINE
  5
10F
330
A
100
AcDbEntity
  8
3
  6
STRICHPUNKT
 62
    54
100
AcDbLine
 10
345.3179636910338
 20
328.5232424545748
 30
0.0
 11
345.3179636910338
 21
288.5334790379477
 31
0.0
  0
LINE
  5
110
330
A
100
AcDbEntity
  8
1
  6
AUSGEZOGEN
 62
    14
100
AcDbLine
 10
332.8179636910338
 20
293.9486360835548
 30
0.0
 11
332.8179636910338
 21
292.3486360835548
 31
0.0
  0
LINE
  5
111
330
A
100
AcDbEntity
  8
1
  6
AUSGEZOGEN
 62
    14
100
AcDbLine
 10
357.8179636910338
 20
293.9486360835548
 30
0.0
 11
357.8179636910338
 21
292.3486360835548
 31
0.0
  0
LINE
  5
112
330
A
100
AcDbEntity
  8
1
  6
AUSGEZOGEN
 62
    14
100
AcDbLine
 10
332.8179636910338
 20
293.9486360835548
 30
0.0
 11
357.8179636910338
 21
293.9486360835548
 31
0.0
  0
LINE
  5
113
330
A
100
AcDbEntity
  8
1
  6
AUSGEZOGEN
 62
    14
100
AcDbLine
 10
356.3179636910338
 20
300.8486360835548
 30
0.0
 11
356.3179636910338
 21
295.846456694163
 31
0.0
  0
LINE
  5
114
330
A
100
AcDbEntity
  8
1
  6
AUSGEZOGEN
 62
    14
100
AcDbLine
 10
356.3179636910338
 20
324.3486360835548
 30
0.0
 11
356.3179636910338
 21
322.8486360835548
 31
0.0
  0
LINE
  5
115
330
A
100
AcDbEntity
  8
1
  6
AUSGEZOGEN
 62
    14
100
AcDbLine
 10
334.3179636910338
 20
324.3486360835548
 30
0.0
 11
334.3179636910338
 21
295.8464566941628
 31
0.0
  0
LINE
  5
116
330
A
100
AcDbEntity
  8
1
  6
AUSGEZOGEN
 62
    14
100
AcDbLine
 10
334.3179636910338
 20
324.3486360835548
 30
0.0
 11
356.3179636910338
 21
324.3486360835548
 31
0.0
  0
LINE
  5
117
330
A
100
AcDbEntity
  8
1
  6
AUSGEZOGEN
 62
    14
100
AcDbLine
 10
349.3179636910338
 20
324.3486360835548
 30
0.0
 11
349.3179636910338
 21
293.9486360835548
 31
0.0
  0
LINE
  5
118
330
A
100
AcDbEntity
  8
1
  6
AUSGEZOGEN
 62
    14
100
AcDbLine
 10
341.3179636910338
 20
324.3486360835548
 30
0.0
 11
341.3179636910338
 21
293.9486360835548
 31
0.0
  0
LINE
  5
119
330
A
100
AcDbEntity
  8
3
  6
STRICHPUNKT
 62
    54
100
AcDbLine
 10
360.4220539850907
 20
311.8486360835548
 30
0.0
 11
383.0489897031664
 21
311.8486360835548
 31
0.0
  0
LINE
  5
11A
330
A
100
AcDbEntity
  8
1
  6
AUSGEZOGEN
 62
    14
100
AcDbLine
 10
364.5746602536678
 20
300.8486360835548
 30
0.0
 11
356.3179636910338
 21
300.8486360835548
 31
0.0
  0
LINE
  5
11B
330
A
100
AcDbEntity
  8
1
  6
AUSGEZOGEN
 62
    14
100
AcDbLine
 10
367.0679636910338
 20
300.8486360835548
 30
0.0
 11
366.0612671283997
 21
300.8486360835548
 31
0.0
  0
LINE
  5
11C
330
A
100
AcDbEntity
  8
1
  6
AUSGEZOGEN
 62
    14
100
AcDbLine
 10
364.5746602536678
 20
322.8486360835548
 30
0.0
 11
356.3179636910338
 21
322.8486360835548
 31
0.0
  0
LINE
  5
11D
330
A
100
AcDbEntity
  8
1
  6
AUSGEZOGEN
 62
    14
100
AcDbLine
 10
367.0679636910338
 20
322.8486360835548
 30
0.0
 11
366.0612671283997
 21
322.8486360835548
 31
0.0
  0
LINE
  5
11E
330
A
100
AcDbEntity
  8
1
  6
AUSGEZOGEN
 62
    14
100
AcDbLine
 10
364.5679636910338
 20
322.7486360835547
 30
0.0
 11
364.5679636910338
 21
300.9486360835548
 31
0.0
  0
LINE
  5
11F
330
A
100
AcDbEntity
  8
1
  6
AUSGEZOGEN
 62
    14
100
AcDbLine
 10
366.0679636910338
 20
322.7486360835547
 30
0.0
 11
366.0679636910338
 21
300.9486360835548
 31
0.0
  0
ARC
  5
120
330
A
100
AcDbEntity
  8
1
  6
AUSGEZOGEN
 62
    14
100
AcDbCircle
 10
365.3179636910337
 20
300.9486360835548
 30
0.0
 40
0.7499999999999853
100
AcDbArc
 50
179.9999999999978
 51
0.0000000000021373
  0
ARC
  5
121
330
A
100
AcDbEntity
  8
1
  6
AUSGEZOGEN
 62
    14
100
AcDbCircle
 10
365.3179636910337
 20
322.7486360835549
 30
0.0
 40
0.7499999999999853
100
AcDbArc
 50
359.9999999999978
 51
180.0000000000021
  0
LINE
  5
122
330
A
100
AcDbEntity
  8
1
  6
AUSGEZOGEN
 62
    14
100
AcDbLine
 10
370.8179636910338
 20
323.0986360835548
 30
0.0
 11
370.8179636910338
 21
300.5986360835548
 31
0.0
  0
LINE
  5
123
330
A
100
AcDbEntity
  8
1
  6
AUSGEZOGEN
 62
    14
100
AcDbLine
 10
377.8179636910337
 20
300.5986360835548
 30
0.0
 11
370.8179636910338
 21
300.5986360835548
 31
0.0
  0
LINE
  5
124
330
A
100
AcDbEntity
  8
1
  6
AUSGEZOGEN
 62
    14
100
AcDbLine
 10
377.8179636910337
 20
323.0986360835548
 30
0.0
 11
370.8179636910338
 21
323.0986360835548
 31
0.0
  0
LINE
  5
125
330
A
100
AcDbEntity
  8
1
  6
AUSGEZOGEN
 62
    14
100
AcDbLine
 10
370.8179636910338
 20
301.0986360835548
 30
0.0
 11
367.0679636910338
 21
301.0986360835548
 31
0.0
  0
LINE
  5
126
330
A
100
AcDbEntity
  8
1
  6
AUSGEZOGEN
 62
    14
100
AcDbLine
 10
370.8179636910338
 20
322.5986360835548
 30
0.0
 11
367.0679636910338
 21
322.5986360835548
 31
0.0
  0
LINE
  5
127
330
A
100
AcDbEntity
  8
1
  6
AUSGEZOGEN
 62
    14
100
AcDbLine
 10
367.0679636910338
 20
322.7486360835547
 30
0.0
 11
367.0679636910338
 21
300.8486360835548
 31
0.0
  0
ARC
  5
128
330
A
100
AcDbEntity
  8
1
  6
AUSGEZOGEN
 62
    14
100
AcDbCircle
 10
366.5201532970786
 20
318.0508256895998
 30
0.0
 40
20.00000000000035
100
AcDbArc
 50
210.6711224448502
 51
239.3288775551503
  0
ARC
  5
129
330
A
100
AcDbEntity
  8
1
  6
AUSGEZOGEN
 62
    14
100
AcDbCircle
 10
366.5201532970783
 20
305.6464464775102
 30
0.0
 40
19.99999999999993
100
AcDbArc
 50
120.6711224448493
 51
149.32887755515
  0
LINE
  5
12A
330
A
100
AcDbEntity
  8
1
  6
AUSGEZOGEN
 62
    14
100
AcDbLine
 10
357.8179636910338
 20
316.8486360835548
 30
0.0
 11
357.8179636910338
 21
306.8486360835548
 31
0.0
  0
LINE
  5
12B
330
A
100
AcDbEntity
  8
1
  6
AUSGEZOGEN
 62
    14
100
AcDbLine
 10
352.8179636910337
 20
316.8486360835548
 30
0.0
 11
352.8179636910337
 21
306.8486360835548
 31
0.0
  0
ARC
  5
12C
330
A
100
AcDbEntity
  8
1
  6
AUSGEZOGEN
 62
    14
100
AcDbCircle
 10
355.3179636910337
 20
316.8486360835548
 30
0.0
 40
2.500000000000048
100
AcDbArc
 50
0.0000000000006107
 51
180.0
  0
ARC
  5
12D
330
A
100
AcDbEntity
  8
1
  6
AUSGEZOGEN
 62
    14
100
AcDbCircle
 10
355.3179636910337
 20
306.8486360835548
 30
0.0
 40
2.500000000000048
100
AcDbArc
 50
180.0
 51
359.9999999999993
  0
LINE
  5
12E
330
A
100
AcDbEntity
  8
3
  6
STRICHPUNKT
 62
    54
100
AcDbLine
 10
335.3179636910338
 20
298.1567372793163
 30
0.0
 11
335.3179636910338
 21
290.0742092345065
 31
0.0
  0
LINE
  5
12F
330
A
100
AcDbEntity
  8
3
  6
STRICHPUNKT
 62
    54
100
AcDbLine
 10
355.3179636910338
 20
297.8517362210216
 30
0.0
 11
355.3179636910338
 21
290.2267097636539
 31
0.0
  0
CIRCLE
  5
130
330
A
100
AcDbEntity
  8
0
  6
ByBlock
 62
     0
100
AcDbCircle
 10
113.049241345685
 20
319.7474309870078
 30
0.0
 40
0.5
  0
POLYLINE
  5
131
330
A
100
AcDbEntity
  8
2
  6
AUSGEZOGEN
 62
     9
100
AcDb2dPolyline
 66
     1
 10
0.0
 20
0.0
 30
0.0
  0
VERTEX
  5
132
330
131
100
AcDbEntity
  8
2
  6
AUSGEZOGEN
 62
     9
100
AcDbVertex
100
AcDb2dVertex
 10
113.049241345685
 20
319.7474309870078
 30
0.0
  0
VERTEX
  5
133
330
131
100
AcDbEntity
  8
2
  6
AUSGEZOGEN
 62
     9
100
AcDbVertex
100
AcDb2dVertex
 10
125.5145231108707
 20
355.6066019638756
 30
0.0
  0
VERTEX
  5
134
330
131
100
AcDbEntity
  8
2
  6
AUSGEZOGEN
 62
     9
100
AcDbVertex
100
AcDb2dVertex
 10
182.7426193647829
 20
355.6066019638756
 30
0.0
  0
SEQEND
  5
135
330
131
100
AcDbEntity
  8
2
  6
AUSGEZOGEN
 62
     9
  0
LINE
  5
136
330
A
100
AcDbEntity
  8
1
  6
AUSGEZOGEN
 62
    14
100
AcDbLine
 10
139.2131441365867
 20
225.9798618008385
 30
0.0
 11
139.2131441365867
 21
288.7174103662709
 31
0.0
  0
LINE
  5
137
330
A
100
AcDbEntity
  8
1
  6
AUSGEZOGEN
 62
    14
100
AcDbLine
 10
69.21314413658677
 20
225.9798618008385
 30
0.0
 11
69.21314413658677
 21
288.7174103662709
 31
0.0
  0
LINE
  5
138
330
A
100
AcDbEntity
  8
1
  6
AUSGEZOGEN
 62
    14
100
AcDbLine
 10
72.84436985387049
 20
292.3486360835547
 30
0.0
 11
135.581918419303
 21
292.3486360835547
 31
0.0
  0
LINE
  5
139
330
A
100
AcDbEntity
  8
1
  6
AUSGEZOGEN
 62
    14
100
AcDbLine
 10
72.84436985387054
 20
222.3486360835547
 30
0.0
 11
135.581918419303
 21
222.3486360835547
 31
0.0
  0
ARC
  5
13A
330
A
100
AcDbEntity
  8
1
  6
AUSGEZOGEN
 62
    14
100
AcDbCircle
 10
104.2131441365867
 20
257.3486360835547
 30
0.0
 40
47.0
100
AcDbArc
 50
311.8683062262927
 51
318.1316937737071
  0
ARC
  5
13B
330
A
100
AcDbEntity
  8
1
  6
AUSGEZOGEN
 62
    14
100
AcDbCircle
 10
104.2131441365867
 20
257.3486360835547
 30
0.0
 40
47.0
100
AcDbArc
 50
221.8683062262928
 51
228.1316937737072
  0
ARC
  5
13C
330
A
100
AcDbEntity
  8
1
  6
AUSGEZOGEN
 62
    14
100
AcDbCircle
 10
104.2131441365867
 20
257.3486360835547
 30
0.0
 40
47.0
100
AcDbArc
 50
131.8683062262928
 51
138.1316937737072
  0
LINE
  5
13D
330
A
100
AcDbEntity
  8
1
  6
AUSGEZOGEN
 62
    14
100
AcDbLine
 10
138.2131441365867
 20
226.3647693138953
 30
0.0
 11
138.2131441365867
 21
288.3325028532141
 31
0.0
  0
LINE
  5
13E
330
A
100
AcDbEntity
  8
1
  6
AUSGEZOGEN
 62
    14
100
AcDbLine
 10
73.22927736692747
 20
223.3486360835547
 30
0.0
 11
135.197010906246
 21
223.3486360835547
 31
0.0
  0
ARC
  5
13F
330
A
100
AcDbEntity
  8
1
  6
AUSGEZOGEN
 62
    14
100
AcDbCircle
 10
104.2131441365867
 20
257.3486360835547
 30
0.0
 40
46.0
100
AcDbArc
 50
312.3426054522071
 51
317.6573945477928
  0
ARC
  5
140
330
A
100
AcDbEntity
  8
1
  6
AUSGEZOGEN
 62
    14
100
AcDbCircle
 10
104.2131441365867
 20
257.3486360835547
 30
0.0
 40
46.0
100
AcDbArc
 50
222.3426054522071
 51
227.6573945477928
  0
ARC
  5
141
330
A
100
AcDbEntity
  8
1
  6
AUSGEZOGEN
 62
    14
100
AcDbCircle
 10
104.2131441365867
 20
257.3486360835547
 30
0.0
 40
46.0
100
AcDbArc
 50
132.3426054522072
 51
137.6573945477928
  0
LINE
  5
142
330
A
100
AcDbEntity
  8
1
  6
AUSGEZOGEN
 62
    14
100
AcDbLine
 10
73.22927736692742
 20
291.3486360835547
 30
0.0
 11
135.1970109062461
 21
291.3486360835547
 31
0.0
  0
LINE
  5
143
330
A
100
AcDbEntity
  8
1
  6
AUSGEZOGEN
 62
    14
100
AcDbLine
 10
70.21314413658678
 20
226.3647693138953
 30
0.0
 11
70.21314413658678
 21
288.3325028532141
 31
0.0
  0
LINE
  5
144
330
A
100
AcDbEntity
  8
3
  6
STRICHPUNKT
 62
    54
100
AcDbLine
 10
69.01197112697639
 20
292.5498090931652
 30
0.0
 11
140.4263815627701
 21
221.1353986573714
 31
0.0
  0
LINE
  5
145
330
A
100
AcDbEntity
  8
3
  6
STRICHPUNKT
 62
    54
100
AcDbLine
 10
67.8465045883413
 20
220.9819965353092
 30
0.0
 11
140.203514290569
 21
293.3390062375369
 31
0.0
  0
CIRCLE
  5
146
330
A
100
AcDbEntity
  8
1
  6
AUSGEZOGEN
 62
    14
100
AcDbCircle
 10
133.3812988605318
 20
228.1804813596096
 30
0.0
 40
3.299999999999999
  0
CIRCLE
  5
147
330
A
100
AcDbEntity
  8
1
  6
AUSGEZOGEN
 62
    14
100
AcDbCircle
 10
133.3812988605318
 20
286.5167908074998
 30
0.0
 40
3.299999999999999
  0
CIRCLE
  5
148
330
A
100
AcDbEntity
  8
1
  6
AUSGEZOGEN
 62
    14
100
AcDbCircle
 10
75.04498941264171
 20
286.5167908074998
 30
0.0
 40
3.299999999999999
  0
CIRCLE
  5
149
330
A
100
AcDbEntity
  8
1
  6
AUSGEZOGEN
 62
    14
100
AcDbCircle
 10
75.04498941264171
 20
228.1804813596096
 30
0.0
 40
3.299999999999999
  0
ARC
  5
14A
330
A
100
AcDbEntity
  8
1
  6
AUSGEZOGEN
 62
    14
100
AcDbCircle
 10
104.2131441365869
 20
257.3486360835545
 30
0.0
 40
47.0
100
AcDbArc
 50
41.86830622629309
 51
48.13169377370746
  0
ARC
  5
14B
330
A
100
AcDbEntity
  8
1
  6
AUSGEZOGEN
 62
    14
100
AcDbCircle
 10
104.2131441365869
 20
257.3486360835545
 30
0.0
 40
46.0
100
AcDbArc
 50
42.34260545220746
 51
47.65739454779308
  0
LINE
  5
14C
330
A
100
AcDbEntity
  8
5
  6
STRICHPUNKT
 62
    54
100
AcDbLine
 10
65.65131743317647
 20
257.3486360835547
 30
0.0
 11
142.774970839997
 21
257.3486360835547
 31
0.0
  0
ARC
  5
14D
330
A
100
AcDbEntity
  8
3
  6
STRICHPUNKT
 62
    54
100
AcDbCircle
 10
104.2131441365867
 20
257.3486360835548
 30
0.0
 40
41.25
100
AcDbArc
 50
307.9561693452381
 51
322.3040894801279
  0
ARC
  5
14E
330
A
100
AcDbEntity
  8
3
  6
STRICHPUNKT
 62
    54
100
AcDbCircle
 10
104.2131441365867
 20
257.3486360835548
 30
0.0
 40
41.25
100
AcDbArc
 50
217.9460465299354
 51
232.6366228720374
  0
ARC
  5
14F
330
A
100
AcDbEntity
  8
3
  6
STRICHPUNKT
 62
    54
100
AcDbCircle
 10
104.2131441365867
 20
257.3486360835547
 30
0.0
 40
41.25
100
AcDbArc
 50
37.69591051987208
 51
52.04383065476182
  0
ARC
  5
150
330
A
100
AcDbEntity
  8
3
  6
STRICHPUNKT
 62
    54
100
AcDbCircle
 10
104.2131441365867
 20
257.3486360835547
 30
0.0
 40
41.25
100
AcDbArc
 50
127.3633771279625
 51
142.0539534700645
  0
LINE
  5
151
330
A
100
AcDbEntity
  8
1
  6
AUSGEZOGEN
 62
    14
100
AcDbLine
 10
358.8179636910338
 20
292.3486360835548
 30
0.0
 11
358.8179636910338
 21
257.3486360835547
 31
0.0
  0
LINE
  5
152
330
A
100
AcDbEntity
  8
1
  6
AUSGEZOGEN
 62
    14
100
AcDbLine
 10
358.8179636910338
 20
257.3486360835547
 30
0.0
 11
358.8179636910338
 21
222.3486360835547
 31
0.0
  0
LINE
  5
153
330
A
100
AcDbEntity
  8
1
  6
AUSGEZOGEN
 62
    14
100
AcDbLine
 10
362.8179636910338
 20
257.3486360835547
 30
0.0
 11
362.8179636910338
 21
223.3486360835547
 31
0.0
  0
LINE
  5
154
330
A
100
AcDbEntity
  8
1
  6
AUSGEZOGEN
 62
    14
100
AcDbLine
 10
362.8179636910338
 20
291.3486360835548
 30
0.0
 11
362.8179636910338
 21
257.3486360835547
 31
0.0
  0
LINE
  5
155
330
A
100
AcDbEntity
  8
1
  6
AUSGEZOGEN
 62
    14
100
AcDbLine
 10
361.8179636910338
 20
225.9798618008385
 30
0.0
 11
362.8179636910338
 21
226.4656911870071
 31
0.0
  0
LINE
  5
156
330
A
100
AcDbEntity
  8
1
  6
AUSGEZOGEN
 62
    14
100
AcDbLine
 10
309.6679636910337
 20
225.9798618008385
 30
0.0
 11
361.8179636910338
 21
225.9798618008385
 31
0.0
  0
LINE
  5
157
330
A
100
AcDbEntity
  8
5
  6
STRICHPUNKT
 62
    54
100
AcDbLine
 10
75.20501741765793
 20
311.8486360835547
 30
0.0
 11
105.742895669239
 21
311.8486360835547
 31
0.0
  0
CIRCLE
  5
158
330
A
100
AcDbEntity
  8
5
  6
AUSGEZOGEN
 62
    14
100
AcDbCircle
 10
90.51314413658678
 20
311.8486360835547
 30
0.0
 40
11.0
  0
CIRCLE
  5
159
330
A
100
AcDbEntity
  8
5
  6
AUSGEZOGEN
 62
    14
100
AcDbCircle
 10
90.51314413658678
 20
311.8486360835547
 30
0.0
 40
9.5
  0
LINE
  5
15A
330
A
100
AcDbEntity
  8
5
  6
STRICHPUNKT
 62
    54
100
AcDbLine
 10
102.6050174176579
 20
311.8486360835547
 30
0.0
 11
133.142895669239
 21
311.8486360835547
 31
0.0
  0
CIRCLE
  5
15B
330
A
100
AcDbEntity
  8
5
  6
AUSGEZOGEN
 62
    14
100
AcDbCircle
 10
117.9131441365867
 20
311.8486360835547
 30
0.0
 40
11.0
  0
CIRCLE
  5
15C
330
A
100
AcDbEntity
  8
5
  6
AUSGEZOGEN
 62
    14
100
AcDbCircle
 10
117.9131441365867
 20
311.8486360835547
 30
0.0
 40
9.5
  0
LINE
  5
15D
330
A
100
AcDbEntity
  8
1
  6
AUSGEZOGEN
 62
    14
100
AcDbLine
 10
378.3179636910338
 20
322.5986360835548
 30
0.0
 11
378.3179636910338
 21
301.0986360835548
 31
0.0
  0
LINE
  5
15E
330
A
100
AcDbEntity
  8
1
  6
AUSGEZOGEN
 62
    14
100
AcDbLine
 10
372.3179636910338
 20
323.0986360835548
 30
0.0
 11
372.3179636910338
 21
300.5986360835548
 31
0.0
  0
LINE
  5
15F
330
A
100
AcDbEntity
  8
1
  6
AUSGEZOGEN
 62
    14
100
AcDbLine
 10
372.8179636910338
 20
323.0986360835548
 30
0.0
 11
372.8179636910338
 21
300.5986360835548
 31
0.0
  0
LINE
  5
160
330
A
100
AcDbEntity
  8
1
  6
AUSGEZOGEN
 62
    14
100
AcDbLine
 10
373.3179636910338
 20
323.0986360835548
 30
0.0
 11
373.3179636910338
 21
300.5986360835548
 31
0.0
  0
LINE
  5
161
330
A
100
AcDbEntity
  8
1
  6
AUSGEZOGEN
 62
    14
100
AcDbLine
 10
373.8179636910338
 20
323.0986360835548
 30
0.0
 11
373.8179636910338
 21
300.5986360835548
 31
0.0
  0
LINE
  5
162
330
A
100
AcDbEntity
  8
1
  6
AUSGEZOGEN
 62
    14
100
AcDbLine
 10
374.3179636910338
 20
323.0986360835548
 30
0.0
 11
374.3179636910338
 21
300.5986360835548
 31
0.0
  0
LINE
  5
163
330
A
100
AcDbEntity
  8
1
  6
AUSGEZOGEN
 62
    14
100
AcDbLine
 10
374.8179636910338
 20
323.0986360835548
 30
0.0
 11
374.8179636910338
 21
300.5986360835548
 31
0.0
  0
LINE
  5
164
330
A
100
AcDbEntity
  8
1
  6
AUSGEZOGEN
 62
    14
100
AcDbLine
 10
375.3179636910338
 20
323.0986360835548
 30
0.0
 11
375.3179636910338
 21
300.5986360835548
 31
0.0
  0
LINE
  5
165
330
A
100
AcDbEntity
  8
1
  6
AUSGEZOGEN
 62
    14
100
AcDbLine
 10
375.8179636910337
 20
323.0986360835548
 30
0.0
 11
375.8179636910337
 21
300.5986360835548
 31
0.0
  0
LINE
  5
166
330
A
100
AcDbEntity
  8
1
  6
AUSGEZOGEN
 62
    14
100
AcDbLine
 10
376.3179636910338
 20
323.0986360835548
 30
0.0
 11
376.3179636910338
 21
300.5986360835548
 31
0.0
  0
LINE
  5
167
330
A
100
AcDbEntity
  8
1
  6
AUSGEZOGEN
 62
    14
100
AcDbLine
 10
376.8179636910338
 20
323.0986360835548
 30
0.0
 11
376.8179636910338
 21
300.5986360835548
 31
0.0
  0
LINE
  5
168
330
A
100
AcDbEntity
  8
1
  6
AUSGEZOGEN
 62
    14
100
AcDbLine
 10
377.3179636910338
 20
323.0986360835548
 30
0.0
 11
377.3179636910338
 21
300.5986360835548
 31
0.0
  0
LINE
  5
169
330
A
100
AcDbEntity
  8
1
  6
AUSGEZOGEN
 62
    14
100
AcDbLine
 10
377.8179636910337
 20
323.0986360835548
 30
0.0
 11
377.8179636910337
 21
300.5986360835548
 31
0.0
  0
LINE
  5
16A
330
A
100
AcDbEntity
  8
1
  6
AUSGEZOGEN
 62
    14
100
AcDbLine
 10
377.8179636910337
 20
323.0986360835548
 30
0.0
 11
378.3179636910338
 21
322.5986360835548
 31
0.0
  0
LINE
  5
16B
330
A
100
AcDbEntity
  8
1
  6
AUSGEZOGEN
 62
    14
100
AcDbLine
 10
377.8179636910337
 20
300.5986360835548
 30
0.0
 11
378.3179636910338
 21
301.0986360835548
 31
0.0
  0
LINE
  5
16C
330
A
100
AcDbEntity
  8
1
  6
AUSGEZOGEN
 62
    14
100
AcDbLine
 10
371.8179636910338
 20
323.0986360835548
 30
0.0
 11
371.8179636910338
 21
300.5986360835548
 31
0.0
  0
LINE
  5
16D
330
A
100
AcDbEntity
  8
1
  6
AUSGEZOGEN
 62
    14
100
AcDbLine
 10
371.3179636910338
 20
323.0986360835548
 30
0.0
 11
371.3179636910338
 21
300.5986360835548
 31
0.0
  0
CIRCLE
  5
16E
330
A
100
AcDbEntity
  8
1
  6
AUSGEZOGEN
 62
    14
100
AcDbCircle
 10
93.91587303158411
 20
316.3524712972876
 30
0.0
 40
1.5
  0
CIRCLE
  5
16F
330
A
100
AcDbEntity
  8
1
  6
AUSGEZOGEN
 62
    14
100
AcDbCircle
 10
95.23954430354313
 20
308.6101745844848
 30
0.0
 40
1.5
  0
CIRCLE
  5
170
330
A
100
AcDbEntity
  8
1
  6
AUSGEZOGEN
 62
    14
100
AcDbCircle
 10
88.24299615175977
 20
305.9664635118204
 30
0.0
 40
1.5
  0
CIRCLE
  5
171
330
A
100
AcDbEntity
  8
1
  6
AUSGEZOGEN
 62
    14
100
AcDbCircle
 10
84.08288643988857
 20
315.3453432696061
 30
0.0
 40
1.5
  0
CIRCLE
  5
172
330
A
100
AcDbEntity
  8
1
  6
AUSGEZOGEN
 62
    14
100
AcDbCircle
 10
88.30602811709121
 20
316.9189808128586
 30
0.0
 40
1.5
  0
CIRCLE
  5
173
330
A
100
AcDbEntity
  8
1
  6
AUSGEZOGEN
 62
    14
100
AcDbCircle
 10
89.56666742371879
 20
311.0650491519589
 30
0.0
 40
1.5
  0
CIRCLE
  5
174
330
A
100
AcDbEntity
  8
1
  6
AUSGEZOGEN
 62
    14
100
AcDbCircle
 10
120.6832090371227
 20
306.0607864778465
 30
0.0
 40
1.0
  0
CIRCLE
  5
175
330
A
100
AcDbEntity
  8
1
  6
AUSGEZOGEN
 62
    14
100
AcDbCircle
 10
123.7769417507084
 20
309.2160091945828
 30
0.0
 40
1.0
  0
CIRCLE
  5
176
330
A
100
AcDbEntity
  8
1
  6
AUSGEZOGEN
 62
    14
100
AcDbCircle
 10
124.0402381518645
 20
315.3949870148579
 30
0.0
 40
1.0
  0
CIRCLE
  5
177
330
A
100
AcDbEntity
  8
1
  6
AUSGEZOGEN
 62
    14
100
AcDbCircle
 10
119.6300234324979
 20
317.6299364392128
 30
0.0
 40
1.0
  0
CIRCLE
  5
178
330
A
100
AcDbEntity
  8
1
  6
AUSGEZOGEN
 62
    14
100
AcDbCircle
 10
113.9691508076392
 20
317.8271378590086
 30
0.0
 40
1.0
  0
CIRCLE
  5
179
330
A
100
AcDbEntity
  8
1
  6
AUSGEZOGEN
 62
    14
100
AcDbCircle
 10
111.6653072975223
 20
314.4747137224765
 30
0.0
 40
1.0
  0
CIRCLE
  5
17A
330
A
100
AcDbEntity
  8
1
  6
AUSGEZOGEN
 62
    14
100
AcDbCircle
 10
112.0602518992566
 20
309.544678227576
 30
0.0
 40
1.0
  0
CIRCLE
  5
17B
330
A
100
AcDbEntity
  8
1
  6
AUSGEZOGEN
 62
    14
100
AcDbCircle
 10
114.7590400111078
 20
306.2579878976426
 30
0.0
 40
1.0
  0
CIRCLE
  5
17C
330
A
100
AcDbEntity
  8
1
  6
AUSGEZOGEN
 62
    14
100
AcDbCircle
 10
116.1413461171778
 20
310.7936205529509
 30
0.0
 40
1.0
  0
CIRCLE
  5
17D
330
A
100
AcDbEntity
  8
1
  6
AUSGEZOGEN
 62
    14
100
AcDbCircle
 10
116.0096979165999
 20
314.4089799158778
 30
0.0
 40
1.0
  0
CIRCLE
  5
17E
330
A
100
AcDbEntity
  8
1
  6
AUSGEZOGEN
 62
    14
100
AcDbCircle
 10
120.1566162348104
 20
313.6201742366939
 30
0.0
 40
1.0
  0
CIRCLE
  5
17F
330
A
100
AcDbEntity
  8
1
  6
AUSGEZOGEN
 62
    14
100
AcDbCircle
 10
119.695847532787
 20
309.0845415813853
 30
0.0
 40
1.0
  0
LINE
  5
180
330
A
100
AcDbEntity
  8
1
  6
AUSGEZOGEN
 62
    14
100
AcDbLine
 10
361.8179636910338
 20
257.3486360835547
 30
0.0
 11
361.8179636910338
 21
222.3486360835547
 31
0.0
  0
LINE
  5
181
330
A
100
AcDbEntity
  8
1
  6
AUSGEZOGEN
 62
    14
100
AcDbLine
 10
361.8179636910338
 20
292.3486360835548
 30
0.0
 11
361.8179636910338
 21
257.3486360835547
 31
0.0
  0
LINE
  5
182
330
A
100
AcDbEntity
  8
1
  6
AUSGEZOGEN
 62
    14
100
AcDbLine
 10
361.8179636910338
 20
222.3486360835547
 30
0.0
 11
362.8179636910338
 21
223.3486360835547
 31
0.0
  0
LINE
  5
183
330
A
100
AcDbEntity
  8
1
  6
AUSGEZOGEN
 62
    14
100
AcDbLine
 10
361.8179636910338
 20
292.3486360835548
 30
0.0
 11
362.8179636910338
 21
291.3486360835548
 31
0.0
  0
LINE
  5
184
330
A
100
AcDbEntity
  8
1
  6
AUSGEZOGEN
 62
    14
100
AcDbLine
 10
361.8179636910338
 20
288.7174103662709
 30
0.0
 11
362.8179636910338
 21
288.2315809801024
 31
0.0
  0
LINE
  5
185
330
A
100
AcDbEntity
  8
1
  6
AUSGEZOGEN
 62
    14
100
AcDbLine
 10
309.6679636910337
 20
288.7174103662709
 30
0.0
 11
361.8179636910338
 21
288.7174103662709
 31
0.0
  0
DIMENSION
  5
186
330
A
100
AcDbEntity
  8
5
  6
AUSGEZOGEN
 62
    54
100
AcDbDimension
  2
*D33
 10
362.8179636910338
 20
186.5795748969563
 30
0.0
 11
370.1289553854059
 21
190.7486473541679
 31
0.0
 70
   160
  1
15.5
 71
     5
 42
15.5
  3
DIMS0
100
AcDbAlignedDimension
 13
378.3179636910338
 23
301.0986360835548
 33
0.0
 14
362.8179636910338
 24
223.3486360835547
 34
0.0
 50
180.0
100
AcDbRotatedDimension
1001
ACAD
1000
DSTYLE
1002
{
1070
   271
1070
     2
1070
   279
1070
     2
1002
}
  0
DIMENSION
  5
187
330
A
100
AcDbEntity
  8
5
  6
AUSGEZOGEN
 62
    54
100
AcDbDimension
  2
*D34
 10
226.6679636910337
 20
273.5907070596293
 30
0.0
 11
215.6721274305203
 21
275.9204024161464
 31
0.0
 70
   160
  1
4
 71
     5
 42
4.0
  3
DIMS0
100
AcDbAlignedDimension
 13
222.6679636910337
 23
262.3486360835547
 33
0.0
 14
226.6679636910337
 24
264.6486360835548
 34
0.0
100
AcDbRotatedDimension
1001
ACAD
1000
DSTYLE
1002
{
1070
   271
1070
     2
1070
   279
1070
     2
1002
}
  0
CIRCLE
  5
188
330
A
100
AcDbEntity
  8
0
  6
ByBlock
 62
     0
100
AcDbCircle
 10
316.1659320372094
 20
283.8982457415715
 30
0.0
 40
0.5
  0
POLYLINE
  5
189
330
A
100
AcDbEntity
  8
2
  6
AUSGEZOGEN
 62
     9
100
AcDb2dPolyline
 66
     1
 10
0.0
 20
0.0
 30
0.0
  0
VERTEX
  5
18A
330
189
100
AcDbEntity
  8
2
  6
AUSGEZOGEN
 62
     9
100
AcDbVertex
100
AcDb2dVertex
 10
316.1659320372094
 20
283.8982457415715
 30
0.0
  0
VERTEX
  5
18B
330
189
100
AcDbEntity
  8
2
  6
AUSGEZOGEN
 62
     9
100
AcDbVertex
100
AcDb2dVertex
 10
303.3518723408371
 20
326.4021865945957
 30
0.0
  0
SEQEND
  5
18C
330
189
100
AcDbEntity
  8
2
  6
AUSGEZOGEN
 62
     9
  0
LINE
  5
18D
330
A
100
AcDbEntity
  8
1
  6
AUSGEZOGEN
 62
    14
100
AcDbLine
 10
463.0471163342652
 20
262.4721114665345
 30
0.0
 11
463.0471163342652
 21
264.3486360835547
 31
0.0
  0
LINE
  5
18E
330
A
100
AcDbEntity
  8
1
  6
AUSGEZOGEN
 62
    14
100
AcDbLine
 10
467.0471163342652
 20
262.4721114665345
 30
0.0
 11
467.0471163342652
 21
264.3486360835547
 31
0.0
  0
TEXT
  5
190
330
A
100
AcDbEntity
  8
1
  6
AUSGEZOGEN
 62
    14
100
AcDbText
 10
274.3872663214633
 20
331.3366911197856
 30
0.0
 40
5.0
  1
Housing IP65
 41
0.6800000190734864
100
AcDbText
  0
DIMENSION
  5
191
330
A
100
AcDbEntity
  8
5
  6
AUSGEZOGEN
 62
    54
100
AcDbDimension
  2
*D35
 10
242.6679636910337
 20
273.5879573180005
 30
0.0
 11
234.5083265713441
 21
276.3909643940204
 31
0.0
 70
   160
  1
16
 71
     5
 42
16.0
  3
DIMS0
100
AcDbAlignedDimension
 13
226.6679636910337
 23
262.8486360835547
 33
0.0
 14
242.6679636910337
 24
262.8486360835547
 34
0.0
100
AcDbRotatedDimension
1001
ACAD
1000
DSTYLE
1002
{
1070
   271
1070
     2
1070
   279
1070
     2
1002
}
  0
LINE
  5
192
330
A
100
AcDbEntity
  8
1
  6
AUSGEZOGEN
 62
    14
100
AcDbLine
 10
226.6679636910337
 20
264.6486360835548
 30
0.0
 11
242.6679636910337
 21
264.6486360835548
 31
0.0
  0
LINE
  5
193
330
A
100
AcDbEntity
  8
1
  6
AUSGEZOGEN
 62
    14
100
AcDbLine
 10
226.6679636910337
 20
262.8486360835547
 30
0.0
 11
226.6679636910337
 21
264.6486360835548
 31
0.0
  0
LINE
  5
194
330
A
100
AcDbEntity
  8
1
  6
AUSGEZOGEN
 62
    14
100
AcDbLine
 10
242.6679636910337
 20
262.8486360835547
 30
0.0
 11
242.6679636910337
 21
264.6486360835548
 31
0.0
  0
DIMENSION
  5
195
330
A
100
AcDbEntity
  8
5
  6
AUSGEZOGEN
 62
    54
100
AcDbDimension
  2
*D36
 10
467.0471163342652
 20
277.4395011209528
 30
0.0
 11
473.0010271700274
 21
280.6678435592231
 31
0.0
 70
   160
  1
4
 71
     5
 42
4.0
  3
DIMS0
100
AcDbAlignedDimension
 13
463.0471163342652
 23
264.3486360835547
 33
0.0
 14
467.0471163342652
 24
264.3486360835547
 34
0.0
100
AcDbRotatedDimension
1001
ACAD
1000
DSTYLE
1002
{
1070
   271
1070
     2
1070
   279
1070
     2
1002
}
  0
DIMENSION
  5
196
330
A
100
AcDbEntity
  8
5
  6
AUSGEZOGEN
 62
    54
100
AcDbDimension
  2
*D37
 10
485.3578177805133
 20
264.3486360835547
 30
0.0
 11
481.712592714775
 21
272.5844218004975
 31
0.0
 70
   160
  1
12.5
 71
     5
 42
12.5
 53
90.0
  3
DIMS0
100
AcDbAlignedDimension
 13
465.0471163342651
 23
251.8486360835547
 33
0.0
 14
467.0471163342652
 24
264.3486360835547
 34
0.0
 50
90.0
100
AcDbRotatedDimension
1001
ACAD
1000
DSTYLE
1002
{
1070
    77
1070
     3
1070
   271
1070
     2
1070
   279
1070
     2
1002
}
  0
LINE
  5
197
330
A
100
AcDbEntity
  8
1
  6
AUSGEZOGEN
 62
    14
100
AcDbLine
 10
467.0471163342652
 20
264.3486360835547
 30
0.0
 11
463.0471163342652
 21
264.3486360835547
 31
0.0
  0
LINE
  5
19F
330
A
100
AcDbEntity
  8
1
  6
AUSGEZOGEN
 62
    14
100
AcDbLine
 10
260.6679636910337
 20
267.3486360835547
 30
0.0
 11
260.6679636910337
 21
247.3486360835547
 31
0.0
  0
LINE
  5
1A0
330
A
100
AcDbEntity
  8
1
  6
AUSGEZOGEN
 62
    14
100
AcDbLine
 10
262.6679636910337
 20
245.3486360835547
 30
0.0
 11
306.6679636910337
 21
245.3486360835547
 31
0.0
  0
LINE
  5
1A1
330
A
100
AcDbEntity
  8
1
  6
AUSGEZOGEN
 62
    14
100
AcDbLine
 10
308.6679636910337
 20
267.3486360835547
 30
0.0
 11
308.6679636910337
 21
247.3486360835547
 31
0.0
  0
LINE
  5
1A2
330
A
100
AcDbEntity
  8
1
  6
AUSGEZOGEN
 62
    14
100
AcDbLine
 10
262.6679636910337
 20
269.3486360835547
 30
0.0
 11
306.6679636910337
 21
269.3486360835547
 31
0.0
  0
ARC
  5
1A3
330
A
100
AcDbEntity
  8
1
  6
AUSGEZOGEN
 62
    14
100
AcDbCircle
 10
306.6679636910337
 20
267.3486360835547
 30
0.0
 40
2.0
100
AcDbArc
 50
0.0
 51
90.0
  0
ARC
  5
1A4
330
A
100
AcDbEntity
  8
1
  6
AUSGEZOGEN
 62
    14
100
AcDbCircle
 10
262.6679636910337
 20
267.3486360835547
 30
0.0
 40
2.0
100
AcDbArc
 50
90.0
 51
180.0
  0
ARC
  5
1A5
330
A
100
AcDbEntity
  8
1
  6
AUSGEZOGEN
 62
    14
100
AcDbCircle
 10
262.6679636910337
 20
247.3486360835547
 30
0.0
 40
2.0
100
AcDbArc
 50
180.0
 51
270.0
  0
ARC
  5
1A6
330
A
100
AcDbEntity
  8
1
  6
AUSGEZOGEN
 62
    14
100
AcDbCircle
 10
306.6679636910337
 20
247.3486360835547
 30
0.0
 40
2.0
100
AcDbArc
 50
270.0
 51
0.0
  0
LINE
  5
1A7
330
A
100
AcDbEntity
  8
1
  6
AUSGEZOGEN
 62
    14
100
AcDbLine
 10
260.6679636910337
 20
267.3486360835547
 30
0.0
 11
260.6679636910337
 21
247.3486360835547
 31
0.0
  0
LINE
  5
1A8
330
A
100
AcDbEntity
  8
1
  6
AUSGEZOGEN
 62
    14
100
AcDbLine
 10
262.6679636910337
 20
245.3486360835547
 30
0.0
 11
306.6679636910337
 21
245.3486360835547
 31
0.0
  0
LINE
  5
1A9
330
A
100
AcDbEntity
  8
1
  6
AUSGEZOGEN
 62
    14
100
AcDbLine
 10
308.6679636910337
 20
267.3486360835547
 30
0.0
 11
308.6679636910337
 21
247.3486360835547
 31
0.0
  0
LINE
  5
1AA
330
A
100
AcDbEntity
  8
1
  6
AUSGEZOGEN
 62
    14
100
AcDbLine
 10
262.6679636910337
 20
269.3486360835547
 30
0.0
 11
306.6679636910337
 21
269.3486360835547
 31
0.0
  0
LINE
  5
1AB
330
A
100
AcDbEntity
  8
1
  6
AUSGEZOGEN
 62
    14
100
AcDbLine
 10
260.6679636910337
 20
257.3486360835547
 30
0.0
 11
308.6679636910337
 21
257.3486360835547
 31
0.0
  0
LINE
  5
1AC
330
A
100
AcDbEntity
  8
1
  6
AUSGEZOGEN
 62
    14
100
AcDbLine
 10
260.6679636910337
 20
261.3486360835547
 30
0.0
 11
308.6679636910337
 21
261.3486360835547
 31
0.0
  0
LINE
  5
1AD
330
A
100
AcDbEntity
  8
1
  6
AUSGEZOGEN
 62
    14
100
AcDbLine
 10
283.0153790502409
 20
265.3486360835547
 30
0.0
 11
308.6679636910337
 21
265.3486360835547
 31
0.0
  0
LINE
  5
1AE
330
A
100
AcDbEntity
  8
1
  6
AUSGEZOGEN
 62
    14
100
AcDbLine
 10
260.6679636910337
 20
253.3486360835547
 30
0.0
 11
308.6679636910337
 21
253.3486360835547
 31
0.0
  0
LINE
  5
1AF
330
A
100
AcDbEntity
  8
1
  6
AUSGEZOGEN
 62
    14
100
AcDbLine
 10
260.6679636910337
 20
249.3486360835547
 30
0.0
 11
308.6679636910337
 21
249.3486360835547
 31
0.0
  0
LINE
  5
1B0
330
A
100
AcDbEntity
  8
1
  6
AUSGEZOGEN
 62
    14
100
AcDbLine
 10
276.6679636910337
 20
253.3486360835547
 30
0.0
 11
276.6679636910337
 21
245.3486360835547
 31
0.0
  0
LINE
  5
1B1
330
A
100
AcDbEntity
  8
1
  6
AUSGEZOGEN
 62
    14
100
AcDbLine
 10
283.0153790502409
 20
269.3486360835547
 30
0.0
 11
283.0153790502409
 21
261.3486360835547
 31
0.0
  0
TEXT
  5
1B2
330
A
100
AcDbEntity
  8
1
  6
AUSGEZOGEN
 62
    14
100
AcDbText
 10
283.5333912843939
 20
266.3486360835547
 30
0.0
 40
2.0
  1
Part No.
 41
0.4124338322255392
  7
ARIAL
100
AcDbText
  0
TEXT
  5
1B3
330
A
100
AcDbEntity
  8
1
  6
AUSGEZOGEN
 62
    14
100
AcDbText
 10
283.4562419819316
 20
262.3486360835547
 30
0.0
 40
2.0
  1
Model
 41
0.4124338322255392
  7
ARIAL
100
AcDbText
  0
ARC
  5
1B4
330
A
100
AcDbEntity
  8
1
  6
AUSGEZOGEN
 62
    14
100
AcDbCircle
 10
306.6679636910337
 20
267.3486360835547
 30
0.0
 40
2.0
100
AcDbArc
 50
0.0
 51
90.0
  0
ARC
  5
1B5
330
A
100
AcDbEntity
  8
1
  6
AUSGEZOGEN
 62
    14
100
AcDbCircle
 10
262.6679636910337
 20
267.3486360835547
 30
0.0
 40
2.0
100
AcDbArc
 50
90.0
 51
180.0
  0
ARC
  5
1B6
330
A
100
AcDbEntity
  8
1
  6
AUSGEZOGEN
 62
    14
100
AcDbCircle
 10
262.6679636910337
 20
247.3486360835547
 30
0.0
 40
2.0
100
AcDbArc
 50
180.0
 51
270.0
  0
ARC
  5
1B7
330
A
100
AcDbEntity
  8
1
  6
AUSGEZOGEN
 62
    14
100
AcDbCircle
 10
306.6679636910337
 20
247.3486360835547
 30
0.0
 40
2.0
100
AcDbArc
 50
270.0
 51
0.0
  0
TEXT
  5
1B8
330
A
100
AcDbEntity
  8
1
  6
AUSGEZOGEN
 62
    14
100
AcDbText
 10
261.3691515156998
 20
264.3486360835547
 30
0.0
 40
2.0
  1
G & L Motion Control Inc.
 41
0.4124338322255392
  7
ARIAL
100
AcDbText
  0
LINE
  5
1B9
330
A
100
AcDbEntity
  8
1
  6
AUSGEZOGEN
 62
    14
100
AcDbLine
 10
270.2679636910337
 20
261.3486360835547
 30
0.0
 11
270.2679636910337
 21
253.3486360835547
 31
0.0
  0
LINE
  5
1BA
330
A
100
AcDbEntity
  8
1
  6
AUSGEZOGEN
 62
    14
100
AcDbLine
 10
279.8679636910337
 20
261.3486360835547
 30
0.0
 11
279.8679636910337
 21
253.3486360835547
 31
0.0
  0
LINE
  5
1BB
330
A
100
AcDbEntity
  8
1
  6
AUSGEZOGEN
 62
    14
100
AcDbLine
 10
289.4679636910337
 20
261.3486360835547
 30
0.0
 11
289.4679636910337
 21
249.3486360835547
 31
0.0
  0
LINE
  5
1BC
330
A
100
AcDbEntity
  8
1
  6
AUSGEZOGEN
 62
    14
100
AcDbLine
 10
299.0679636910337
 20
261.3486360835547
 30
0.0
 11
299.0679636910337
 21
253.3486360835547
 31
0.0
  0
TEXT
  5
1BD
330
A
100
AcDbEntity
  8
1
  6
AUSGEZOGEN
 62
    14
100
AcDbText
 10
267.6315564840811
 20
258.3486360835547
 30
0.0
 40
2.0
  1
KW
 41
0.4124338328838349
  7
ARIAL
100
AcDbText
  0
TEXT
  5
1BE
330
A
100
AcDbEntity
  8
1
  6
AUSGEZOGEN
 62
    14
100
AcDbText
 10
276.2136697914976
 20
258.3486360835547
 30
0.0
 40
2.0
  1
RPM
 41
0.4124338328838349
  7
ARIAL
100
AcDbText
  0
TEXT
  5
1BF
330
A
100
AcDbEntity
  8
1
  6
AUSGEZOGEN
 62
    14
100
AcDbText
 10
280.3679636910337
 20
258.3520225318009
 30
0.0
 40
1.997395039810612
  1
Ins.Cl.
 41
0.3496892888877076
  7
ARIAL
100
AcDbText
  0
TEXT
  5
1C0
330
A
100
AcDbEntity
  8
1
  6
AUSGEZOGEN
 62
    14
100
AcDbText
 10
289.9679636910337
 20
258.3486360835547
 30
0.0
 40
2.0
  1
AMB
 41
0.4124338328838349
  7
ARIAL
100
AcDbText
  0
TEXT
  5
1C1
330
A
100
AcDbEntity
  8
1
  6
AUSGEZOGEN
 62
    14
100
AcDbText
 10
296.9759691238182
 20
258.3486360835547
 30
0.0
 40
2.0
  1
°C
 41
0.4124338328838349
  7
ARIAL
100
AcDbText
  0
TEXT
  5
1C2
330
A
100
AcDbEntity
  8
1
  6
AUSGEZOGEN
 62
    14
100
AcDbText
 10
299.5679636910336
 20
258.3486360835547
 30
0.0
 40
2.0
  1
IP
 41
0.4124338328838349
  7
ARIAL
100
AcDbText
  0
TEXT
  5
1C3
330
A
100
AcDbEntity
  8
1
  6
AUSGEZOGEN
 62
    14
100
AcDbText
 10
266.8017396124977
 20
254.3486360835547
 30
0.0
 40
2.0
  1
VAC
 41
0.4124338328838349
  7
ARIAL
100
AcDbText
  0
TEXT
  5
1C4
330
A
100
AcDbEntity
  8
1
  6
AUSGEZOGEN
 62
    14
100
AcDbText
 10
277.6670865958708
 20
254.3486360835547
 30
0.0
 40
2.0
  1
Hz
 41
0.4124338328838349
  7
ARIAL
100
AcDbText
  0
TEXT
  5
1C5
330
A
100
AcDbEntity
  8
1
  6
AUSGEZOGEN
 62
    14
100
AcDbText
 10
290.6187491652149
 20
254.3486360835547
 30
0.0
 40
2.0
  1
EN 60034
 41
0.4124338328838349
  7
ARIAL
100
AcDbText
  0
TEXT
  5
1C6
330
A
100
AcDbEntity
  8
1
  6
AUSGEZOGEN
 62
    14
100
AcDbText
 10
299.5679636910336
 20
254.3486360835547
 30
0.0
 40
2.0
  1
UL
 41
0.4124338328838349
  7
ARIAL
100
AcDbText
  0
TEXT
  5
1C7
330
A
100
AcDbEntity
  8
1
  6
AUSGEZOGEN
 62
    14
100
AcDbText
 10
277.1679636910337
 20
250.3486360835547
 30
0.0
 40
2.0
  1
Io
 41
0.4124338328838349
  7
ARIAL
100
AcDbText
  0
TEXT
  5
1C8
330
A
100
AcDbEntity
  8
1
  6
AUSGEZOGEN
 62
    14
100
AcDbText
 10
285.1125322711247
 20
250.3486360835547
 30
0.0
 40
2.0
  1
Amps
 41
0.4124338328838349
  7
ARIAL
100
AcDbText
  0
TEXT
  5
1C9
330
A
100
AcDbEntity
  8
1
  6
AUSGEZOGEN
 62
    14
100
AcDbText
 10
289.9679636910337
 20
250.3486360835547
 30
0.0
 40
2.0
  1
Inverter duty
 41
0.4124338328838349
  7
ARIAL
100
AcDbText
  0
TEXT
  5
1CA
330
A
100
AcDbEntity
  8
1
  6
AUSGEZOGEN
 62
    14
100
AcDbText
 10
300.9569706386107
 20
250.3486360835547
 30
0.0
 40
2.0
  1
VPWM VT
 41
0.4124338328838349
  7
ARIAL
100
AcDbText
  0
TEXT
  5
1CB
330
A
100
AcDbEntity
  8
1
  6
AUSGEZOGEN
 62
    14
100
AcDbText
 10
262.1679636910337
 20
250.3486360835547
 30
0.0
 40
2.0
  1
Mo
 41
0.4124338328838349
  7
ARIAL
100
AcDbText
  0
TEXT
  5
1CC
330
A
100
AcDbEntity
  8
1
  6
AUSGEZOGEN
 62
    14
100
AcDbText
 10
262.1679636910337
 20
246.3486360835547
 30
0.0
 40
2.0
  1
Art.No.
 41
0.4124338328838349
  7
ARIAL
100
AcDbText
  0
TEXT
  5
1CD
330
A
100
AcDbEntity
  8
1
  6
AUSGEZOGEN
 62
    14
100
AcDbText
 10
274.0909469538706
 20
250.3486360835547
 30
0.0
 40
2.0
  1
Nm
 41
0.4124338328838349
  7
ARIAL
100
AcDbText
  0
TEXT
  5
1CE
330
A
100
AcDbEntity
  8
1
  6
AUSGEZOGEN
 62
    14
100
AcDbText
 10
277.1679636910337
 20
246.3486360835547
 30
0.0
 40
2.0
  1
Serial No.
 41
0.4124338328838349
  7
ARIAL
100
AcDbText
  0
TEXT
  5
1CF
330
A
100
AcDbEntity
  8
1
  6
AUSGEZOGEN
 62
    14
100
AcDbText
 10
287.6298390866288
 20
254.3930376044041
 30
0.0
 40
2.36613322763822
  1
W
 41
0.7363701197877415
100
AcDbText
  0
TEXT
  5
1D0
330
A
100
AcDbEntity
  8
1
  6
AUSGEZOGEN
 62
    14
100
AcDbText
 10
304.3427840710104
 20
246.3486360835547
 30
0.0
 40
2.0
  1
/ H
 41
0.4124338328838349
  7
ARIAL
100
AcDbText
  0
INSERT
  5
F6B
330
A
100
AcDbEntity
  8
0
  6
Continuous
370
     0
100
AcDbBlockReference
 66
     1
  2
METRIC_C
 10
0.0
 20
0.0
 30
0.0
  0
ATTRIB
  5
F6D
330
F6B
100
AcDbEntity
  8
TITLE BLOCK
  6
Continuous
100
AcDbText
 10
442.5949999999999
 20
41.63140361642906
 30
0.0
 40
2.566953004259999
  1
G. MUMM
  7
STANDARD
100
AcDbAttribute
  2
GEN-TITLE-NAME{5}
 70
     0
  0
ATTRIB
  5
F6E
330
F6B
100
AcDbEntity
  8
TITLE BLOCK
  6
Continuous
100
AcDbText
 10
442.5949999999999
 20
35.28140361642906
 30
0.0
 40
2.566953004259999
  1

  7
STANDARD
100
AcDbAttribute
  2
GEN-TITLE-CHKM{5}
 70
     0
  0
ATTRIB
  5
F6F
330
F6B
100
AcDbEntity
  8
TITLE BLOCK
  6
Continuous
100
AcDbText
 10
442.5949999999999
 20
28.93140361642906
 30
0.0
 40
2.566953004259999
  1

  7
STANDARD
100
AcDbAttribute
  2
GEN-TITLE-APPM{5}
 70
     0
  0
ATTRIB
  5
F70
330
F6B
100
AcDbEntity
  8
TITLE BLOCK
  6
Continuous
100
AcDbText
 10
397.4988187523695
 20
15.32015091637034
 30
0.0
 40
4.059999999999999
  1
SERVO MOTOR, LSM75
 41
0.8
  7
STANDARD
100
AcDbAttribute
  2
GEN-TITLE-DES1{15.54}
 70
     0
  0
ATTRIB
  5
F71
330
F6B
100
AcDbEntity
  8
TITLE BLOCK
  6
Continuous
100
AcDbText
 10
530.8599999999999
 20
28.93140361642906
 30
0.0
 40
2.999484585477809
  1
1
 41
0.8
  7
STANDARD
100
AcDbAttribute
  2
GEN-TITLE-SHEET-OF{2.62}
 70
     0
  0
ATTRIB
  5
F72
330
F6B
100
AcDbEntity
  8
TITLE BLOCK
  6
Continuous
100
AcDbText
 10
520.6999999999999
 20
28.93140361642906
 30
0.0
 40
2.999484585477809
  1
1
 41
0.8
  7
STANDARD
100
AcDbAttribute
  2
GEN-TITLE-SHEET{2.62}
 70
     0
  0
ATTRIB
  5
F73
330
F6B
100
AcDbEntity
  8
TITLE BLOCK
  6
Continuous
100
AcDbText
 10
481.3299999999999
 20
28.93140361642906
 30
0.0
 40
2.566953004259999
  1

 41
0.8
  7
STANDARD
100
AcDbAttribute
  2
GEN-TITLE-MAT{11.15}
 70
     0
  0
ATTRIB
  5
F74
330
F6B
100
AcDbEntity
  8
TITLE BLOCK
  6
Continuous
100
AcDbText
 10
481.3299999999999
 20
35.28140361642906
 30
0.0
 40
2.566953004259999
  1

  7
STANDARD
100
AcDbAttribute
  2
GEN-TITLE-MACH{5}
 70
     0
  0
ATTRIB
  5
F75
330
F6B
100
AcDbEntity
  8
TITLE BLOCK
  6
Continuous
100
AcDbText
 10
481.3299999999999
 20
41.63140361642906
 30
0.0
 40
2.566953004259999
  1
M.0360003B
  7
STANDARD
100
AcDbAttribute
  2
GEN-TITLE-REF{5}
 70
     0
  0
ATTRIB
  5
F76
330
F6B
100
AcDbEntity
  8
TITLE BLOCK
  6
Continuous
100
AcDbText
 10
518.7949999999998
 20
35.28140361642906
 30
0.0
 40
2.566953004259999
  1
10.01.03
  7
STANDARD
100
AcDbAttribute
  2
GEN-TITLE-PLOT{5}
 70
     0
  0
ATTRIB
  5
F77
330
F6B
100
AcDbEntity
  8
TITLE BLOCK
  6
Continuous
100
AcDbText
 10
472.6291438818832
 20
15.59640361642906
 30
0.0
 40
4.059999999999999
  1
LSM75-xx-602-E2-xKA
 41
0.8
  7
STANDARD
100
AcDbAttribute
  2
GEN-TITLE-NR{13.37}
 70
     0
  0
SEQEND
  5
F6C
330
F6B
100
AcDbEntity
  8
0
  6
Continuous
370
     0
  0
INSERT
  5
F97
330
A
100
AcDbEntity
  8
0
  6
AUSGEZOGEN
 62
     9
100
AcDbBlockReference
  2
ISOTOLWE_5
 10
170.9960477319977
 20
261.0914656269636
 30
0.0
  0
INSERT
  5
F98
330
A
100
AcDbEntity
  8
0
  6
AUSGEZOGEN
 62
     9
100
AcDbBlockReference
  2
ISOTOLWE_6
 10
170.9960477319977
 20
251.241474782237
 30
0.0
  0
LINE
  5
FB7
330
A
100
AcDbEntity
  8
0
  6
Continuous
 62
     1
370
     0
100
AcDbLine
 10
157.0
 20
270.0
 30
0.0
 11
182.0
 21
270.0
 31
0.0
  0
LINE
  5
FB8
330
A
100
AcDbEntity
  8
0
  6
Continuous
 62
     1
370
     0
100
AcDbLine
 10
182.0
 20
270.0
 30
0.0
 11
182.0
 21
251.0
 31
0.0
  0
LINE
  5
FB9
330
A
100
AcDbEntity
  8
0
  6
Continuous
 62
     1
370
     0
100
AcDbLine
 10
182.0
 20
251.0
 30
0.0
 11
157.0
 21
251.0
 31
0.0
  0
LINE
  5
FBA
330
A
100
AcDbEntity
  8
0
  6
Continuous
 62
     1
370
     0
100
AcDbLine
 10
157.0
 20
251.0
 30
0.0
 11
157.0
 21
270.0
 31
0.0
  0
LINE
  5
FBD
330
A
100
AcDbEntity
  8
0
  6
Continuous
 62
     1
370
     0
100
AcDbLine
 10
171.0
 20
270.0
 30
0.0
 11
171.0
 21
251.0
 31
0.0
  0
LINE
  5
FBE
330
A
100
AcDbEntity
  8
0
  6
Continuous
 62
     1
370
     0
100
AcDbLine
 10
157.0
 20
260.0
 30
0.0
 11
182.0
 21
260.0
 31
0.0
  0
ENDSEC
  0
SECTION
  2
OBJECTS
  0
DICTIONARY
  5
19
330
0
100
AcDbDictionary
281
     1
  3
ACAD_GROUP
350
1A
  3
ACAD_LAYOUT
350
1E
  3
ACAD_MLINESTYLE
350
1B
  3
ACAD_PLOTSETTINGS
350
22
  3
ACAD_PLOTSTYLENAME
350
1F
  3
ACAD_WIPEOUT_VARS
350
23
  3
AcDbVariableDictionary
350
459
  3
AcmDictionary
350
46C
  3
AMG
350
450
  3
AMGSNAPSETTINGS
350
4A1
  3
ASE_INDEX_DICTIONARY
350
FA0
  3
DWGPROPS
350
100F
  0
DICTIONARY
  5
969
330
A
100
AcDbDictionary
280
     1
281
     1
  3
ACAD_INDEX
360
A7D
  0
DICTIONARY
  5
1A
102
{ACAD_REACTORS
330
19
102
}
330
19
100
AcDbDictionary
281
     1
  0
DICTIONARY
  5
1E
102
{ACAD_REACTORS
330
19
102
}
330
19
100
AcDbDictionary
281
     1
  3
Layout1
350
21
  3
Model
350
20
  0
DICTIONARY
  5
1B
102
{ACAD_REACTORS
330
19
102
}
330
19
100
AcDbDictionary
281
     1
  3
Standard
350
1C
  0
DICTIONARY
  5
22
102
{ACAD_REACTORS
330
19
102
}
330
19
100
AcDbDictionary
281
     1
  0
ACDBDICTIONARYWDFLT
  5
1F
102
{ACAD_REACTORS
330
19
102
}
330
19
100
AcDbDictionary
281
     1
  3
Normal
350
1D
100
AcDbDictionaryWithDefault
340
1D
  0
ACAD_PROXY_OBJECT
  5
23
330
19
100
AcDbProxyObject
 90
      499
 91
      521
 95
   655383
 70
     0
 93
       10
310
4041
 94
        0
  0
DICTIONARY
  5
459
102
{ACAD_REACTORS
330
19
102
}
330
19
100
AcDbDictionary
281
     1
  3
INDEXCTL
350
45A
  0
DICTIONARY
  5
46C
102
{ACAD_REACTORS
330
19
102
}
330
19
100
AcDbDictionary
281
     1
  3
AcmBOMDATA
350
46D
  3
AcmStdDictionary
350
472
  0
DICTIONARY
  5
450
102
{ACAD_REACTORS
330
19
102
}
330
19
100
AcDbDictionary
281
     1
  3
AcMgSettings
350
451
  3
AMGLAYCFG
350
474
  0
DICTIONARY
  5
4A1
102
{ACAD_REACTORS
330
19
102
}
330
19
100
AcDbDictionary
281
     1
  3
DIMENSION
350
4A6
  3
FEA
350
4A5
  3
HATCH (1)
350
4A2
  3
HATCH (2)
350
4A3
  3
SIMPLE WELD
350
4A7
  3
SYMBOLS
350
4A4
  0
DICTIONARY
  5
FA0
102
{ACAD_REACTORS
330
19
102
}
330
19
100
AcDbDictionary
281
     1
  3
ASEBlockHierarchyIndexRecord
350
FA1
1001
DCO15
1040
1456122613.984
  0
XRECORD
  5
100F
102
{ACAD_REACTORS
330
19
102
}
330
19
100
AcDbXrecord
280
     1
  1
DWGPROPS COOKIE
  2

  3

  4

  6

  7

  8

  9

300
AmdtFileType=84
301
=
302
=
303
=
304
=
305
=
306
=
307
=
308
=
309
=
 40
0.0739695949074074
 41
2452614.370240694
 42
2452650.544926319
  1

 90
        1
  0
DICTIONARY
  5
A7D
102
{ACAD_REACTORS
330
969
102
}
330
969
100
AcDbDictionary
281
     1
  3
*A1
350
A7E
  0
LAYOUT
  5
21
102
{ACAD_REACTORS
330
1E
102
}
330
1E
100
AcDbPlotSettings
  1

  2

  4

  6

 40
0.0
 41
0.0
 42
0.0
 43
0.0
 44
0.0
 45
0.0
 46
0.0
 47
0.0
 48
0.0
 49
0.0
140
0.0
141
0.0
142
1.0
143
1.0
 70
     0
 72
     0
 73
     0
 74
     0
  7
monochrome.ctb
 75
     0
147
1.0
148
0.0
149
0.0
100
AcDbLayout
  1
Layout1
 70
     0
 71
     1
 10
0.0
 20
0.0
 11
12.0
 21
9.0
 12
0.0
 22
0.0
 32
0.0
 14
1.000000000000000E+20
 24
1.000000000000000E+20
 34
1.000000000000000E+20
 15
-1.000000000000000E+20
 25
-1.000000000000000E+20
 35
-1.000000000000000E+20
146
0.0
 13
0.0
 23
0.0
 33
0.0
 16
1.0
 26
0.0
 36
0.0
 17
0.0
 27
1.0
 37
0.0
 76
     0
330
B
  0
LAYOUT
  5
20
102
{ACAD_REACTORS
330
1E
102
}
330
1E
100
AcDbPlotSettings
  1

  2
\\Fdlfs06\Engineering - HP LaserJet 5Si MX
  4
Letter
  6

 40
7.143749713897705
 41
6.974400997161865
 42
7.14373779296875
 43
6.297088623046875
 44
215.8999938964843
 45
279.3999938964843
 46
0.0
 47
0.762
 48
0.0
 49
0.0
140
0.0
141
0.0
142
1.0
143
53.61731498498111
 70
 11444
 72
     0
 73
     1
 74
     1
  7
monochrome.ctb
 75
     0
147
0.0186506914842736
148
1.095807122428459
149
-6.068581438947239
100
AcDbLayout
  1
Model
 70
     0
 71
     0
 10
0.0
 20
0.0
 11
0.0
 21
0.0
 12
0.0
 22
0.0
 32
0.0
 14
0.0
 24
0.0
 34
0.0
 15
0.0
 25
0.0
 35
0.0
146
0.0
 13
0.0
 23
0.0
 33
0.0
 16
0.0
 26
0.0
 36
0.0
 17
0.0
 27
0.0
 37
0.0
 76
     0
330
A
  0
MLINESTYLE
  5
1C
102
{ACAD_REACTORS
330
1B
102
}
330
1B
100
AcDbMlineStyle
  2
STANDARD
 70
     0
  3

 62
     0
 51
90.0
 52
90.0
 71
     2
 49
0.5
 62
   256
  6
BYLAYER
 49
-0.5
 62
   256
  6
BYLAYER
  0
ACDBPLACEHOLDER
  5
1D
102
{ACAD_REACTORS
330
1F
102
}
330
1F
  0
DICTIONARYVAR
  5
45A
102
{ACAD_REACTORS
330
459
102
}
330
459
100
DictionaryVariables
280
     0
  1
1
  0
ACMDATADICTIONARY
  5
46D
102
{ACAD_REACTORS
330
46C
102
}
330
46C
100
AcDbDictionary
281
     1
  3
*A1
350
46E
100
AcmDataDictionary
  0
DICTIONARY
  5
472
102
{ACAD_REACTORS
330
46C
102
}
330
46C
100
AcDbDictionary
281
     1
  3
ANSI
350
473
  0
DICTIONARY
  5
451
102
{ACAD_REACTORS
330
450
102
}
330
450
100
AcDbDictionary
281
     1
  3
DWGSETTINGS
350
452
  3
TRANSSETTINGS
350
453
  0
ACAMGFILTERDAT
  5
4A6
102
{ACAD_REACTORS
330
4A1
102
}
330
4A1
100
AcAmgFilterDat
 70
    15
  1
DIMENSION,AMDT_*_DIM
  2
*
  3
*
  4
*
  5
*
290
     1
  0
ACAMGFILTERDAT
  5
4A5
102
{ACAD_REACTORS
330
4A1
102
}
330
4A1
100
AcAmgFilterDat
 70
    15
  1
*
  2
AM_FEA-AM_*
  3
*
  4
*
  5
*
290
     1
  0
ACAMGFILTERDAT
  5
4A2
102
{ACAD_REACTORS
330
4A1
102
}
330
4A1
100
AcAmgFilterDat
 70
    15
  1
HATCH
  2
*
  3
*
  4
*
  5
*
290
     1
  0
ACAMGFILTERDAT
  5
4A3
102
{ACAD_REACTORS
330
4A1
102
}
330
4A1
100
AcAmgFilterDat
 70
    15
  1
LINE
  2
8,8N,*-8,*-8N,AM_8,AM_8N,*-AM_8,*-AM_8N
  3
*
  4
*
  5
INSERT,STDPART2D
290
     1
  0
ACAMGFILTERDAT
  5
4A7
102
{ACAD_REACTORS
330
4A1
102
}
330
4A1
100
AcAmgFilterDat
 70
    15
  1
ARC
  2
AM_5
  3
*
  4
2
  5
INSERT
290
     0
  0
ACAMGFILTERDAT
  5
4A4
102
{ACAD_REACTORS
330
4A1
102
}
330
4A1
100
AcAmgFilterDat
 70
    15
  1
ACMFCFRAME,ACMDATUMTARGET,ACMDATUMID,ACMWELDSYM,ACMSURFSYM,ACMFEATID,ACMPARTREF,ACMBALLOON,AMDTEDGESYM
  2
*
  3
*
  4
*
  5
*
290
     1
  0
XRECORD
  5
FA1
102
{ACAD_REACTORS
330
FA0
102
}
330
FA0
100
AcDbXrecord
280
     1
330
58
330
59
330
5C
330
5D
330
5E
330
5F
330
60
330
61
330
62
330
63
330
64
330
65
330
66
330
67
330
68
330
69
330
F6B
330
F97
330
F98
  0
LAYER_INDEX
  5
A7E
102
{ACAD_REACTORS
330
A7D
102
}
330
A7D
100
AcDbIndex
 40
2452656.482847037
100
AcDbLayerIndex
  8
0
360
A7F
 90
       26
  8
1
360
A80
 90
      237
  8
2
360
A81
 90
        3
  8
3
360
A82
 90
       31
  8
4
360
A83
 90
        4
  8
5
360
A84
 90
       61
  8
Defpoints
360
A85
 90
        0
  8
BORDER
360
A86
 90
        0
  8
TITLE BLOCK
360
A87
 90
        0
  0
ACMDATAENTRYBLOCK
  5
46E
102
{ACAD_REACTORS
330
46D
102
}
330
46D
100
AcmDataEntry
100
AcmDataEntryBlock
  0
IDBUFFER
  5
A7F
330
0
100
AcDbIdBuffer
330
FB7
330
FB8
330
FB9
330
FBA
330
FBD
330
FBE
330
F97
330
F98
330
F6B
330
5C
330
5D
330
5E
330
5F
330
60
330
61
330
62
330
63
330
64
330
65
330
66
330
67
330
68
330
69
330
A0
330
130
330
188
  0
IDBUFFER
  5
A80
330
0
100
AcDbIdBuffer
330
58
330
59
330
6B
330
6C
330
6D
330
6E
330
6F
330
70
330
71
330
72
330
73
330
74
330
75
330
76
330
77
330
78
330
79
330
7A
330
7C
330
7D
330
7E
330
7F
330
80
330
81
330
82
330
83
330
98
330
99
330
9A
330
9B
330
9C
330
9D
330
9F
330
A7
330
B3
330
B4
330
B5
330
B6
330
B7
330
B9
330
BA
330
BB
330
BC
330
BD
330
BE
330
BF
330
C0
330
C1
330
C2
330
C3
330
C4
330
DF
330
E0
330
E1
330
E2
330
E3
330
E4
330
E8
330
E9
330
EA
330
EB
330
EC
330
ED
330
EE
330
EF
330
F0
330
F1
330
F2
330
F3
330
F4
330
F5
330
F6
330
F7
330
F8
330
F9
330
FA
330
FB
330
FC
330
FD
330
FE
330
FF
330
10A
330
10B
330
10E
330
110
330
111
330
112
330
113
330
114
330
115
330
116
330
117
330
118
330
11A
330
11B
330
11C
330
11D
330
11E
330
11F
330
120
330
121
330
122
330
123
330
124
330
125
330
126
330
127
330
128
330
129
330
12A
330
12B
330
12C
330
12D
330
136
330
137
330
138
330
139
330
13A
330
13B
330
13C
330
13D
330
13E
330
13F
330
140
330
141
330
142
330
143
330
146
330
147
330
148
330
149
330
14A
330
14B
330
151
330
152
330
153
330
154
330
155
330
156
330
15D
330
15E
330
15F
330
160
330
161
330
162
330
163
330
164
330
165
330
166
330
167
330
168
330
169
330
16A
330
16B
330
16C
330
16D
330
16E
330
16F
330
170
330
171
330
172
330
173
330
174
330
175
330
176
330
177
330
178
330
179
330
17A
330
17B
330
17C
330
17D
330
17E
330
17F
330
180
330
181
330
182
330
183
330
184
330
185
330
18D
330
18E
330
190
330
192
330
193
330
194
330
197
330
19F
330
1A0
330
1A1
330
1A2
330
1A3
330
1A4
330
1A5
330
1A6
330
1A7
330
1A8
330
1A9
330
1AA
330
1AB
330
1AC
330
1AD
330
1AE
330
1AF
330
1B0
330
1B1
330
1B2
330
1B3
330
1B4
330
1B5
330
1B6
330
1B7
330
1B8
330
1B9
330
1BA
330
1BB
330
1BC
330
1BD
330
1BE
330
1BF
330
1C0
330
1C1
330
1C2
330
1C3
330
1C4
330
1C5
330
1C6
330
1C7
330
1C8
330
1C9
330
1CA
330
1CB
330
1CC
330
1CD
330
1CE
330
1CF
330
1D0
  0
IDBUFFER
  5
A81
330
0
100
AcDbIdBuffer
330
A1
330
131
330
189
  0
IDBUFFER
  5
A82
330
0
100
AcDbIdBuffer
330
84
330
85
330
8D
330
8E
330
96
330
97
330
B8
330
C6
330
C7
330
C8
330
C9
330
CE
330
CF
330
D5
330
D6
330
DD
330
DE
330
E6
330
E7
330
100
330
103
330
10F
330
119
330
12E
330
12F
330
144
330
145
330
14D
330
14E
330
14F
330
150
  0
IDBUFFER
  5
A83
330
0
100
AcDbIdBuffer
330
101
330
102
330
104
330
105
  0
IDBUFFER
  5
A84
330
0
100
AcDbIdBuffer
330
7B
330
86
330
87
330
88
330
89
330
8A
330
8B
330
8C
330
8F
330
90
330
91
330
92
330
93
330
94
330
95
330
A8
330
A9
330
AA
330
AB
330
AC
330
AD
330
AE
330
AF
330
B0
330
B1
330
B2
330
C5
330
CA
330
CB
330
CC
330
CD
330
D0
330
D1
330
D2
330
D3
330
D4
330
D7
330
D8
330
D9
330
DA
330
DB
330
DC
330
E5
330
106
330
107
330
108
330
109
330
10C
330
10D
330
14C
330
157
330
158
330
159
330
15A
330
15B
330
15C
330
186
330
187
330
191
330
195
330
196
  0
IDBUFFER
  5
A85
330
0
100
AcDbIdBuffer
  0
IDBUFFER
  5
A86
330
0
100
AcDbIdBuffer
  0
IDBUFFER
  5
A87
330
0
100
AcDbIdBuffer
  0
ENDSEC
  0
EOF
