  0
SECTION
  2
HEADER
  9
$ACADVER
  1
AC1015
  9
$ACADMAINTVER
 70
    11
  9
$DWGCODEPAGE
  3
ANSI_1252
  9
$INSBASE
 10
0.0
 20
0.0
 30
0.0
  9
$EXTMIN
 10
0.0000022600000076
 20
0.0329807186641292
 30
0.0
  9
$EXTMAX
 10
16.99999962000001
 20
11.01996597902326
 30
0.0
  9
$LIMMIN
 10
0.0
 20
0.0
  9
$LIMMAX
 10
12.0
 20
9.0
  9
$ORTHOMODE
 70
     1
  9
$REGENMODE
 70
     1
  9
$FILLMODE
 70
     1
  9
$QTEXTMODE
 70
     0
  9
$MIRRTEXT
 70
     1
  9
$LTSCALE
 40
1.0
  9
$ATTMODE
 70
     1
  9
$TEXTSIZE
 40
0.2
  9
$TRACEWID
 40
0.05
  9
$TEXTSTYLE
  7
Standard
  9
$CLAYER
  8
0
  9
$CELTYPE
  6
ByLayer
  9
$CECOLOR
 62
   256
  9
$CELTSCALE
 40
1.0
  9
$DISPSILH
 70
     0
  9
$DIMSCALE
 40
1.0
  9
$DIMASZ
 40
0.18
  9
$DIMEXO
 40
0.0625
  9
$DIMDLI
 40
0.38
  9
$DIMRND
 40
0.0
  9
$DIMDLE
 40
0.0
  9
$DIMEXE
 40
0.18
  9
$DIMTP
 40
0.0
  9
$DIMTM
 40
0.0
  9
$DIMTXT
 40
0.125
  9
$DIMCEN
 40
0.09
  9
$DIMTSZ
 40
0.0
  9
$DIMTOL
 70
     0
  9
$DIMLIM
 70
     0
  9
$DIMTIH
 70
     1
  9
$DIMTOH
 70
     1
  9
$DIMSE1
 70
     0
  9
$DIMSE2
 70
     0
  9
$DIMTAD
 70
     0
  9
$DIMZIN
 70
     0
  9
$DIMBLK
  1

  9
$DIMASO
 70
     1
  9
$DIMSHO
 70
     1
  9
$DIMPOST
  1

  9
$DIMAPOST
  1

  9
$DIMALT
 70
     0
  9
$DIMALTD
 70
     2
  9
$DIMALTF
 40
25.4
  9
$DIMLFAC
 40
1.0
  9
$DIMTOFL
 70
     0
  9
$DIMTVP
 40
0.0
  9
$DIMTIX
 70
     0
  9
$DIMSOXD
 70
     0
  9
$DIMSAH
 70
     0
  9
$DIMBLK1
  1

  9
$DIMBLK2
  1

  9
$DIMSTYLE
  2
Standard
  9
$DIMCLRD
 70
     0
  9
$DIMCLRE
 70
     0
  9
$DIMCLRT
 70
     0
  9
$DIMTFAC
 40
1.0
  9
$DIMGAP
 40
0.09
  9
$DIMJUST
 70
     0
  9
$DIMSD1
 70
     0
  9
$DIMSD2
 70
     0
  9
$DIMTOLJ
 70
     1
  9
$DIMTZIN
 70
     0
  9
$DIMALTZ
 70
     0
  9
$DIMALTTZ
 70
     0
  9
$DIMUPT
 70
     0
  9
$DIMDEC
 70
     4
  9
$DIMTDEC
 70
     4
  9
$DIMALTU
 70
     2
  9
$DIMALTTD
 70
     2
  9
$DIMTXSTY
  7
Standard
  9
$DIMAUNIT
 70
     0
  9
$DIMADEC
 70
     0
  9
$DIMALTRND
 40
0.0
  9
$DIMAZIN
 70
     0
  9
$DIMDSEP
 70
    46
  9
$DIMATFIT
 70
     3
  9
$DIMFRAC
 70
     0
  9
$DIMLDRBLK
  1

  9
$DIMLUNIT
 70
     2
  9
$DIMLWD
 70
    -2
  9
$DIMLWE
 70
    -2
  9
$DIMTMOVE
 70
     0
  9
$LUNITS
 70
     2
  9
$LUPREC
 70
     4
  9
$SKETCHINC
 40
0.1
  9
$FILLETRAD
 40
0.5
  9
$AUNITS
 70
     0
  9
$AUPREC
 70
     0
  9
$MENU
  1
.
  9
$ELEVATION
 40
0.0
  9
$PELEVATION
 40
0.0
  9
$THICKNESS
 40
0.0
  9
$LIMCHECK
 70
     0
  9
$CHAMFERA
 40
0.5
  9
$CHAMFERB
 40
0.5
  9
$CHAMFERC
 40
1.0
  9
$CHAMFERD
 40
0.0
  9
$SKPOLY
 70
     0
  9
$TDCREATE
 40
2452542.548639722
  9
$TDUCREATE
 40
2452542.756973056
  9
$TDUPDATE
 40
2452893.356322384
  9
$TDUUPDATE
 40
2452893.564655717
  9
$TDINDWG
 40
0.0706409259
  9
$TDUSRTIMER
 40
0.0706408102
  9
$USRTIMER
 70
     1
  9
$ANGBASE
 50
0.0
  9
$ANGDIR
 70
     0
  9
$PDMODE
 70
     0
  9
$PDSIZE
 40
0.0
  9
$PLINEWID
 40
0.0
  9
$SPLFRAME
 70
     0
  9
$SPLINETYPE
 70
     6
  9
$SPLINESEGS
 70
     8
  9
$HANDSEED
  5
1146
  9
$SURFTAB1
 70
     6
  9
$SURFTAB2
 70
     6
  9
$SURFTYPE
 70
     6
  9
$SURFU
 70
     6
  9
$SURFV
 70
     6
  9
$UCSBASE
  2

  9
$UCSNAME
  2

  9
$UCSORG
 10
0.0
 20
0.0
 30
0.0
  9
$UCSXDIR
 10
1.0
 20
0.0
 30
0.0
  9
$UCSYDIR
 10
0.0
 20
1.0
 30
0.0
  9
$UCSORTHOREF
  2

  9
$UCSORTHOVIEW
 70
     0
  9
$UCSORGTOP
 10
0.0
 20
0.0
 30
0.0
  9
$UCSORGBOTTOM
 10
0.0
 20
0.0
 30
0.0
  9
$UCSORGLEFT
 10
0.0
 20
0.0
 30
0.0
  9
$UCSORGRIGHT
 10
0.0
 20
0.0
 30
0.0
  9
$UCSORGFRONT
 10
0.0
 20
0.0
 30
0.0
  9
$UCSORGBACK
 10
0.0
 20
0.0
 30
0.0
  9
$PUCSBASE
  2

  9
$PUCSNAME
  2

  9
$PUCSORG
 10
0.0
 20
0.0
 30
0.0
  9
$PUCSXDIR
 10
1.0
 20
0.0
 30
0.0
  9
$PUCSYDIR
 10
0.0
 20
1.0
 30
0.0
  9
$PUCSORTHOREF
  2

  9
$PUCSORTHOVIEW
 70
     0
  9
$PUCSORGTOP
 10
0.0
 20
0.0
 30
0.0
  9
$PUCSORGBOTTOM
 10
0.0
 20
0.0
 30
0.0
  9
$PUCSORGLEFT
 10
0.0
 20
0.0
 30
0.0
  9
$PUCSORGRIGHT
 10
0.0
 20
0.0
 30
0.0
  9
$PUCSORGFRONT
 10
0.0
 20
0.0
 30
0.0
  9
$PUCSORGBACK
 10
0.0
 20
0.0
 30
0.0
  9
$USERI1
 70
     0
  9
$USERI2
 70
     0
  9
$USERI3
 70
     0
  9
$USERI4
 70
     0
  9
$USERI5
 70
     0
  9
$USERR1
 40
0.0
  9
$USERR2
 40
0.0
  9
$USERR3
 40
0.0
  9
$USERR4
 40
0.0
  9
$USERR5
 40
0.0
  9
$WORLDVIEW
 70
     1
  9
$SHADEDGE
 70
     3
  9
$SHADEDIF
 70
    70
  9
$TILEMODE
 70
     1
  9
$MAXACTVP
 70
    64
  9
$PINSBASE
 10
0.0
 20
0.0
 30
0.0
  9
$PLIMCHECK
 70
     0
  9
$PEXTMIN
 10
1.000000000000000E+20
 20
1.000000000000000E+20
 30
1.000000000000000E+20
  9
$PEXTMAX
 10
-1.000000000000000E+20
 20
-1.000000000000000E+20
 30
-1.000000000000000E+20
  9
$PLIMMIN
 10
0.0
 20
0.0
  9
$PLIMMAX
 10
12.0
 20
9.0
  9
$UNITMODE
 70
     0
  9
$VISRETAIN
 70
     1
  9
$PLINEGEN
 70
     0
  9
$PSLTSCALE
 70
     1
  9
$TREEDEPTH
 70
  3020
  9
$CMLSTYLE
  2
Standard
  9
$CMLJUST
 70
     0
  9
$CMLSCALE
 40
1.0
  9
$PROXYGRAPHICS
 70
     1
  9
$MEASUREMENT
 70
     0
  9
$CELWEIGHT
370
    -1
  9
$ENDCAPS
280
     0
  9
$JOINSTYLE
280
     0
  9
$LWDISPLAY
290
     0
  9
$INSUNITS
 70
     1
  9
$HYPERLINKBASE
  1

  9
$STYLESHEET
  1
monochrome.ctb
  9
$XEDIT
290
     1
  9
$CEPSNTYPE
380
     0
  9
$PSTYLEMODE
290
     1
  9
$FINGERPRINTGUID
  2
{10CA760A-CFCB-11D6-843A-00B0D02CC2F3}
  9
$VERSIONGUID
  2
{5B28169C-ECA4-4ED0-9794-CBD56C813EDF}
  9
$EXTNAMES
290
     1
  9
$PSVPSCALE
 40
0.0
  9
$OLESTARTUP
290
     0
  0
ENDSEC
  0
SECTION
  2
CLASSES
  0
CLASS
  1
ACDBDICTIONARYWDFLT
  2
AcDbDictionaryWithDefault
  3
AutoCAD 2000
 90
        0
280
     0
281
     0
  0
CLASS
  1
ACDBPLACEHOLDER
  2
AcDbPlaceHolder
  3
AutoCAD 2000
 90
        0
280
     0
281
     0
  0
CLASS
  1
LAYOUT
  2
AcDbLayout
  3
AutoCAD 2000
 90
        0
280
     0
281
     0
  0
CLASS
  1
ACME_DOCUMENT
  2
AcMeDbDoc
  3
AcMeServices
 90
        0
280
     0
281
     0
  0
CLASS
  1
AMGSETTINGSOBJ
  2
AmgSettingsObj
  3
"AcadM|Product Description: AutoCAD Mechanical 2000|Company: Autodesk"
 90
        0
280
     0
281
     0
  0
CLASS
  1
ACMESCOPE
  2
AcMeScope
  3
AcMeServices
 90
        0
280
     0
281
     0
  0
CLASS
  1
ACMECOMMANDHISTORY
  2
AcMeCommandHistory
  3
AcMeServices
 90
        0
280
     0
281
     0
  0
CLASS
  1
DICTIONARYVAR
  2
AcDbDictionaryVar
  3
AutoCAD 2000
 90
        0
280
     0
281
     0
  0
CLASS
  1
ACIMSYSVARMAN
  2
AcImSysVarManager
  3
AcMeServices
 90
        0
280
     0
281
     0
  0
CLASS
  1
ACIMREALSYSVAR
  2
AcImRealSysVar
  3
AcMeServices
 90
        0
280
     0
281
     0
  0
CLASS
  1
ACIMINTSYSVAR
  2
AcImIntSysVar
  3
AcMeServices
 90
        0
280
     0
281
     0
  0
CLASS
  1
ACMEDRAWINGMAN
  2
AcMeDrawingMan
  3
AcMeServices
 90
        0
280
     0
281
     0
  0
CLASS
  1
ACMEVIEW
  2
AcMeView
  3
AcMeServices
 90
        0
280
     0
281
     0
  0
CLASS
  1
ACDBENTITYCACHE
  2
AcMeEntityCache
  3
AcMeServices
 90
        0
280
     0
281
     0
  0
CLASS
  1
GSMANAGER
  2
AcMeGSManager
  3
AcMeServices
 90
        0
280
     0
281
     0
  0
CLASS
  1
AMDTINTERNALREACTOR
  2
AmdtInternalReactor
  3
AcMeServices
 90
        0
280
     0
281
     0
  0
CLASS
  1
ACMESTATEMGR
  2
AcMeStateMgr
  3
AcMeServices
 90
        0
280
     0
281
     0
  0
CLASS
  1
ACGREFMASTER
  2
AcGrefMaster
  3
AcAttribServices
 90
        0
280
     0
281
     0
  0
CLASS
  1
ACME_DATABASE
  2
AcMeDbDatabase
  3
AcMeServices
 90
        0
280
     0
281
     0
  0
CLASS
  1
ACRFINSADJUSTERMGR
  2
AcRfInsAdjusterMgr
  3
AcMeServices
 90
        0
280
     0
281
     0
  0
CLASS
  1
ACGREFMASTER
  2
AcGrefacadMaster
  3
AcGrefServices
 90
        0
280
     0
281
     0
  0
CLASS
  1
AMIMASTER
  2
AmiMaster
  3
AmiServices
 90
        0
280
     0
281
     0
  0
CLASS
  1
ACMDATADICTIONARY
  2
AcmDataDictionary
  3
"AcmSymBB|Product Description: AutoCAD Mechanical 2000|Company: Autodesk"
 90
        0
280
     0
281
     0
  0
CLASS
  1
ACMDATAENTRYBLOCK
  2
AcmDataEntryBlock
  3
"AcmSymBB|Product Description: AutoCAD Mechanical 2000|Company: Autodesk"
 90
        0
280
     0
281
     0
  0
CLASS
  1
ACIMSTRSYSVAR
  2
AcImStrSysVar
  3
AcMeServices
 90
        0
280
     0
281
     0
  0
CLASS
  1
ACMSTANDARDANSI
  2
AcmStandardANSI
  3
"Amdt_StdImp|Product Description: AutoCAD Mechanical 2000|Company: Autodesk"
 90
        0
280
     0
281
     0
  0
CLASS
  1
AMGOBJPROPCFG
  2
AmgObjPropCfg
  3
"AmgLay|Product Description: AutoCAD Mechanical 2000|Company: Autodesk"
 90
        1
280
     0
281
     0
  0
CLASS
  1
ACMSURFSTANDARDANSI
  2
AcmSurfTextStdANSI
  3
"Amdt_StdImp|Product Description: AutoCAD Mechanical 2000|Company: Autodesk"
 90
        0
280
     0
281
     0
  0
CLASS
  1
ACMFCFSTANDARDANSI
  2
AcmFCFStdANSI
  3
"Amdt_StdImp|Product Description: AutoCAD Mechanical 2000|Company: Autodesk"
 90
        0
280
     0
281
     0
  0
CLASS
  1
ACMWELDSTANDARDANSI
  2
AcmWeldingStdANSI
  3
"Amdt_StdImp|Product Description: AutoCAD Mechanical 2000|Company: Autodesk"
 90
        0
280
     0
281
     0
  0
CLASS
  1
ACMIDSTANDARDANSI
  2
AcmIdStdANSI
  3
"Amdt_StdImp|Product Description: AutoCAD Mechanical 2000|Company: Autodesk"
 90
        0
280
     0
281
     0
  0
CLASS
  1
ACMDATUMSTANDARDANSI
  2
AcmDatumStdANSI
  3
"Amdt_StdImp|Product Description: AutoCAD Mechanical 2000|Company: Autodesk"
 90
        0
280
     0
281
     0
  0
CLASS
  1
ACMBOMSTANDARDANSI
  2
AcmBOMStdANSI
  3
"Amdt_StdImp|Product Description: AutoCAD Mechanical 2000|Company: Autodesk"
 90
        0
280
     0
281
     0
  0
CLASS
  1
ACMDETAILSTANDARDANSI
  2
AmdtDetailSymStdANSI
  3
"Amdt_StdImp|Product Description: AutoCAD Mechanical 2000|Company: Autodesk"
 90
        0
280
     0
281
     0
  0
CLASS
  1
ACMSECTIONSTANDARDANSI
  2
AmdtSectionSymStdANSI
  3
"Amdt_StdImp|Product Description: AutoCAD Mechanical 2000|Company: Autodesk"
 90
        0
280
     0
281
     0
  0
CLASS
  1
ACMCENTERLINESTANDARDANSI
  2
AmdtCenterLineStdANSI
  3
"Amdt_StdImp|Product Description: AutoCAD Mechanical 2000|Company: Autodesk"
 90
        0
280
     0
281
     0
  0
CLASS
  1
"AcAmgLayStd"
  2
AcAmgLayStd
  3
"AcAmgLayStd|Product Description: AutoCAD Mechanical 2000|Company: Autodesk"
 90
        0
280
     0
281
     0
  0
CLASS
  1
"AcAmgDimStd"
  2
AcAmgDimStd
  3
"AcAmgDimStd|Product Description: AutoCAD Mechanical 2000|Company: Autodesk"
 90
        0
280
     0
281
     0
  0
CLASS
  1
AcAmgTitleStd
  2
AcAmgTitleStd
  3
"TITLEAPP"
 90
        0
280
     0
281
     0
  0
CLASS
  1
LAYER_INDEX
  2
AcDbLayerIndex
  3
AutoCAD 2000
 90
        0
280
     0
281
     0
  0
CLASS
  1
IDBUFFER
  2
AcDbIdBuffer
  3
AutoCAD 2000
 90
        0
280
     0
281
     0
  0
CLASS
  1
ACAMGFILTERDAT
  2
AcAmgFilterDat
  3
"AcadM|Product Description: AutoCAD Mechanical 2000|Company: Autodesk"
 90
        0
280
     0
281
     0
  0
CLASS
  1
AMDTFORMULAUPDATEDISPATCHER
  2
AmdtFormulaUpdateDispatcher
  3
AcMeServices
 90
        0
280
     0
281
     0
  0
ENDSEC
  0
SECTION
  2
TABLES
  0
TABLE
  2
VPORT
  5
8
330
0
100
AcDbSymbolTable
 70
     3
  0
VPORT
  5
1125
330
8
100
AcDbSymbolTableRecord
100
AcDbViewportTableRecord
  2
*Active
 70
     0
 10
0.0
 20
0.0
 11
1.0
 21
1.0
 12
8.499809478774261
 22
5.526344528374924
 13
0.0
 23
0.0
 14
0.5
 24
0.5
 15
0.5
 25
0.5
 16
0.0
 26
0.0
 36
1.0
 17
0.0
 27
0.0
 37
0.0
 40
11.1042562547882
 41
1.607079646017699
 42
50.0
 43
0.0
 44
0.0
 50
0.0
 51
0.0
 71
     0
 72
   100
 73
     1
 74
     3
 75
     0
 76
     0
 77
     0
 78
     0
281
     0
 65
     1
110
0.0
120
0.0
130
0.0
111
1.0
121
0.0
131
0.0
112
0.0
122
1.0
132
0.0
 79
     0
146
0.0
  0
ENDTAB
  0
TABLE
  2
LTYPE
  5
5
330
0
100
AcDbSymbolTable
 70
    25
  0
LTYPE
  5
14
330
5
100
AcDbSymbolTableRecord
100
AcDbLinetypeTableRecord
  2
ByBlock
 70
     0
  3

 72
    65
 73
     0
 40
0.0
  0
LTYPE
  5
15
330
5
100
AcDbSymbolTableRecord
100
AcDbLinetypeTableRecord
  2
ByLayer
 70
     0
  3

 72
    65
 73
     0
 40
0.0
  0
LTYPE
  5
16
330
5
100
AcDbSymbolTableRecord
100
AcDbLinetypeTableRecord
  2
Continuous
 70
     0
  3
Solid line
 72
    65
 73
     0
 40
0.0
  0
LTYPE
  5
2F
330
5
100
AcDbSymbolTableRecord
100
AcDbLinetypeTableRecord
  2
MS
 70
     0
  3
MEDIUM_SOLID
 72
    65
 73
     0
 40
0.0
  0
LTYPE
  5
30
330
5
100
AcDbSymbolTableRecord
100
AcDbLinetypeTableRecord
  2
LS
 70
     0
  3
LIGHT_SOLID
 72
    65
 73
     0
 40
0.0
  0
LTYPE
  5
31
330
5
100
AcDbSymbolTableRecord
100
AcDbLinetypeTableRecord
  2
LP
 70
     0
  3
LIGHT_PHANTOM
 72
    65
 73
     6
 40
1.5
 49
0.75
 74
     0
 49
-0.14999998
 74
     0
 49
0.14999998
 74
     0
 49
-0.14999998
 74
     0
 49
0.14999998
 74
     0
 49
-0.14999998
 74
     0
  0
LTYPE
  5
32
330
5
100
AcDbSymbolTableRecord
100
AcDbLinetypeTableRecord
  2
AM_ISO02W050
 70
     0
  3
__ __ __ __ __ __ __ __ __ __ __ __ __ __ __
 72
    65
 73
     2
 40
7.5
 49
6.0
 74
     0
 49
-1.5
 74
     0
  0
LTYPE
  5
33
330
5
100
AcDbSymbolTableRecord
100
AcDbLinetypeTableRecord
  2
AM_ISO08W050
 70
     0
  3
____ . ____ . ____ . ____ . ____ . ____ . ____
 72
    65
 73
     4
 40
18.0
 49
12.0
 74
     0
 49
-1.5
 74
     0
 49
3.0
 74
     0
 49
-1.5
 74
     0
  0
LTYPE
  5
34
330
5
100
AcDbSymbolTableRecord
100
AcDbLinetypeTableRecord
  2
AM_ISO09W050
 70
     0
  3
_____ . . _____ . . _____ . . ____ .. ____
 72
    65
 73
     6
 40
22.5
 49
12.0
 74
     0
 49
-1.5
 74
     0
 49
3.0
 74
     0
 49
-1.5
 74
     0
 49
3.0
 74
     0
 49
-1.5
 74
     0
  0
LTYPE
  5
35
330
5
100
AcDbSymbolTableRecord
100
AcDbLinetypeTableRecord
  2
Amconstr
 70
     0
  3
_______________________
 72
    65
 73
     2
 40
9999.0
 49
9999.0
 74
     0
 49
0.0
 74
     0
  0
LTYPE
  5
36
330
5
100
AcDbSymbolTableRecord
100
AcDbLinetypeTableRecord
  2
AM_ISO08W050x2
 70
     0
  3
__ . __ . __ . __ . __ . __
 72
    65
 73
     4
 40
9.0
 49
6.0
 74
     0
 49
-0.75
 74
     0
 49
1.5
 74
     0
 49
-0.75
 74
     0
  0
LTYPE
  5
37
330
5
100
AcDbSymbolTableRecord
100
AcDbLinetypeTableRecord
  2
AM_ISO02W050x2
 70
     0
  3
 _ _ _ _ _ _ _ _ _ _ _ _
 72
    65
 73
     2
 40
3.75
 49
3.0
 74
     0
 49
-0.75
 74
     0
  0
LTYPE
  5
38
330
5
100
AcDbSymbolTableRecord
100
AcDbLinetypeTableRecord
  2
Amzigzag
 70
     0
  3
/\/-/\/-/\/-/\/-/\/-/\/
 72
    65
 73
     2
 40
11.00009999999999
 49
0.0001
 74
     4
 75
   135
340
45
 46
0.04
 50
0.0
 44
0.0
 45
0.0
 49
-11.0
 74
     0
  0
LTYPE
  5
39
330
5
100
AcDbSymbolTableRecord
100
AcDbLinetypeTableRecord
  2
HIDDEN
 70
     0
  3
Hidden __ __ __ __ __ __ __ __ __ __ __ __ __ _
 72
    65
 73
     2
 40
0.375
 49
0.25
 74
     0
 49
-0.125
 74
     0
  0
LTYPE
  5
3A
330
5
100
AcDbSymbolTableRecord
100
AcDbLinetypeTableRecord
  2
CENTER
 70
     0
  3
Center ____ _ ____ _ ____ _ ____ _ ____ _ ____
 72
    65
 73
     4
 40
2.0
 49
1.25
 74
     0
 49
-0.25
 74
     0
 49
0.25
 74
     0
 49
-0.25
 74
     0
  0
LTYPE
  5
3B
330
5
100
AcDbSymbolTableRecord
100
AcDbLinetypeTableRecord
  2
PHANTOM2
 70
     0
  3
Phantom (.5x) ___ _ _ ___ _ _ ___ _ _ ___ _ _
 72
    65
 73
     6
 40
1.25
 49
0.625
 74
     0
 49
-0.125
 74
     0
 49
0.125
 74
     0
 49
-0.125
 74
     0
 49
0.125
 74
     0
 49
-0.125
 74
     0
  0
LTYPE
  5
3C
330
5
100
AcDbSymbolTableRecord
100
AcDbLinetypeTableRecord
  2
CENTER2
 70
     0
  3
Center (.5x) ___ _ ___ _ ___ _ ___ _ ___ _ ___
 72
    65
 73
     4
 40
1.125
 49
0.75
 74
     0
 49
-0.125
 74
     0
 49
0.125
 74
     0
 49
-0.125
 74
     0
  0
LTYPE
  5
3D
330
5
100
AcDbSymbolTableRecord
100
AcDbLinetypeTableRecord
  2
HIDDEN2
 70
     0
  3
Hidden (.5x) _ _ _ _ _ _ _ _ _ _ _ _ _ _ _ _ _
 72
    65
 73
     2
 40
0.1875
 49
0.125
 74
     0
 49
-0.0625
 74
     0
  0
LTYPE
  5
3E
330
5
100
AcDbSymbolTableRecord
100
AcDbLinetypeTableRecord
  2
Amzigzag2
 70
     0
  3
/\/-/\/-/\/-/\/-/\/-/\/
 72
    65
 73
     2
 40
0.4401
 49
0.0001
 74
     4
 75
   135
340
45
 46
0.0016
 50
0.0
 44
0.0
 45
0.0
 49
-0.4400000000000001
 74
     0
  0
LTYPE
  5
3F
330
5
100
AcDbSymbolTableRecord
100
AcDbLinetypeTableRecord
  2
ACANSTGB
 70
     0
  3
__ . . __ . .
 72
    65
 73
     6
 40
0.35433070866
 49
0.15748031496
 74
     0
 49
-0.03937007874
 74
     0
 49
0.03937007874
 74
     0
 49
-0.03937007874
 74
     0
 49
0.03937007874
 74
     0
 49
-0.03937007874
 74
     0
  0
LTYPE
  5
40
330
5
100
AcDbSymbolTableRecord
100
AcDbLinetypeTableRecord
  2
ACANSTGL
 70
     0
  3
_ _ _ _ _
 72
    65
 73
     2
 40
0.11811023622
 49
0.07874015748
 74
     0
 49
-0.03937007874
 74
     0
  0
LTYPE
  5
1011
330
5
100
AcDbSymbolTableRecord
100
AcDbLinetypeTableRecord
  2
gen3
 70
     0
  3
-- -- -- -- -- -- -- -- -- -- -- -- -- -- --
 72
    65
 73
     2
 40
6.25
 49
4.75
 74
     0
 49
-1.5
 74
     0
  0
LTYPE
  5
1012
330
5
100
AcDbSymbolTableRecord
100
AcDbLinetypeTableRecord
  2
gen7
 70
     0
  3
____ . ____ . ____ . ____ . ____ . ____ . ____
 72
    65
 73
     4
 40
13.75
 49
9.75
 74
     0
 49
-1.5
 74
     0
 49
1.0
 74
     0
 49
-1.5
 74
     0
  0
LTYPE
  5
1013
330
5
100
AcDbSymbolTableRecord
100
AcDbLinetypeTableRecord
  2
gen3a
 70
     0
  3
 - - - - -
 72
    65
 73
     2
 40
3.125
 49
2.25
 74
     0
 49
-0.875
 74
     0
  0
LTYPE
  5
1014
330
5
100
AcDbSymbolTableRecord
100
AcDbLinetypeTableRecord
  2
gen7a
 70
     0
  3
__ . __ . __
 72
    65
 73
     4
 40
6.875
 49
4.75
 74
     0
 49
-0.875
 74
     0
 49
0.375
 74
     0
 49
-0.875
 74
     0
  0
LTYPE
  5
1015
330
5
100
AcDbSymbolTableRecord
100
AcDbLinetypeTableRecord
  2
gen4a
 70
     0
  3
_____ . . _____ . . _____ . . ____ .. ____
 72
    65
 73
     6
 40
16.25
 49
9.75
 74
     0
 49
-1.5
 74
     0
 49
1.0
 74
     0
 49
-1.5
 74
     0
 49
1.0
 74
     0
 49
-1.5
 74
     0
  0
LTYPE
  5
1016
330
5
100
AcDbSymbolTableRecord
100
AcDbLinetypeTableRecord
  2
genzigzag
 70
     0
  3
/\/-/\/-/\/-/\/-/\/-/\/
 72
    65
 73
     2
 40
12.0001
 49
0.0001
 74
     4
 75
   135
340
1018
 46
2.0
 50
0.0
 44
0.0
 45
0.0
 49
-12.0
 74
     0
  0
ENDTAB
  0
TABLE
  2
LAYER
  5
2
330
0
100
AcDbSymbolTable
 70
     5
  0
LAYER
  5
10
330
2
100
AcDbSymbolTableRecord
100
AcDbLayerTableRecord
  2
0
 70
     0
 62
     7
  6
Continuous
370
    -3
390
F
  0
LAYER
  5
41
330
2
100
AcDbSymbolTableRecord
100
AcDbLayerTableRecord
  2
BORDER
 70
     0
 62
    15
  6
Continuous
370
    -3
390
F
  0
LAYER
  5
42
330
2
100
AcDbSymbolTableRecord
100
AcDbLayerTableRecord
  2
TITLE BLOCK
 70
     0
 62
     2
  6
Continuous
370
    -3
390
F
  0
LAYER
  5
2A1
330
2
100
AcDbSymbolTableRecord
100
AcDbLayerTableRecord
  2
Defpoints
 70
     0
 62
     7
  6
Continuous
290
     0
370
    -3
390
F
  0
LAYER
  5
1017
330
2
100
AcDbSymbolTableRecord
100
AcDbLayerTableRecord
  2
L0
 70
     0
 62
    20
  6
Continuous
370
    -3
390
F
  0
ENDTAB
  0
TABLE
  2
STYLE
  5
3
330
0
100
AcDbSymbolTable
 70
     9
  0
STYLE
  5
11
330
3
100
AcDbSymbolTableRecord
100
AcDbTextStyleTableRecord
  2
Standard
 70
     0
 40
0.0
 41
1.0
 50
0.0
 71
     0
 42
0.2
  3
romans.shx
  4

  0
STYLE
  5
43
330
3
100
AcDbSymbolTableRecord
100
AcDbTextStyleTableRecord
  2
AE
 70
     0
 40
0.0
 41
1.0
 50
0.0
 71
     0
 42
0.16408998
  3
MIGRATOR
  4

  0
STYLE
  5
44
330
3
100
AcDbSymbolTableRecord
100
AcDbTextStyleTableRecord
  2

 70
     1
 40
0.0
 41
1.0
 50
0.0
 71
     0
 42
1.0
  3
symtb128
  4

  0
STYLE
  5
45
330
3
100
AcDbSymbolTableRecord
100
AcDbTextStyleTableRecord
  2

 70
     1
 40
0.0
 41
1.0
 50
0.0
 71
     0
 42
2.5
  3
ltypeshp.shx
  4

  0
STYLE
  5
46
330
3
100
AcDbSymbolTableRecord
100
AcDbTextStyleTableRecord
  2
ACANSTS
 70
     0
 40
1.0
 41
1.0
 50
0.0
 71
     0
 42
2.5
  3
romans.shx
  4

  0
STYLE
  5
47
330
3
100
AcDbSymbolTableRecord
100
AcDbTextStyleTableRecord
  2
ACANSGDT
 70
     0
 40
0.0
 41
1.0
 50
0.0
 71
     0
 42
2.5
  3
amgdtans.shx
  4

  0
STYLE
  5
119
330
3
100
AcDbSymbolTableRecord
100
AcDbTextStyleTableRecord
  2
SIMPLEX
 70
     0
 40
0.0938
 41
1.0
 50
0.0
 71
     0
 42
0.0938
  3
C:\ACADWIN\FONTS\SIMPLEX.SHX
  4

  0
STYLE
  5
2A2
330
3
100
AcDbSymbolTableRecord
100
AcDbTextStyleTableRecord
  2
ROMANS
 70
     0
 40
0.0
 41
1.0
 50
0.0
 71
     0
 42
0.09375
  3
romans
  4

  0
STYLE
  5
1018
330
3
100
AcDbSymbolTableRecord
100
AcDbTextStyleTableRecord
  2

 70
     1
 40
0.0
 41
1.0
 50
0.0
 71
     0
 42
2.5
  3
genltshp.shx
  4

  0
ENDTAB
  0
TABLE
  2
VIEW
  5
6
330
0
100
AcDbSymbolTable
 70
     0
  0
ENDTAB
  0
TABLE
  2
UCS
  5
7
330
0
100
AcDbSymbolTable
 70
     0
  0
ENDTAB
  0
TABLE
  2
APPID
  5
9
330
0
100
AcDbSymbolTable
 70
     6
  0
APPID
  5
12
330
9
100
AcDbSymbolTableRecord
100
AcDbRegAppTableRecord
  2
ACAD
 70
     0
  0
APPID
  5
4F
330
9
100
AcDbSymbolTableRecord
100
AcDbRegAppTableRecord
  2
GENIUS_GENBLLY_14
 70
     0
  0
APPID
  5
50
330
9
100
AcDbSymbolTableRecord
100
AcDbRegAppTableRecord
  2
GENIUS_GENTRA_14
 70
     0
  0
APPID
  5
51
330
9
100
AcDbSymbolTableRecord
100
AcDbRegAppTableRecord
  2
MCAD_NO_VIS
 70
     0
  0
APPID
  5
52
330
9
100
AcDbSymbolTableRecord
100
AcDbRegAppTableRecord
  2
ACAD_TEMP_GRAPHIC
 70
     0
  0
APPID
  5
53
330
9
100
AcDbSymbolTableRecord
100
AcDbRegAppTableRecord
  2
ACATTRIBSERVICES
 70
     0
  0
ENDTAB
  0
TABLE
  2
DIMSTYLE
  5
A
330
0
100
AcDbSymbolTable
 70
    14
100
AcDbDimStyleTable
 71
     1
340
27
  0
DIMSTYLE
105
27
102
{ACAD_REACTORS
330
E4D
330
E5D
330
F1F
330
E5E
330
E5F
102
}
330
A
100
AcDbSymbolTableRecord
100
AcDbDimStyleTableRecord
  2
Standard
 70
     0
140
0.125
340
11
  0
DIMSTYLE
105
48
330
A
100
AcDbSymbolTableRecord
100
AcDbDimStyleTableRecord
  2
GEN-ANSI
 70
     0
  3
<>
  4
mm
 41
0.14
 42
0.125
 43
0.5
 44
0.125
 47
0.1
 48
0.1
 73
     0
 74
     0
 77
     1
 78
     7
140
0.12
141
0.0
146
0.71
147
0.06
176
   256
177
   256
178
     2
274
     4
340
11
  0
DIMSTYLE
105
49
330
A
100
AcDbSymbolTableRecord
100
AcDbDimStyleTableRecord
  2
AM_ANSI
 70
     0
  4
mm
 41
0.1
 42
0.05
 43
0.5
 44
0.1
 47
0.1
 48
0.1
 78
     7
 79
     2
140
0.12
141
0.0
146
0.71
147
0.06
176
   256
177
   256
178
     2
274
     4
284
     7
340
11
371
    -1
372
    -1
  0
DIMSTYLE
105
4A
330
A
100
AcDbSymbolTableRecord
100
AcDbDimStyleTableRecord
  2
AM_ANSI$3
 70
     0
  4
mm
 41
0.1
 42
0.05
 43
0.5
 44
0.1
 47
0.1
 48
0.1
 78
     7
 79
     2
140
0.12
141
0.0
146
0.71
147
0.06
176
   256
177
   256
178
     2
274
     4
284
     7
288
     1
289
     0
340
11
371
    -1
372
    -1
  0
DIMSTYLE
105
4B
330
A
100
AcDbSymbolTableRecord
100
AcDbDimStyleTableRecord
  2
AM_ANSI$4
 70
     0
  4
mm
 41
0.1
 42
0.05
 43
0.5
 44
0.1
 47
0.1
 48
0.1
 78
     7
 79
     2
140
0.12
141
0.0
146
0.71
147
0.06
176
   256
177
   256
178
     2
274
     4
284
     7
288
     1
289
     0
340
11
371
    -1
372
    -1
  0
DIMSTYLE
105
4C
330
A
100
AcDbSymbolTableRecord
100
AcDbDimStyleTableRecord
  2
AM_ANSI$7
 70
     0
  4
mm
 41
0.1
 42
0.05
 43
0.5
 44
0.1
 47
0.1
 48
0.1
 78
     7
 79
     2
140
0.24
141
0.0
146
0.71
147
0.06
176
   256
177
   256
178
     2
274
     4
284
     7
340
11
371
    -1
372
    -1
  0
DIMSTYLE
105
4D
330
A
100
AcDbSymbolTableRecord
100
AcDbDimStyleTableRecord
  2
AM_ANSI$SF
 70
     0
  4
mm
 41
0.1
 42
0.05
 43
0.5
 44
0.1
 47
0.1
 48
0.1
 75
     1
 76
     1
 78
     7
 79
     2
140
0.12
141
0.0
146
0.71
147
0.06
176
   256
177
   256
178
     2
274
     4
284
     7
340
11
371
    -1
372
    -1
  0
DIMSTYLE
105
4E
330
A
100
AcDbSymbolTableRecord
100
AcDbDimStyleTableRecord
  2
AM_ANSI$SH
 70
     0
  4
mm
 41
0.1
 42
0.05
 43
0.5
 44
0.1
 47
0.1
 48
0.1
 75
     1
 76
     1
 78
     7
 79
     2
140
0.12
141
0.0
146
0.71
147
0.06
173
     1
176
   256
177
   256
178
     2
274
     4
284
     7
340
11
343
2B
371
    -1
372
    -1
  0
DIMSTYLE
105
1019
330
A
100
AcDbSymbolTableRecord
100
AcDbDimStyleTableRecord
  2
GEN-ANSI$3
 70
     0
  3
<>
  4
mm
 41
0.14
 42
0.125
 43
0.5
 44
0.125
 47
0.1
 48
0.1
 78
     7
140
0.12
141
0.0
146
0.71
147
0.06
176
   256
177
   256
178
     2
274
     4
288
     1
289
     0
340
11
  0
DIMSTYLE
105
101A
330
A
100
AcDbSymbolTableRecord
100
AcDbDimStyleTableRecord
  2
GEN-ANSI$4
 70
     0
  3
<>
  4
mm
 41
0.14
 42
0.125
 43
0.5
 44
0.125
 47
0.1
 48
0.1
 78
     7
140
0.12
141
0.0
146
0.71
147
0.06
176
   256
177
   256
178
     2
274
     4
288
     1
289
     0
340
11
  0
DIMSTYLE
105
101B
330
A
100
AcDbSymbolTableRecord
100
AcDbDimStyleTableRecord
  2
GEN-ANSI$6
 70
     0
  3
<>
  4
mm
 41
0.14
 42
0.125
 43
0.5
 44
0.125
 47
0.1
 48
0.1
 78
     7
140
0.12
141
0.0
146
0.71
147
0.06
176
   256
177
   256
178
     2
274
     4
340
11
  0
DIMSTYLE
105
101C
330
A
100
AcDbSymbolTableRecord
100
AcDbDimStyleTableRecord
  2
GEN-ANSI-POS
 70
     0
  3
<>
  4
mm
 41
0.1
 42
0.125
 43
0.5
 44
0.125
 47
0.1
 48
0.1
 73
     0
 74
     0
 78
     7
140
0.2
141
0.0
146
0.71
147
0.06
176
   256
177
   256
178
     2
274
     4
340
11
  0
DIMSTYLE
105
101D
330
A
100
AcDbSymbolTableRecord
100
AcDbDimStyleTableRecord
  2
GEN-ANSI-AXE-F
 70
     0
  3
<>
  4
mm
 41
0.14
 42
0.125
 43
0.5
 44
0.125
 47
0.1
 48
0.1
 75
     1
 76
     1
 78
     7
140
0.12
141
0.0
146
0.71
147
0.06
173
     1
176
   256
177
   256
178
     2
274
     4
340
11
343
2B
  0
DIMSTYLE
105
101E
330
A
100
AcDbSymbolTableRecord
100
AcDbDimStyleTableRecord
  2
GEN-ANSI-AXE-H
 70
     0
  3
<>
  4
mm
 41
0.14
 42
0.125
 43
0.5
 44
0.125
 47
0.1
 48
0.1
 73
     0
 74
     0
 75
     1
 76
     1
 78
     7
140
0.12
141
0.0
144
2.0
146
0.71
147
0.06
172
     1
173
     1
176
   256
177
   256
178
     2
274
     4
340
11
343
2B
  0
ENDTAB
  0
TABLE
  2
BLOCK_RECORD
  5
1
330
0
100
AcDbSymbolTable
 70
     7
  0
BLOCK_RECORD
  5
1F
102
{ACAD_XDICTIONARY
360
FD5
102
}
330
1
100
AcDbSymbolTableRecord
100
AcDbBlockTableRecord
  2
*Model_Space
340
22
  0
BLOCK_RECORD
  5
1B
330
1
100
AcDbSymbolTableRecord
100
AcDbBlockTableRecord
  2
*Paper_Space
340
1E
  0
BLOCK_RECORD
  5
23
330
1
100
AcDbSymbolTableRecord
100
AcDbBlockTableRecord
  2
*Paper_Space0
340
26
  0
BLOCK_RECORD
  5
2B
330
1
100
AcDbSymbolTableRecord
100
AcDbBlockTableRecord
  2
GENAXEH
340
0
  0
BLOCK_RECORD
  5
54
330
1
100
AcDbSymbolTableRecord
100
AcDbBlockTableRecord
  2
ASSEMBLY_C
340
0
  0
BLOCK_RECORD
  5
F36
330
1
100
AcDbSymbolTableRecord
100
AcDbBlockTableRecord
  2
*D3
340
0
  0
BLOCK_RECORD
  5
F43
330
1
100
AcDbSymbolTableRecord
100
AcDbBlockTableRecord
  2
*D4
340
0
  0
BLOCK_RECORD
  5
F50
330
1
100
AcDbSymbolTableRecord
100
AcDbBlockTableRecord
  2
*D5
340
0
  0
BLOCK_RECORD
  5
101F
330
1
100
AcDbSymbolTableRecord
100
AcDbBlockTableRecord
  2
ASSEMBLY_B
340
0
102
{BLKREFS
331
10AC
102
}
  0
ENDTAB
  0
ENDSEC
  0
SECTION
  2
BLOCKS
  0
BLOCK
  5
20
330
1F
100
AcDbEntity
  8
0
100
AcDbBlockBegin
  2
*Model_Space
 70
     0
 10
0.0
 20
0.0
 30
0.0
  3
*Model_Space
  1

  0
ENDBLK
  5
21
330
1F
100
AcDbEntity
  8
0
100
AcDbBlockEnd
  0
BLOCK
  5
1C
330
1B
100
AcDbEntity
 67
     1
  8
0
100
AcDbBlockBegin
  2
*Paper_Space
 70
     0
 10
0.0
 20
0.0
 30
0.0
  3
*Paper_Space
  1

  0
ENDBLK
  5
1D
330
1B
100
AcDbEntity
 67
     1
  8
0
100
AcDbBlockEnd
  0
BLOCK
  5
24
330
23
100
AcDbEntity
  8
0
100
AcDbBlockBegin
  2
*Paper_Space0
 70
     0
 10
0.0
 20
0.0
 30
0.0
  3
*Paper_Space0
  1

  0
ENDBLK
  5
25
330
23
100
AcDbEntity
  8
0
100
AcDbBlockEnd
  0
BLOCK
  5
2D
330
2B
100
AcDbEntity
  8
0
100
AcDbBlockBegin
  2
GENAXEH
 70
     0
 10
0.0
 20
0.0
 30
0.0
  3
GENAXEH
  1

  0
LINE
  5
2C
330
2B
100
AcDbEntity
  8
0
100
AcDbLine
 10
-1.0
 20
0.0
 30
0.0
 11
1.0
 21
0.0
 31
0.0
  0
ENDBLK
  5
2E
330
2B
100
AcDbEntity
  8
0
100
AcDbBlockEnd
  0
BLOCK
  5
107
330
54
100
AcDbEntity
  8
0
100
AcDbBlockBegin
  2
ASSEMBLY_C
 70
     2
 10
0.0
 20
0.0
 30
0.0
  3
ASSEMBLY_C
  1

  0
LINE
  5
55
330
54
100
AcDbEntity
  8
BORDER
  6
LP
100
AcDbLine
 10
0.0
 20
17.0
 30
0.0
 11
22.0
 21
17.0
 31
0.0
  0
LINE
  5
56
330
54
100
AcDbEntity
  8
BORDER
100
AcDbLine
 10
0.5
 20
0.75
 30
0.0
 11
21.49999999999999
 21
0.75
 31
0.0
  0
LINE
  5
57
330
54
100
AcDbEntity
  8
BORDER
100
AcDbLine
 10
0.5
 20
16.25
 30
0.0
 11
21.49999999999999
 21
16.25
 31
0.0
  0
ATTDEF
  5
58
330
54
100
AcDbEntity
  8
TITLE BLOCK
  6
Continuous
100
AcDbText
 10
17.42499999999999
 20
1.875
 30
0.0
 40
0.1010611419
  1

100
AcDbAttributeDefinition
  3
Drawn by
  2
GEN-TITLE-NAME{5}
 70
     0
1001
GENIUS_GENBLLY_14
1000
BOR2
  0
ATTDEF
  5
59
330
54
100
AcDbEntity
  8
TITLE BLOCK
  6
Continuous
100
AcDbText
 10
17.42499999999999
 20
1.625
 30
0.0
 40
0.1010611419
  1

100
AcDbAttributeDefinition
  3
Check by
  2
GEN-TITLE-CHKM{5}
 70
     0
1001
GENIUS_GENBLLY_14
1000
BOR2
  0
ATTDEF
  5
5A
330
54
100
AcDbEntity
  8
TITLE BLOCK
  6
Continuous
100
AcDbText
 10
17.42499999999999
 20
1.375
 30
0.0
 40
0.1010611419
  1

100
AcDbAttributeDefinition
  3
Approved by
  2
GEN-TITLE-APPM{5}
 70
     0
1001
GENIUS_GENBLLY_14
1000
BOR2
1001
GENIUS_GENTRA_14
1002
{
1070
     3
1000
GENTRAPR,%s,(GENMSG gentitus 73)
1000
Approved by
1000
gb
1070
     0
1002
}
  0
LINE
  5
5B
330
54
100
AcDbEntity
  8
TITLE BLOCK
  6
Continuous
100
AcDbLine
 10
15.59965639031853
 20
1.299999999999999
 30
0.0
 11
21.49999999999999
 21
1.299999999999999
 31
0.0
  0
LINE
  5
5C
330
54
100
AcDbEntity
  8
TITLE BLOCK
  6
Continuous
100
AcDbLine
 10
17.07518995515351
 20
1.549999999999999
 30
0.0
 11
21.49999999999999
 21
1.549999999999999
 31
0.0
  0
LINE
  5
5D
330
54
100
AcDbEntity
  8
TITLE BLOCK
  6
Continuous
100
AcDbLine
 10
17.07518995515351
 20
1.799999999999999
 30
0.0
 11
21.49999999999999
 21
1.799999999999999
 31
0.0
  0
LINE
  5
5E
330
54
100
AcDbEntity
  8
TITLE BLOCK
  6
Continuous
100
AcDbLine
 10
17.07518995515351
 20
2.049999999999999
 30
0.0
 11
21.49999999999999
 21
2.049999999999999
 31
0.0
  0
LINE
  5
5F
330
54
100
AcDbEntity
  8
TITLE BLOCK
  6
Continuous
100
AcDbLine
 10
12.75
 20
2.75
 30
0.0
 11
21.49999999999999
 21
2.75
 31
0.0
  0
TEXT
  5
60
330
54
100
AcDbEntity
  8
TITLE BLOCK
  6
Continuous
100
AcDbText
 10
17.20669482722676
 20
2.346163262564664
 30
0.0
 40
0.1010611419
  1
  DRAWING
 50
0.09999996
  7
AE
100
AcDbText
  0
TEXT
  5
61
330
54
100
AcDbEntity
  8
TITLE BLOCK
  6
Continuous
100
AcDbText
 10
17.20669482722676
 20
2.555546537751305
 30
0.0
 40
0.1010611419
  1
DO NOT SCALE
 50
0.09999996
  7
AE
100
AcDbText
  0
LINE
  5
62
330
54
100
AcDbEntity
  8
BORDER
  6
LP
100
AcDbLine
 10
0.0
 20
0.2456391960479891
 30
0.0
 11
0.0
 21
17.0
 31
0.0
  0
LINE
  5
63
330
54
100
AcDbEntity
  8
BORDER
100
AcDbLine
 10
0.5
 20
0.75
 30
0.0
 11
0.5
 21
16.25
 31
0.0
  0
TEXT
  5
64
330
54
100
AcDbEntity
  8
BORDER
100
AcDbText
 10
0.1785739999999976
 20
2.0249996
 30
0.0
 40
0.19999999
  1
A
  7
AE
100
AcDbText
  0
LINE
  5
65
330
54
100
AcDbEntity
  8
BORDER
100
AcDbLine
 10
0.1000060000000005
 20
8.4999991
 30
0.0
 11
0.3000030000000002
 21
8.4999991
 31
0.0
  0
LINE
  5
66
330
54
100
AcDbEntity
  8
BORDER
100
AcDbLine
 10
0.3000179999999979
 20
8.399978599999998
 30
0.0
 11
0.5000149999999977
 21
8.499977099999998
 31
0.0
  0
TEXT
  5
67
330
54
100
AcDbEntity
  8
BORDER
100
AcDbText
 10
0.1785739999999976
 20
6.2749996
 30
0.0
 40
0.19999999
  1
B
  7
AE
100
AcDbText
  0
LINE
  5
68
330
54
100
AcDbEntity
  8
BORDER
100
AcDbLine
 10
0.1000060000000005
 20
4.25
 30
0.0
 11
0.5
 21
4.25
 31
0.0
  0
LINE
  5
69
330
54
100
AcDbEntity
  8
BORDER
100
AcDbLine
 10
0.3000340000000001
 20
8.5999765
 30
0.0
 11
0.5000299999999989
 21
8.499978999999999
 31
0.0
  0
LINE
  5
6A
330
54
100
AcDbEntity
  8
BORDER
100
AcDbLine
 10
0.3000179999999979
 20
8.3999929
 30
0.0
 11
0.3000179999999979
 21
8.5999899
 31
0.0
  0
TEXT
  5
6B
330
54
100
AcDbEntity
  8
BORDER
100
AcDbText
 10
2.678573999999997
 20
0.27499998
 30
0.0
 40
0.19999999
  1
4
  7
AE
100
AcDbText
  0
LINE
  5
6C
330
54
100
AcDbEntity
  8
BORDER
100
AcDbLine
 10
5.5
 20
0.34999996
 30
0.0
 11
5.5
 21
0.75
 31
0.0
  0
TEXT
  5
6D
330
54
100
AcDbEntity
  8
BORDER
100
AcDbText
 10
8.178572
 20
0.27499998
 30
0.0
 40
0.19999999
  1
3
  7
AE
100
AcDbText
  0
TEXT
  5
6E
330
54
100
AcDbEntity
  8
BORDER
100
AcDbText
 10
13.5829811
 20
0.3329525
 30
0.0
 40
0.04
  1
FULL SIZE   50   02
 50
0.0999999600000013
 41
0.7749084200000001
  7
AE
100
AcDbText
  0
TEXT
  5
6F
330
54
100
AcDbEntity
  8
TITLE BLOCK
  6
Continuous
100
AcDbText
 10
13.87354307850001
 20
0.8400242034427522
 30
0.0
 40
0.075937067150492
  1
REVISION
 50
0.09999996
  7
AE
100
AcDbText
  0
LINE
  5
70
330
54
100
AcDbEntity
  8
TITLE BLOCK
  6
Continuous
100
AcDbLine
 10
12.75
 20
1.0
 30
0.0
 11
15.59965639031853
 21
1.0
 31
0.0
  0
LINE
  5
71
330
54
100
AcDbEntity
  8
TITLE BLOCK
  6
Continuous
100
AcDbLine
 10
12.75
 20
1.75
 30
0.0
 11
15.59965639031853
 21
1.75
 31
0.0
  0
LINE
  5
72
330
54
100
AcDbEntity
  8
TITLE BLOCK
  6
Continuous
100
AcDbLine
 10
12.75
 20
2.0
 30
0.0
 11
15.59965639031853
 21
2.0
 31
0.0
  0
LINE
  5
73
330
54
100
AcDbEntity
  8
TITLE BLOCK
  6
Continuous
100
AcDbLine
 10
12.75
 20
2.25
 30
0.0
 11
15.59965639031853
 21
2.25
 31
0.0
  0
LINE
  5
74
330
54
100
AcDbEntity
  8
TITLE BLOCK
  6
Continuous
100
AcDbLine
 10
12.75
 20
2.5
 30
0.0
 11
15.59965639031853
 21
2.5
 31
0.0
  0
LINE
  5
75
330
54
100
AcDbEntity
  8
TITLE BLOCK
  6
Continuous
100
AcDbLine
 10
12.75
 20
1.5
 30
0.0
 11
15.59965639031853
 21
1.5
 31
0.0
  0
LINE
  5
76
330
54
100
AcDbEntity
  8
TITLE BLOCK
  6
Continuous
100
AcDbLine
 10
12.75
 20
1.25
 30
0.0
 11
15.59965639031853
 21
1.25
 31
0.0
  0
LINE
  5
77
330
54
100
AcDbEntity
  8
BORDER
  6
LS
100
AcDbLine
 10
13.68000129999999
 20
0.55999994
 30
0.0
 11
13.68000129999999
 21
0.6999999900000001
 31
0.0
  0
LINE
  5
78
330
54
100
AcDbEntity
  8
BORDER
  6
LS
100
AcDbLine
 10
13.7800016
 20
0.55999994
 30
0.0
 11
13.7800016
 21
0.6999999900000001
 31
0.0
  0
LINE
  5
79
330
54
100
AcDbEntity
  8
BORDER
  6
LS
100
AcDbLine
 10
13.880002
 20
0.55999994
 30
0.0
 11
13.880002
 21
0.6999999900000001
 31
0.0
  0
LINE
  5
7A
330
54
100
AcDbEntity
  8
BORDER
  6
LS
100
AcDbLine
 10
13.7000017
 20
0.63999999
 30
0.0
 11
13.7000017
 21
0.6999999900000001
 31
0.0
  0
LINE
  5
7B
330
54
100
AcDbEntity
  8
BORDER
  6
LS
100
AcDbLine
 10
13.7200022
 20
0.59999996
 30
0.0
 11
13.7200022
 21
0.6999999900000001
 31
0.0
  0
LINE
  5
7C
330
54
100
AcDbEntity
  8
BORDER
  6
LS
100
AcDbLine
 10
13.7400026
 20
0.59999996
 30
0.0
 11
13.7400026
 21
0.6999999900000001
 31
0.0
  0
LINE
  5
7D
330
54
100
AcDbEntity
  8
BORDER
  6
LS
100
AcDbLine
 10
13.76000209999999
 20
0.63999999
 30
0.0
 11
13.76000209999999
 21
0.6999999900000001
 31
0.0
  0
LINE
  5
7E
330
54
100
AcDbEntity
  8
BORDER
  6
LS
100
AcDbLine
 10
13.80000209999999
 20
0.63999999
 30
0.0
 11
13.80000209999999
 21
0.6999999900000001
 31
0.0
  0
LINE
  5
7F
330
54
100
AcDbEntity
  8
BORDER
  6
LS
100
AcDbLine
 10
13.8200026
 20
0.59999996
 30
0.0
 11
13.8200026
 21
0.6999999900000001
 31
0.0
  0
LINE
  5
80
330
54
100
AcDbEntity
  8
BORDER
  6
LS
100
AcDbLine
 10
13.840003
 20
0.59999996
 30
0.0
 11
13.840003
 21
0.6999999900000001
 31
0.0
  0
LINE
  5
81
330
54
100
AcDbEntity
  8
BORDER
  6
LS
100
AcDbLine
 10
13.8600025
 20
0.63999999
 30
0.0
 11
13.8600025
 21
0.6999999900000001
 31
0.0
  0
LINE
  5
82
330
54
100
AcDbEntity
  8
BORDER
  6
LS
100
AcDbLine
 10
13.90000249999999
 20
0.63999999
 30
0.0
 11
13.90000249999999
 21
0.6999999900000001
 31
0.0
  0
LINE
  5
83
330
54
100
AcDbEntity
  8
BORDER
  6
LS
100
AcDbLine
 10
13.9200029
 20
0.59999996
 30
0.0
 11
13.9200029
 21
0.6999999900000001
 31
0.0
  0
LINE
  5
84
330
54
100
AcDbEntity
  8
BORDER
  6
LS
100
AcDbLine
 10
13.4800005
 20
0.55999994
 30
0.0
 11
13.4800005
 21
0.6999999900000001
 31
0.0
  0
LINE
  5
85
330
54
100
AcDbEntity
  8
BORDER
  6
LS
100
AcDbLine
 10
13.58000089999999
 20
0.55999994
 30
0.0
 11
13.58000089999999
 21
0.6999999900000001
 31
0.0
  0
LINE
  5
86
330
54
100
AcDbEntity
  8
BORDER
  6
LS
100
AcDbLine
 10
13.4000006
 20
0.63999999
 30
0.0
 11
13.4000006
 21
0.6999999900000001
 31
0.0
  0
LINE
  5
87
330
54
100
AcDbEntity
  8
BORDER
  6
LS
100
AcDbLine
 10
13.42000099999999
 20
0.59999996
 30
0.0
 11
13.42000099999999
 21
0.6999999900000001
 31
0.0
  0
LINE
  5
88
330
54
100
AcDbEntity
  8
BORDER
  6
LS
100
AcDbLine
 10
13.4400015
 20
0.59999996
 30
0.0
 11
13.4400015
 21
0.6999999900000001
 31
0.0
  0
LINE
  5
89
330
54
100
AcDbEntity
  8
BORDER
  6
LS
100
AcDbLine
 10
13.460001
 20
0.63999999
 30
0.0
 11
13.460001
 21
0.6999999900000001
 31
0.0
  0
LINE
  5
8A
330
54
100
AcDbEntity
  8
BORDER
  6
LS
100
AcDbLine
 10
13.50000089999999
 20
0.63999999
 30
0.0
 11
13.50000089999999
 21
0.6999999900000001
 31
0.0
  0
LINE
  5
8B
330
54
100
AcDbEntity
  8
BORDER
  6
LS
100
AcDbLine
 10
13.5200014
 20
0.59999996
 30
0.0
 11
13.5200014
 21
0.6999999900000001
 31
0.0
  0
LINE
  5
8C
330
54
100
AcDbEntity
  8
BORDER
  6
LS
100
AcDbLine
 10
13.5400019
 20
0.59999996
 30
0.0
 11
13.5400019
 21
0.6999999900000001
 31
0.0
  0
LINE
  5
8D
330
54
100
AcDbEntity
  8
BORDER
  6
LS
100
AcDbLine
 10
13.5600014
 20
0.63999999
 30
0.0
 11
13.5600014
 21
0.6999999900000001
 31
0.0
  0
LINE
  5
8E
330
54
100
AcDbEntity
  8
BORDER
  6
LS
100
AcDbLine
 10
13.6000013
 20
0.63999999
 30
0.0
 11
13.6000013
 21
0.6999999900000001
 31
0.0
  0
LINE
  5
8F
330
54
100
AcDbEntity
  8
BORDER
  6
LS
100
AcDbLine
 10
13.62000179999999
 20
0.59999996
 30
0.0
 11
13.62000179999999
 21
0.6999999900000001
 31
0.0
  0
LINE
  5
90
330
54
100
AcDbEntity
  8
BORDER
  6
LS
100
AcDbLine
 10
13.6400022
 20
0.59999996
 30
0.0
 11
13.6400022
 21
0.6999999900000001
 31
0.0
  0
LINE
  5
91
330
54
100
AcDbEntity
  8
BORDER
  6
LS
100
AcDbLine
 10
13.6600017
 20
0.63999999
 30
0.0
 11
13.6600017
 21
0.6999999900000001
 31
0.0
  0
TEXT
  5
92
330
54
100
AcDbEntity
  8
BORDER
100
AcDbText
 10
13.7515001
 20
0.41995007
 30
0.0
 40
0.07999998
  1
4
 50
0.0999999600000013
  7
AE
100
AcDbText
  0
TEXT
  5
93
330
54
100
AcDbEntity
  8
BORDER
100
AcDbText
 10
13.3514986
 20
0.35995007
 30
0.0
 40
0.07999998
  1
0
 50
0.0999999600000013
  7
AE
100
AcDbText
  0
TEXT
  5
94
330
54
100
AcDbEntity
  8
BORDER
100
AcDbText
 10
13.5514994
 20
0.41995007
 30
0.0
 40
0.07999998
  1
2
 50
0.0999999600000013
  7
AE
100
AcDbText
  0
TEXT
  5
95
330
54
100
AcDbEntity
  8
BORDER
100
AcDbText
 10
12.8087463
 20
0.27487546
 30
0.0
 40
0.19999999
  1
2
 50
0.0999999600000013
  7
AE
100
AcDbText
  0
LINE
  5
96
330
54
100
AcDbEntity
  8
BORDER
  6
LS
100
AcDbLine
 10
13.3800001
 20
0.49999994
 30
0.0
 11
13.3800001
 21
0.6999999900000001
 31
0.0
  0
LINE
  5
97
330
54
100
AcDbEntity
  8
BORDER
100
AcDbLine
 10
10.900002
 20
0.55000043
 30
0.0
 11
11.00000199999999
 21
0.75
 31
0.0
  0
LINE
  5
98
330
54
100
AcDbEntity
  8
BORDER
100
AcDbLine
 10
11.000003
 20
0.7499994000000001
 30
0.0
 11
11.100003
 21
0.55000019
 31
0.0
  0
LINE
  5
99
330
54
100
AcDbEntity
  8
BORDER
100
AcDbLine
 10
10.90000099999999
 20
0.5499999500000001
 30
0.0
 11
11.1
 21
0.5499999500000001
 31
0.0
  0
LINE
  5
9A
330
54
100
AcDbEntity
  8
BORDER
100
AcDbLine
 10
11.0
 20
0.3499999
 30
0.0
 11
11.0
 21
0.5499999500000001
 31
0.0
  0
LINE
  5
9B
330
54
100
AcDbEntity
  8
BORDER
100
AcDbLine
 10
11.0
 20
0.3499999
 30
0.0
 11
11.0
 21
0.5499999500000001
 31
0.0
  0
LINE
  5
9C
330
54
100
AcDbEntity
  8
TITLE BLOCK
  6
Continuous
100
AcDbLine
 10
13.9
 20
1.0
 30
0.0
 11
13.9
 21
2.75
 31
0.0
  0
TEXT
  5
9D
330
54
100
AcDbEntity
  8
TITLE BLOCK
  6
Continuous
100
AcDbText
 10
12.83824213224503
 20
1.090349814097824
 30
0.0
 40
0.0771520776612738
  1
NO.
 50
0.09999996
  7
AE
100
AcDbText
  0
LINE
  5
9E
330
54
100
AcDbEntity
  8
TITLE BLOCK
  6
Continuous
100
AcDbLine
 10
12.75
 20
0.7499656890232619
 30
0.0
 11
12.75
 21
2.75
 31
0.0
  0
LINE
  5
9F
330
54
100
AcDbEntity
  8
TITLE BLOCK
  6
Continuous
100
AcDbLine
 10
13.1
 20
1.0
 30
0.0
 11
13.1
 21
2.75
 31
0.0
  0
TEXT
  5
A0
330
54
100
AcDbEntity
  8
TITLE BLOCK
  6
Continuous
100
AcDbText
 10
13.40137402234739
 20
1.090958090874199
 30
0.0
 40
0.075937067150492
  1
DATE
 50
0.09999996
  7
AE
100
AcDbText
  0
LINE
  5
A1
330
54
100
AcDbEntity
  8
BORDER
  6
LS
100
AcDbLine
 10
15.18000599999999
 20
0.55999994
 30
0.0
 11
15.18000599999999
 21
0.6999999900000001
 31
0.0
  0
LINE
  5
A2
330
54
100
AcDbEntity
  8
BORDER
  6
LS
100
AcDbLine
 10
14.9800053
 20
0.55999994
 30
0.0
 11
14.9800053
 21
0.6999999900000001
 31
0.0
  0
LINE
  5
A3
330
54
100
AcDbEntity
  8
BORDER
  6
LS
100
AcDbLine
 10
14.7800045
 20
0.55999994
 30
0.0
 11
14.7800045
 21
0.6999999900000001
 31
0.0
  0
LINE
  5
A4
330
54
100
AcDbEntity
  8
BORDER
  6
LS
100
AcDbLine
 10
14.58000469999999
 20
0.55999994
 30
0.0
 11
14.58000469999999
 21
0.6999999900000001
 31
0.0
  0
LINE
  5
A5
330
54
100
AcDbEntity
  8
BORDER
  6
LS
100
AcDbLine
 10
14.3600044
 20
0.63999999
 30
0.0
 11
14.3600044
 21
0.6999999900000001
 31
0.0
  0
LINE
  5
A6
330
54
100
AcDbEntity
  8
BORDER
  6
LS
100
AcDbLine
 10
14.08000279999999
 20
0.55999994
 30
0.0
 11
14.08000279999999
 21
0.6999999900000001
 31
0.0
  0
LINE
  5
A7
330
54
100
AcDbEntity
  8
BORDER
  6
LS
100
AcDbLine
 10
14.1800032
 20
0.55999994
 30
0.0
 11
14.1800032
 21
0.6999999900000001
 31
0.0
  0
LINE
  5
A8
330
54
100
AcDbEntity
  8
BORDER
  6
LS
100
AcDbLine
 10
14.2800035
 20
0.55999994
 30
0.0
 11
14.2800035
 21
0.6999999900000001
 31
0.0
  0
LINE
  5
A9
330
54
100
AcDbEntity
  8
BORDER
  6
LS
100
AcDbLine
 10
14.30000399999999
 20
0.63999999
 30
0.0
 11
14.30000399999999
 21
0.6999999900000001
 31
0.0
  0
LINE
  5
AA
330
54
100
AcDbEntity
  8
BORDER
  6
LS
100
AcDbLine
 10
14.3200045
 20
0.59999996
 30
0.0
 11
14.3200045
 21
0.6999999900000001
 31
0.0
  0
LINE
  5
AB
330
54
100
AcDbEntity
  8
BORDER
  6
LS
100
AcDbLine
 10
14.3400049
 20
0.59999996
 30
0.0
 11
14.3400049
 21
0.6999999900000001
 31
0.0
  0
LINE
  5
AC
330
54
100
AcDbEntity
  8
BORDER
  6
LS
100
AcDbLine
 10
14.02000329999999
 20
0.59999996
 30
0.0
 11
14.02000329999999
 21
0.6999999900000001
 31
0.0
  0
LINE
  5
AD
330
54
100
AcDbEntity
  8
BORDER
  6
LS
100
AcDbLine
 10
14.0400038
 20
0.59999996
 30
0.0
 11
14.0400038
 21
0.6999999900000001
 31
0.0
  0
LINE
  5
AE
330
54
100
AcDbEntity
  8
BORDER
  6
LS
100
AcDbLine
 10
14.0600033
 20
0.63999999
 30
0.0
 11
14.0600033
 21
0.6999999900000001
 31
0.0
  0
LINE
  5
AF
330
54
100
AcDbEntity
  8
BORDER
  6
LS
100
AcDbLine
 10
14.10000319999999
 20
0.63999999
 30
0.0
 11
14.10000319999999
 21
0.6999999900000001
 31
0.0
  0
LINE
  5
B0
330
54
100
AcDbEntity
  8
BORDER
  6
LS
100
AcDbLine
 10
14.1200037
 20
0.59999996
 30
0.0
 11
14.1200037
 21
0.6999999900000001
 31
0.0
  0
LINE
  5
B1
330
54
100
AcDbEntity
  8
BORDER
  6
LS
100
AcDbLine
 10
14.14000419999999
 20
0.59999996
 30
0.0
 11
14.14000419999999
 21
0.6999999900000001
 31
0.0
  0
LINE
  5
B2
330
54
100
AcDbEntity
  8
BORDER
  6
LS
100
AcDbLine
 10
14.1600037
 20
0.63999999
 30
0.0
 11
14.1600037
 21
0.6999999900000001
 31
0.0
  0
LINE
  5
B3
330
54
100
AcDbEntity
  8
BORDER
  6
LS
100
AcDbLine
 10
14.20000359999999
 20
0.63999999
 30
0.0
 11
14.20000359999999
 21
0.6999999900000001
 31
0.0
  0
LINE
  5
B4
330
54
100
AcDbEntity
  8
BORDER
  6
LS
100
AcDbLine
 10
14.2200041
 20
0.59999996
 30
0.0
 11
14.2200041
 21
0.6999999900000001
 31
0.0
  0
LINE
  5
B5
330
54
100
AcDbEntity
  8
BORDER
  6
LS
100
AcDbLine
 10
14.2400045
 20
0.59999996
 30
0.0
 11
14.2400045
 21
0.6999999900000001
 31
0.0
  0
LINE
  5
B6
330
54
100
AcDbEntity
  8
BORDER
  6
LS
100
AcDbLine
 10
14.26000399999999
 20
0.63999999
 30
0.0
 11
14.26000399999999
 21
0.6999999900000001
 31
0.0
  0
LINE
  5
B7
330
54
100
AcDbEntity
  8
BORDER
  6
LS
100
AcDbLine
 10
13.9800024
 20
0.55999994
 30
0.0
 11
13.9800024
 21
0.6999999900000001
 31
0.0
  0
LINE
  5
B8
330
54
100
AcDbEntity
  8
BORDER
  6
LS
100
AcDbLine
 10
13.9400034
 20
0.59999996
 30
0.0
 11
13.9400034
 21
0.6999999900000001
 31
0.0
  0
LINE
  5
B9
330
54
100
AcDbEntity
  8
BORDER
  6
LS
100
AcDbLine
 10
13.9600029
 20
0.63999999
 30
0.0
 11
13.9600029
 21
0.6999999900000001
 31
0.0
  0
LINE
  5
BA
330
54
100
AcDbEntity
  8
BORDER
  6
LS
100
AcDbLine
 10
14.0000029
 20
0.63999999
 30
0.0
 11
14.0000029
 21
0.6999999900000001
 31
0.0
  0
TEXT
  5
BB
330
54
100
AcDbEntity
  8
BORDER
100
AcDbText
 10
16.3514986
 20
0.35995007
 30
0.0
 40
0.07999998
  1
3
 50
0.0999999600000013
  7
AE
100
AcDbText
  0
TEXT
  5
BC
330
54
100
AcDbEntity
  8
BORDER
100
AcDbText
 10
15.35149859999999
 20
0.35995007
 30
0.0
 40
0.07999998
  1
2
 50
0.0999999600000013
  7
AE
100
AcDbText
  0
TEXT
  5
BD
330
54
100
AcDbEntity
  8
BORDER
100
AcDbText
 10
15.1515045
 20
0.41995007
 30
0.0
 40
0.07999998
  1
8
 50
0.0999999600000013
  7
AE
100
AcDbText
  0
TEXT
  5
BE
330
54
100
AcDbEntity
  8
BORDER
100
AcDbText
 10
14.751503
 20
0.41995007
 30
0.0
 40
0.07999998
  1
4
 50
0.0999999600000013
  7
AE
100
AcDbText
  0
TEXT
  5
BF
330
54
100
AcDbEntity
  8
BORDER
100
AcDbText
 10
14.3514986
 20
0.35995007
 30
0.0
 40
0.07999998
  1
1
 50
0.0999999600000013
  7
AE
100
AcDbText
  0
TEXT
  5
C0
330
54
100
AcDbEntity
  8
BORDER
100
AcDbText
 10
14.5515032
 20
0.41995007
 30
0.0
 40
0.07999998
  1
2
 50
0.0999999600000013
  7
AE
100
AcDbText
  0
TEXT
  5
C1
330
54
100
AcDbEntity
  8
BORDER
100
AcDbText
 10
14.9515037
 20
0.41995007
 30
0.0
 40
0.07999998
  1
6
 50
0.0999999600000013
  7
AE
100
AcDbText
  0
TEXT
  5
C2
330
54
100
AcDbEntity
  8
BORDER
100
AcDbText
 10
14.1515017
 20
0.41995007
 30
0.0
 40
0.07999998
  1
8
 50
0.0999999600000013
  7
AE
100
AcDbText
  0
TEXT
  5
C3
330
54
100
AcDbEntity
  8
BORDER
100
AcDbText
 10
13.9515009
 20
0.41995007
 30
0.0
 40
0.07999998
  1
6
 50
0.0999999600000013
  7
AE
100
AcDbText
  0
LINE
  5
C4
330
54
100
AcDbEntity
  8
BORDER
  6
LS
100
AcDbLine
 10
16.3800001
 20
0.49999994
 30
0.0
 11
16.3800001
 21
0.6999999900000001
 31
0.0
  0
LINE
  5
C5
330
54
100
AcDbEntity
  8
BORDER
  6
LS
100
AcDbLine
 10
14.3800001
 20
0.49999994
 30
0.0
 11
14.3800001
 21
0.6999999900000001
 31
0.0
  0
LINE
  5
C6
330
54
100
AcDbEntity
  8
BORDER
  6
LS
100
AcDbLine
 10
15.3800001
 20
0.49999994
 30
0.0
 11
15.3800001
 21
0.6999999900000001
 31
0.0
  0
TEXT
  5
C7
330
54
100
AcDbEntity
  8
TITLE BLOCK
  6
Continuous
100
AcDbText
 10
17.1
 20
1.949999999999999
 30
0.0
 40
0.075937067150492
  1
DR
 50
0.09999996
  7
AE
100
AcDbText
  0
TEXT
  5
C8
330
54
100
AcDbEntity
  8
TITLE BLOCK
  6
Continuous
100
AcDbText
 10
17.1
 20
1.824999999999999
 30
0.0
 40
0.075937067150492
  1
BY
 50
0.09999996
  7
AE
100
AcDbText
  0
TEXT
  5
C9
330
54
100
AcDbEntity
  8
TITLE BLOCK
  6
Continuous
100
AcDbText
 10
17.10620037256117
 20
1.574999999999999
 30
0.0
 40
0.075937067150492
  1
BY
 50
0.09999996
  7
AE
100
AcDbText
  0
TEXT
  5
CA
330
54
100
AcDbEntity
  8
TITLE BLOCK
  6
Continuous
100
AcDbText
 10
17.1
 20
1.699999999999999
 30
0.0
 40
0.075937067150492
  1
CHK
 50
0.09999996
  7
AE
100
AcDbText
  0
TEXT
  5
CB
330
54
100
AcDbEntity
  8
TITLE BLOCK
  6
Continuous
100
AcDbText
 10
17.11
 20
1.45
 30
0.0
 40
0.075937067150492
  1
APPD
 50
0.09999996
  7
AE
100
AcDbText
  0
TEXT
  5
CC
330
54
100
AcDbEntity
  8
TITLE BLOCK
  6
Continuous
100
AcDbText
 10
17.1
 20
1.325
 30
0.0
 40
0.075937067150492
  1
BY
 50
0.09999996
  7
AE
100
AcDbText
  0
TEXT
  5
CD
330
54
100
AcDbEntity
  8
TITLE BLOCK
  6
Continuous
100
AcDbText
 10
15.65
 20
1.149999999999999
 30
0.0
 40
0.075937067150492
  1
DRAWING NAME
 50
0.09999996
  7
AE
100
AcDbText
  0
TEXT
  5
CE
330
54
100
AcDbEntity
  8
TITLE BLOCK
  6
Continuous
100
AcDbText
 10
15.615
 20
2.6
 30
0.0
 40
0.0645465051491158
  1
NOTICE: This drawing or material
 50
0.09999996
 41
0.7005041199999999
  7
AE
100
AcDbText
  0
LINE
  5
CF
330
54
100
AcDbEntity
  8
TITLE BLOCK
  6
Continuous
100
AcDbLine
 10
17.07518995515351
 20
1.35
 30
0.0
 11
17.07518995515351
 21
2.75
 31
0.0
  0
LINE
  5
D0
330
54
100
AcDbEntity
  8
TITLE BLOCK
  6
Continuous
100
AcDbLine
 10
15.59965639031853
 20
0.7499656890232619
 30
0.0
 11
15.59965639031853
 21
2.75
 31
0.0
  0
TEXT
  5
D1
330
54
100
AcDbEntity
  8
TITLE BLOCK
  6
Continuous
100
AcDbText
 10
15.62129755351284
 20
1.956248812462206
 30
0.0
 40
0.0645465051491158
  1
reproduced, will be used only for
 50
0.09999996
 41
0.6799434399999999
  7
AE
100
AcDbText
  0
TEXT
  5
D2
330
54
100
AcDbEntity
  8
TITLE BLOCK
  6
Continuous
100
AcDbText
 10
15.63514394391218
 20
1.445039114516279
 30
0.0
 40
0.0645465051491158
  1
consent of G&L Motion Control.
 50
0.09999996
 41
0.79688752
  7
AE
100
AcDbText
  0
TEXT
  5
D3
330
54
100
AcDbEntity
  8
TITLE BLOCK
  6
Continuous
100
AcDbText
 10
15.61887681003094
 20
1.585049725173559
 30
0.0
 40
0.0645465051491158
  1
as authorized by specific written
 50
0.09999996
 41
0.6799434399999999
  7
AE
100
AcDbText
  0
TEXT
  5
D4
330
54
100
AcDbEntity
  8
TITLE BLOCK
  6
Continuous
100
AcDbText
 10
15.6189200152052
 20
1.70690037169105
 30
0.0
 40
0.0645465051491158
  1
used or disclosed to anyone except
 50
0.09999996
 41
0.6605569100000001
  7
AE
100
AcDbText
  0
TEXT
  5
D5
330
54
100
AcDbEntity
  8
TITLE BLOCK
  6
Continuous
100
AcDbText
 10
15.61564857341434
 20
1.835205659079424
 30
0.0
 40
0.0645465051491158
  1
your information, and will not be
 50
0.09999996
 41
0.6799434399999999
  7
AE
100
AcDbText
  0
TEXT
  5
D6
330
54
100
AcDbEntity
  8
TITLE BLOCK
  6
Continuous
100
AcDbText
 10
15.62032080796545
 20
2.087377673718703
 30
0.0
 40
0.0645465051491158
  1
will not be copied or otherwise
 50
0.09999996
 41
0.72234601
  7
AE
100
AcDbText
  0
TEXT
  5
D7
330
54
100
AcDbEntity
  8
TITLE BLOCK
  6
Continuous
100
AcDbText
 10
15.61448145506772
 20
2.218510103259664
 30
0.0
 40
0.0645465051491158
  1
in confidence on condition that it
 50
0.09999996
 41
0.6605569100000001
  7
AE
100
AcDbText
  0
TEXT
  5
D8
330
54
100
AcDbEntity
  8
TITLE BLOCK
  6
Continuous
100
AcDbText
 10
15.61275421249727
 20
2.477540457117108
 30
0.0
 40
0.0645465051491158
  1
contains proprietary information
 50
0.09999996
 41
0.7005041199999999
  7
AE
100
AcDbText
  0
TEXT
  5
D9
330
54
100
AcDbEntity
  8
TITLE BLOCK
  6
Continuous
100
AcDbText
 10
15.6184730152435
 20
2.346006933112137
 30
0.0
 40
0.0645465051491158
  1
of G&L Motion Control, is submitted
 50
0.09999996
 41
0.6799434399999999
  7
AE
100
AcDbText
  0
ATTDEF
  5
DA
330
54
100
AcDbEntity
  8
TITLE BLOCK
  6
Continuous
100
AcDbText
 10
15.7
 20
0.95
 30
0.0
 40
0.126326427375
  1

 41
0.8
100
AcDbAttributeDefinition
  3
Drawing Name
  2
GEN-TITLE-DES1{15.54}
 70
     0
1001
GENIUS_GENBLLY_14
1000
BOR5
  0
TEXT
  5
DB
330
54
100
AcDbEntity
  8
BORDER
100
AcDbText
 10
0.1785739999999976
 20
14.775
 30
0.0
 40
0.19999999
  1
D
  7
AE
100
AcDbText
  0
LINE
  5
DC
330
54
100
AcDbEntity
  8
BORDER
100
AcDbLine
 10
0.1000060000000005
 20
12.75
 30
0.0
 11
0.5
 21
12.75
 31
0.0
  0
TEXT
  5
DD
330
54
100
AcDbEntity
  8
BORDER
100
AcDbText
 10
0.1785739999999976
 20
10.52499999999999
 30
0.0
 40
0.19999999
  1
C
  7
AE
100
AcDbText
  0
TEXT
  5
DE
330
54
100
AcDbEntity
  8
BORDER
100
AcDbText
 10
2.678573999999997
 20
16.52499399999999
 30
0.0
 40
0.19999999
  1
4
  7
AE
100
AcDbText
  0
LINE
  5
DF
330
54
100
AcDbEntity
  8
BORDER
100
AcDbLine
 10
5.5
 20
16.25
 30
0.0
 11
5.5
 21
16.649994
 31
0.0
  0
TEXT
  5
E0
330
54
100
AcDbEntity
  8
BORDER
100
AcDbText
 10
8.178572
 20
16.52499399999999
 30
0.0
 40
0.19999999
  1
3
  7
AE
100
AcDbText
  0
TEXT
  5
E1
330
54
100
AcDbEntity
  8
BORDER
100
AcDbText
 10
13.6785717
 20
16.52499399999999
 30
0.0
 40
0.19999999
  1
2
  7
AE
100
AcDbText
  0
LINE
  5
E2
330
54
100
AcDbEntity
  8
BORDER
100
AcDbLine
 10
10.900011
 20
16.449982
 30
0.0
 11
11.000015
 21
16.249985
 31
0.0
  0
LINE
  5
E3
330
54
100
AcDbEntity
  8
BORDER
100
AcDbLine
 10
10.90000099999999
 20
16.449997
 30
0.0
 11
11.1
 21
16.449997
 31
0.0
  0
LINE
  5
E4
330
54
100
AcDbEntity
  8
BORDER
100
AcDbLine
 10
11.000011
 20
16.25
 30
0.0
 11
11.10001
 21
16.449997
 31
0.0
  0
LINE
  5
E5
330
54
100
AcDbEntity
  8
BORDER
100
AcDbLine
 10
10.90000099999999
 20
16.449997
 30
0.0
 11
11.1
 21
16.449997
 31
0.0
  0
LINE
  5
E6
330
54
100
AcDbEntity
  8
BORDER
100
AcDbLine
 10
11.0
 20
16.449997
 30
0.0
 11
11.0
 21
16.649994
 31
0.0
  0
LINE
  5
E7
330
54
100
AcDbEntity
  8
BORDER
100
AcDbLine
 10
16.5
 20
16.25
 30
0.0
 11
16.5
 21
16.649994
 31
0.0
  0
LINE
  5
E8
330
54
100
AcDbEntity
  8
BORDER
  6
LP
100
AcDbLine
 10
22.0
 20
0.2456391960479891
 30
0.0
 11
22.0
 21
17.0
 31
0.0
  0
LINE
  5
E9
330
54
100
AcDbEntity
  8
BORDER
100
AcDbLine
 10
21.49999999999999
 20
0.75
 30
0.0
 11
21.49999999999999
 21
16.25
 31
0.0
  0
ATTDEF
  5
EA
330
54
100
AcDbEntity
  8
TITLE BLOCK
  6
Continuous
100
AcDbText
 10
20.89999999999999
 20
1.375
 30
0.0
 40
0.11808994431015
  1

 41
0.8
100
AcDbAttributeDefinition
  3
Sheet of
  2
GEN-TITLE-SHEET-OF{2.62}
 70
     0
1001
GENIUS_GENBLLY_14
1000
BOR3
  0
ATTDEF
  5
EB
330
54
100
AcDbEntity
  8
TITLE BLOCK
  6
Continuous
100
AcDbText
 10
20.5
 20
1.375
 30
0.0
 40
0.11808994431015
  1

 41
0.8
100
AcDbAttributeDefinition
  3
Sheet
  2
GEN-TITLE-SHEET{2.62}
 70
     0
1001
GENIUS_GENBLLY_14
1000
BOR3
  0
TEXT
  5
EC
330
54
100
AcDbEntity
  8
BORDER
100
AcDbText
 10
21.67857146
 20
2.0249996
 30
0.0
 40
0.19999999
  1
A
  7
AE
100
AcDbText
  0
TEXT
  5
ED
330
54
100
AcDbEntity
  8
BORDER
100
AcDbText
 10
19.17857169999999
 20
0.27499998
 30
0.0
 40
0.19999999
  1
1
  7
AE
100
AcDbText
  0
TEXT
  5
EE
330
54
100
AcDbEntity
  8
TITLE BLOCK
  6
Continuous
100
AcDbText
 10
20.07499999999999
 20
1.699999999999999
 30
0.0
 40
0.075937067150492
  1
DATE
 50
0.09999996
  7
AE
100
AcDbText
  0
TEXT
  5
EF
330
54
100
AcDbEntity
  8
TITLE BLOCK
  6
Continuous
100
AcDbText
 10
20.07499999999999
 20
1.45
 30
0.0
 40
0.075937067150492
  1
SHEET   OF
 50
0.09999996
  7
AE
100
AcDbText
  0
ATTDEF
  5
F0
330
54
100
AcDbEntity
  8
TITLE BLOCK
  6
Continuous
100
AcDbText
 10
18.94999999999999
 20
1.375
 30
0.0
 40
0.1010611419
  1

 41
0.8
100
AcDbAttributeDefinition
  3
Material
  2
GEN-TITLE-MAT{11.15}
 70
     0
1001
GENIUS_GENBLLY_14
1000
BOR3
  0
ATTDEF
  5
F1
330
54
100
AcDbEntity
  8
TITLE BLOCK
  6
Continuous
100
AcDbText
 10
18.94999999999999
 20
1.625
 30
0.0
 40
0.1010611419
  1

100
AcDbAttributeDefinition
  3
Machine
  2
GEN-TITLE-MACH{5}
 70
     0
1001
GENIUS_GENBLLY_14
1000
BOR2
  0
ATTDEF
  5
F2
330
54
100
AcDbEntity
  8
TITLE BLOCK
  6
Continuous
100
AcDbText
 10
18.94999999999999
 20
1.875
 30
0.0
 40
0.1010611419
  1

100
AcDbAttributeDefinition
  3
Ref. No.
  2
GEN-TITLE-REF{5}
 70
     0
1001
GENIUS_GENBLLY_14
1000
BOR2
  0
TEXT
  5
F3
330
54
100
AcDbEntity
  8
TITLE BLOCK
  6
Continuous
100
AcDbText
 10
18.6
 20
1.45
 30
0.0
 40
0.075937067150492
  1
MATL
 50
0.09999996
  7
AE
100
AcDbText
  0
TEXT
  5
F4
330
54
100
AcDbEntity
  8
TITLE BLOCK
  6
Continuous
100
AcDbText
 10
18.6
 20
1.699999999999999
 30
0.0
 40
0.075937067150492
  1
MACH
 50
0.09999996
  7
AE
100
AcDbText
  0
TEXT
  5
F5
330
54
100
AcDbEntity
  8
TITLE BLOCK
  6
Continuous
100
AcDbText
 10
18.6
 20
1.949999999999999
 30
0.0
 40
0.075937067150492
  1
REF
 50
0.09999996
  7
AE
100
AcDbText
  0
TEXT
  5
F6
330
54
100
AcDbEntity
  8
TITLE BLOCK
  6
Continuous
100
AcDbText
 10
18.6
 20
1.149999999999999
 30
0.0
 40
0.075937067150492
  1
DRAWING NUMBER
 50
0.09999996
  7
AE
100
AcDbText
  0
LINE
  5
F7
330
54
100
AcDbEntity
  8
TITLE BLOCK
  6
Continuous
100
AcDbLine
 10
18.54999999999999
 20
0.7499656890232619
 30
0.0
 11
18.54999999999999
 21
2.75
 31
0.0
  0
LINE
  5
F8
330
54
100
AcDbEntity
  8
TITLE BLOCK
  6
Continuous
100
AcDbLine
 10
20.02625718126358
 20
1.299999999999999
 30
0.0
 11
20.02625718126354
 21
1.799999999999999
 31
0.0
  0
ATTDEF
  5
F9
330
54
100
AcDbEntity
  8
TITLE BLOCK
  6
Continuous
100
AcDbText
 10
20.42499999999999
 20
1.625
 30
0.0
 40
0.1010611419
  1

100
AcDbAttributeDefinition
  3
Date
  2
GEN-TITLE-PLOT{5}
 70
     0
1001
GENIUS_GENBLLY_14
1000
BOR2
  0
ATTDEF
  5
FA
330
54
100
AcDbEntity
  8
TITLE BLOCK
  6
Continuous
100
AcDbText
 10
18.89999999999999
 20
0.85
 30
0.0
 40
0.196816573850279
  1

 41
0.8
100
AcDbAttributeDefinition
  3
Drawing Number
  2
GEN-TITLE-NR{13.37}
 70
     0
1001
GENIUS_GENBLLY_14
1000
BOR5
  0
LINE
  5
FB
330
54
100
AcDbEntity
  8
BORDER
100
AcDbLine
 10
21.70000315
 20
8.5
 30
0.0
 11
21.90000009999999
 21
8.5
 31
0.0
  0
LINE
  5
FC
330
54
100
AcDbEntity
  8
BORDER
100
AcDbLine
 10
21.50001131999999
 20
8.499981899999999
 30
0.0
 11
21.70000713999999
 21
8.399983399999999
 31
0.0
  0
TEXT
  5
FD
330
54
100
AcDbEntity
  8
BORDER
100
AcDbText
 10
21.67857146
 20
6.2749996
 30
0.0
 40
0.19999999
  1
B
  7
AE
100
AcDbText
  0
LINE
  5
FE
330
54
100
AcDbEntity
  8
BORDER
100
AcDbLine
 10
21.49999951999999
 20
8.499982800000001
 30
0.0
 11
21.69999569999999
 21
8.599980399999999
 31
0.0
  0
LINE
  5
FF
330
54
100
AcDbEntity
  8
BORDER
100
AcDbLine
 10
21.70000315
 20
8.3999939
 30
0.0
 11
21.70000315
 21
8.5999908
 31
0.0
  0
TEXT
  5
100
330
54
100
AcDbEntity
  8
BORDER
100
AcDbText
 10
21.67857146
 20
14.775
 30
0.0
 40
0.19999999
  1
D
  7
AE
100
AcDbText
  0
LINE
  5
101
330
54
100
AcDbEntity
  8
BORDER
100
AcDbLine
 10
21.49999999999999
 20
12.75
 30
0.0
 11
21.90000003999999
 21
12.75
 31
0.0
  0
TEXT
  5
102
330
54
100
AcDbEntity
  8
BORDER
100
AcDbText
 10
21.67857146
 20
10.52499999999999
 30
0.0
 40
0.19999999
  1
C
  7
AE
100
AcDbText
  0
TEXT
  5
103
330
54
100
AcDbEntity
  8
BORDER
100
AcDbText
 10
19.17857169999999
 20
16.52499399999999
 30
0.0
 40
0.19999999
  1
1
  7
AE
100
AcDbText
  0
LINE
  5
104
330
54
100
AcDbEntity
  8
BORDER
  6
LP
 62
    15
100
AcDbLine
 10
0.0
 20
0.2456391960479891
 30
0.0
 11
22.0
 21
0.2456391960479891
 31
0.0
  0
MTEXT
  5
105
330
54
100
AcDbEntity
  8
BORDER
  6
Continuous
100
AcDbMText
 10
20.00412857763948
 20
2.278264837305509
 30
0.0
 40
0.07874
 41
2.862
 71
     5
 72
     1
  1
{\Fromans.shx;\C9;Controls, Measurement, and Sensing\P672 South Military Road\PFond du Lac, Wisconsin 54936 U.S.A.}
 73
     1
 44
1.0
  0
MTEXT
  5
106
330
54
100
AcDbEntity
  8
BORDER
  6
Continuous
100
AcDbMText
 10
20.00308979335871
 20
2.674492635629308
 30
0.0
 40
0.15748
 41
2.662939556
 71
     2
 72
     5
  1
{\fArial|b0|i0|c0|p34;\C1;G & L Motion Control Inc.}
 73
     1
 44
1.0
  0
ENDBLK
  5
108
330
54
100
AcDbEntity
  8
0
100
AcDbBlockEnd
  0
BLOCK
  5
F41
330
F36
100
AcDbEntity
  8
0
100
AcDbBlockBegin
  2
*D3
 70
     1
 10
0.0
 20
0.0
 30
0.0
  3
*D3
  1

  0
LINE
  5
10E2
330
F36
100
AcDbEntity
  8
0
 62
     0
370
    -2
100
AcDbLine
 10
12.46660558028263
 20
8.0625
 30
0.0
 11
12.46660558028263
 21
8.677397996478262
 31
0.0
  0
LINE
  5
10E3
330
F36
100
AcDbEntity
  8
0
 62
     0
370
    -2
100
AcDbLine
 10
10.46660558028263
 20
8.062499999999943
 30
0.0
 11
10.46660558028263
 21
8.677397996478262
 31
0.0
  0
LINE
  5
10E4
330
F36
100
AcDbEntity
  8
0
 62
     0
370
    -2
100
AcDbLine
 10
12.28660558028264
 20
8.552397996478262
 30
0.0
 11
11.72105273864736
 21
8.552397996478262
 31
0.0
  0
LINE
  5
10E5
330
F36
100
AcDbEntity
  8
0
 62
     0
370
    -2
100
AcDbLine
 10
10.64660558028263
 20
8.552397996478262
 30
0.0
 11
11.23629083388545
 21
8.552397996478262
 31
0.0
  0
SOLID
  5
10E6
330
F36
100
AcDbEntity
  8
0
 62
     0
100
AcDbTrace
 10
12.28660558028264
 20
8.582397996478261
 30
0.0
 11
12.28660558028264
 21
8.522397996478263
 31
0.0
 12
12.46660558028263
 22
8.552397996478262
 32
0.0
 13
12.46660558028263
 23
8.552397996478262
 33
0.0
  0
SOLID
  5
10E7
330
F36
100
AcDbEntity
  8
0
 62
     0
100
AcDbTrace
 10
10.64660558028263
 20
8.582397996478261
 30
0.0
 11
10.64660558028263
 21
8.522397996478263
 31
0.0
 12
10.46660558028263
 22
8.552397996478262
 32
0.0
 13
10.46660558028263
 23
8.552397996478262
 33
0.0
  0
MTEXT
  5
10E8
330
F36
100
AcDbEntity
  8
0
 62
     0
100
AcDbMText
 10
11.47867178626641
 20
8.552397996478262
 30
0.0
 40
0.1
 41
0.0
 71
     5
 72
     1
  1
\A1;2.00
 73
     1
 44
1.0
  0
POINT
  5
10E9
330
F36
100
AcDbEntity
  8
Defpoints
 62
     0
100
AcDbPoint
 10
12.46660558028263
 20
8.0
 30
0.0
  0
POINT
  5
10EA
330
F36
100
AcDbEntity
  8
Defpoints
 62
     0
100
AcDbPoint
 10
10.46660558028263
 20
7.999999999999943
 30
0.0
  0
POINT
  5
10EB
330
F36
100
AcDbEntity
  8
Defpoints
 62
     0
100
AcDbPoint
 10
10.46660558028263
 20
8.552397996478262
 30
0.0
  0
ENDBLK
  5
F42
330
F36
100
AcDbEntity
  8
0
100
AcDbBlockEnd
  0
BLOCK
  5
F4E
330
F43
100
AcDbEntity
  8
0
100
AcDbBlockBegin
  2
*D4
 70
     1
 10
0.0
 20
0.0
 30
0.0
  3
*D4
  1

  0
LINE
  5
10D8
330
F43
100
AcDbEntity
  8
0
 62
     0
370
    -2
100
AcDbLine
 10
8.71348113709768
 20
6.723499999999987
 30
0.0
 11
8.71348113709768
 21
6.07796097811569
 31
0.0
  0
LINE
  5
10D9
330
F43
100
AcDbEntity
  8
0
 62
     0
370
    -2
100
AcDbLine
 10
8.651481137097697
 20
6.723499999999987
 30
0.0
 11
8.651481137097697
 21
6.07796097811569
 31
0.0
  0
LINE
  5
10DA
330
F43
100
AcDbEntity
  8
0
 62
     0
370
    -2
100
AcDbLine
 10
8.471481137097697
 20
6.20296097811569
 30
0.0
 11
8.291481137097697
 21
6.20296097811569
 31
0.0
  0
LINE
  5
10DB
330
F43
100
AcDbEntity
  8
0
 62
     0
370
    -2
100
AcDbLine
 10
8.89348113709768
 20
6.20296097811569
 30
0.0
 11
9.073481137097703
 21
6.20296097811569
 31
0.0
  0
SOLID
  5
10DC
330
F43
100
AcDbEntity
  8
0
 62
     0
100
AcDbTrace
 10
8.471481137097697
 20
6.23296097811569
 30
0.0
 11
8.471481137097697
 21
6.17296097811569
 31
0.0
 12
8.651481137097697
 22
6.20296097811569
 32
0.0
 13
8.651481137097697
 23
6.20296097811569
 33
0.0
  0
SOLID
  5
10DD
330
F43
100
AcDbEntity
  8
0
 62
     0
100
AcDbTrace
 10
8.89348113709768
 20
6.23296097811569
 30
0.0
 11
8.89348113709768
 21
6.17296097811569
 31
0.0
 12
8.71348113709768
 22
6.20296097811569
 32
0.0
 13
8.71348113709768
 23
6.20296097811569
 33
0.0
  0
MTEXT
  5
10DE
330
F43
100
AcDbEntity
  8
0
 62
     0
100
AcDbMText
 10
9.313481137097703
 20
6.20296097811569
 30
0.0
 40
0.1
 41
0.0
 71
     5
 72
     1
  1
\A1;.062
 73
     1
 44
1.0
  0
POINT
  5
10DF
330
F43
100
AcDbEntity
  8
Defpoints
 62
     0
100
AcDbPoint
 10
8.71348113709768
 20
6.785999999999987
 30
0.0
  0
POINT
  5
10E0
330
F43
100
AcDbEntity
  8
Defpoints
 62
     0
100
AcDbPoint
 10
8.651481137097697
 20
6.785999999999987
 30
0.0
  0
POINT
  5
10E1
330
F43
100
AcDbEntity
  8
Defpoints
 62
     0
100
AcDbPoint
 10
8.651481137097697
 20
6.20296097811569
 30
0.0
  0
ENDBLK
  5
F4F
330
F43
100
AcDbEntity
  8
0
100
AcDbBlockEnd
  0
BLOCK
  5
F5B
330
F50
100
AcDbEntity
  8
0
100
AcDbBlockBegin
  2
*D5
 70
     1
 10
0.0
 20
0.0
 30
0.0
  3
*D5
  1

  0
LINE
  5
10EC
330
F50
100
AcDbEntity
  8
0
 62
     0
370
    -2
100
AcDbLine
 10
12.52910558028264
 20
8.0
 30
0.0
 11
13.4456956055639
 21
8.0
 31
0.0
  0
LINE
  5
10ED
330
F50
100
AcDbEntity
  8
0
 62
     0
370
    -2
100
AcDbLine
 10
12.52910558028264
 20
6.786000000000043
 30
0.0
 11
13.4456956055639
 21
6.786000000000043
 31
0.0
  0
LINE
  5
10EE
330
F50
100
AcDbEntity
  8
0
 62
     0
370
    -2
100
AcDbLine
 10
13.3206956055639
 20
7.820000000000001
 30
0.0
 11
13.3206956055639
 21
7.567379025630541
 31
0.0
  0
LINE
  5
10EF
330
F50
100
AcDbEntity
  8
0
 62
     0
370
    -2
100
AcDbLine
 10
13.3206956055639
 20
6.966000000000043
 30
0.0
 11
13.3206956055639
 21
7.287379025630541
 31
0.0
  0
SOLID
  5
10F0
330
F50
100
AcDbEntity
  8
0
 62
     0
100
AcDbTrace
 10
13.2906956055639
 20
7.820000000000001
 30
0.0
 11
13.3506956055639
 21
7.820000000000001
 31
0.0
 12
13.3206956055639
 22
8.0
 32
0.0
 13
13.3206956055639
 23
8.0
 33
0.0
  0
SOLID
  5
10F1
330
F50
100
AcDbEntity
  8
0
 62
     0
100
AcDbTrace
 10
13.2906956055639
 20
6.966000000000043
 30
0.0
 11
13.3506956055639
 21
6.966000000000043
 31
0.0
 12
13.3206956055639
 22
6.786000000000043
 32
0.0
 13
13.3206956055639
 23
6.786000000000043
 33
0.0
  0
MTEXT
  5
10F2
330
F50
100
AcDbEntity
  8
0
 62
     0
100
AcDbMText
 10
13.3206956055639
 20
7.427379025630543
 30
0.0
 40
0.1
 41
0.0
 71
     5
 72
     1
  1
\A1;1.21
 73
     1
 44
1.0
  0
POINT
  5
10F3
330
F50
100
AcDbEntity
  8
Defpoints
 62
     0
100
AcDbPoint
 10
12.46660558028263
 20
8.0
 30
0.0
  0
POINT
  5
10F4
330
F50
100
AcDbEntity
  8
Defpoints
 62
     0
100
AcDbPoint
 10
12.46660558028263
 20
6.786000000000043
 30
0.0
  0
POINT
  5
10F5
330
F50
100
AcDbEntity
  8
Defpoints
 62
     0
100
AcDbPoint
 10
13.3206956055639
 20
6.786000000000043
 30
0.0
  0
ENDBLK
  5
F5C
330
F50
100
AcDbEntity
  8
0
100
AcDbBlockEnd
  0
BLOCK
  5
10A9
330
101F
100
AcDbEntity
  8
0
100
AcDbBlockBegin
  2
ASSEMBLY_B
 70
     2
 10
0.0
 20
0.0
 30
0.0
  3
ASSEMBLY_B
  1

  0
LINE
  5
1020
330
101F
100
AcDbEntity
  8
BORDER
 62
    15
100
AcDbLine
 10
16.6
 20
0.3999656890232617
 30
0.0
 11
16.6
 21
10.63996597902324
 31
0.0
  0
LINE
  5
1021
330
101F
100
AcDbEntity
  8
BORDER
 62
    15
100
AcDbLine
 10
0.400011260000019
 20
0.3999656890232617
 30
0.0
 11
0.400011260000019
 21
10.63996597902324
 31
0.0
  0
LINE
  5
1022
330
101F
100
AcDbEntity
  8
BORDER
 62
    15
100
AcDbLine
 10
0.400011260000019
 20
0.3999656890232617
 30
0.0
 11
16.6
 21
0.3999656890232617
 31
0.0
  0
LINE
  5
1023
330
101F
100
AcDbEntity
  8
BORDER
 62
    15
100
AcDbLine
 10
0.0000022600000076
 20
5.519965834023253
 30
0.0
 11
0.400011260000019
 21
5.519965834023253
 31
0.0
  0
TEXT
  5
1024
330
101F
100
AcDbEntity
  8
TITLE BLOCK
  6
Continuous
 62
     2
100
AcDbText
 10
12.30669482722675
 20
2.205546537751305
 30
0.0
 40
0.1010611419
  1
DO NOT SCALE
 50
0.09999996
  7
AE
100
AcDbText
  0
TEXT
  5
1025
330
101F
100
AcDbEntity
  8
TITLE BLOCK
  6
Continuous
 62
     2
100
AcDbText
 10
12.30669482722675
 20
1.996163262564665
 30
0.0
 40
0.1010611419
  1
  DRAWING
 50
0.09999996
  7
AE
100
AcDbText
  0
ATTDEF
  5
1026
330
101F
100
AcDbEntity
  8
TITLE BLOCK
  6
Continuous
 62
     2
100
AcDbText
 10
10.79999999999999
 20
0.6000000000000001
 30
0.0
 40
0.126326427375
  1

 41
0.8
100
AcDbAttributeDefinition
  3
Drawing Name
  2
GEN-TITLE-DES1{15.54}
 70
     0
1001
GENIUS_GENBLLY_14
1000
BOR5
  0
LINE
  5
1027
330
101F
100
AcDbEntity
  8
TITLE BLOCK
  6
Continuous
 62
     2
100
AcDbLine
 10
7.849999999999999
 20
2.4
 30
0.0
 11
16.6
 21
2.4
 31
0.0
  0
LINE
  5
1028
330
101F
100
AcDbEntity
  8
TITLE BLOCK
  6
Continuous
 62
     2
100
AcDbLine
 10
12.17518995515351
 20
1.7
 30
0.0
 11
16.6
 21
1.7
 31
0.0
  0
LINE
  5
1029
330
101F
100
AcDbEntity
  8
TITLE BLOCK
  6
Continuous
 62
     2
100
AcDbLine
 10
12.17518995515351
 20
1.45
 30
0.0
 11
16.6
 21
1.45
 31
0.0
  0
LINE
  5
102A
330
101F
100
AcDbEntity
  8
TITLE BLOCK
  6
Continuous
 62
     2
100
AcDbLine
 10
12.17518995515351
 20
1.199999999999999
 30
0.0
 11
16.6
 21
1.199999999999999
 31
0.0
  0
LINE
  5
102B
330
101F
100
AcDbEntity
  8
TITLE BLOCK
  6
Continuous
 62
     2
100
AcDbLine
 10
10.69965639031853
 20
0.95
 30
0.0
 11
16.6
 21
0.95
 31
0.0
  0
ATTDEF
  5
102C
330
101F
100
AcDbEntity
  8
TITLE BLOCK
  6
Continuous
 62
     2
100
AcDbText
 10
12.52499999999999
 20
1.024999999999999
 30
0.0
 40
0.1010611419
  1

100
AcDbAttributeDefinition
  3
Approved by
  2
GEN-TITLE-APPM{5}
 70
     0
1001
GENIUS_GENBLLY_14
1000
BOR2
1001
GENIUS_GENTRA_14
1002
{
1070
     3
1000
GENTRAPR,%s,(GENMSG gentitus 73)
1000
Approved by
1000
gb
1070
     0
1002
}
  0
ATTDEF
  5
102D
330
101F
100
AcDbEntity
  8
TITLE BLOCK
  6
Continuous
 62
     2
100
AcDbText
 10
12.52499999999999
 20
1.274999999999999
 30
0.0
 40
0.1010611419
  1

100
AcDbAttributeDefinition
  3
Check by
  2
GEN-TITLE-CHKM{5}
 70
     0
1001
GENIUS_GENBLLY_14
1000
BOR2
  0
ATTDEF
  5
102E
330
101F
100
AcDbEntity
  8
TITLE BLOCK
  6
Continuous
 62
     2
100
AcDbText
 10
12.52499999999999
 20
1.524999999999999
 30
0.0
 40
0.1010611419
  1

100
AcDbAttributeDefinition
  3
Drawn by
  2
GEN-TITLE-NAME{5}
 70
     0
1001
GENIUS_GENBLLY_14
1000
BOR2
  0
LINE
  5
102F
330
101F
100
AcDbEntity
  8
TITLE BLOCK
  6
Continuous
 62
     2
100
AcDbLine
 10
7.849999999999999
 20
0.9
 30
0.0
 11
10.69965639031853
 21
0.9
 31
0.0
  0
LINE
  5
1030
330
101F
100
AcDbEntity
  8
TITLE BLOCK
  6
Continuous
 62
     2
100
AcDbLine
 10
7.849999999999999
 20
1.149999999999999
 30
0.0
 11
10.69965639031853
 21
1.149999999999999
 31
0.0
  0
LINE
  5
1031
330
101F
100
AcDbEntity
  8
TITLE BLOCK
  6
Continuous
 62
     2
100
AcDbLine
 10
7.849999999999999
 20
2.149999999999999
 30
0.0
 11
10.69965639031853
 21
2.149999999999999
 31
0.0
  0
LINE
  5
1032
330
101F
100
AcDbEntity
  8
TITLE BLOCK
  6
Continuous
 62
     2
100
AcDbLine
 10
7.849999999999999
 20
1.9
 30
0.0
 11
10.69965639031853
 21
1.9
 31
0.0
  0
LINE
  5
1033
330
101F
100
AcDbEntity
  8
TITLE BLOCK
  6
Continuous
 62
     2
100
AcDbLine
 10
7.849999999999999
 20
1.649999999999999
 30
0.0
 11
10.69965639031853
 21
1.649999999999999
 31
0.0
  0
LINE
  5
1034
330
101F
100
AcDbEntity
  8
TITLE BLOCK
  6
Continuous
 62
     2
100
AcDbLine
 10
7.849999999999999
 20
1.399999999999999
 30
0.0
 11
10.69965639031853
 21
1.399999999999999
 31
0.0
  0
LINE
  5
1035
330
101F
100
AcDbEntity
  8
TITLE BLOCK
  6
Continuous
 62
     2
100
AcDbLine
 10
7.849999999999999
 20
0.65
 30
0.0
 11
10.69965639031853
 21
0.65
 31
0.0
  0
TEXT
  5
1036
330
101F
100
AcDbEntity
  8
TITLE BLOCK
  6
Continuous
 62
     2
100
AcDbText
 10
8.501374022347393
 20
0.7409580908741999
 30
0.0
 40
0.075937067150492
  1
DATE
 50
0.09999996
  7
AE
100
AcDbText
  0
LINE
  5
1037
330
101F
100
AcDbEntity
  8
BORDER
 62
    15
100
AcDbLine
 10
8.50000126000001
 20
0.2
 30
0.0
 11
8.50000126000001
 21
0.3999656890232617
 31
0.0
  0
TEXT
  5
1038
330
101F
100
AcDbEntity
  8
BORDER
  6
Continuous
 62
    15
100
AcDbText
 10
8.471503396695657
 20
0.0599741912456094
 30
0.0
 40
0.0799862356161777
  1
0
 50
0.09999996
  7
AE
100
AcDbText
  0
LINE
  5
1039
330
101F
100
AcDbEntity
  8
BORDER
  6
Continuous
 62
    15
100
AcDbLine
 10
8.57998715545812
 20
0.3399759973137096
 30
0.0
 11
8.57998715545812
 21
0.3999656890232617
 31
0.0
  0
LINE
  5
103A
330
101F
100
AcDbEntity
  8
BORDER
  6
Continuous
 62
    15
100
AcDbLine
 10
8.559991091469045
 20
0.2999828395124904
 30
0.0
 11
8.559991091469045
 21
0.3999656890232617
 31
0.0
  0
LINE
  5
103B
330
101F
100
AcDbEntity
  8
BORDER
  6
Continuous
 62
    15
100
AcDbLine
 10
8.539994027651742
 20
0.2999828395124904
 30
0.0
 11
8.539994027651742
 21
0.3999656890232617
 31
0.0
  0
LINE
  5
103C
330
101F
100
AcDbEntity
  8
BORDER
  6
Continuous
 62
    15
100
AcDbLine
 10
8.519997063817303
 20
0.3399759973137096
 30
0.0
 11
8.519997063817303
 21
0.3999656890232617
 31
0.0
  0
LINE
  5
103D
330
101F
100
AcDbEntity
  8
BORDER
  6
Continuous
 62
    15
100
AcDbLine
 10
8.599983219447194
 20
0.2599896917095521
 30
0.0
 11
8.599983219447194
 21
0.3999656890232617
 31
0.0
  0
LINE
  5
103E
330
101F
100
AcDbEntity
  8
TITLE BLOCK
  6
Continuous
 62
     2
100
AcDbLine
 10
8.199999999999999
 20
0.65
 30
0.0
 11
8.199999999999999
 21
2.4
 31
0.0
  0
LINE
  5
103F
330
101F
100
AcDbEntity
  8
TITLE BLOCK
  6
Continuous
 62
     2
100
AcDbLine
 10
7.849999999999999
 20
0.3999656890232617
 30
0.0
 11
7.849999999999999
 21
2.4
 31
0.0
  0
TEXT
  5
1040
330
101F
100
AcDbEntity
  8
TITLE BLOCK
  6
Continuous
 62
     2
100
AcDbText
 10
7.938242132245035
 20
0.7403498140978244
 30
0.0
 40
0.0771520776612738
  1
NO.
 50
0.09999996
  7
AE
100
AcDbText
  0
LINE
  5
1041
330
101F
100
AcDbEntity
  8
BORDER
  6
Continuous
 62
    15
100
AcDbLine
 10
9.499828195159265
 20
0.2
 30
0.0
 11
9.499828195159265
 21
0.3999656890232617
 31
0.0
  0
TEXT
  5
1042
330
101F
100
AcDbEntity
  8
BORDER
  6
Continuous
 62
    15
100
AcDbText
 10
9.271369052290525
 20
0.1199638829551611
 30
0.0
 40
0.0799862356161777
  1
8
 50
0.09999996
  7
AE
100
AcDbText
  0
TEXT
  5
1043
330
101F
100
AcDbEntity
  8
BORDER
  6
Continuous
 62
    15
100
AcDbText
 10
10.0712336080743
 20
0.1199638829551611
 30
0.0
 40
0.0799862356161777
  1
6
 50
0.09999996
  7
AE
100
AcDbText
  0
TEXT
  5
1044
330
101F
100
AcDbEntity
  8
BORDER
  6
Continuous
 62
    15
100
AcDbText
 10
9.671301830096499
 20
0.1199638829551611
 30
0.0
 40
0.0799862356161777
  1
2
 50
0.09999996
  7
AE
100
AcDbText
  0
TEXT
  5
1045
330
101F
100
AcDbEntity
  8
BORDER
  6
Continuous
 62
    15
100
AcDbText
 10
9.471331591854921
 20
0.0599741912456094
 30
0.0
 40
0.0799862356161777
  1
1
 50
0.09999996
  7
AE
100
AcDbText
  0
TEXT
  5
1046
330
101F
100
AcDbEntity
  8
BORDER
  6
Continuous
 62
    15
100
AcDbText
 10
9.871267269162689
 20
0.1199638829551611
 30
0.0
 40
0.0799862356161777
  1
4
 50
0.09999996
  7
AE
100
AcDbText
  0
TEXT
  5
1047
330
101F
100
AcDbEntity
  8
BORDER
  6
Continuous
 62
    15
100
AcDbText
 10
10.27120004696869
 20
0.1199638829551611
 30
0.0
 40
0.0799862356161777
  1
8
 50
0.09999996
  7
AE
100
AcDbText
  0
LINE
  5
1048
330
101F
100
AcDbEntity
  8
BORDER
  6
Continuous
 62
    15
100
AcDbLine
 10
9.379852711070126
 20
0.3399759973137096
 30
0.0
 11
9.379852711070126
 21
0.3999656890232617
 31
0.0
  0
LINE
  5
1049
330
101F
100
AcDbEntity
  8
BORDER
  6
Continuous
 62
    15
100
AcDbLine
 10
9.359856647081052
 20
0.2999828395124904
 30
0.0
 11
9.359856647081052
 21
0.3999656890232617
 31
0.0
  0
LINE
  5
104A
330
101F
100
AcDbEntity
  8
BORDER
  6
Continuous
 62
    15
100
AcDbLine
 10
9.339859683246583
 20
0.2999828395124904
 30
0.0
 11
9.339859683246583
 21
0.3999656890232617
 31
0.0
  0
LINE
  5
104B
330
101F
100
AcDbEntity
  8
BORDER
  6
Continuous
 62
    15
100
AcDbLine
 10
9.319862619429308
 20
0.3399759973137096
 30
0.0
 11
9.319862619429308
 21
0.3999656890232617
 31
0.0
  0
LINE
  5
104C
330
101F
100
AcDbEntity
  8
BORDER
  6
Continuous
 62
    15
100
AcDbLine
 10
9.279869591605736
 20
0.3399759973137096
 30
0.0
 11
9.279869591605736
 21
0.3999656890232617
 31
0.0
  0
LINE
  5
104D
330
101F
100
AcDbEntity
  8
BORDER
  6
Continuous
 62
    15
100
AcDbLine
 10
9.459839866528247
 20
0.2999828395124904
 30
0.0
 11
9.459839866528247
 21
0.3999656890232617
 31
0.0
  0
LINE
  5
104E
330
101F
100
AcDbEntity
  8
BORDER
  6
Continuous
 62
    15
100
AcDbLine
 10
9.439842902693806
 20
0.2999828395124904
 30
0.0
 11
9.439842902693806
 21
0.3999656890232617
 31
0.0
  0
LINE
  5
104F
330
101F
100
AcDbEntity
  8
BORDER
  6
Continuous
 62
    15
100
AcDbLine
 10
9.419845838876504
 20
0.3399759973137096
 30
0.0
 11
9.419845838876504
 21
0.3999656890232617
 31
0.0
  0
LINE
  5
1050
330
101F
100
AcDbEntity
  8
BORDER
  6
Continuous
 62
    15
100
AcDbLine
 10
9.399848775059201
 20
0.2599896917095521
 30
0.0
 11
9.399848775059201
 21
0.3999656890232617
 31
0.0
  0
LINE
  5
1051
330
101F
100
AcDbEntity
  8
BORDER
  6
Continuous
 62
    15
100
AcDbLine
 10
9.29986565559481
 20
0.2599896917095521
 30
0.0
 11
9.29986565559481
 21
0.3999656890232617
 31
0.0
  0
LINE
  5
1052
330
101F
100
AcDbEntity
  8
BORDER
  6
Continuous
 62
    15
100
AcDbLine
 10
9.479835930517349
 20
0.3399759973137096
 30
0.0
 11
9.479835930517349
 21
0.3999656890232617
 31
0.0
  0
LINE
  5
1053
330
101F
100
AcDbEntity
  8
BORDER
  6
Continuous
 62
    15
100
AcDbLine
 10
9.699798433400815
 20
0.2599896917095521
 30
0.0
 11
9.699798433400815
 21
0.3999656890232617
 31
0.0
  0
LINE
  5
1054
330
101F
100
AcDbEntity
  8
BORDER
  6
Continuous
 62
    15
100
AcDbLine
 10
9.899763872467033
 20
0.2599896917095521
 30
0.0
 11
9.899763872467033
 21
0.3999656890232617
 31
0.0
  0
LINE
  5
1055
330
101F
100
AcDbEntity
  8
BORDER
  6
Continuous
 62
    15
100
AcDbLine
 10
10.09973031136145
 20
0.2599896917095521
 30
0.0
 11
10.09973031136145
 21
0.3999656890232617
 31
0.0
  0
LINE
  5
1056
330
101F
100
AcDbEntity
  8
BORDER
  6
Continuous
 62
    15
100
AcDbLine
 10
10.29969665027303
 20
0.2599896917095521
 30
0.0
 11
10.29969665027303
 21
0.3999656890232617
 31
0.0
  0
LINE
  5
1057
330
101F
100
AcDbEntity
  8
BORDER
  6
Continuous
 62
    15
100
AcDbLine
 10
10.49965928982029
 20
0.2
 30
0.0
 11
10.49965928982029
 21
0.3999656890232617
 31
0.0
  0
TEXT
  5
1058
330
101F
100
AcDbEntity
  8
BORDER
  6
Continuous
 62
    15
100
AcDbText
 10
10.47115978701421
 20
0.0599741912456095
 30
0.0
 40
0.0799862356161777
  1
2
 50
0.09999996
  7
AE
100
AcDbText
  0
TEXT
  5
1059
330
101F
100
AcDbEntity
  8
BORDER
  6
Continuous
 62
    15
100
AcDbText
 10
8.671469835590103
 20
0.1199638829551611
 30
0.0
 40
0.0799862356161777
  1
2
 50
0.09999996
  7
AE
100
AcDbText
  0
LINE
  5
105A
330
101F
100
AcDbEntity
  8
BORDER
  6
Continuous
 62
    15
100
AcDbLine
 10
8.679970374905344
 20
0.3399759973137096
 30
0.0
 11
8.679970374905344
 21
0.3999656890232617
 31
0.0
  0
LINE
  5
105B
330
101F
100
AcDbEntity
  8
BORDER
  6
Continuous
 62
    15
100
AcDbLine
 10
8.65997431091624
 20
0.2999828395124904
 30
0.0
 11
8.65997431091624
 21
0.3999656890232617
 31
0.0
  0
LINE
  5
105C
330
101F
100
AcDbEntity
  8
BORDER
  6
Continuous
 62
    15
100
AcDbLine
 10
8.639977247098967
 20
0.2999828395124904
 30
0.0
 11
8.639977247098967
 21
0.3999656890232617
 31
0.0
  0
LINE
  5
105D
330
101F
100
AcDbEntity
  8
BORDER
  6
Continuous
 62
    15
100
AcDbLine
 10
8.619980183281692
 20
0.3399759973137096
 30
0.0
 11
8.619980183281692
 21
0.3999656890232617
 31
0.0
  0
LINE
  5
105E
330
101F
100
AcDbEntity
  8
BORDER
  6
Continuous
 62
    15
100
AcDbLine
 10
8.699966438894419
 20
0.2599896917095521
 30
0.0
 11
8.699966438894419
 21
0.3999656890232617
 31
0.0
  0
TEXT
  5
105F
330
101F
100
AcDbEntity
  8
BORDER
  6
Continuous
 62
    15
100
AcDbText
 10
9.071402613396108
 20
0.1199638829551611
 30
0.0
 40
0.0799862356161777
  1
6
 50
0.09999996
  7
AE
100
AcDbText
  0
TEXT
  5
1060
330
101F
100
AcDbEntity
  8
BORDER
  6
Continuous
 62
    15
100
AcDbText
 10
8.87143617450166
 20
0.1199638829551611
 30
0.0
 40
0.0799862356161777
  1
4
 50
0.09999996
  7
AE
100
AcDbText
  0
LINE
  5
1061
330
101F
100
AcDbEntity
  8
BORDER
  6
Continuous
 62
    15
100
AcDbLine
 10
8.779953494369733
 20
0.3399759973137096
 30
0.0
 11
8.779953494369733
 21
0.3999656890232617
 31
0.0
  0
LINE
  5
1062
330
101F
100
AcDbEntity
  8
BORDER
  6
Continuous
 62
    15
100
AcDbLine
 10
8.75995743038063
 20
0.2999828395124904
 30
0.0
 11
8.75995743038063
 21
0.3999656890232617
 31
0.0
  0
LINE
  5
1063
330
101F
100
AcDbEntity
  8
BORDER
  6
Continuous
 62
    15
100
AcDbLine
 10
8.73996046654619
 20
0.2999828395124904
 30
0.0
 11
8.73996046654619
 21
0.3999656890232617
 31
0.0
  0
LINE
  5
1064
330
101F
100
AcDbEntity
  8
BORDER
  6
Continuous
 62
    15
100
AcDbLine
 10
8.719963402728886
 20
0.3399759973137096
 30
0.0
 11
8.719963402728886
 21
0.3999656890232617
 31
0.0
  0
LINE
  5
1065
330
101F
100
AcDbEntity
  8
BORDER
  6
Continuous
 62
    15
100
AcDbLine
 10
9.119896280517695
 20
0.3399759973137096
 30
0.0
 11
9.119896280517695
 21
0.3999656890232617
 31
0.0
  0
LINE
  5
1066
330
101F
100
AcDbEntity
  8
BORDER
  6
Continuous
 62
    15
100
AcDbLine
 10
9.079903152711347
 20
0.3399759973137096
 30
0.0
 11
9.079903152711347
 21
0.3999656890232617
 31
0.0
  0
LINE
  5
1067
330
101F
100
AcDbEntity
  8
BORDER
  6
Continuous
 62
    15
100
AcDbLine
 10
9.059907088722244
 20
0.2999828395124904
 30
0.0
 11
9.059907088722244
 21
0.3999656890232617
 31
0.0
  0
LINE
  5
1068
330
101F
100
AcDbEntity
  8
BORDER
  6
Continuous
 62
    15
100
AcDbLine
 10
9.039910024904969
 20
0.2999828395124904
 30
0.0
 11
9.039910024904969
 21
0.3999656890232617
 31
0.0
  0
LINE
  5
1069
330
101F
100
AcDbEntity
  8
BORDER
  6
Continuous
 62
    15
100
AcDbLine
 10
9.0199130610705
 20
0.3399759973137096
 30
0.0
 11
9.0199130610705
 21
0.3999656890232617
 31
0.0
  0
LINE
  5
106A
330
101F
100
AcDbEntity
  8
BORDER
  6
Continuous
 62
    15
100
AcDbLine
 10
8.979919933264122
 20
0.3399759973137096
 30
0.0
 11
8.979919933264122
 21
0.3999656890232617
 31
0.0
  0
LINE
  5
106B
330
101F
100
AcDbEntity
  8
BORDER
  6
Continuous
 62
    15
100
AcDbLine
 10
8.959923869275048
 20
0.2999828395124904
 30
0.0
 11
8.959923869275048
 21
0.3999656890232617
 31
0.0
  0
LINE
  5
106C
330
101F
100
AcDbEntity
  8
BORDER
  6
Continuous
 62
    15
100
AcDbLine
 10
8.93992690544058
 20
0.2999828395124904
 30
0.0
 11
8.93992690544058
 21
0.3999656890232617
 31
0.0
  0
LINE
  5
106D
330
101F
100
AcDbEntity
  8
BORDER
  6
Continuous
 62
    15
100
AcDbLine
 10
8.919929841623305
 20
0.3399759973137096
 30
0.0
 11
8.919929841623305
 21
0.3999656890232617
 31
0.0
  0
LINE
  5
106E
330
101F
100
AcDbEntity
  8
BORDER
  6
Continuous
 62
    15
100
AcDbLine
 10
8.879936713816928
 20
0.3399759973137096
 30
0.0
 11
8.879936713816928
 21
0.3999656890232617
 31
0.0
  0
LINE
  5
106F
330
101F
100
AcDbEntity
  8
BORDER
  6
Continuous
 62
    15
100
AcDbLine
 10
8.859940649827825
 20
0.2999828395124904
 30
0.0
 11
8.859940649827825
 21
0.3999656890232617
 31
0.0
  0
LINE
  5
1070
330
101F
100
AcDbEntity
  8
BORDER
  6
Continuous
 62
    15
100
AcDbLine
 10
8.839943685993384
 20
0.2999828395124904
 30
0.0
 11
8.839943685993384
 21
0.3999656890232617
 31
0.0
  0
LINE
  5
1071
330
101F
100
AcDbEntity
  8
BORDER
  6
Continuous
 62
    15
100
AcDbLine
 10
8.819946622176082
 20
0.3399759973137096
 30
0.0
 11
8.819946622176082
 21
0.3999656890232617
 31
0.0
  0
LINE
  5
1072
330
101F
100
AcDbEntity
  8
BORDER
  6
Continuous
 62
    15
100
AcDbLine
 10
9.099899216700421
 20
0.2599896917095521
 30
0.0
 11
9.099899216700421
 21
0.3999656890232617
 31
0.0
  0
LINE
  5
1073
330
101F
100
AcDbEntity
  8
BORDER
  6
Continuous
 62
    15
100
AcDbLine
 10
8.999915997253197
 20
0.2599896917095521
 30
0.0
 11
8.999915997253197
 21
0.3999656890232617
 31
0.0
  0
LINE
  5
1074
330
101F
100
AcDbEntity
  8
BORDER
  6
Continuous
 62
    15
100
AcDbLine
 10
8.899932777806002
 20
0.2599896917095521
 30
0.0
 11
8.899932777806002
 21
0.3999656890232617
 31
0.0
  0
LINE
  5
1075
330
101F
100
AcDbEntity
  8
BORDER
  6
Continuous
 62
    15
100
AcDbLine
 10
8.799949658341613
 20
0.2599896917095521
 30
0.0
 11
8.799949658341613
 21
0.3999656890232617
 31
0.0
  0
LINE
  5
1076
330
101F
100
AcDbEntity
  8
BORDER
  6
Continuous
 62
    15
100
AcDbLine
 10
9.259873527616662
 20
0.2999828395124904
 30
0.0
 11
9.259873527616662
 21
0.3999656890232617
 31
0.0
  0
LINE
  5
1077
330
101F
100
AcDbEntity
  8
BORDER
  6
Continuous
 62
    15
100
AcDbLine
 10
9.239876463799388
 20
0.2999828395124904
 30
0.0
 11
9.239876463799388
 21
0.3999656890232617
 31
0.0
  0
LINE
  5
1078
330
101F
100
AcDbEntity
  8
BORDER
  6
Continuous
 62
    15
100
AcDbLine
 10
9.219879399982085
 20
0.3399759973137096
 30
0.0
 11
9.219879399982085
 21
0.3999656890232617
 31
0.0
  0
LINE
  5
1079
330
101F
100
AcDbEntity
  8
BORDER
  6
Continuous
 62
    15
100
AcDbLine
 10
9.179886372158541
 20
0.3399759973137096
 30
0.0
 11
9.179886372158541
 21
0.3999656890232617
 31
0.0
  0
LINE
  5
107A
330
101F
100
AcDbEntity
  8
BORDER
  6
Continuous
 62
    15
100
AcDbLine
 10
9.159890308169439
 20
0.2999828395124904
 30
0.0
 11
9.159890308169439
 21
0.3999656890232617
 31
0.0
  0
LINE
  5
107B
330
101F
100
AcDbEntity
  8
BORDER
  6
Continuous
 62
    15
100
AcDbLine
 10
9.139893244352192
 20
0.2999828395124904
 30
0.0
 11
9.139893244352192
 21
0.3999656890232617
 31
0.0
  0
LINE
  5
107C
330
101F
100
AcDbEntity
  8
BORDER
  6
Continuous
 62
    15
100
AcDbLine
 10
9.199882436147616
 20
0.2599896917095521
 30
0.0
 11
9.199882436147616
 21
0.3999656890232617
 31
0.0
  0
TEXT
  5
107D
330
101F
100
AcDbEntity
  8
BORDER
  6
Continuous
 62
    15
100
AcDbText
 10
8.702946126881657
 20
0.0329812595588271
 30
0.0
 40
0.0399931278063708
  1
FULL SIZE   50   02
 50
0.09999996
 41
0.7749084200000001
  7
AE
100
AcDbText
  0
TEXT
  5
107E
330
101F
100
AcDbEntity
  8
TITLE BLOCK
  6
Continuous
 62
     2
100
AcDbText
 10
8.973543078500011
 20
0.4900242034427523
 30
0.0
 40
0.075937067150492
  1
REVISION
 50
0.09999996
  7
AE
100
AcDbText
  0
LINE
  5
107F
330
101F
100
AcDbEntity
  8
BORDER
  6
Continuous
 62
    15
100
AcDbLine
 10
10.69965639031853
 20
0.3999656890232617
 30
0.0
 11
10.69965639031853
 21
2.4
 31
0.0
  0
LINE
  5
1080
330
101F
100
AcDbEntity
  8
TITLE BLOCK
  6
Continuous
 62
     2
100
AcDbLine
 10
12.17518995515351
 20
1.0
 30
0.0
 11
12.17518995515351
 21
2.4
 31
0.0
  0
TEXT
  5
1081
330
101F
100
AcDbEntity
  8
TITLE BLOCK
  6
Continuous
 62
     2
100
AcDbText
 10
10.74999999999999
 20
0.8
 30
0.0
 40
0.075937067150492
  1
DRAWING NAME
 50
0.09999996
  7
AE
100
AcDbText
  0
TEXT
  5
1082
330
101F
100
AcDbEntity
  8
TITLE BLOCK
  6
Continuous
 62
     2
100
AcDbText
 10
12.19999999999999
 20
0.975
 30
0.0
 40
0.075937067150492
  1
BY
 50
0.09999996
  7
AE
100
AcDbText
  0
TEXT
  5
1083
330
101F
100
AcDbEntity
  8
TITLE BLOCK
  6
Continuous
 62
     2
100
AcDbText
 10
12.21
 20
1.1
 30
0.0
 40
0.075937067150492
  1
APPD
 50
0.09999996
  7
AE
100
AcDbText
  0
TEXT
  5
1084
330
101F
100
AcDbEntity
  8
TITLE BLOCK
  6
Continuous
 62
     2
100
AcDbText
 10
12.19999999999999
 20
1.349999999999999
 30
0.0
 40
0.075937067150492
  1
CHK
 50
0.09999996
  7
AE
100
AcDbText
  0
TEXT
  5
1085
330
101F
100
AcDbEntity
  8
TITLE BLOCK
  6
Continuous
 62
     2
100
AcDbText
 10
12.20620037256117
 20
1.224999999999999
 30
0.0
 40
0.075937067150492
  1
BY
 50
0.09999996
  7
AE
100
AcDbText
  0
TEXT
  5
1086
330
101F
100
AcDbEntity
  8
TITLE BLOCK
  6
Continuous
 62
     2
100
AcDbText
 10
12.19999999999999
 20
1.474999999999999
 30
0.0
 40
0.075937067150492
  1
BY
 50
0.09999996
  7
AE
100
AcDbText
  0
TEXT
  5
1087
330
101F
100
AcDbEntity
  8
TITLE BLOCK
  6
Continuous
 62
     2
100
AcDbText
 10
12.19999999999999
 20
1.599999999999999
 30
0.0
 40
0.075937067150492
  1
DR
 50
0.09999996
  7
AE
100
AcDbText
  0
LINE
  5
1088
330
101F
100
AcDbEntity
  8
TITLE BLOCK
  6
Continuous
 62
     2
100
AcDbLine
 10
9.0
 20
0.65
 30
0.0
 11
9.0
 21
2.4
 31
0.0
  0
ATTDEF
  5
1089
330
101F
100
AcDbEntity
  8
TITLE BLOCK
  6
Continuous
 62
     2
100
AcDbText
 10
14.0
 20
0.5
 30
0.0
 40
0.196816573850279
  1

 41
0.8
100
AcDbAttributeDefinition
  3
Drawing Number
  2
GEN-TITLE-NR{13.37}
 70
     0
1001
GENIUS_GENBLLY_14
1000
BOR5
  0
ATTDEF
  5
108A
330
101F
100
AcDbEntity
  8
TITLE BLOCK
  6
Continuous
 62
     2
100
AcDbText
 10
15.6
 20
1.024999999999999
 30
0.0
 40
0.11808994431015
  1

 41
0.8
100
AcDbAttributeDefinition
  3
Sheet
  2
GEN-TITLE-SHEET{2.62}
 70
     0
1001
GENIUS_GENBLLY_14
1000
BOR3
  0
ATTDEF
  5
108B
330
101F
100
AcDbEntity
  8
TITLE BLOCK
  6
Continuous
 62
     2
100
AcDbText
 10
15.525
 20
1.274999999999999
 30
0.0
 40
0.1010611419
  1

100
AcDbAttributeDefinition
  3
Date
  2
GEN-TITLE-PLOT{5}
 70
     0
1001
GENIUS_GENBLLY_14
1000
BOR2
  0
ATTDEF
  5
108C
330
101F
100
AcDbEntity
  8
TITLE BLOCK
  6
Continuous
 62
     2
100
AcDbText
 10
15.99999999999999
 20
1.024999999999999
 30
0.0
 40
0.11808994431015
  1

 41
0.8
100
AcDbAttributeDefinition
  3
Sheet of
  2
GEN-TITLE-SHEET-OF{2.62}
 70
     0
1001
GENIUS_GENBLLY_14
1000
BOR3
  0
LINE
  5
108D
330
101F
100
AcDbEntity
  8
TITLE BLOCK
  6
Continuous
 62
     2
100
AcDbLine
 10
15.12625718126357
 20
0.95
 30
0.0
 11
15.12625718126354
 21
1.45
 31
0.0
  0
LINE
  5
108E
330
101F
100
AcDbEntity
  8
BORDER
  6
Continuous
 62
    15
100
AcDbLine
 10
13.64999999999999
 20
0.3999656890232617
 30
0.0
 11
13.64999999999999
 21
2.4
 31
0.0
  0
TEXT
  5
108F
330
101F
100
AcDbEntity
  8
TITLE BLOCK
  6
Continuous
 62
     2
100
AcDbText
 10
13.7
 20
0.8
 30
0.0
 40
0.075937067150492
  1
DRAWING NUMBER
 50
0.09999996
  7
AE
100
AcDbText
  0
TEXT
  5
1090
330
101F
100
AcDbEntity
  8
TITLE BLOCK
  6
Continuous
 62
     2
100
AcDbText
 10
13.7
 20
1.599999999999999
 30
0.0
 40
0.075937067150492
  1
REF
 50
0.09999996
  7
AE
100
AcDbText
  0
TEXT
  5
1091
330
101F
100
AcDbEntity
  8
TITLE BLOCK
  6
Continuous
 62
     2
100
AcDbText
 10
13.7
 20
1.349999999999999
 30
0.0
 40
0.075937067150492
  1
MACH
 50
0.09999996
  7
AE
100
AcDbText
  0
TEXT
  5
1092
330
101F
100
AcDbEntity
  8
TITLE BLOCK
  6
Continuous
 62
     2
100
AcDbText
 10
13.7
 20
1.1
 30
0.0
 40
0.075937067150492
  1
MATL
 50
0.09999996
  7
AE
100
AcDbText
  0
ATTDEF
  5
1093
330
101F
100
AcDbEntity
  8
TITLE BLOCK
  6
Continuous
 62
     2
100
AcDbText
 10
14.05
 20
1.524999999999999
 30
0.0
 40
0.1010611419
  1

100
AcDbAttributeDefinition
  3
Ref. No.
  2
GEN-TITLE-REF{5}
 70
     0
1001
GENIUS_GENBLLY_14
1000
BOR2
  0
ATTDEF
  5
1094
330
101F
100
AcDbEntity
  8
TITLE BLOCK
  6
Continuous
 62
     2
100
AcDbText
 10
14.05
 20
1.274999999999999
 30
0.0
 40
0.1010611419
  1

100
AcDbAttributeDefinition
  3
Machine
  2
GEN-TITLE-MACH{5}
 70
     0
1001
GENIUS_GENBLLY_14
1000
BOR2
  0
ATTDEF
  5
1095
330
101F
100
AcDbEntity
  8
TITLE BLOCK
  6
Continuous
 62
     2
100
AcDbText
 10
14.05
 20
1.024999999999999
 30
0.0
 40
0.1010611419
  1

 41
0.8
100
AcDbAttributeDefinition
  3
Material
  2
GEN-TITLE-MAT{11.15}
 70
     0
1001
GENIUS_GENBLLY_14
1000
BOR3
  0
TEXT
  5
1096
330
101F
100
AcDbEntity
  8
TITLE BLOCK
  6
Continuous
 62
     2
100
AcDbText
 10
15.175
 20
1.1
 30
0.0
 40
0.075937067150492
  1
SHEET   OF
 50
0.09999996
  7
AE
100
AcDbText
  0
TEXT
  5
1097
330
101F
100
AcDbEntity
  8
TITLE BLOCK
  6
Continuous
 62
     2
100
AcDbText
 10
15.175
 20
1.349999999999999
 30
0.0
 40
0.075937067150492
  1
DATE
 50
0.09999996
  7
AE
100
AcDbText
  0
LINE
  5
1098
330
101F
100
AcDbEntity
  8
BORDER
 62
    15
100
AcDbLine
 10
16.6
 20
5.519965979023269
 30
0.0
 11
16.99999962000001
 21
5.519965979023269
 31
0.0
  0
LINE
  5
1099
330
101F
100
AcDbEntity
  8
BORDER
 62
    15
100
AcDbLine
 10
0.400011260000019
 20
10.63996597902324
 30
0.0
 11
16.6
 21
10.63996597902324
 31
0.0
  0
LINE
  5
109A
330
101F
100
AcDbEntity
  8
BORDER
 62
    15
100
AcDbLine
 10
8.50000126000001
 20
10.63996597902324
 30
0.0
 11
8.50000126000001
 21
11.01996597902326
 31
0.0
  0
MTEXT
  5
109B
330
101F
100
AcDbEntity
  8
BORDER
  6
Continuous
100
AcDbMText
 10
15.10308979335871
 20
2.25
 30
0.0
 40
0.125
 41
2.663
 71
     2
 72
     5
  1
{\fArial|b0|i0|c0|p34;\C1;G & L Motion Control Inc.}
 73
     1
 44
1.0
  0
MTEXT
  5
109C
330
101F
100
AcDbEntity
  8
BORDER
  6
Continuous
100
AcDbMText
 10
15.10412857763948
 20
1.928264837305509
 30
0.0
 40
0.07874
 41
2.862
 71
     5
 72
     1
  1
{\Fromans.shx;\C9;672 South Military Road\PFond du Lac, Wisconsin 54936 U.S.A.}
 73
     1
 44
1.0
  0
TEXT
  5
109D
330
101F
100
AcDbEntity
  8
TITLE BLOCK
  6
Continuous
 62
     2
100
AcDbText
 10
10.71881861560131
 20
2.036049281269597
 30
0.0
 40
0.0645465051491158
  1
of G&L Motion Control, is
 50
0.0999999600000013
 41
0.6799434399999999
  7
AE
100
AcDbText
  0
TEXT
  5
109E
330
101F
100
AcDbEntity
  8
TITLE BLOCK
  6
Continuous
 62
     2
100
AcDbText
 10
10.71741487412047
 20
2.144627598463487
 30
0.0
 40
0.0645465051491158
  1
contains proprietary information
 50
0.0999999600000013
 41
0.7005041199999999
  7
AE
100
AcDbText
  0
TEXT
  5
109F
330
101F
100
AcDbEntity
  8
TITLE BLOCK
  6
Continuous
 62
     2
100
AcDbText
 10
10.72248667991201
 20
1.924616885729644
 30
0.0
 40
0.0645465051491158
  1
submitted in confidence on
 50
0.0999999600000013
 41
0.6605569100000001
  7
AE
100
AcDbText
  0
TEXT
  5
10A0
330
101F
100
AcDbEntity
  8
TITLE BLOCK
  6
Continuous
 62
     2
100
AcDbText
 10
10.71679449751522
 20
1.81708586876793
 30
0.0
 40
0.0645465051491158
  1
condition that it will not be
 50
0.0999999600000013
 41
0.72234601
  7
AE
100
AcDbText
  0
TEXT
  5
10A1
330
101F
100
AcDbEntity
  8
TITLE BLOCK
  6
Continuous
 62
     2
100
AcDbText
 10
10.71416899531685
 20
1.597796107226088
 30
0.0
 40
0.0645465051491158
  1
will be used only for your
 50
0.0999999600000013
 41
0.6799434399999999
  7
AE
100
AcDbText
  0
TEXT
  5
10A2
330
101F
100
AcDbEntity
  8
TITLE BLOCK
  6
Continuous
 62
     2
100
AcDbText
 10
10.71948721212293
 20
1.489000640399515
 30
0.0
 40
0.0645465051491158
  1
information, and will not be used
 50
0.0999999600000013
 41
0.6605569100000001
  7
AE
100
AcDbText
  0
TEXT
  5
10A3
330
101F
100
AcDbEntity
  8
TITLE BLOCK
  6
Continuous
 62
     2
100
AcDbText
 10
10.71739723193344
 20
1.378476657741246
 30
0.0
 40
0.0645465051491158
  1
or disclosed to anyone except as
 50
0.0999999600000013
 41
0.6799434399999999
  7
AE
100
AcDbText
  0
TEXT
  5
10A4
330
101F
100
AcDbEntity
  8
TITLE BLOCK
  6
Continuous
 62
     2
100
AcDbText
 10
10.71540499165808
 20
1.267047562975569
 30
0.0
 40
0.0645465051491158
  1
authorized by specific
 50
0.0999999600000013
 41
0.79688752
  7
AE
100
AcDbText
  0
TEXT
  5
10A5
330
101F
100
AcDbEntity
  8
TITLE BLOCK
  6
Continuous
 62
     2
100
AcDbText
 10
10.71777124306261
 20
1.705466828073234
 30
0.0
 40
0.0645465051491158
  1
copied or otherwise reproduced,
 50
0.0999999600000013
 41
0.6799434399999999
  7
AE
100
AcDbText
  0
TEXT
  5
10A6
330
101F
100
AcDbEntity
  8
TITLE BLOCK
  6
Continuous
 62
     2
100
AcDbText
 10
10.72050994356058
 20
2.252555955563673
 30
0.0
 40
0.0645465051491158
  1
NOTICE: This drawing or material
 50
0.0999999600000013
 41
0.7005041199999999
  7
AE
100
AcDbText
  0
TEXT
  5
10A7
330
101F
100
AcDbEntity
  8
TITLE BLOCK
  6
Continuous
 62
     2
100
AcDbText
 10
10.72096632443385
 20
1.159697406318199
 30
0.0
 40
0.0645465051491158
  1
written consent of G&L Motion Control
 50
0.0999999600000013
 41
0.79688752
  7
AE
100
AcDbText
  0
TEXT
  5
10A8
330
101F
100
AcDbEntity
  8
TITLE BLOCK
  6
Continuous
 62
     2
100
AcDbText
 10
10.71875
 20
1.046875
 30
0.0
 40
0.0645465051491158
  1
Automation, LLC
 50
0.0999999600000013
 41
0.79688752
  7
AE
100
AcDbText
  0
ENDBLK
  5
10AA
330
101F
100
AcDbEntity
  8
0
100
AcDbBlockEnd
  0
ENDSEC
  0
SECTION
  2
ENTITIES
  0
TEXT
  5
C58
330
1F
100
AcDbEntity
  8
0
100
AcDbText
 10
9.981879421145304
 20
4.371313850800642
 30
0.0
 40
0.1252665245199191
  1
1) LABEL & PACKAGE
  7
ROMANS
100
AcDbText
  0
TEXT
  5
C59
330
1F
100
AcDbEntity
  8
0
100
AcDbText
 10
10.3040208881443
 20
4.113779652216846
 30
0.0
 40
0.1252665245199191
  1
PER MD.1000.5034
  7
ROMANS
100
AcDbText
  0
TEXT
  5
C5A
330
1F
100
AcDbEntity
  8
0
100
AcDbText
 10
10.7926972675648
 20
3.435175458159449
 30
0.0
 40
0.125
  1
G&L Motion Control
  7
ROMANS
 72
     1
 11
11.27484012470766
 21
3.435175458159449
 31
0.0
100
AcDbText
  0
TEXT
  5
C5B
330
1F
100
AcDbEntity
  8
0
100
AcDbText
 10
10.65281631518385
 20
3.242658396137761
 30
0.0
 40
0.125
  1
SAP NUMBER
  7
ROMANS
 72
     1
 11
11.27484012470766
 21
3.242658396137761
 31
0.0
100
AcDbText
  0
LINE
  5
C5C
330
1F
100
AcDbEntity
  8
0
 62
     4
100
AcDbLine
 10
15.14984012470767
 20
3.66824017910037
 30
0.0
 11
8.399840124707663
 21
3.66824017910037
 31
0.0
  0
TEXT
  5
C5E
330
1F
100
AcDbEntity
  8
0
100
AcDbText
 10
10.66472107708861
 20
2.980581037513491
 30
0.0
 40
0.125
  1
M.1302.6970
  7
ROMANS
 72
     1
 11
11.27484012470766
 21
2.980581037513491
 31
0.0
100
AcDbText
  0
LINE
  5
C64
330
1F
100
AcDbEntity
  8
0
 62
     4
100
AcDbLine
 10
15.14984012470767
 20
2.918240179100383
 30
0.0
 11
8.399840124707663
 21
2.918240179100383
 31
0.0
  0
LINE
  5
C65
330
1F
100
AcDbEntity
  8
0
 62
     4
100
AcDbLine
 10
15.14984012470767
 20
3.168240179100381
 30
0.0
 11
8.399840124707663
 21
3.168240179100381
 31
0.0
  0
TEXT
  5
C67
330
1F
100
AcDbEntity
  8
0
100
AcDbText
 10
8.801785521067928
 20
3.435175458159449
 30
0.0
 40
0.125
  1
REFERENCE
  7
ROMANS
 72
     1
 11
9.340475997258405
 21
3.435175458159449
 31
0.0
100
AcDbText
  0
TEXT
  5
C68
330
1F
100
AcDbEntity
  8
0
100
AcDbText
 10
8.664880759163168
 20
3.242658396137761
 30
0.0
 40
0.125
  1
PART NUMBER
  7
ROMANS
 72
     1
 11
9.340475997258405
 21
3.242658396137761
 31
0.0
100
AcDbText
  0
TEXT
  5
C69
330
1F
100
AcDbEntity
  8
0
100
AcDbText
 10
9.00520740437903
 20
2.980581037513491
 30
0.0
 40
0.125
  1
Pxxxxx
  7
ROMANS
 72
     1
 11
9.323659785331411
 21
2.980581037513491
 31
0.0
100
AcDbText
  0
LINE
  5
C6E
330
1F
100
AcDbEntity
  8
0
 62
     4
100
AcDbLine
 10
8.399840124707662
 20
2.918240179100383
 30
0.0
 11
8.399840124707662
 21
3.66824017910037
 31
0.0
  0
LINE
  5
C70
330
1F
100
AcDbEntity
  8
0
 62
     4
100
AcDbLine
 10
10.27484012470766
 20
2.918240179100383
 30
0.0
 11
10.27484012470766
 21
3.66824017910037
 31
0.0
  0
LINE
  5
C77
330
1F
100
AcDbEntity
  8
0
 62
     4
100
AcDbLine
 10
10.27484012470766
 20
2.918240179100383
 30
0.0
 11
10.27484012470766
 21
3.66824017910037
 31
0.0
  0
TEXT
  5
C79
330
1F
100
AcDbEntity
  8
0
 62
     2
100
AcDbText
 10
9.756516603526154
 20
4.79651209194377
 30
0.0
 40
0.1563326226013594
  1
%%UNOTES
  7
ROMANS
100
AcDbText
  0
TEXT
  5
C7A
330
1F
100
AcDbEntity
  8
0
100
AcDbText
 10
12.75995917232672
 20
3.242658396137761
 30
0.0
 40
0.125
  1
SHORT DESCRIPTION
  7
ROMANS
 72
     1
 11
13.71234012470767
 21
3.242658396137761
 31
0.0
100
AcDbText
  0
TEXT
  5
C7B
330
1F
100
AcDbEntity
  8
0
100
AcDbText
 10
12.6111496485172
 20
3.435175458159449
 30
0.0
 40
0.125
  1
G&L Motion Control
  7
ROMANS
 72
     1
 11
13.71234012470767
 21
3.435175458159449
 31
0.0
100
AcDbText
  0
TEXT
  5
C7C
330
1F
100
AcDbEntity
  8
0
100
AcDbText
 10
12.41234012470767
 20
2.980581037513491
 30
0.0
 40
0.125
  1
BKOUT BD,F1/F2,MMC-SD DR MT
 41
0.8
  7
ROMANS
 72
     1
 11
13.71234012470767
 21
2.980581037513491
 31
0.0
100
AcDbText
  0
LINE
  5
C81
330
1F
100
AcDbEntity
  8
0
 62
     4
100
AcDbLine
 10
12.27484012470766
 20
2.918240179100383
 30
0.0
 11
12.27484012470766
 21
3.66824017910037
 31
0.0
  0
LINE
  5
C82
330
1F
100
AcDbEntity
  8
0
 62
     4
100
AcDbLine
 10
15.14984012470767
 20
2.918240179100383
 30
0.0
 11
15.14984012470767
 21
3.66824017910037
 31
0.0
  0
LINE
  5
CC6
330
1F
100
AcDbEntity
  8
0
100
AcDbLine
 10
1.588141991817906
 20
3.843874130149735
 30
0.0
 11
5.249109490728201
 21
3.843874130149735
 31
0.0
  0
LINE
  5
CC7
330
1F
100
AcDbEntity
  8
0
100
AcDbLine
 10
1.588141991817906
 20
3.979802493192671
 30
0.0
 11
5.249109490728201
 21
3.979802493192671
 31
0.0
  0
LINE
  5
CC8
330
1F
100
AcDbEntity
  8
0
100
AcDbLine
 10
1.588141991817906
 20
4.126605050731875
 30
0.0
 11
5.249109490728201
 21
4.126605050731875
 31
0.0
  0
LINE
  5
CC9
330
1F
100
AcDbEntity
  8
0
100
AcDbLine
 10
1.588141991817906
 20
4.278844798703175
 30
0.0
 11
5.249109490728201
 21
4.278844798703175
 31
0.0
  0
LINE
  5
CCA
330
1F
100
AcDbEntity
  8
0
100
AcDbLine
 10
1.588141991817906
 20
4.409336064497971
 30
0.0
 11
5.249109490728201
 21
4.409336064497971
 31
0.0
  0
LINE
  5
CCB
330
1F
100
AcDbEntity
  8
0
100
AcDbLine
 10
1.588141991817906
 20
4.567012909717412
 30
0.0
 11
5.249109490728201
 21
4.567012909717412
 31
0.0
  0
LINE
  5
CCC
330
1F
100
AcDbEntity
  8
0
100
AcDbLine
 10
1.588141991817906
 20
4.702941272760348
 30
0.0
 11
5.249109490728201
 21
4.702941272760348
 31
0.0
  0
LINE
  5
CCD
330
1F
100
AcDbEntity
  8
0
100
AcDbLine
 10
1.588141991817906
 20
4.860618211163732
 30
0.0
 11
5.249109490728201
 21
4.860618211163732
 31
0.0
  0
LINE
  5
CCE
330
1F
100
AcDbEntity
  8
0
100
AcDbLine
 10
1.588141991817906
 20
2.678299633567654
 30
0.0
 11
5.249109490728201
 21
2.678299633567725
 31
0.0
  0
LINE
  5
CCF
330
1F
100
AcDbEntity
  8
0
100
AcDbLine
 10
1.588141991817906
 20
2.819665093858738
 30
0.0
 11
5.249109490728201
 21
2.819665093858738
 31
0.0
  0
LINE
  5
CD0
330
1F
100
AcDbEntity
  8
0
100
AcDbLine
 10
1.588141991817906
 20
2.961030554149807
 30
0.0
 11
5.249109490728201
 21
2.961030554149807
 31
0.0
  0
LINE
  5
CD1
330
1F
100
AcDbEntity
  8
0
100
AcDbLine
 10
1.588141991817906
 20
3.109861062901835
 30
0.0
 11
5.249109490728201
 21
3.109861062901835
 31
0.0
  0
LINE
  5
CD2
330
1F
100
AcDbEntity
  8
0
100
AcDbLine
 10
1.588141991817906
 20
3.251226523192897
 30
0.0
 11
5.249109490728201
 21
3.251226523192954
 31
0.0
  0
LINE
  5
CD3
330
1F
100
AcDbEntity
  8
0
100
AcDbLine
 10
1.588141991817906
 20
3.398029080732108
 30
0.0
 11
5.249109490728201
 21
3.39802908073215
 31
0.0
  0
LINE
  5
CD4
330
1F
100
AcDbEntity
  8
0
100
AcDbLine
 10
1.588141991817906
 20
3.544831731455282
 30
0.0
 11
5.249109490728201
 21
3.544831731455268
 31
0.0
  0
LINE
  5
CD5
330
1F
100
AcDbEntity
  8
0
100
AcDbLine
 10
1.588141991817906
 20
3.686197191746352
 30
0.0
 11
5.249109490728201
 21
3.686197191746352
 31
0.0
  0
TEXT
  5
CD6
330
1F
100
AcDbEntity
  8
0
100
AcDbText
 10
1.398816459519171
 20
3.357741229387155
 30
0.0
 40
0.0848648979362779
  1
11
  7
SIMPLEX
 72
     4
 11
1.44124890848731
 21
3.400173678355294
 31
0.0
100
AcDbText
  0
LINE
  5
CD7
330
1F
100
AcDbEntity
  8
0
 62
     2
100
AcDbLine
 10
1.588141991817892
 20
2.517746572476958
 30
0.0
 11
1.588141991817906
 21
5.021171272254498
 31
0.0
  0
LINE
  5
CD8
330
1F
100
AcDbEntity
  8
0
 62
     2
100
AcDbLine
 10
1.309818401332918
 20
5.021171272254498
 30
0.0
 11
1.309818401332918
 21
2.517746572476958
 31
0.0
  0
LINE
  5
CD9
330
1F
100
AcDbEntity
  8
0
 62
     2
100
AcDbLine
 10
1.588141991817906
 20
2.517746572476958
 30
0.0
 11
1.309818401332918
 21
2.517746572476958
 31
0.0
  0
TEXT
  5
CDA
330
1F
100
AcDbEntity
  8
0
100
AcDbText
 10
1.380631124247111
 20
3.212258547210677
 30
0.0
 40
0.0848648979362779
  1
12
  7
SIMPLEX
 72
     4
 11
1.44124890848731
 21
3.254690996178815
 31
0.0
100
AcDbText
  0
TEXT
  5
CDB
330
1F
100
AcDbEntity
  8
0
100
AcDbText
 10
1.386886278575852
 20
2.779826929685395
 30
0.0
 40
0.0848648979362779
  1
15
  7
SIMPLEX
 72
     4
 11
1.447504062816051
 21
2.822259378653534
 31
0.0
100
AcDbText
  0
TEXT
  5
CDC
330
1F
100
AcDbEntity
  8
0
100
AcDbText
 10
1.384865685767846
 20
2.925309611861873
 30
0.0
 40
0.0848648979362779
  1
14
  7
SIMPLEX
 72
     4
 11
1.447504062816051
 21
2.967742060830012
 31
0.0
100
AcDbText
  0
TEXT
  5
CDD
330
1F
100
AcDbEntity
  8
0
100
AcDbText
 10
1.412960609175217
 20
2.642659235989444
 30
0.0
 40
0.0848648979362779
  1
S
  7
SIMPLEX
 72
     4
 11
1.44124890848731
 21
2.685091684957583
 31
0.0
100
AcDbText
  0
TEXT
  5
CDE
330
1F
100
AcDbEntity
  8
0
100
AcDbText
 10
1.380631124247111
 20
3.066775865034198
 30
0.0
 40
0.0848648979362779
  1
13
  7
SIMPLEX
 72
     4
 11
1.44124890848731
 21
3.109208314002337
 31
0.0
100
AcDbText
  0
TEXT
  5
CDF
330
1F
100
AcDbEntity
  8
0
 62
     2
100
AcDbText
 10
0.7202596284309238
 20
3.117749025853719
 30
0.0
 40
0.125
  1
TB2
  7
SIMPLEX
100
AcDbText
  0
LINE
  5
CE0
330
1F
100
AcDbEntity
  8
0
 62
     2
100
AcDbLine
 10
1.588141991817906
 20
3.769458922365728
 30
0.0
 11
1.309818401332918
 21
3.769458922365728
 31
0.0
  0
TEXT
  5
CE1
330
1F
100
AcDbEntity
  8
0
100
AcDbText
 10
1.41094001636721
 20
4.376120004622503
 30
0.0
 40
0.0848648979362779
  1
4
  7
SIMPLEX
 72
     4
 11
1.44124890848731
 21
4.418552453590642
 31
0.0
100
AcDbText
  0
TEXT
  5
CE2
330
1F
100
AcDbEntity
  8
0
100
AcDbText
 10
1.414981201983224
 20
4.085154640269546
 30
0.0
 40
0.0848648979362779
  1
6
  7
SIMPLEX
 72
     4
 11
1.44124890848731
 21
4.127587089237685
 31
0.0
100
AcDbText
  0
TEXT
  5
CE3
330
1F
100
AcDbEntity
  8
0
100
AcDbText
 10
1.412960609175217
 20
3.79418927591659
 30
0.0
 40
0.0848648979362779
  1
8
  7
SIMPLEX
 72
     4
 11
1.44124890848731
 21
3.836621724884729
 31
0.0
100
AcDbText
  0
TEXT
  5
CE4
330
1F
100
AcDbEntity
  8
0
100
AcDbText
 10
1.412960609175217
 20
3.939671958093068
 30
0.0
 40
0.0848648979362779
  1
7
  7
SIMPLEX
 72
     4
 11
1.44124890848731
 21
3.982104407061207
 31
0.0
100
AcDbText
  0
TEXT
  5
CE5
330
1F
100
AcDbEntity
  8
0
100
AcDbText
 10
1.412960609175217
 20
4.230637322446025
 30
0.0
 40
0.0848648979362779
  1
5
  7
SIMPLEX
 72
     4
 11
1.44124890848731
 21
4.273069771414164
 31
0.0
100
AcDbText
  0
TEXT
  5
CE6
330
1F
100
AcDbEntity
  8
0
 62
     2
100
AcDbText
 10
0.7218705057590711
 20
4.255888070516967
 30
0.0
 40
0.125
  1
TB1
  7
SIMPLEX
100
AcDbText
  0
TEXT
  5
CE7
330
1F
100
AcDbEntity
  8
0
100
AcDbText
 10
1.380631124247111
 20
3.503223911563633
 30
0.0
 40
0.0848648979362779
  1
10
  7
SIMPLEX
 72
     4
 11
1.44124890848731
 21
3.545656360531772
 31
0.0
100
AcDbText
  0
TEXT
  5
CE8
330
1F
100
AcDbEntity
  8
0
100
AcDbText
 10
1.414981201983224
 20
3.648706593740111
 30
0.0
 40
0.0848648979362779
  1
9
  7
SIMPLEX
 72
     4
 11
1.44124890848731
 21
3.69113904270825
 31
0.0
100
AcDbText
  0
LINE
  5
CE9
330
1F
100
AcDbEntity
  8
0
 62
     2
100
AcDbLine
 10
1.588141991817906
 20
5.021171272254498
 30
0.0
 11
1.309818401332918
 21
5.021171272254498
 31
0.0
  0
TEXT
  5
CEA
330
1F
100
AcDbEntity
  8
0
100
AcDbText
 10
1.412960609175217
 20
4.521602686798974
 30
0.0
 40
0.0848648979362779
  1
3
  7
SIMPLEX
 72
     4
 11
1.44124890848731
 21
4.564035135767113
 31
0.0
100
AcDbText
  0
TEXT
  5
CEB
330
1F
100
AcDbEntity
  8
0
100
AcDbText
 10
1.412960609175217
 20
4.66708536897546
 30
0.0
 40
0.0848648979362779
  1
2
  7
SIMPLEX
 72
     4
 11
1.44124890848731
 21
4.709517817943599
 31
0.0
100
AcDbText
  0
TEXT
  5
CEC
330
1F
100
AcDbEntity
  8
0
100
AcDbText
 10
1.431145944447277
 20
4.812568051151938
 30
0.0
 40
0.0848648979362779
  1
1
  7
SIMPLEX
 72
     4
 11
1.44124890848731
 21
4.855000500120077
 31
0.0
100
AcDbText
  0
TEXT
  5
CED
330
1F
100
AcDbEntity
  8
0
 62
     2
100
AcDbText
 10
2.676050010616815
 20
5.241049368153707
 30
0.0
 40
0.1131531972483705
  1
WIRING DIAGRAM
  7
SIMPLEX
 72
     4
 11
3.360357441595056
 21
5.297625966777893
 31
0.0
100
AcDbText
  0
TEXT
  5
CEE
330
1F
100
AcDbEntity
  8
0
100
AcDbText
 10
5.338107548914454
 20
3.357741229387155
 30
0.0
 40
0.0848648979362779
  1
11
  7
SIMPLEX
 72
     4
 11
5.380539997882593
 21
3.400173678355294
 31
0.0
100
AcDbText
  0
LINE
  5
CEF
330
1F
100
AcDbEntity
  8
0
 62
     2
100
AcDbLine
 10
5.527433081213175
 20
2.517746572476958
 30
0.0
 11
5.527433081213175
 21
5.021171272254498
 31
0.0
  0
LINE
  5
CF0
330
1F
100
AcDbEntity
  8
0
 62
     2
100
AcDbLine
 10
5.249109490728201
 20
5.021171272254498
 30
0.0
 11
5.249109490728201
 21
2.517746572476958
 31
0.0
  0
TEXT
  5
CF1
330
1F
100
AcDbEntity
  8
0
100
AcDbText
 10
5.319922213642394
 20
3.212258547210677
 30
0.0
 40
0.0848648979362779
  1
12
  7
SIMPLEX
 72
     4
 11
5.380539997882593
 21
3.254690996178815
 31
0.0
100
AcDbText
  0
TEXT
  5
CF2
330
1F
100
AcDbEntity
  8
0
100
AcDbText
 10
5.322627948022068
 20
2.779826929685409
 30
0.0
 40
0.0848648979362779
  1
15
  7
SIMPLEX
 72
     4
 11
5.383245732262267
 21
2.822259378653548
 31
0.0
100
AcDbText
  0
TEXT
  5
CF3
330
1F
100
AcDbEntity
  8
0
100
AcDbText
 10
5.320607355214062
 20
2.92530961186188
 30
0.0
 40
0.0848648979362779
  1
14
  7
SIMPLEX
 72
     4
 11
5.383245732262267
 21
2.967742060830019
 31
0.0
100
AcDbText
  0
TEXT
  5
CF4
330
1F
100
AcDbEntity
  8
0
100
AcDbText
 10
5.307074285809036
 20
2.630725566800659
 30
0.0
 40
0.0848648979362779
  1
SHELL
 41
0.5
  7
SIMPLEX
 72
     4
 11
5.398000962169334
 21
2.673158015768798
 31
0.0
100
AcDbText
  0
TEXT
  5
CF5
330
1F
100
AcDbEntity
  8
0
100
AcDbText
 10
5.319922213642394
 20
3.066775865034198
 30
0.0
 40
0.0848648979362779
  1
13
  7
SIMPLEX
 72
     4
 11
5.380539997882593
 21
3.109208314002337
 31
0.0
100
AcDbText
  0
LINE
  5
CF6
330
1F
100
AcDbEntity
  8
0
 62
     2
100
AcDbLine
 10
5.527433081213175
 20
2.517746572476958
 30
0.0
 11
5.249109490728201
 21
2.517746572476958
 31
0.0
  0
TEXT
  5
CF7
330
1F
100
AcDbEntity
  8
0
 62
     2
100
AcDbText
 10
5.805083986752762
 20
3.824687201685243
 30
0.0
 40
0.125
  1
F1/F2
  7
SIMPLEX
100
AcDbText
  0
TEXT
  5
CF8
330
1F
100
AcDbEntity
  8
0
100
AcDbText
 10
5.350231105762493
 20
4.376120004622503
 30
0.0
 40
0.0848648979362779
  1
4
  7
SIMPLEX
 72
     4
 11
5.380539997882593
 21
4.418552453590642
 31
0.0
100
AcDbText
  0
TEXT
  5
CF9
330
1F
100
AcDbEntity
  8
0
100
AcDbText
 10
5.354272291378507
 20
4.085154640269546
 30
0.0
 40
0.0848648979362779
  1
6
  7
SIMPLEX
 72
     4
 11
5.380539997882593
 21
4.127587089237685
 31
0.0
100
AcDbText
  0
TEXT
  5
CFA
330
1F
100
AcDbEntity
  8
0
100
AcDbText
 10
5.3522516985705
 20
3.79418927591659
 30
0.0
 40
0.0848648979362779
  1
8
  7
SIMPLEX
 72
     4
 11
5.380539997882593
 21
3.836621724884729
 31
0.0
100
AcDbText
  0
TEXT
  5
CFB
330
1F
100
AcDbEntity
  8
0
100
AcDbText
 10
5.3522516985705
 20
3.939671958093068
 30
0.0
 40
0.0848648979362779
  1
7
  7
SIMPLEX
 72
     4
 11
5.380539997882593
 21
3.982104407061207
 31
0.0
100
AcDbText
  0
TEXT
  5
CFC
330
1F
100
AcDbEntity
  8
0
100
AcDbText
 10
5.3522516985705
 20
4.230637322446025
 30
0.0
 40
0.0848648979362779
  1
5
  7
SIMPLEX
 72
     4
 11
5.380539997882593
 21
4.273069771414164
 31
0.0
100
AcDbText
  0
TEXT
  5
CFD
330
1F
100
AcDbEntity
  8
0
100
AcDbText
 10
5.319922213642394
 20
3.503223911563633
 30
0.0
 40
0.0848648979362779
  1
10
  7
SIMPLEX
 72
     4
 11
5.380539997882593
 21
3.545656360531772
 31
0.0
100
AcDbText
  0
TEXT
  5
CFE
330
1F
100
AcDbEntity
  8
0
100
AcDbText
 10
5.354272291378507
 20
3.648706593740111
 30
0.0
 40
0.0848648979362779
  1
9
  7
SIMPLEX
 72
     4
 11
5.380539997882593
 21
3.69113904270825
 31
0.0
100
AcDbText
  0
LINE
  5
CFF
330
1F
100
AcDbEntity
  8
0
 62
     2
100
AcDbLine
 10
5.527433081213175
 20
5.021171272254498
 30
0.0
 11
5.249109490728201
 21
5.021171272254498
 31
0.0
  0
TEXT
  5
D00
330
1F
100
AcDbEntity
  8
0
100
AcDbText
 10
5.3522516985705
 20
4.521602686798974
 30
0.0
 40
0.0848648979362779
  1
3
  7
SIMPLEX
 72
     4
 11
5.380539997882593
 21
4.564035135767113
 31
0.0
100
AcDbText
  0
TEXT
  5
D01
330
1F
100
AcDbEntity
  8
0
100
AcDbText
 10
5.3522516985705
 20
4.66708536897546
 30
0.0
 40
0.0848648979362779
  1
2
  7
SIMPLEX
 72
     4
 11
5.380539997882593
 21
4.709517817943599
 31
0.0
100
AcDbText
  0
TEXT
  5
D02
330
1F
100
AcDbEntity
  8
0
100
AcDbText
 10
5.370437033842559
 20
4.812568051151938
 30
0.0
 40
0.0848648979362779
  1
1
  7
SIMPLEX
 72
     4
 11
5.380539997882593
 21
4.855000500120077
 31
0.0
100
AcDbText
  0
TEXT
  5
E32
330
1F
100
AcDbEntity
  8
0
100
AcDbText
 10
5.035525407281501
 20
7.237714018468269
 30
0.0
 40
0.09
  1
(DATE CODE)
 41
0.7
 72
     4
 11
5.344525407281501
 21
7.276285447039697
 31
0.0
100
AcDbText
  0
CIRCLE
  5
E35
330
1F
100
AcDbEntity
  8
0
100
AcDbCircle
 10
4.817077823183346
 20
7.159999999999989
 30
0.0
 40
0.04
  0
CIRCLE
  5
E36
330
1F
100
AcDbEntity
  8
0
100
AcDbCircle
 10
4.81707782318336
 20
7.639999999999993
 30
0.0
 40
0.04
  0
LINE
  5
E37
330
1F
100
AcDbEntity
  8
0
 62
     4
100
AcDbLine
 10
4.781525407281499
 20
7.58428544703969
 30
0.0
 11
5.907525407281504
 21
7.58428544703969
 31
0.0
  0
LINE
  5
E38
330
1F
100
AcDbEntity
  8
0
 62
     4
100
AcDbLine
 10
4.781525407281499
 20
7.208285447039685
 30
0.0
 11
5.907525407281504
 21
7.208285447039685
 31
0.0
  0
LINE
  5
E39
330
1F
100
AcDbEntity
  8
0
 62
     4
100
AcDbLine
 10
4.658111165674476
 20
8.0
 30
0.0
 11
6.658111165674476
 21
7.999999999999943
 31
0.0
  0
LINE
  5
E3A
330
1F
100
AcDbEntity
  8
0
 62
     4
100
AcDbLine
 10
6.658111165674476
 20
6.786000000000015
 30
0.0
 11
4.658111165674462
 21
6.786000000000036
 31
0.0
  0
MTEXT
  5
E3B
102
{ACAD_REACTORS
330
E5E
102
}
330
1F
100
AcDbEntity
  8
0
100
AcDbMText
 10
7.123438079764433
 20
9.370395690419698
 30
0.0
 40
0.1
 41
0.0
 71
     9
 72
     1
  1
CONNECTOR, D-SUB, 15 PIN, MALE, HI-DENSITY
 73
     1
 44
1.0
  0
MTEXT
  5
E3C
102
{ACAD_REACTORS
330
E5F
102
}
330
1F
100
AcDbEntity
  8
0
100
AcDbMText
 10
6.363306699848926
 20
8.661357047890348
 30
0.0
 40
0.1
 41
0.0
 71
     9
 72
     1
  1
\A1;JACKSCREW WITH 4-40 UNC THREAD
 73
     1
 44
1.0
  0
LINE
  5
E3D
330
1F
100
AcDbEntity
  8
0
 62
     4
100
AcDbLine
 10
4.658111165674476
 20
8.0
 30
0.0
 11
4.658111165674462
 21
6.786000000000036
 31
0.0
  0
ARC
  5
E3E
330
1F
100
AcDbEntity
  8
0
 62
     4
100
AcDbCircle
 10
4.781525407281485
 20
7.522285447039678
 30
0.0
 40
0.062
100
AcDbArc
 50
90.0
 51
180.0000000000032
  0
ARC
  5
E3F
330
1F
100
AcDbEntity
  8
0
 62
     4
100
AcDbCircle
 10
4.781525407281499
 20
7.270285447039697
 30
0.0
 40
0.062
100
AcDbArc
 50
180.0000000000032
 51
270.0
  0
LINE
  5
E40
330
1F
100
AcDbEntity
  8
0
 62
     4
100
AcDbLine
 10
4.719525407281487
 20
7.522285447039678
 30
0.0
 11
4.719525407281516
 21
7.270285447039682
 31
0.0
  0
LINE
  5
E41
330
1F
100
AcDbEntity
  8
0
 62
     2
100
AcDbLine
 10
11.18263892277374
 20
7.777000000000015
 30
0.0
 11
12.38263892277372
 21
7.777000000000015
 31
0.0
  0
LINE
  5
E42
330
1F
100
AcDbEntity
  8
0
 62
     2
100
AcDbLine
 10
11.18263892277374
 20
7.757000000000012
 30
0.0
 11
12.38263892277372
 21
7.757000000000012
 31
0.0
  0
LINE
  5
E43
330
1F
100
AcDbEntity
  8
0
 62
     2
100
AcDbLine
 10
11.18263892277374
 20
7.734430146469335
 30
0.0
 11
12.38263892277372
 21
7.734430146469335
 31
0.0
  0
LINE
  5
E44
330
1F
100
AcDbEntity
  8
0
 62
     2
100
AcDbLine
 10
11.18263892277374
 20
7.493000000000016
 30
0.0
 11
12.38263892277374
 21
7.493000000000016
 31
0.0
  0
LINE
  5
E45
330
1F
100
AcDbEntity
  8
0
 62
     2
100
AcDbLine
 10
11.18263892277374
 20
7.52729749663122
 30
0.0
 11
12.38263892277372
 21
7.52729749663122
 31
0.0
  0
LINE
  5
E46
330
1F
100
AcDbEntity
  8
0
 62
     2
100
AcDbLine
 10
11.18263892277374
 20
7.258702503368809
 30
0.0
 11
12.38263892277372
 21
7.258702503368809
 31
0.0
  0
LINE
  5
E47
330
1F
100
AcDbEntity
  8
0
 62
     2
100
AcDbLine
 10
11.18263892277374
 20
7.051569853530693
 30
0.0
 11
12.38263892277372
 21
7.051569853530693
 31
0.0
  0
LINE
  5
E48
330
1F
100
AcDbEntity
  8
0
 62
     2
100
AcDbLine
 10
11.18263892277374
 20
7.029000000000017
 30
0.0
 11
12.38263892277372
 21
7.029000000000017
 31
0.0
  0
LINE
  5
E49
330
1F
100
AcDbEntity
  8
0
 62
     2
100
AcDbLine
 10
11.18263892277374
 20
7.293000000000013
 30
0.0
 11
12.38263892277374
 21
7.293000000000013
 31
0.0
  0
LINE
  5
E4A
330
1F
100
AcDbEntity
  8
0
 62
     2
100
AcDbLine
 10
11.18263892277374
 20
7.009000000000014
 30
0.0
 11
12.38263892277372
 21
7.009000000000014
 31
0.0
  0
LINE
  5
E4B
330
1F
100
AcDbEntity
  8
0
 62
     4
100
AcDbLine
 10
10.46660558028263
 20
6.786000000000015
 30
0.0
 11
12.46660558028263
 21
6.786000000000043
 31
0.0
  0
LINE
  5
E4C
330
1F
100
AcDbEntity
  8
0
 62
     4
100
AcDbLine
 10
12.46660558028263
 20
8.0
 30
0.0
 11
10.46660558028263
 21
7.999999999999943
 31
0.0
  0
DIMENSION
  5
E4D
330
1F
100
AcDbEntity
  8
0
100
AcDbDimension
  2
*D3
 10
10.46660558028263
 20
8.552397996478262
 30
0.0
 11
11.47867178626641
 21
8.552397996478262
 31
0.0
 70
   160
 71
     5
 42
2.0
  3
Standard
100
AcDbAlignedDimension
 13
12.46660558028263
 23
8.0
 33
0.0
 14
10.46660558028263
 24
7.999999999999943
 34
0.0
100
AcDbRotatedDimension
1001
ACAD
1000
DSTYLE
1002
{
1070
    44
1040
0.125
1070
    78
1070
     4
1070
   140
1040
0.1
1070
   141
1040
-0.09
1070
   271
1070
     2
1070
   272
1070
     2
1070
   288
1070
     1
1070
   289
1070
     1
1002
}
  0
ARC
  5
E52
330
1F
100
AcDbEntity
  8
0
 62
     2
100
AcDbCircle
 10
8.327481137097684
 20
7.635000000000012
 30
0.0
 40
0.088
100
AcDbArc
 50
79.99999999999899
 51
180.0
  0
ARC
  5
E53
330
1F
100
AcDbEntity
  8
0
 62
     2
100
AcDbCircle
 10
8.327481137097684
 20
7.635000000000012
 30
0.0
 40
0.109
100
AcDbArc
 50
79.99999999999899
 51
180.0
  0
CIRCLE
  5
E54
330
1F
100
AcDbEntity
  8
0
 62
     2
100
AcDbCircle
 10
8.327055659808543
 20
7.595500000000015
 30
0.0
 40
0.0182679884556432
  0
ARC
  5
E55
330
1F
100
AcDbEntity
  8
0
 62
     2
100
AcDbCircle
 10
8.327481137097684
 20
7.151000000000017
 30
0.0
 40
0.109
100
AcDbArc
 50
180.0
 51
279.9999999999992
  0
ARC
  5
E56
330
1F
100
AcDbEntity
  8
0
 62
     2
100
AcDbCircle
 10
8.327481137097684
 20
7.151000000000017
 30
0.0
 40
0.088
100
AcDbArc
 50
180.0
 51
279.9999999999992
  0
CIRCLE
  5
E57
330
1F
100
AcDbEntity
  8
0
 62
     2
100
AcDbCircle
 10
8.327055659808543
 20
7.325500000000019
 30
0.0
 40
0.0182679884556432
  0
CIRCLE
  5
E58
330
1F
100
AcDbEntity
  8
0
 62
     2
100
AcDbCircle
 10
8.327055659808529
 20
7.415500000000022
 30
0.0
 40
0.0182679884556432
  0
CIRCLE
  5
E59
330
1F
100
AcDbEntity
  8
0
 62
     2
100
AcDbCircle
 10
8.327055659808543
 20
7.505500000000019
 30
0.0
 40
0.0182679884556432
  0
CIRCLE
  5
E5A
330
1F
100
AcDbEntity
  8
0
 62
     2
100
AcDbCircle
 10
8.327055659808543
 20
7.235500000000016
 30
0.0
 40
0.0182679884556432
  0
LINE
  5
E5B
330
1F
100
AcDbEntity
  8
0
 62
     2
100
AcDbLine
 10
8.21948113709768
 20
8.000000000000014
 30
0.0
 11
8.589481137097685
 21
8.000000000000014
 31
0.0
  0
LINE
  5
E5C
330
1F
100
AcDbEntity
  8
0
 62
     2
100
AcDbLine
 10
8.21948113709768
 20
6.786000000000015
 30
0.0
 11
8.589481137097685
 21
6.786000000000015
 31
0.0
  0
DIMENSION
  5
E5D
330
1F
100
AcDbEntity
  8
0
100
AcDbDimension
  2
*D4
 10
8.651481137097697
 20
6.20296097811569
 30
0.0
 11
9.313481137097703
 21
6.20296097811569
 31
0.0
 70
   160
 71
     5
 42
0.0619999999999834
  3
Standard
100
AcDbAlignedDimension
 13
8.71348113709768
 23
6.785999999999987
 33
0.0
 14
8.651481137097697
 24
6.785999999999987
 34
0.0
100
AcDbRotatedDimension
1001
ACAD
1000
DSTYLE
1002
{
1070
    44
1040
0.125
1070
    78
1070
     4
1070
   140
1040
0.1
1070
   141
1040
-0.09
1070
   271
1070
     3
1070
   272
1070
     3
1070
   288
1070
     1
1070
   289
1070
     1
1002
}
  0
LEADER
  5
E5E
330
1F
100
AcDbEntity
  8
0
100
AcDbLeader
  3
Standard
 73
     0
 40
0.119047619047619
 41
3.742857142857141
 76
     3
 10
8.176271217523016
 20
7.992189340767751
 30
0.0
 10
7.395869625481033
 20
9.420395690419702
 30
0.0
 10
7.213438079764433
 20
9.420395690419699
 30
0.0
340
E3B
213
0.0
223
0.05
233
0.0
1001
ACAD
1000
DSTYLE
1002
{
1070
   147
1040
0.09
1070
    77
1070
     0
1070
    44
1040
0.125
1070
    78
1070
     4
1070
   140
1040
0.1
1070
   141
1040
-0.09
1070
   271
1070
     3
1070
   272
1070
     3
1070
   288
1070
     1
1070
   289
1070
     1
1002
}
  0
LEADER
  5
E5F
330
1F
100
AcDbEntity
  8
0
100
AcDbLeader
  3
Standard
 73
     0
 40
0.1
 41
2.847619047619046
 76
     3
 10
6.868845200457734
 20
7.941543737733411
 30
0.0
 10
6.635738245565526
 20
8.711357047890345
 30
0.0
 10
6.453306699848926
 20
8.711357047890349
 30
0.0
340
E3C
213
0.0
223
0.05
233
0.0
1001
ACAD
1000
DSTYLE
1002
{
1070
   147
1040
0.09
1070
    77
1070
     0
1070
    44
1040
0.125
1070
    78
1070
     4
1070
   140
1040
0.1
1070
   141
1040
-0.09
1070
   271
1070
     3
1070
   272
1070
     3
1070
   288
1070
     1
1070
   289
1070
     1
1002
}
  0
LINE
  5
E60
330
1F
100
AcDbEntity
  8
0
  6
CENTER2
100
AcDbLine
 10
6.408111165674476
 20
7.885000000000047
 30
0.0
 11
7.01511116567449
 21
7.885000000000026
 31
0.0
  0
LINE
  5
E61
330
1F
100
AcDbEntity
  8
0
  6
CENTER2
100
AcDbLine
 10
6.408111165674476
 20
6.901000000000053
 30
0.0
 11
7.01511116567449
 21
6.901000000000024
 31
0.0
  0
LINE
  5
E62
330
1F
100
AcDbEntity
  8
0
 62
     2
100
AcDbLine
 10
6.493111165674484
 20
7.999999999999943
 30
0.0
 11
6.493111165674456
 21
6.786000000000015
 31
0.0
  0
LINE
  5
E63
330
1F
100
AcDbEntity
  8
0
 62
     2
100
AcDbLine
 10
6.02411116567449
 20
6.786000000000015
 30
0.0
 11
6.02411116567449
 21
7.999999999999992
 31
0.0
  0
LINE
  5
E64
330
1F
100
AcDbEntity
  8
0
 62
     4
100
AcDbLine
 10
6.429111165674491
 20
7.019000000000062
 30
0.0
 11
6.493111165674484
 21
7.019000000000062
 31
0.0
  0
LINE
  5
E65
330
1F
100
AcDbEntity
  8
0
 62
     4
100
AcDbLine
 10
6.429111165674491
 20
7.019000000000026
 30
0.0
 11
6.408111165674476
 21
6.998000000000018
 31
0.0
  0
LINE
  5
E66
330
1F
100
AcDbEntity
  8
0
 62
     4
100
AcDbLine
 10
6.465111165674493
 20
6.915000000000027
 30
0.0
 11
6.408111165674476
 21
6.915000000000034
 31
0.0
  0
LINE
  5
E67
330
1F
100
AcDbEntity
  8
0
 62
     4
100
AcDbLine
 10
6.465111165674493
 20
6.887000000000028
 30
0.0
 11
6.408111165674476
 21
6.887000000000028
 31
0.0
  0
LINE
  5
E68
330
1F
100
AcDbEntity
  8
0
 62
     4
100
AcDbLine
 10
6.429111165674491
 20
6.783000000000036
 30
0.0
 11
6.408111165674476
 21
6.804000000000044
 31
0.0
  0
LINE
  5
E69
330
1F
100
AcDbEntity
  8
0
 62
     4
100
AcDbLine
 10
6.429111165674491
 20
6.887000000000028
 30
0.0
 11
6.429111165674491
 21
6.783000000000029
 31
0.0
  0
LINE
  5
E6A
330
1F
100
AcDbEntity
  8
0
 62
     4
100
AcDbLine
 10
6.408111165674476
 20
6.887000000000028
 30
0.0
 11
6.40811116567449
 21
6.80400000000003
 31
0.0
  0
LINE
  5
E6B
330
1F
100
AcDbEntity
  8
0
 62
     4
100
AcDbLine
 10
6.465111165674493
 20
6.915000000000027
 30
0.0
 11
6.465111165674493
 21
6.887000000000035
 31
0.0
  0
LINE
  5
E6C
330
1F
100
AcDbEntity
  8
0
100
AcDbLine
 10
6.208111165674488
 20
6.814000000000014
 30
0.0
 11
6.208111165674488
 21
6.994000000000006
 31
0.0
  0
CIRCLE
  5
E6D
330
1F
100
AcDbEntity
  8
0
 62
     2
100
AcDbCircle
 10
6.208111165674488
 20
6.90400000000001
 30
0.0
 40
0.06
  0
LINE
  5
E6E
330
1F
100
AcDbEntity
  8
0
 62
     4
100
AcDbLine
 10
6.429111165674491
 20
7.019000000000026
 30
0.0
 11
6.429111165674491
 21
6.915000000000034
 31
0.0
  0
LINE
  5
E6F
330
1F
100
AcDbEntity
  8
0
 62
     4
100
AcDbLine
 10
6.408111165674476
 20
6.998000000000018
 30
0.0
 11
6.408111165674476
 21
6.915000000000027
 31
0.0
  0
LINE
  5
E70
330
1F
100
AcDbEntity
  8
0
100
AcDbLine
 10
6.118111165674484
 20
6.904000000000003
 30
0.0
 11
6.298111165674491
 21
6.904000000000003
 31
0.0
  0
LINE
  5
E71
330
1F
100
AcDbEntity
  8
0
 62
     2
100
AcDbLine
 10
6.493111165674484
 20
7.081999999999979
 30
0.0
 11
6.02411116567449
 21
7.081999999999972
 31
0.0
  0
CIRCLE
  5
E73
330
1F
100
AcDbEntity
  8
0
100
AcDbCircle
 10
5.71707782318338
 20
7.159999999999968
 30
0.0
 40
0.04
  0
CIRCLE
  5
E74
330
1F
100
AcDbEntity
  8
0
100
AcDbCircle
 10
5.717077823183394
 20
7.639999999999972
 30
0.0
 40
0.04
  0
TEXT
  5
E75
330
1F
100
AcDbEntity
  8
0
100
AcDbText
 10
5.037025407281501
 20
7.471285447039692
 30
0.0
 40
0.09
  1
M.1302.6970
 41
0.7
 72
     4
 11
5.344525407281501
 21
7.516285447039692
 31
0.0
100
AcDbText
  0
CIRCLE
  5
E76
330
1F
100
AcDbEntity
  8
0
100
AcDbCircle
 10
4.967077823183352
 20
7.159999999999989
 30
0.0
 40
0.04
  0
CIRCLE
  5
E77
330
1F
100
AcDbEntity
  8
0
100
AcDbCircle
 10
5.567077823183375
 20
7.159999999999975
 30
0.0
 40
0.04
  0
CIRCLE
  5
E78
330
1F
100
AcDbEntity
  8
0
100
AcDbCircle
 10
5.417077823183369
 20
7.159999999999975
 30
0.0
 40
0.04
  0
CIRCLE
  5
E79
330
1F
100
AcDbEntity
  8
0
100
AcDbCircle
 10
5.267077823183363
 20
7.159999999999982
 30
0.0
 40
0.04
  0
CIRCLE
  5
E7A
330
1F
100
AcDbEntity
  8
0
100
AcDbCircle
 10
5.117077823183358
 20
7.159999999999982
 30
0.0
 40
0.04
  0
CIRCLE
  5
E7B
330
1F
100
AcDbEntity
  8
0
100
AcDbCircle
 10
5.117077823183372
 20
7.639999999999986
 30
0.0
 40
0.04
  0
CIRCLE
  5
E7C
330
1F
100
AcDbEntity
  8
0
100
AcDbCircle
 10
5.267077823183377
 20
7.639999999999986
 30
0.0
 40
0.04
  0
CIRCLE
  5
E7D
330
1F
100
AcDbEntity
  8
0
100
AcDbCircle
 10
5.417077823183383
 20
7.639999999999979
 30
0.0
 40
0.04
  0
CIRCLE
  5
E7E
330
1F
100
AcDbEntity
  8
0
100
AcDbCircle
 10
5.567077823183389
 20
7.639999999999979
 30
0.0
 40
0.04
  0
CIRCLE
  5
E7F
330
1F
100
AcDbEntity
  8
0
100
AcDbCircle
 10
4.967077823183366
 20
7.639999999999993
 30
0.0
 40
0.04
  0
CIRCLE
  5
E80
330
1F
100
AcDbEntity
  8
0
100
AcDbCircle
 10
5.867077823183386
 20
7.159999999999961
 30
0.0
 40
0.04
  0
ARC
  5
E81
330
1F
100
AcDbEntity
  8
0
 62
     4
100
AcDbCircle
 10
5.90752540728149
 20
7.522285447039678
 30
0.0
 40
0.062
100
AcDbArc
 50
0.0000000000032569
 51
90.0
  0
CIRCLE
  5
E82
330
1F
100
AcDbEntity
  8
0
100
AcDbCircle
 10
5.8670778231834
 20
7.639999999999965
 30
0.0
 40
0.04
  0
ARC
  5
E83
330
1F
100
AcDbEntity
  8
0
 62
     4
100
AcDbCircle
 10
5.90752540728149
 20
7.270285447039668
 30
0.0
 40
0.062
100
AcDbArc
 50
269.9999999999992
 51
0.0000000000032569
  0
LINE
  5
E84
330
1F
100
AcDbEntity
  8
0
 62
     4
100
AcDbLine
 10
5.969525407281487
 20
7.522285447039692
 30
0.0
 11
5.969525407281487
 21
7.270285447039697
 31
0.0
  0
LINE
  5
E85
330
1F
100
AcDbEntity
  8
0
100
AcDbLine
 10
6.208111165674488
 20
7.791999999999987
 30
0.0
 11
6.208111165674488
 21
7.971999999999994
 31
0.0
  0
CIRCLE
  5
E86
330
1F
100
AcDbEntity
  8
0
 62
     2
100
AcDbCircle
 10
6.208111165674488
 20
7.881999999999997
 30
0.0
 40
0.06
  0
LINE
  5
E87
330
1F
100
AcDbEntity
  8
0
 62
     4
100
AcDbLine
 10
6.408111165674476
 20
7.98200000000002
 30
0.0
 11
6.408111165674476
 21
7.899000000000029
 31
0.0
  0
LINE
  5
E88
330
1F
100
AcDbEntity
  8
0
 62
     4
100
AcDbLine
 10
6.429111165674491
 20
8.003000000000028
 30
0.0
 11
6.429111165674491
 21
7.899000000000029
 31
0.0
  0
LINE
  5
E89
330
1F
100
AcDbEntity
  8
0
 62
     4
100
AcDbLine
 10
6.429111165674491
 20
8.003000000000028
 30
0.0
 11
6.408111165674476
 21
7.98200000000002
 31
0.0
  0
LINE
  5
E8A
330
1F
100
AcDbEntity
  8
0
 62
     4
100
AcDbLine
 10
6.465111165674493
 20
7.899000000000029
 30
0.0
 11
6.465111165674493
 21
7.871000000000037
 31
0.0
  0
LINE
  5
E8B
330
1F
100
AcDbEntity
  8
0
 62
     4
100
AcDbLine
 10
6.465111165674493
 20
7.899000000000029
 30
0.0
 11
6.408111165674476
 21
7.899000000000029
 31
0.0
  0
LINE
  5
E8C
330
1F
100
AcDbEntity
  8
0
 62
     4
100
AcDbLine
 10
6.465111165674493
 20
7.871000000000023
 30
0.0
 11
6.408111165674476
 21
7.87100000000003
 31
0.0
  0
LINE
  5
E8D
330
1F
100
AcDbEntity
  8
0
 62
     4
100
AcDbLine
 10
6.408111165674476
 20
7.871000000000023
 30
0.0
 11
6.40811116567449
 21
7.788000000000032
 31
0.0
  0
LINE
  5
E8E
330
1F
100
AcDbEntity
  8
0
 62
     4
100
AcDbLine
 10
6.429111165674491
 20
7.87100000000003
 30
0.0
 11
6.429111165674491
 21
7.767000000000031
 31
0.0
  0
LINE
  5
E8F
330
1F
100
AcDbEntity
  8
0
 62
     4
100
AcDbLine
 10
6.429111165674491
 20
7.767000000000038
 30
0.0
 11
6.408111165674476
 21
7.788000000000039
 31
0.0
  0
LINE
  5
E90
330
1F
100
AcDbEntity
  8
0
 62
     4
100
AcDbLine
 10
6.429111165674491
 20
7.767000000000038
 30
0.0
 11
6.493111165674484
 21
7.767000000000038
 31
0.0
  0
LINE
  5
E91
330
1F
100
AcDbEntity
  8
0
100
AcDbLine
 10
6.118111165674484
 20
7.88199999999999
 30
0.0
 11
6.298111165674491
 21
7.88199999999999
 31
0.0
  0
LINE
  5
E92
330
1F
100
AcDbEntity
  8
0
 62
     2
100
AcDbLine
 10
6.493111165674484
 20
7.703999999999979
 30
0.0
 11
6.02411116567449
 21
7.703999999999979
 31
0.0
  0
LINE
  5
E93
330
1F
100
AcDbEntity
  8
0
 62
     2
100
AcDbLine
 10
8.157481137097668
 20
7.938000000000016
 30
0.0
 11
8.157481137097683
 21
6.848000000000013
 31
0.0
  0
LINE
  5
E94
330
1F
100
AcDbEntity
  8
0
 62
     4
100
AcDbLine
 10
6.658111165674476
 20
7.999999999999943
 30
0.0
 11
6.658111165674476
 21
6.786000000000015
 31
0.0
  0
LINE
  5
E95
330
1F
100
AcDbEntity
  8
0
 62
     2
100
AcDbLine
 10
6.89011116567449
 20
7.042000000000001
 30
0.0
 11
6.890111165674476
 21
7.743999999999978
 31
0.0
  0
LINE
  5
E96
330
1F
100
AcDbEntity
  8
0
 62
     2
100
AcDbLine
 10
6.618111165674484
 20
7.999999999999943
 30
0.0
 11
6.618111165674456
 21
6.786000000000015
 31
0.0
  0
LINE
  5
E97
330
1F
100
AcDbEntity
  8
0
 62
     2
100
AcDbLine
 10
6.89011116567449
 20
7.042000000000001
 30
0.0
 11
6.65811116567449
 21
7.042000000000001
 31
0.0
  0
LINE
  5
E98
330
1F
100
AcDbEntity
  8
0
 62
     4
100
AcDbLine
 10
7.015111165674476
 20
6.845000000000027
 30
0.0
 11
7.015111165674476
 21
6.957000000000022
 31
0.0
  0
LINE
  5
E99
330
1F
100
AcDbEntity
  8
0
100
AcDbLine
 10
7.000111165674489
 20
6.845000000000027
 30
0.0
 11
7.000111165674489
 21
6.942000000000028
 31
0.0
  0
LINE
  5
E9A
330
1F
100
AcDbEntity
  8
0
100
AcDbLine
 10
6.985111165674474
 20
6.860000000000027
 30
0.0
 11
6.985111165674474
 21
6.957000000000022
 31
0.0
  0
LINE
  5
E9B
330
1F
100
AcDbEntity
  8
0
100
AcDbLine
 10
6.970111165674488
 20
6.845000000000027
 30
0.0
 11
6.970111165674488
 21
6.942000000000028
 31
0.0
  0
LINE
  5
E9C
330
1F
100
AcDbEntity
  8
0
100
AcDbLine
 10
6.940111165674487
 20
6.845000000000027
 30
0.0
 11
6.940111165674473
 21
6.942000000000028
 31
0.0
  0
LINE
  5
E9D
330
1F
100
AcDbEntity
  8
0
100
AcDbLine
 10
6.910111165674486
 20
6.845000000000027
 30
0.0
 11
6.910111165674486
 21
6.942000000000028
 31
0.0
  0
LINE
  5
E9E
330
1F
100
AcDbEntity
  8
0
100
AcDbLine
 10
6.880111165674485
 20
6.845000000000027
 30
0.0
 11
6.880111165674485
 21
6.942000000000028
 31
0.0
  0
LINE
  5
E9F
330
1F
100
AcDbEntity
  8
0
100
AcDbLine
 10
6.955111165674473
 20
6.860000000000027
 30
0.0
 11
6.955111165674473
 21
6.957000000000022
 31
0.0
  0
LINE
  5
EA0
330
1F
100
AcDbEntity
  8
0
100
AcDbLine
 10
6.925111165674472
 20
6.860000000000027
 30
0.0
 11
6.925111165674472
 21
6.957000000000022
 31
0.0
  0
LINE
  5
EA1
330
1F
100
AcDbEntity
  8
0
100
AcDbLine
 10
6.895111165674471
 20
6.860000000000027
 30
0.0
 11
6.895111165674471
 21
6.957000000000022
 31
0.0
  0
LINE
  5
EA2
330
1F
100
AcDbEntity
  8
0
100
AcDbLine
 10
6.86511116567447
 20
6.860000000000027
 30
0.0
 11
6.86511116567447
 21
6.957000000000022
 31
0.0
  0
LINE
  5
EA3
330
1F
100
AcDbEntity
  8
0
 62
     4
100
AcDbLine
 10
6.658111165674476
 20
6.845000000000027
 30
0.0
 11
7.015111165674476
 21
6.845000000000027
 31
0.0
  0
LINE
  5
EA4
330
1F
100
AcDbEntity
  8
0
 62
     4
100
AcDbLine
 10
6.658111165674476
 20
6.957000000000036
 30
0.0
 11
7.015111165674476
 21
6.957000000000022
 31
0.0
  0
ARC
  5
EA5
330
1F
100
AcDbEntity
  8
0
 62
     2
100
AcDbCircle
 10
8.21948113709768
 20
6.848000000000006
 30
0.0
 40
0.062
100
AcDbArc
 50
180.0
 51
270.0
  0
LINE
  5
EA6
330
1F
100
AcDbEntity
  8
0
 62
     4
100
AcDbLine
 10
7.015111165674476
 20
7.829000000000021
 30
0.0
 11
7.015111165674476
 21
7.941000000000023
 31
0.0
  0
LINE
  5
EA7
330
1F
100
AcDbEntity
  8
0
100
AcDbLine
 10
7.000111165674489
 20
7.829000000000021
 30
0.0
 11
7.000111165674489
 21
7.92600000000003
 31
0.0
  0
LINE
  5
EA8
330
1F
100
AcDbEntity
  8
0
100
AcDbLine
 10
6.985111165674474
 20
7.844000000000022
 30
0.0
 11
6.985111165674474
 21
7.941000000000023
 31
0.0
  0
LINE
  5
EA9
330
1F
100
AcDbEntity
  8
0
100
AcDbLine
 10
6.970111165674488
 20
7.829000000000021
 30
0.0
 11
6.970111165674488
 21
7.92600000000003
 31
0.0
  0
LINE
  5
EAA
330
1F
100
AcDbEntity
  8
0
100
AcDbLine
 10
6.955111165674473
 20
7.844000000000022
 30
0.0
 11
6.955111165674473
 21
7.941000000000023
 31
0.0
  0
LINE
  5
EAB
330
1F
100
AcDbEntity
  8
0
100
AcDbLine
 10
6.940111165674487
 20
7.829000000000021
 30
0.0
 11
6.940111165674473
 21
7.92600000000003
 31
0.0
  0
LINE
  5
EAC
330
1F
100
AcDbEntity
  8
0
100
AcDbLine
 10
6.925111165674472
 20
7.844000000000022
 30
0.0
 11
6.925111165674472
 21
7.941000000000023
 31
0.0
  0
LINE
  5
EAD
330
1F
100
AcDbEntity
  8
0
100
AcDbLine
 10
6.910111165674486
 20
7.829000000000021
 30
0.0
 11
6.910111165674486
 21
7.92600000000003
 31
0.0
  0
LINE
  5
EAE
330
1F
100
AcDbEntity
  8
0
100
AcDbLine
 10
6.895111165674471
 20
7.844000000000022
 30
0.0
 11
6.895111165674471
 21
7.941000000000023
 31
0.0
  0
LINE
  5
EAF
330
1F
100
AcDbEntity
  8
0
100
AcDbLine
 10
6.880111165674485
 20
7.829000000000021
 30
0.0
 11
6.880111165674485
 21
7.92600000000003
 31
0.0
  0
LINE
  5
EB0
330
1F
100
AcDbEntity
  8
0
100
AcDbLine
 10
6.86511116567447
 20
7.844000000000022
 30
0.0
 11
6.86511116567447
 21
7.941000000000023
 31
0.0
  0
LINE
  5
EB1
330
1F
100
AcDbEntity
  8
0
 62
     2
100
AcDbLine
 10
6.890111165674476
 20
7.743999999999978
 30
0.0
 11
6.658111165674476
 21
7.743999999999978
 31
0.0
  0
LINE
  5
EB2
330
1F
100
AcDbEntity
  8
0
 62
     4
100
AcDbLine
 10
6.658111165674476
 20
7.94100000000003
 30
0.0
 11
7.015111165674476
 21
7.941000000000023
 31
0.0
  0
LINE
  5
EB3
330
1F
100
AcDbEntity
  8
0
 62
     4
100
AcDbLine
 10
6.658111165674476
 20
7.829000000000029
 30
0.0
 11
7.015111165674476
 21
7.829000000000021
 31
0.0
  0
ARC
  5
EB4
330
1F
100
AcDbEntity
  8
0
 62
     2
100
AcDbCircle
 10
8.21948113709768
 20
7.938000000000009
 30
0.0
 40
0.062
100
AcDbArc
 50
90.00000000000081
 51
180.0
  0
LINE
  5
EB5
330
1F
100
AcDbEntity
  8
0
 62
     2
100
AcDbLine
 10
8.218481137097676
 20
7.635000000000019
 30
0.0
 11
8.218481137097676
 21
7.151000000000024
 31
0.0
  0
LINE
  5
EB6
330
1F
100
AcDbEntity
  8
0
 62
     2
100
AcDbLine
 10
8.239481137097676
 20
7.635000000000019
 30
0.0
 11
8.239481137097676
 21
7.151000000000024
 31
0.0
  0
TEXT
  5
EB7
330
1F
100
AcDbEntity
  8
0
 62
     2
100
AcDbText
 10
8.317953892079408
 20
8.139422222187747
 30
0.0
 40
0.125
  1
F1/F2
  7
SIMPLEX
100
AcDbText
  0
LINE
  5
EB8
330
1F
100
AcDbEntity
  8
0
 62
     2
100
AcDbLine
 10
9.049481137097664
 20
7.051569853530679
 30
0.0
 11
9.049481137097664
 21
7.258702503368787
 31
0.0
  0
LINE
  5
EB9
330
1F
100
AcDbEntity
  8
0
 62
     4
100
AcDbLine
 10
8.651481137097668
 20
8.000000000000014
 30
0.0
 11
8.651481137097697
 21
6.785999999999987
 31
0.0
  0
LINE
  5
EBA
330
1F
100
AcDbEntity
  8
0
 62
     4
100
AcDbLine
 10
8.71348113709768
 20
6.785999999999987
 30
0.0
 11
8.71348113709768
 21
8.000000000000014
 31
0.0
  0
ARC
  5
EBB
330
1F
100
AcDbEntity
  8
0
 62
     2
100
AcDbCircle
 10
8.481481137097681
 20
7.178154355029114
 30
0.0
 40
0.109
100
AcDbArc
 50
279.9999999999992
 51
0.0
  0
ARC
  5
EBC
330
1F
100
AcDbEntity
  8
0
 62
     2
100
AcDbCircle
 10
8.481481137097681
 20
7.178154355029114
 30
0.0
 40
0.088
100
AcDbArc
 50
279.9999999999992
 51
0.0
  0
LINE
  5
EBD
330
1F
100
AcDbEntity
  8
0
 62
     2
100
AcDbLine
 10
8.921481137097678
 20
7.009
 30
0.0
 11
8.71348113709768
 21
7.009
 31
0.0
  0
LINE
  5
EBE
330
1F
100
AcDbEntity
  8
0
 62
     2
100
AcDbLine
 10
8.921481137097678
 20
7.009
 30
0.0
 11
8.921481137097678
 21
7.028999999999996
 31
0.0
  0
LINE
  5
EBF
330
1F
100
AcDbEntity
  8
0
 62
     2
100
AcDbLine
 10
9.049481137097664
 20
7.051569853530679
 30
0.0
 11
8.921481137097678
 21
7.028999999999996
 31
0.0
  0
ARC
  5
EC0
330
1F
100
AcDbEntity
  8
0
 62
     2
100
AcDbCircle
 10
8.589481137097685
 20
6.848000000000006
 30
0.0
 40
0.062
100
AcDbArc
 50
270.0
 51
0.0
  0
LINE
  5
EC1
330
1F
100
AcDbEntity
  8
0
 62
     4
100
AcDbLine
 10
8.713481137097694
 20
6.785999999999987
 30
0.0
 11
8.651481137097697
 21
6.785999999999987
 31
0.0
  0
LINE
  5
EC2
330
1F
100
AcDbEntity
  8
0
 62
     2
100
AcDbLine
 10
8.346408788463371
 20
7.043655954921703
 30
0.0
 11
8.500408788463367
 21
7.0708103099508
 31
0.0
  0
LINE
  5
EC3
330
1F
100
AcDbEntity
  8
0
 62
     2
100
AcDbLine
 10
8.342762176732371
 20
7.064336917734962
 30
0.0
 11
8.496762176732367
 21
7.091491272764059
 31
0.0
  0
LINE
  5
EC4
330
1F
100
AcDbEntity
  8
0
100
AcDbLine
 10
8.494481137097686
 20
6.901000000000024
 30
0.0
 11
8.314481137097679
 21
6.901000000000024
 31
0.0
  0
CIRCLE
  5
EC5
330
1F
100
AcDbEntity
  8
0
 62
     2
100
AcDbCircle
 10
8.404481137097683
 20
6.901000000000017
 30
0.0
 40
0.06
  0
LINE
  5
EC6
330
1F
100
AcDbEntity
  8
0
100
AcDbLine
 10
8.404481137097683
 20
6.991000000000028
 30
0.0
 11
8.404481137097683
 21
6.811000000000021
 31
0.0
  0
ARC
  5
EC7
330
1F
100
AcDbEntity
  8
0
 62
     2
100
AcDbCircle
 10
8.589481137097685
 20
7.938000000000009
 30
0.0
 40
0.062
100
AcDbArc
 50
0.0
 51
90.0
  0
LINE
  5
EC8
330
1F
100
AcDbEntity
  8
0
 62
     4
100
AcDbLine
 10
8.71348113709768
 20
8.000000000000014
 30
0.0
 11
8.651481137097668
 21
8.000000000000014
 31
0.0
  0
LINE
  5
EC9
330
1F
100
AcDbEntity
  8
0
 62
     2
100
AcDbLine
 10
8.921481137097678
 20
7.777000000000008
 30
0.0
 11
8.71348113709768
 21
7.777000000000008
 31
0.0
  0
LINE
  5
ECA
330
1F
100
AcDbEntity
  8
0
 62
     2
100
AcDbLine
 10
9.049481137097664
 20
7.734430146469328
 30
0.0
 11
8.921481137097678
 21
7.757000000000005
 31
0.0
  0
LINE
  5
ECB
330
1F
100
AcDbEntity
  8
0
 62
     2
100
AcDbLine
 10
8.921481137097678
 20
7.777000000000008
 30
0.0
 11
8.921481137097678
 21
7.757000000000005
 31
0.0
  0
LINE
  5
ECC
330
1F
100
AcDbEntity
  8
0
 62
     2
100
AcDbLine
 10
8.921481137097693
 20
7.493000000000016
 30
0.0
 11
8.71348113709768
 21
7.493000000000009
 31
0.0
  0
LINE
  5
ECD
330
1F
100
AcDbEntity
  8
0
 62
     2
100
AcDbLine
 10
9.049481137097664
 20
7.52729749663122
 30
0.0
 11
8.921481137097693
 21
7.493000000000016
 31
0.0
  0
LINE
  5
ECE
330
1F
100
AcDbEntity
  8
0
 62
     2
100
AcDbLine
 10
8.921481137097693
 20
7.292999999999992
 30
0.0
 11
8.71348113709768
 21
7.292999999999992
 31
0.0
  0
LINE
  5
ECF
330
1F
100
AcDbEntity
  8
0
 62
     2
100
AcDbLine
 10
9.049481137097664
 20
7.258702503368787
 30
0.0
 11
8.921481137097693
 21
7.292999999999992
 31
0.0
  0
LINE
  5
ED0
330
1F
100
AcDbEntity
  8
0
 62
     2
100
AcDbLine
 10
8.590481137097661
 20
7.607845644970907
 30
0.0
 11
8.590481137097675
 21
7.178154355029121
 31
0.0
  0
LINE
  5
ED1
330
1F
100
AcDbEntity
  8
0
 62
     2
100
AcDbLine
 10
8.569481137097675
 20
7.607845644970907
 30
0.0
 11
8.569481137097675
 21
7.178154355029121
 31
0.0
  0
LINE
  5
ED2
330
1F
100
AcDbEntity
  8
0
 62
     2
100
AcDbLine
 10
9.049481137097664
 20
7.734430146469328
 30
0.0
 11
9.049481137097664
 21
7.52729749663122
 31
0.0
  0
LINE
  5
ED3
330
1F
100
AcDbEntity
  8
0
100
AcDbLine
 10
8.404481137097683
 20
7.975000000000015
 30
0.0
 11
8.404481137097683
 21
7.795000000000023
 31
0.0
  0
CIRCLE
  5
ED4
330
1F
100
AcDbEntity
  8
0
 62
     2
100
AcDbCircle
 10
8.404481137097683
 20
7.885000000000019
 30
0.0
 40
0.06
  0
LINE
  5
ED5
330
1F
100
AcDbEntity
  8
0
100
AcDbLine
 10
8.494481137097686
 20
7.885000000000026
 30
0.0
 11
8.314481137097679
 21
7.885000000000026
 31
0.0
  0
LINE
  5
ED6
330
1F
100
AcDbEntity
  8
0
 62
     2
100
AcDbLine
 10
8.346408788463371
 20
7.74234404507834
 30
0.0
 11
8.500408788463367
 21
7.715189690049243
 31
0.0
  0
LINE
  5
ED7
330
1F
100
AcDbEntity
  8
0
 62
     2
100
AcDbLine
 10
8.342762176732371
 20
7.721663082265081
 30
0.0
 11
8.496762176732367
 21
7.694508727235984
 31
0.0
  0
CIRCLE
  5
ED8
330
1F
100
AcDbEntity
  8
0
 62
     2
100
AcDbCircle
 10
8.40504001388809
 20
7.550500000000013
 30
0.0
 40
0.0182679884556432
  0
CIRCLE
  5
ED9
330
1F
100
AcDbEntity
  8
0
 62
     2
100
AcDbCircle
 10
8.483024367967651
 20
7.595500000000015
 30
0.0
 40
0.0182679884556432
  0
CIRCLE
  5
EDA
330
1F
100
AcDbEntity
  8
0
 62
     2
100
AcDbCircle
 10
8.483024367967651
 20
7.505500000000019
 30
0.0
 40
0.0182679884556432
  0
CIRCLE
  5
EDB
330
1F
100
AcDbEntity
  8
0
 62
     2
100
AcDbCircle
 10
8.40504001388809
 20
7.460500000000017
 30
0.0
 40
0.0182679884556432
  0
CIRCLE
  5
EDC
330
1F
100
AcDbEntity
  8
0
 62
     2
100
AcDbCircle
 10
8.483024367967637
 20
7.415500000000022
 30
0.0
 40
0.0182679884556432
  0
CIRCLE
  5
EDD
330
1F
100
AcDbEntity
  8
0
 62
     2
100
AcDbCircle
 10
8.483024367967651
 20
7.235500000000016
 30
0.0
 40
0.0182679884556432
  0
CIRCLE
  5
EDE
330
1F
100
AcDbEntity
  8
0
 62
     2
100
AcDbCircle
 10
8.40504001388809
 20
7.190500000000014
 30
0.0
 40
0.0182679884556432
  0
CIRCLE
  5
EDF
330
1F
100
AcDbEntity
  8
0
 62
     2
100
AcDbCircle
 10
8.40504001388809
 20
7.370500000000021
 30
0.0
 40
0.0182679884556432
  0
CIRCLE
  5
EE0
330
1F
100
AcDbEntity
  8
0
 62
     2
100
AcDbCircle
 10
8.483024367967651
 20
7.325500000000019
 30
0.0
 40
0.0182679884556432
  0
CIRCLE
  5
EE1
330
1F
100
AcDbEntity
  8
0
 62
     2
100
AcDbCircle
 10
8.405040013888076
 20
7.280500000000017
 30
0.0
 40
0.0182679884556432
  0
ARC
  5
EE2
330
1F
100
AcDbEntity
  8
0
 62
     2
100
AcDbCircle
 10
8.481481137097681
 20
7.6078456449709
 30
0.0
 40
0.109
100
AcDbArc
 50
0.0
 51
80.00000000000065
  0
ARC
  5
EE3
330
1F
100
AcDbEntity
  8
0
 62
     2
100
AcDbCircle
 10
8.481481137097681
 20
7.6078456449709
 30
0.0
 40
0.088
100
AcDbArc
 50
0.0
 51
80.00000000000065
  0
CIRCLE
  5
EE4
330
1F
100
AcDbEntity
  8
0
 62
     2
100
AcDbCircle
 10
11.55763892277374
 20
7.155136178449751
 30
0.0
 40
0.05
  0
CIRCLE
  5
EE5
330
1F
100
AcDbEntity
  8
0
 62
     2
100
AcDbCircle
 10
11.70763892277374
 20
7.155136178449751
 30
0.0
 40
0.05
  0
CIRCLE
  5
EE6
330
1F
100
AcDbEntity
  8
0
 62
     2
100
AcDbCircle
 10
11.40763892277373
 20
7.155136178449751
 30
0.0
 40
0.05
  0
CIRCLE
  5
EE7
330
1F
100
AcDbEntity
  8
0
 62
     2
100
AcDbCircle
 10
11.25763892277374
 20
7.155136178449751
 30
0.0
 40
0.05
  0
LINE
  5
EE8
330
1F
100
AcDbEntity
  8
0
 62
     2
100
AcDbLine
 10
11.18263892277374
 20
7.009000000000021
 30
0.0
 11
11.18263892277374
 21
7.29300000000002
 31
0.0
  0
LINE
  5
EE9
330
1F
100
AcDbEntity
  8
0
  6
HIDDEN
 62
     3
100
AcDbLine
 10
11.10060558028262
 20
6.786000000000029
 30
0.0
 11
11.10060558028262
 21
7.999999999999992
 31
0.0
  0
LINE
  5
EEA
330
1F
100
AcDbEntity
  8
0
 62
     4
100
AcDbLine
 10
10.46660558028263
 20
7.999999999999943
 30
0.0
 11
10.46660558028263
 21
6.786000000000015
 31
0.0
  0
LINE
  5
EEB
330
1F
100
AcDbEntity
  8
0
 62
     2
100
AcDbLine
 10
10.23460558028262
 20
7.042000000000015
 30
0.0
 11
10.23460558028264
 21
7.744000000000013
 31
0.0
  0
CIRCLE
  5
EEC
330
1F
100
AcDbEntity
  8
0
 62
     2
100
AcDbCircle
 10
10.91660558028262
 20
6.901000000000024
 30
0.0
 40
0.06
  0
LINE
  5
EED
330
1F
100
AcDbEntity
  8
0
100
AcDbLine
 10
11.00660558028263
 20
6.901000000000017
 30
0.0
 11
10.82660558028262
 21
6.901000000000017
 31
0.0
  0
LINE
  5
EEE
330
1F
100
AcDbEntity
  8
0
100
AcDbLine
 10
10.91660558028262
 20
6.811000000000028
 30
0.0
 11
10.91660558028262
 21
6.99100000000002
 31
0.0
  0
LINE
  5
EEF
330
1F
100
AcDbEntity
  8
0
 62
     2
100
AcDbLine
 10
10.23460558028262
 20
7.042000000000015
 30
0.0
 11
10.46660558028262
 21
7.042000000000015
 31
0.0
  0
TEXT
  5
EF0
330
1F
100
AcDbEntity
  8
0
 62
     2
100
AcDbText
 10
11.64211511324993
 20
6.878213198241204
 30
0.0
 40
0.08
  1
12
 41
0.8
 72
     4
 11
11.70763892277374
 21
6.918213198241204
 31
0.0
100
AcDbText
  0
TEXT
  5
EF1
330
1F
100
AcDbEntity
  8
0
 62
     2
100
AcDbText
 10
11.50125797039278
 20
6.878213198241204
 30
0.0
 40
0.08
  1
11
 41
0.8
 72
     4
 11
11.55763892277374
 21
6.918213198241204
 31
0.0
100
AcDbText
  0
TEXT
  5
EF2
330
1F
100
AcDbEntity
  8
0
 62
     2
100
AcDbText
 10
11.34211511324992
 20
6.878213198241204
 30
0.0
 40
0.08
  1
10
 41
0.8
 72
     4
 11
11.40763892277373
 21
6.918213198241204
 31
0.0
100
AcDbText
  0
TEXT
  5
EF3
330
1F
100
AcDbEntity
  8
0
 62
     2
100
AcDbText
 10
11.22144844658326
 20
6.878213198241204
 30
0.0
 40
0.08
  1
9
 72
     4
 11
11.25763892277374
 21
6.918213198241204
 31
0.0
100
AcDbText
  0
CIRCLE
  5
EF4
330
1F
100
AcDbEntity
  8
0
 62
     2
100
AcDbCircle
 10
10.91660558028262
 20
7.55050000000002
 30
0.0
 40
0.0182679884556432
  0
CIRCLE
  5
EF5
330
1F
100
AcDbEntity
  8
0
 62
     2
100
AcDbCircle
 10
10.91660558028262
 20
7.190500000000021
 30
0.0
 40
0.0182679884556432
  0
CIRCLE
  5
EF6
330
1F
100
AcDbEntity
  8
0
 62
     2
100
AcDbCircle
 10
10.91660558028262
 20
7.280500000000017
 30
0.0
 40
0.0182679884556432
  0
CIRCLE
  5
EF7
330
1F
100
AcDbEntity
  8
0
 62
     2
100
AcDbCircle
 10
10.91660558028262
 20
7.370500000000021
 30
0.0
 40
0.0182679884556432
  0
CIRCLE
  5
EF8
330
1F
100
AcDbEntity
  8
0
 62
     2
100
AcDbCircle
 10
10.91660558028262
 20
7.460500000000024
 30
0.0
 40
0.0182679884556432
  0
LINE
  5
EF9
330
1F
100
AcDbEntity
  8
0
100
AcDbLine
 10
11.00660558028263
 20
7.885000000000026
 30
0.0
 11
10.82660558028262
 21
7.885000000000026
 31
0.0
  0
CIRCLE
  5
EFA
330
1F
100
AcDbEntity
  8
0
 62
     2
100
AcDbCircle
 10
10.91660558028262
 20
7.885000000000033
 30
0.0
 40
0.06
  0
LINE
  5
EFB
330
1F
100
AcDbEntity
  8
0
100
AcDbLine
 10
10.91660558028262
 20
7.795000000000023
 30
0.0
 11
10.91660558028262
 21
7.975000000000029
 31
0.0
  0
CIRCLE
  5
EFC
330
1F
100
AcDbEntity
  8
0
 62
     2
100
AcDbCircle
 10
10.81660558028263
 20
7.595500000000022
 30
0.0
 40
0.0182679884556432
  0
LINE
  5
EFD
330
1F
100
AcDbEntity
  8
0
 62
     2
100
AcDbLine
 10
10.23460558028264
 20
7.744000000000013
 30
0.0
 11
10.46660558028263
 21
7.744000000000013
 31
0.0
  0
CIRCLE
  5
EFE
330
1F
100
AcDbEntity
  8
0
 62
     2
100
AcDbCircle
 10
10.81660558028263
 20
7.235500000000016
 30
0.0
 40
0.0182679884556432
  0
CIRCLE
  5
EFF
330
1F
100
AcDbEntity
  8
0
 62
     2
100
AcDbCircle
 10
10.81660558028263
 20
7.325500000000019
 30
0.0
 40
0.0182679884556432
  0
CIRCLE
  5
F00
330
1F
100
AcDbEntity
  8
0
 62
     2
100
AcDbCircle
 10
10.81660558028263
 20
7.415500000000022
 30
0.0
 40
0.0182679884556432
  0
CIRCLE
  5
F01
330
1F
100
AcDbEntity
  8
0
 62
     2
100
AcDbCircle
 10
10.81660558028263
 20
7.505500000000026
 30
0.0
 40
0.0182679884556432
  0
CIRCLE
  5
F02
330
1F
100
AcDbEntity
  8
0
 62
     2
100
AcDbCircle
 10
11.70763892277374
 20
7.630863821550278
 30
0.0
 40
0.05
  0
LINE
  5
F03
330
1F
100
AcDbEntity
  8
0
 62
     2
100
AcDbLine
 10
11.67228358371441
 20
7.666219160609607
 30
0.0
 11
11.74299426183306
 21
7.595508482490949
 31
0.0
  0
CIRCLE
  5
F04
330
1F
100
AcDbEntity
  8
0
 62
     2
100
AcDbCircle
 10
11.55763892277374
 20
7.630863821550278
 30
0.0
 40
0.05
  0
LINE
  5
F05
330
1F
100
AcDbEntity
  8
0
 62
     2
100
AcDbLine
 10
11.52228358371441
 20
7.666219160609607
 30
0.0
 11
11.59299426183306
 21
7.595508482490949
 31
0.0
  0
TEXT
  5
F06
330
1F
100
AcDbEntity
  8
0
 62
     2
100
AcDbText
 10
11.5195436846785
 20
7.826897140985678
 30
0.0
 40
0.08
  1
3
 72
     4
 11
11.55763892277374
 21
7.866897140985678
 31
0.0
100
AcDbText
  0
TEXT
  5
F07
330
1F
100
AcDbEntity
  8
0
 62
     2
100
AcDbText
 10
11.66763892277374
 20
7.826897140985678
 30
0.0
 40
0.08
  1
4
 72
     4
 11
11.70763892277374
 21
7.866897140985678
 31
0.0
100
AcDbText
  0
CIRCLE
  5
F08
330
1F
100
AcDbEntity
  8
0
 62
     2
100
AcDbCircle
 10
11.01660558028262
 20
7.595500000000022
 30
0.0
 40
0.0182679884556432
  0
CIRCLE
  5
F09
330
1F
100
AcDbEntity
  8
0
 62
     2
100
AcDbCircle
 10
11.40763892277373
 20
7.630863821550278
 30
0.0
 40
0.05
  0
LINE
  5
F0A
330
1F
100
AcDbEntity
  8
0
 62
     2
100
AcDbLine
 10
11.37228358371441
 20
7.666219160609607
 30
0.0
 11
11.44299426183307
 21
7.595508482490949
 31
0.0
  0
CIRCLE
  5
F0B
330
1F
100
AcDbEntity
  8
0
 62
     2
100
AcDbCircle
 10
11.25763892277374
 20
7.630863821550278
 30
0.0
 40
0.05
  0
LINE
  5
F0C
330
1F
100
AcDbEntity
  8
0
 62
     2
100
AcDbLine
 10
11.2222835837144
 20
7.666219160609607
 30
0.0
 11
11.29299426183308
 21
7.595508482490949
 31
0.0
  0
TEXT
  5
F0D
330
1F
100
AcDbEntity
  8
0
 62
     2
100
AcDbText
 10
11.22525797039279
 20
7.826897140985678
 30
0.0
 40
0.08
  1
1
 72
     4
 11
11.25763892277374
 21
7.866897140985678
 31
0.0
100
AcDbText
  0
TEXT
  5
F0E
330
1F
100
AcDbEntity
  8
0
 62
     2
100
AcDbText
 10
11.36954368467849
 20
7.826897140985678
 30
0.0
 40
0.08
  1
2
 72
     4
 11
11.40763892277373
 21
7.866897140985678
 31
0.0
100
AcDbText
  0
LINE
  5
F0F
330
1F
100
AcDbEntity
  8
0
 62
     2
100
AcDbLine
 10
11.52228358371441
 20
7.119780839390422
 30
0.0
 11
11.59299426183306
 21
7.19049151750908
 31
0.0
  0
LINE
  5
F10
330
1F
100
AcDbEntity
  8
0
 62
     2
100
AcDbLine
 10
11.67228358371441
 20
7.119780839390422
 30
0.0
 11
11.74299426183306
 21
7.19049151750908
 31
0.0
  0
CIRCLE
  5
F11
330
1F
100
AcDbEntity
  8
0
 62
     2
100
AcDbCircle
 10
11.01660558028262
 20
7.235500000000016
 30
0.0
 40
0.0182679884556432
  0
CIRCLE
  5
F12
330
1F
100
AcDbEntity
  8
0
 62
     2
100
AcDbCircle
 10
11.01660558028262
 20
7.325500000000019
 30
0.0
 40
0.0182679884556432
  0
CIRCLE
  5
F13
330
1F
100
AcDbEntity
  8
0
 62
     2
100
AcDbCircle
 10
11.0166055802826
 20
7.415500000000022
 30
0.0
 40
0.0182679884556432
  0
CIRCLE
  5
F14
330
1F
100
AcDbEntity
  8
0
 62
     2
100
AcDbCircle
 10
11.01660558028262
 20
7.505500000000026
 30
0.0
 40
0.0182679884556432
  0
LINE
  5
F15
330
1F
100
AcDbEntity
  8
0
 62
     2
100
AcDbLine
 10
11.37228358371441
 20
7.119780839390422
 30
0.0
 11
11.44299426183307
 21
7.19049151750908
 31
0.0
  0
LINE
  5
F16
330
1F
100
AcDbEntity
  8
0
 62
     2
100
AcDbLine
 10
11.2222835837144
 20
7.119780839390422
 30
0.0
 11
11.29299426183308
 21
7.19049151750908
 31
0.0
  0
LINE
  5
F17
330
1F
100
AcDbEntity
  8
0
 62
     2
100
AcDbLine
 10
11.18263892277374
 20
7.777000000000008
 30
0.0
 11
11.18263892277374
 21
7.493000000000009
 31
0.0
  0
CIRCLE
  5
F18
330
1F
100
AcDbEntity
  8
0
 62
     2
100
AcDbCircle
 10
12.15763892277373
 20
7.155136178449751
 30
0.0
 40
0.05
  0
CIRCLE
  5
F19
330
1F
100
AcDbEntity
  8
0
 62
     2
100
AcDbCircle
 10
12.30763892277374
 20
7.155136178449751
 30
0.0
 40
0.05
  0
LINE
  5
F1A
330
1F
100
AcDbEntity
  8
0
 62
     2
100
AcDbLine
 10
12.38263892277372
 20
7.009000000000014
 30
0.0
 11
12.38263892277374
 21
7.293000000000013
 31
0.0
  0
TEXT
  5
F1B
330
1F
100
AcDbEntity
  8
0
 62
     2
100
AcDbText
 10
12.58208347607624
 20
7.068049639645778
 30
0.0
 40
0.125
  1
TB2
  7
SIMPLEX
100
AcDbText
  0
CIRCLE
  5
F1C
330
1F
100
AcDbEntity
  8
0
 62
     2
100
AcDbCircle
 10
12.00763892277374
 20
7.155136178449751
 30
0.0
 40
0.05
  0
CIRCLE
  5
F1D
330
1F
100
AcDbEntity
  8
0
 62
     2
100
AcDbCircle
 10
11.85763892277373
 20
7.155136178449751
 30
0.0
 40
0.05
  0
LINE
  5
F1E
330
1F
100
AcDbEntity
  8
0
 62
     4
100
AcDbLine
 10
12.46660558028263
 20
8.0
 30
0.0
 11
12.46660558028263
 21
6.786000000000043
 31
0.0
  0
DIMENSION
  5
F1F
330
1F
100
AcDbEntity
  8
0
100
AcDbDimension
  2
*D5
 10
13.3206956055639
 20
6.786000000000043
 30
0.0
 11
13.3206956055639
 21
7.427379025630543
 31
0.0
 70
   160
 71
     5
 42
1.213999999999956
  3
Standard
100
AcDbAlignedDimension
 13
12.46660558028263
 23
8.0
 33
0.0
 14
12.46660558028263
 24
6.786000000000043
 34
0.0
 50
90.0
100
AcDbRotatedDimension
1001
ACAD
1000
DSTYLE
1002
{
1070
    44
1040
0.125
1070
    78
1070
     4
1070
   140
1040
0.1
1070
   141
1040
-0.09
1070
   271
1070
     2
1070
   272
1070
     2
1070
   288
1070
     1
1070
   289
1070
     1
1002
}
  0
TEXT
  5
F20
330
1F
100
AcDbEntity
  8
0
 62
     2
100
AcDbText
 10
12.2695436846785
 20
6.878213198241204
 30
0.0
 40
0.08
  1
S
 72
     4
 11
12.30763892277374
 21
6.918213198241204
 31
0.0
100
AcDbText
  0
TEXT
  5
F21
330
1F
100
AcDbEntity
  8
0
 62
     2
100
AcDbText
 10
12.09211511324992
 20
6.878213198241204
 30
0.0
 40
0.08
  1
15
 41
0.8
 72
     4
 11
12.15763892277373
 21
6.918213198241204
 31
0.0
100
AcDbText
  0
TEXT
  5
F22
330
1F
100
AcDbEntity
  8
0
 62
     2
100
AcDbText
 10
11.94059130372612
 20
6.878213198241204
 30
0.0
 40
0.08
  1
14
 41
0.8
 72
     4
 11
12.00763892277374
 21
6.918213198241204
 31
0.0
100
AcDbText
  0
TEXT
  5
F23
330
1F
100
AcDbEntity
  8
0
 62
     2
100
AcDbText
 10
11.79211511324993
 20
6.878213198241204
 30
0.0
 40
0.08
  1
13
 41
0.8
 72
     4
 11
11.85763892277373
 21
6.918213198241204
 31
0.0
100
AcDbText
  0
TEXT
  5
F24
330
1F
100
AcDbEntity
  8
0
 62
     2
100
AcDbText
 10
12.58369435340439
 20
7.560049639645782
 30
0.0
 40
0.125
  1
TB1
  7
SIMPLEX
100
AcDbText
  0
LINE
  5
F25
330
1F
100
AcDbEntity
  8
0
 62
     2
100
AcDbLine
 10
12.27228358371442
 20
7.666219160609607
 30
0.0
 11
12.34299426183306
 21
7.595508482490949
 31
0.0
  0
CIRCLE
  5
F26
330
1F
100
AcDbEntity
  8
0
 62
     2
100
AcDbCircle
 10
12.30763892277374
 20
7.630863821550278
 30
0.0
 40
0.05
  0
CIRCLE
  5
F27
330
1F
100
AcDbEntity
  8
0
 62
     2
100
AcDbCircle
 10
12.15763892277373
 20
7.630863821550278
 30
0.0
 40
0.05
  0
LINE
  5
F28
330
1F
100
AcDbEntity
  8
0
 62
     2
100
AcDbLine
 10
12.12228358371441
 20
7.666219160609607
 30
0.0
 11
12.19299426183307
 21
7.595508482490949
 31
0.0
  0
TEXT
  5
F29
330
1F
100
AcDbEntity
  8
0
 62
     2
100
AcDbText
 10
12.11954368467849
 20
7.826897140985678
 30
0.0
 40
0.08
  1
7
 72
     4
 11
12.15763892277373
 21
7.866897140985678
 31
0.0
100
AcDbText
  0
TEXT
  5
F2A
330
1F
100
AcDbEntity
  8
0
 62
     2
100
AcDbText
 10
12.2695436846785
 20
7.826897140985678
 30
0.0
 40
0.08
  1
8
 72
     4
 11
12.30763892277374
 21
7.866897140985678
 31
0.0
100
AcDbText
  0
CIRCLE
  5
F2B
330
1F
100
AcDbEntity
  8
0
 62
     2
100
AcDbCircle
 10
12.00763892277374
 20
7.630863821550278
 30
0.0
 40
0.05
  0
LINE
  5
F2C
330
1F
100
AcDbEntity
  8
0
 62
     2
100
AcDbLine
 10
11.9722835837144
 20
7.666219160609607
 30
0.0
 11
12.04299426183307
 21
7.595508482490949
 31
0.0
  0
CIRCLE
  5
F2D
330
1F
100
AcDbEntity
  8
0
 62
     2
100
AcDbCircle
 10
11.85763892277373
 20
7.630863821550278
 30
0.0
 40
0.05
  0
LINE
  5
F2E
330
1F
100
AcDbEntity
  8
0
 62
     2
100
AcDbLine
 10
11.8222835837144
 20
7.666219160609607
 30
0.0
 11
11.89299426183307
 21
7.595508482490949
 31
0.0
  0
TEXT
  5
F2F
330
1F
100
AcDbEntity
  8
0
 62
     2
100
AcDbText
 10
11.81954368467849
 20
7.826897140985678
 30
0.0
 40
0.08
  1
5
 72
     4
 11
11.85763892277373
 21
7.866897140985678
 31
0.0
100
AcDbText
  0
TEXT
  5
F30
330
1F
100
AcDbEntity
  8
0
 62
     2
100
AcDbText
 10
11.96763892277374
 20
7.826897140985678
 30
0.0
 40
0.08
  1
6
 72
     4
 11
12.00763892277374
 21
7.866897140985678
 31
0.0
100
AcDbText
  0
LINE
  5
F31
330
1F
100
AcDbEntity
  8
0
 62
     2
100
AcDbLine
 10
12.12228358371441
 20
7.119780839390422
 30
0.0
 11
12.19299426183307
 21
7.19049151750908
 31
0.0
  0
LINE
  5
F32
330
1F
100
AcDbEntity
  8
0
 62
     2
100
AcDbLine
 10
12.27228358371442
 20
7.119780839390422
 30
0.0
 11
12.34299426183306
 21
7.19049151750908
 31
0.0
  0
LINE
  5
F33
330
1F
100
AcDbEntity
  8
0
 62
     2
100
AcDbLine
 10
11.9722835837144
 20
7.119780839390422
 30
0.0
 11
12.04299426183307
 21
7.19049151750908
 31
0.0
  0
LINE
  5
F34
330
1F
100
AcDbEntity
  8
0
 62
     2
100
AcDbLine
 10
11.8222835837144
 20
7.119780839390422
 30
0.0
 11
11.89299426183307
 21
7.19049151750908
 31
0.0
  0
LINE
  5
F35
330
1F
100
AcDbEntity
  8
0
 62
     2
100
AcDbLine
 10
12.38263892277372
 20
7.777000000000015
 30
0.0
 11
12.38263892277374
 21
7.493000000000016
 31
0.0
  0
INSERT
  5
10AC
330
1F
100
AcDbEntity
  8
0
100
AcDbBlockReference
 66
     1
  2
ASSEMBLY_B
 10
0.0
 20
0.0
 30
0.0
  0
ATTRIB
  5
10AE
330
10AC
100
AcDbEntity
  8
TITLE BLOCK
  6
Continuous
 62
     2
100
AcDbText
 10
10.79999999999999
 20
0.6000000000000001
 30
0.0
 40
0.126326427375
  1
BREAKOUT BD, F1/F2 MMC-SD
 41
0.8
100
AcDbAttribute
  2
GEN-TITLE-DES1{15.54}
 70
     0
  0
ATTRIB
  5
10AF
330
10AC
100
AcDbEntity
  8
TITLE BLOCK
  6
Continuous
 62
     2
100
AcDbText
 10
12.52499999999999
 20
1.024999999999999
 30
0.0
 40
0.1010611419
  1

100
AcDbAttribute
  2
GEN-TITLE-APPM{5}
 70
     0
  0
ATTRIB
  5
10B0
330
10AC
100
AcDbEntity
  8
TITLE BLOCK
  6
Continuous
 62
     2
100
AcDbText
 10
12.52499999999999
 20
1.274999999999999
 30
0.0
 40
0.1010611419
  1

100
AcDbAttribute
  2
GEN-TITLE-CHKM{5}
 70
     0
  0
ATTRIB
  5
10B1
330
10AC
100
AcDbEntity
  8
TITLE BLOCK
  6
Continuous
 62
     2
100
AcDbText
 10
12.52499999999999
 20
1.524999999999999
 30
0.0
 40
0.1010611419
  1
G. MUMM
100
AcDbAttribute
  2
GEN-TITLE-NAME{5}
 70
     0
  0
ATTRIB
  5
10B2
330
10AC
100
AcDbEntity
  8
TITLE BLOCK
  6
Continuous
 62
     2
100
AcDbText
 10
14.0
 20
0.5
 30
0.0
 40
0.196816573850279
  1
MD.1000.8489
 41
0.8
100
AcDbAttribute
  2
GEN-TITLE-NR{13.37}
 70
     0
  0
ATTRIB
  5
10B3
330
10AC
100
AcDbEntity
  8
TITLE BLOCK
  6
Continuous
 62
     2
100
AcDbText
 10
15.6
 20
1.024999999999999
 30
0.0
 40
0.11808994431015
  1
1
 41
0.8
100
AcDbAttribute
  2
GEN-TITLE-SHEET{2.62}
 70
     0
  0
ATTRIB
  5
10B4
330
10AC
100
AcDbEntity
  8
TITLE BLOCK
  6
Continuous
 62
     2
100
AcDbText
 10
15.525
 20
1.274999999999999
 30
0.0
 40
0.1010611419
  1
17.06.03
100
AcDbAttribute
  2
GEN-TITLE-PLOT{5}
 70
     0
  0
ATTRIB
  5
10B5
330
10AC
100
AcDbEntity
  8
TITLE BLOCK
  6
Continuous
 62
     2
100
AcDbText
 10
15.99999999999999
 20
1.024999999999999
 30
0.0
 40
0.11808994431015
  1
1
 41
0.8
100
AcDbAttribute
  2
GEN-TITLE-SHEET-OF{2.62}
 70
     0
  0
ATTRIB
  5
10B6
330
10AC
100
AcDbEntity
  8
TITLE BLOCK
  6
Continuous
 62
     2
100
AcDbText
 10
14.05
 20
1.524999999999999
 30
0.0
 40
0.1010611419
  1

100
AcDbAttribute
  2
GEN-TITLE-REF{5}
 70
     0
  0
ATTRIB
  5
10B7
330
10AC
100
AcDbEntity
  8
TITLE BLOCK
  6
Continuous
 62
     2
100
AcDbText
 10
14.05
 20
1.274999999999999
 30
0.0
 40
0.1010611419
  1

100
AcDbAttribute
  2
GEN-TITLE-MACH{5}
 70
     0
  0
ATTRIB
  5
10B8
330
10AC
100
AcDbEntity
  8
TITLE BLOCK
  6
Continuous
 62
     2
100
AcDbText
 10
14.05
 20
1.024999999999999
 30
0.0
 40
0.1010611419
  1

 41
0.8
100
AcDbAttribute
  2
GEN-TITLE-MAT{11.15}
 70
     0
  0
SEQEND
  5
10AD
330
10AC
100
AcDbEntity
  8
0
  0
ENDSEC
  0
SECTION
  2
OBJECTS
  0
DICTIONARY
  5
C
330
0
100
AcDbDictionary
281
     1
  3
ACAD_GROUP
350
D
  3
ACAD_LAYOUT
350
1A
  3
ACAD_MLINESTYLE
350
17
  3
ACAD_PLOTSETTINGS
350
19
  3
ACAD_PLOTSTYLENAME
350
E
  3
ACDBHEADERROUNDTRIPXREC
350
1126
  3
AcDbVariableDictionary
350
FAD
  3
AcmDictionary
350
FBF
  3
AMG
350
FA6
  3
AMGSNAPSETTINGS
350
FEF
  3
DWGPROPS
350
1123
  0
DICTIONARY
  5
FD5
330
1F
100
AcDbDictionary
280
     1
281
     1
  3
ACAD_INDEX
360
FD6
  0
DICTIONARY
  5
D
102
{ACAD_REACTORS
330
C
102
}
330
C
100
AcDbDictionary
281
     1
  0
DICTIONARY
  5
1A
102
{ACAD_REACTORS
330
C
102
}
330
C
100
AcDbDictionary
281
     1
  3
Layout1
350
1E
  3
Layout2
350
26
  3
Model
350
22
  0
DICTIONARY
  5
17
102
{ACAD_REACTORS
330
C
102
}
330
C
100
AcDbDictionary
281
     1
  3
Standard
350
18
  0
DICTIONARY
  5
19
102
{ACAD_REACTORS
330
C
102
}
330
C
100
AcDbDictionary
281
     1
  0
ACDBDICTIONARYWDFLT
  5
E
102
{ACAD_REACTORS
330
C
102
}
330
C
100
AcDbDictionary
281
     1
  3
Normal
350
F
100
AcDbDictionaryWithDefault
340
F
  0
DICTIONARY
  5
1126
102
{ACAD_REACTORS
330
C
102
}
330
C
100
AcDbDictionary
281
     1
  3
CEPSNTYPE
350
1130
  3
FINGERPRINTGUID
350
1131
  3
HYPERLINKBASE
350
1129
  3
INSUNITS
350
112F
  3
LAYOUTDICT
350
112B
  3
LWETCUNION
350
112E
  3
PLOTSETDICT
350
112C
  3
PLOTSTYLNAMDICT
350
112D
  3
PSVPSCALE
350
1133
  3
PUCSBASE
350
1136
  3
PUCSORGBACK
350
113C
  3
PUCSORGBOTTOM
350
1138
  3
PUCSORGFRONT
350
113B
  3
PUCSORGLEFT
350
1139
  3
PUCSORGRIGHT
350
113A
  3
PUCSORGTOP
350
1137
  3
PUCSORTHOREF
350
1134
  3
PUCSORTHOVIEW
350
1135
  3
STYLESHEET
350
112A
  3
TSTACKALIGN
350
1127
  3
TSTACKSIZE
350
1128
  3
UCSBASE
350
113F
  3
UCSORGBACK
350
1145
  3
UCSORGBOTTOM
350
1141
  3
UCSORGFRONT
350
1144
  3
UCSORGLEFT
350
1142
  3
UCSORGRIGHT
350
1143
  3
UCSORGTOP
350
1140
  3
UCSORTHOREF
350
113D
  3
UCSORTHOVIEW
350
113E
  3
VERSIONGUID
350
1132
  0
DICTIONARY
  5
FAD
102
{ACAD_REACTORS
330
C
102
}
330
C
100
AcDbDictionary
281
     1
  3
DIMASSOC
350
1111
  3
INDEXCTL
350
FAE
  0
DICTIONARY
  5
FBF
102
{ACAD_REACTORS
330
C
102
}
330
C
100
AcDbDictionary
281
     1
  3
AcmStdDictionary
350
FC5
  0
DICTIONARY
  5
FA6
102
{ACAD_REACTORS
330
C
102
}
330
C
100
AcDbDictionary
281
     1
  3
AcMgSettings
350
FA7
  0
DICTIONARY
  5
FEF
102
{ACAD_REACTORS
330
C
102
}
330
C
100
AcDbDictionary
281
     1
  3
HATCH (1)
350
FF0
  3
HATCH (2)
350
FF1
  0
XRECORD
  5
1123
102
{ACAD_REACTORS
330
C
102
}
330
C
100
AcDbXrecord
280
     1
  1
DWGPROPS COOKIE
  2

  3

  4

  6

  7

  8

  9

300
AmdtFileType=84
301
=
302
=
303
=
304
=
305
=
306
=
307
=
308
=
309
=
 40
0.0703007638888889
 41
2452542.548639722
 42
2452808.418976655
  1

 90
        1
  0
DICTIONARY
  5
FD6
102
{ACAD_REACTORS
330
FD5
102
}
330
FD5
100
AcDbDictionary
281
     1
  3
*A1
350
FD7
  0
LAYOUT
  5
1E
102
{ACAD_REACTORS
330
1A
102
}
330
1A
100
AcDbPlotSettings
  1

  2
HP PhotoSmart P1000 Series
  4

  6

 40
0.0
 41
0.0
 42
0.0
 43
0.0
 44
0.0
 45
0.0
 46
0.0
 47
0.0
 48
0.0
 49
0.0
140
0.0
141
0.0
142
1.0
143
1.0
 70
   688
 72
     0
 73
     0
 74
     5
  7
monochrome.ctb
 75
    16
147
1.0
148
0.0
149
0.0
100
AcDbLayout
  1
Layout1
 70
     1
 71
     1
 10
0.0
 20
0.0
 11
12.0
 21
9.0
 12
0.0
 22
0.0
 32
0.0
 14
1.000000000000000E+20
 24
1.000000000000000E+20
 34
1.000000000000000E+20
 15
-1.000000000000000E+20
 25
-1.000000000000000E+20
 35
-1.000000000000000E+20
146
0.0
 13
0.0
 23
0.0
 33
0.0
 16
1.0
 26
0.0
 36
0.0
 17
0.0
 27
1.0
 37
0.0
 76
     0
330
1B
  0
LAYOUT
  5
26
102
{ACAD_REACTORS
330
1A
102
}
330
1A
100
AcDbPlotSettings
  1

  2
HP PhotoSmart P1000 Series
  4

  6

 40
0.0
 41
0.0
 42
0.0
 43
0.0
 44
0.0
 45
0.0
 46
0.0
 47
0.0
 48
0.0
 49
0.0
140
0.0
141
0.0
142
1.0
143
1.0
 70
   688
 72
     0
 73
     0
 74
     5
  7
monochrome.ctb
 75
    16
147
1.0
148
0.0
149
0.0
100
AcDbLayout
  1
Layout2
 70
     1
 71
     2
 10
0.0
 20
0.0
 11
12.0
 21
9.0
 12
0.0
 22
0.0
 32
0.0
 14
0.0
 24
0.0
 34
0.0
 15
0.0
 25
0.0
 35
0.0
146
0.0
 13
0.0
 23
0.0
 33
0.0
 16
1.0
 26
0.0
 36
0.0
 17
0.0
 27
1.0
 37
0.0
 76
     0
330
23
  0
LAYOUT
  5
22
102
{ACAD_REACTORS
330
1A
102
}
330
1A
100
AcDbPlotSettings
  1

  2
\\Fdlfs06\Engineering - HP LaserJet 5Si MX
  4
Letter
  6

 40
7.143749713897705
 41
6.974400997161865
 42
7.14373779296875
 43
6.297088623046875
 44
215.8999938964843
 45
279.3999938964843
 46
14.73199999999999
 47
0.0
 48
0.0
 49
0.0
140
0.0
141
0.0
142
1.0
143
1.622651130055112
 70
 11956
 72
     0
 73
     1
 74
     1
  7
monochrome.ctb
 75
     0
147
0.6162754158782333
148
0.0216983410215988
149
-0.8243698831905547
100
AcDbLayout
  1
Model
 70
     1
 71
     0
 10
0.0
 20
0.0
 11
12.0
 21
9.0
 12
0.0
 22
0.0
 32
0.0
 14
0.0
 24
0.0
 34
0.0
 15
0.0
 25
0.0
 35
0.0
146
0.0
 13
0.0
 23
0.0
 33
0.0
 16
1.0
 26
0.0
 36
0.0
 17
0.0
 27
1.0
 37
0.0
 76
     0
330
1F
  0
MLINESTYLE
  5
18
102
{ACAD_REACTORS
330
17
102
}
330
17
100
AcDbMlineStyle
  2
STANDARD
 70
     0
  3

 62
   256
 51
90.0
 52
90.0
 71
     2
 49
0.5
 62
   256
  6
BYLAYER
 49
-0.5
 62
   256
  6
BYLAYER
  0
ACDBPLACEHOLDER
  5
F
102
{ACAD_REACTORS
330
E
102
}
330
E
  0
XRECORD
  5
1130
102
{ACAD_REACTORS
330
1126
102
}
330
1126
100
AcDbXrecord
280
     1
 90
        0
  0
XRECORD
  5
1131
102
{ACAD_REACTORS
330
1126
102
}
330
1126
100
AcDbXrecord
280
     1
  1
{10CA760A-CFCB-11D6-843A-00B0D02CC2F3}
  0
XRECORD
  5
1129
102
{ACAD_REACTORS
330
1126
102
}
330
1126
100
AcDbXrecord
280
     1
  1

  0
XRECORD
  5
112F
102
{ACAD_REACTORS
330
1126
102
}
330
1126
100
AcDbXrecord
280
     1
 90
        1
  0
XRECORD
  5
112B
102
{ACAD_REACTORS
330
1126
102
}
330
1126
100
AcDbXrecord
280
     1
340
1A
  0
XRECORD
  5
112E
102
{ACAD_REACTORS
330
1126
102
}
330
1126
100
AcDbXrecord
280
     1
 90
    10781
  0
XRECORD
  5
112C
102
{ACAD_REACTORS
330
1126
102
}
330
1126
100
AcDbXrecord
280
     1
340
19
  0
XRECORD
  5
112D
102
{ACAD_REACTORS
330
1126
102
}
330
1126
100
AcDbXrecord
280
     1
340
E
  0
XRECORD
  5
1133
102
{ACAD_REACTORS
330
1126
102
}
330
1126
100
AcDbXrecord
280
     1
 40
0.0
  0
XRECORD
  5
1136
102
{ACAD_REACTORS
330
1126
102
}
330
1126
100
AcDbXrecord
280
     1
340
0
  0
XRECORD
  5
113C
102
{ACAD_REACTORS
330
1126
102
}
330
1126
100
AcDbXrecord
280
     1
 10
0.0
 20
0.0
 30
0.0
  0
XRECORD
  5
1138
102
{ACAD_REACTORS
330
1126
102
}
330
1126
100
AcDbXrecord
280
     1
 10
0.0
 20
0.0
 30
0.0
  0
XRECORD
  5
113B
102
{ACAD_REACTORS
330
1126
102
}
330
1126
100
AcDbXrecord
280
     1
 10
0.0
 20
0.0
 30
0.0
  0
XRECORD
  5
1139
102
{ACAD_REACTORS
330
1126
102
}
330
1126
100
AcDbXrecord
280
     1
 10
0.0
 20
0.0
 30
0.0
  0
XRECORD
  5
113A
102
{ACAD_REACTORS
330
1126
102
}
330
1126
100
AcDbXrecord
280
     1
 10
0.0
 20
0.0
 30
0.0
  0
XRECORD
  5
1137
102
{ACAD_REACTORS
330
1126
102
}
330
1126
100
AcDbXrecord
280
     1
 10
0.0
 20
0.0
 30
0.0
  0
XRECORD
  5
1134
102
{ACAD_REACTORS
330
1126
102
}
330
1126
100
AcDbXrecord
280
     1
340
0
  0
XRECORD
  5
1135
102
{ACAD_REACTORS
330
1126
102
}
330
1126
100
AcDbXrecord
280
     1
 70
     0
  0
XRECORD
  5
112A
102
{ACAD_REACTORS
330
1126
102
}
330
1126
100
AcDbXrecord
280
     1
  1
monochrome.ctb
  0
XRECORD
  5
1127
102
{ACAD_REACTORS
330
1126
102
}
330
1126
100
AcDbXrecord
280
     1
 90
        1
  0
XRECORD
  5
1128
102
{ACAD_REACTORS
330
1126
102
}
330
1126
100
AcDbXrecord
280
     1
 90
       70
  0
XRECORD
  5
113F
102
{ACAD_REACTORS
330
1126
102
}
330
1126
100
AcDbXrecord
280
     1
340
0
  0
XRECORD
  5
1145
102
{ACAD_REACTORS
330
1126
102
}
330
1126
100
AcDbXrecord
280
     1
 10
0.0
 20
0.0
 30
0.0
  0
XRECORD
  5
1141
102
{ACAD_REACTORS
330
1126
102
}
330
1126
100
AcDbXrecord
280
     1
 10
0.0
 20
0.0
 30
0.0
  0
XRECORD
  5
1144
102
{ACAD_REACTORS
330
1126
102
}
330
1126
100
AcDbXrecord
280
     1
 10
0.0
 20
0.0
 30
0.0
  0
XRECORD
  5
1142
102
{ACAD_REACTORS
330
1126
102
}
330
1126
100
AcDbXrecord
280
     1
 10
0.0
 20
0.0
 30
0.0
  0
XRECORD
  5
1143
102
{ACAD_REACTORS
330
1126
102
}
330
1126
100
AcDbXrecord
280
     1
 10
0.0
 20
0.0
 30
0.0
  0
XRECORD
  5
1140
102
{ACAD_REACTORS
330
1126
102
}
330
1126
100
AcDbXrecord
280
     1
 10
0.0
 20
0.0
 30
0.0
  0
XRECORD
  5
113D
102
{ACAD_REACTORS
330
1126
102
}
330
1126
100
AcDbXrecord
280
     1
340
0
  0
XRECORD
  5
113E
102
{ACAD_REACTORS
330
1126
102
}
330
1126
100
AcDbXrecord
280
     1
 70
     0
  0
XRECORD
  5
1132
102
{ACAD_REACTORS
330
1126
102
}
330
1126
100
AcDbXrecord
280
     1
  1
{5B28169C-ECA4-4ED0-9794-CBD56C813EDF}
  0
DICTIONARYVAR
  5
1111
102
{ACAD_REACTORS
330
FAD
102
}
330
FAD
100
DictionaryVariables
280
     0
  1
1
  0
DICTIONARYVAR
  5
FAE
102
{ACAD_REACTORS
330
FAD
102
}
330
FAD
100
DictionaryVariables
280
     0
  1
1
  0
DICTIONARY
  5
FC5
102
{ACAD_REACTORS
330
FBF
102
}
330
FBF
100
AcDbDictionary
281
     1
  0
DICTIONARY
  5
FA7
102
{ACAD_REACTORS
330
FA6
102
}
330
FA6
100
AcDbDictionary
281
     1
  3
DWGSETTINGS
350
FA8
  3
TRANSSETTINGS
350
FA9
  0
ACAMGFILTERDAT
  5
FF0
102
{ACAD_REACTORS
330
FEF
102
}
330
FEF
100
AcAmgFilterDat
 70
    15
  1
HATCH
  2
*
  3
*
  4
*
  5
*
290
     1
  0
ACAMGFILTERDAT
  5
FF1
102
{ACAD_REACTORS
330
FEF
102
}
330
FEF
100
AcAmgFilterDat
 70
    15
  1
LINE
  2
8,8N,*-8,*-8N,AM_8,AM_8N,*-AM_8,*-AM_8N
  3
*
  4
*
  5
INSERT,STDPART2D
290
     1
  0
LAYER_INDEX
  5
FD7
102
{ACAD_REACTORS
330
FD6
102
}
330
FD6
100
AcDbIndex
 40
2452893.356322384
100
AcDbLayerIndex
  8
0
360
FD8
 90
      335
  8
BORDER
360
FD9
 90
        0
  8
TITLE BLOCK
360
FDA
 90
        0
  8
Defpoints
360
FDB
 90
        0
  8
L0
360
10F7
 90
        0
  0
IDBUFFER
  5
FD8
330
0
100
AcDbIdBuffer
330
C58
330
C59
330
C5A
330
C5B
330
C5C
330
C5E
330
C64
330
C65
330
C67
330
C68
330
C69
330
C6E
330
C70
330
C77
330
C79
330
C7A
330
C7B
330
C7C
330
C81
330
C82
330
CC6
330
CC7
330
CC8
330
CC9
330
CCA
330
CCB
330
CCC
330
CCD
330
CCE
330
CCF
330
CD0
330
CD1
330
CD2
330
CD3
330
CD4
330
CD5
330
CD6
330
CD7
330
CD8
330
CD9
330
CDA
330
CDB
330
CDC
330
CDD
330
CDE
330
CDF
330
CE0
330
CE1
330
CE2
330
CE3
330
CE4
330
CE5
330
CE6
330
CE7
330
CE8
330
CE9
330
CEA
330
CEB
330
CEC
330
CED
330
CEE
330
CEF
330
CF0
330
CF1
330
CF2
330
CF3
330
CF4
330
CF5
330
CF6
330
CF7
330
CF8
330
CF9
330
CFA
330
CFB
330
CFC
330
CFD
330
CFE
330
CFF
330
D00
330
D01
330
D02
330
E32
330
E35
330
E36
330
E37
330
E38
330
E39
330
E3A
330
E3B
330
E3C
330
E3D
330
E3E
330
E3F
330
E40
330
E41
330
E42
330
E43
330
E44
330
E45
330
E46
330
E47
330
E48
330
E49
330
E4A
330
E4B
330
E4C
330
E4D
330
E52
330
E53
330
E54
330
E55
330
E56
330
E57
330
E58
330
E59
330
E5A
330
E5B
330
E5C
330
E5D
330
E5E
330
E5F
330
E60
330
E61
330
E62
330
E63
330
E64
330
E65
330
E66
330
E67
330
E68
330
E69
330
E6A
330
E6B
330
E6C
330
E6D
330
E6E
330
E6F
330
E70
330
E71
330
E73
330
E74
330
E75
330
E76
330
E77
330
E78
330
E79
330
E7A
330
E7B
330
E7C
330
E7D
330
E7E
330
E7F
330
E80
330
E81
330
E82
330
E83
330
E84
330
E85
330
E86
330
E87
330
E88
330
E89
330
E8A
330
E8B
330
E8C
330
E8D
330
E8E
330
E8F
330
E90
330
E91
330
E92
330
E93
330
E94
330
E95
330
E96
330
E97
330
E98
330
E99
330
E9A
330
E9B
330
E9C
330
E9D
330
E9E
330
E9F
330
EA0
330
EA1
330
EA2
330
EA3
330
EA4
330
EA5
330
EA6
330
EA7
330
EA8
330
EA9
330
EAA
330
EAB
330
EAC
330
EAD
330
EAE
330
EAF
330
EB0
330
EB1
330
EB2
330
EB3
330
EB4
330
EB5
330
EB6
330
EB7
330
EB8
330
EB9
330
EBA
330
EBB
330
EBC
330
EBD
330
EBE
330
EBF
330
EC0
330
EC1
330
EC2
330
EC3
330
EC4
330
EC5
330
EC6
330
EC7
330
EC8
330
EC9
330
ECA
330
ECB
330
ECC
330
ECD
330
ECE
330
ECF
330
ED0
330
ED1
330
ED2
330
ED3
330
ED4
330
ED5
330
ED6
330
ED7
330
ED8
330
ED9
330
EDA
330
EDB
330
EDC
330
EDD
330
EDE
330
EDF
330
EE0
330
EE1
330
EE2
330
EE3
330
EE4
330
EE5
330
EE6
330
EE7
330
EE8
330
EE9
330
EEA
330
EEB
330
EEC
330
EED
330
EEE
330
EEF
330
EF0
330
EF1
330
EF2
330
EF3
330
EF4
330
EF5
330
EF6
330
EF7
330
EF8
330
EF9
330
EFA
330
EFB
330
EFC
330
EFD
330
EFE
330
EFF
330
F00
330
F01
330
F02
330
F03
330
F04
330
F05
330
F06
330
F07
330
F08
330
F09
330
F0A
330
F0B
330
F0C
330
F0D
330
F0E
330
F0F
330
F10
330
F11
330
F12
330
F13
330
F14
330
F15
330
F16
330
F17
330
F18
330
F19
330
F1A
330
F1B
330
F1C
330
F1D
330
F1E
330
F1F
330
F20
330
F21
330
F22
330
F23
330
F24
330
F25
330
F26
330
F27
330
F28
330
F29
330
F2A
330
F2B
330
F2C
330
F2D
330
F2E
330
F2F
330
F30
330
F31
330
F32
330
F33
330
F34
330
F35
330
10AC
  0
IDBUFFER
  5
FD9
330
0
100
AcDbIdBuffer
  0
IDBUFFER
  5
FDA
330
0
100
AcDbIdBuffer
  0
IDBUFFER
  5
FDB
330
0
100
AcDbIdBuffer
  0
IDBUFFER
  5
10F7
330
0
100
AcDbIdBuffer
  0
ENDSEC
  0
EOF
