  0
SECTION
  2
HEADER
  9
$ACADVER
  1
AC1015
  9
$ACADMAINTVER
 70
    11
  9
$DWGCODEPAGE
  3
ANSI_1252
  9
$INSBASE
 10
0.0
 20
0.0
 30
0.0
  9
$EXTMIN
 10
80.5738457126527
 20
49.77989839689353
 30
0.0
  9
$EXTMAX
 10
97.57384307265272
 20
60.76688365725267
 30
0.0
  9
$LIMMIN
 10
0.0
 20
0.0
  9
$LIMMAX
 10
12.0
 20
9.0
  9
$ORTHOMODE
 70
     1
  9
$REGENMODE
 70
     1
  9
$FILLMODE
 70
     1
  9
$QTEXTMODE
 70
     0
  9
$MIRRTEXT
 70
     0
  9
$LTSCALE
 40
0.25
  9
$ATTMODE
 70
     1
  9
$TEXTSIZE
 40
0.0938
  9
$TRACEWID
 40
0.05
  9
$TEXTSTYLE
  7
SIMPLEX
  9
$CLAYER
  8
0
  9
$CELTYPE
  6
BYLAYER
  9
$CECOLOR
 62
   256
  9
$CELTSCALE
 40
1.0
  9
$DISPSILH
 70
     0
  9
$DIMSCALE
 40
1.0
  9
$DIMASZ
 40
0.18
  9
$DIMEXO
 40
0.0625
  9
$DIMDLI
 40
0.38
  9
$DIMRND
 40
0.0
  9
$DIMDLE
 40
0.0
  9
$DIMEXE
 40
0.18
  9
$DIMTP
 40
0.0
  9
$DIMTM
 40
0.0
  9
$DIMTXT
 40
0.0938
  9
$DIMCEN
 40
0.09
  9
$DIMTSZ
 40
0.0
  9
$DIMTOL
 70
     0
  9
$DIMLIM
 70
     0
  9
$DIMTIH
 70
     1
  9
$DIMTOH
 70
     1
  9
$DIMSE1
 70
     0
  9
$DIMSE2
 70
     0
  9
$DIMTAD
 70
     0
  9
$DIMZIN
 70
     0
  9
$DIMBLK
  1

  9
$DIMASO
 70
     0
  9
$DIMSHO
 70
     1
  9
$DIMPOST
  1

  9
$DIMAPOST
  1

  9
$DIMALT
 70
     0
  9
$DIMALTD
 70
     2
  9
$DIMALTF
 40
25.4
  9
$DIMLFAC
 40
1.0
  9
$DIMTOFL
 70
     0
  9
$DIMTVP
 40
0.0
  9
$DIMTIX
 70
     0
  9
$DIMSOXD
 70
     0
  9
$DIMSAH
 70
     0
  9
$DIMBLK1
  1

  9
$DIMBLK2
  1

  9
$DIMSTYLE
  2
STANDARD
  9
$DIMCLRD
 70
     0
  9
$DIMCLRE
 70
     0
  9
$DIMCLRT
 70
     0
  9
$DIMTFAC
 40
1.0
  9
$DIMGAP
 40
0.09
  9
$DIMJUST
 70
     0
  9
$DIMSD1
 70
     0
  9
$DIMSD2
 70
     0
  9
$DIMTOLJ
 70
     1
  9
$DIMTZIN
 70
     0
  9
$DIMALTZ
 70
     0
  9
$DIMALTTZ
 70
     0
  9
$DIMUPT
 70
     0
  9
$DIMDEC
 70
     4
  9
$DIMTDEC
 70
     4
  9
$DIMALTU
 70
     2
  9
$DIMALTTD
 70
     2
  9
$DIMTXSTY
  7
SIMPLEX
  9
$DIMAUNIT
 70
     0
  9
$DIMADEC
 70
     0
  9
$DIMALTRND
 40
0.0
  9
$DIMAZIN
 70
     0
  9
$DIMDSEP
 70
    46
  9
$DIMATFIT
 70
     3
  9
$DIMFRAC
 70
     0
  9
$DIMLDRBLK
  1

  9
$DIMLUNIT
 70
     2
  9
$DIMLWD
 70
    -2
  9
$DIMLWE
 70
    -2
  9
$DIMTMOVE
 70
     2
  9
$LUNITS
 70
     2
  9
$LUPREC
 70
     4
  9
$SKETCHINC
 40
0.1
  9
$FILLETRAD
 40
0.0
  9
$AUNITS
 70
     0
  9
$AUPREC
 70
     0
  9
$MENU
  1
acad
  9
$ELEVATION
 40
0.0
  9
$PELEVATION
 40
0.0
  9
$THICKNESS
 40
0.0
  9
$LIMCHECK
 70
     0
  9
$CHAMFERA
 40
0.0
  9
$CHAMFERB
 40
0.0
  9
$CHAMFERC
 40
0.0
  9
$CHAMFERD
 40
0.0
  9
$SKPOLY
 70
     0
  9
$TDCREATE
 40
2450133.646804166
  9
$TDUCREATE
 40
2450133.855137500
  9
$TDUPDATE
 40
2452893.357058425
  9
$TDUUPDATE
 40
2452893.565391759
  9
$TDINDWG
 40
1.7066779630
  9
$TDUSRTIMER
 40
1.7066779630
  9
$USRTIMER
 70
     1
  9
$ANGBASE
 50
0.0
  9
$ANGDIR
 70
     0
  9
$PDMODE
 70
     0
  9
$PDSIZE
 40
0.0
  9
$PLINEWID
 40
0.0
  9
$SPLFRAME
 70
     0
  9
$SPLINETYPE
 70
     6
  9
$SPLINESEGS
 70
     8
  9
$HANDSEED
  5
C35B
  9
$SURFTAB1
 70
     6
  9
$SURFTAB2
 70
     6
  9
$SURFTYPE
 70
     6
  9
$SURFU
 70
     6
  9
$SURFV
 70
     6
  9
$UCSBASE
  2

  9
$UCSNAME
  2

  9
$UCSORG
 10
0.0
 20
0.0
 30
0.0
  9
$UCSXDIR
 10
1.0
 20
0.0
 30
0.0
  9
$UCSYDIR
 10
0.0
 20
1.0
 30
0.0
  9
$UCSORTHOREF
  2

  9
$UCSORTHOVIEW
 70
     0
  9
$UCSORGTOP
 10
0.0
 20
0.0
 30
0.0
  9
$UCSORGBOTTOM
 10
0.0
 20
0.0
 30
0.0
  9
$UCSORGLEFT
 10
0.0
 20
0.0
 30
0.0
  9
$UCSORGRIGHT
 10
0.0
 20
0.0
 30
0.0
  9
$UCSORGFRONT
 10
0.0
 20
0.0
 30
0.0
  9
$UCSORGBACK
 10
0.0
 20
0.0
 30
0.0
  9
$PUCSBASE
  2

  9
$PUCSNAME
  2

  9
$PUCSORG
 10
0.0
 20
0.0
 30
0.0
  9
$PUCSXDIR
 10
1.0
 20
0.0
 30
0.0
  9
$PUCSYDIR
 10
0.0
 20
1.0
 30
0.0
  9
$PUCSORTHOREF
  2

  9
$PUCSORTHOVIEW
 70
     0
  9
$PUCSORGTOP
 10
0.0
 20
0.0
 30
0.0
  9
$PUCSORGBOTTOM
 10
0.0
 20
0.0
 30
0.0
  9
$PUCSORGLEFT
 10
0.0
 20
0.0
 30
0.0
  9
$PUCSORGRIGHT
 10
0.0
 20
0.0
 30
0.0
  9
$PUCSORGFRONT
 10
0.0
 20
0.0
 30
0.0
  9
$PUCSORGBACK
 10
0.0
 20
0.0
 30
0.0
  9
$USERI1
 70
     0
  9
$USERI2
 70
     0
  9
$USERI3
 70
     0
  9
$USERI4
 70
     0
  9
$USERI5
 70
     0
  9
$USERR1
 40
0.0
  9
$USERR2
 40
0.0
  9
$USERR3
 40
0.0
  9
$USERR4
 40
0.0
  9
$USERR5
 40
0.0
  9
$WORLDVIEW
 70
     1
  9
$SHADEDGE
 70
     3
  9
$SHADEDIF
 70
    70
  9
$TILEMODE
 70
     1
  9
$MAXACTVP
 70
    16
  9
$PINSBASE
 10
0.0
 20
0.0
 30
0.0
  9
$PLIMCHECK
 70
     0
  9
$PEXTMIN
 10
1.000000000000000E+20
 20
1.000000000000000E+20
 30
1.000000000000000E+20
  9
$PEXTMAX
 10
-1.000000000000000E+20
 20
-1.000000000000000E+20
 30
-1.000000000000000E+20
  9
$PLIMMIN
 10
0.0
 20
0.0
  9
$PLIMMAX
 10
12.0
 20
9.0
  9
$UNITMODE
 70
     0
  9
$VISRETAIN
 70
     0
  9
$PLINEGEN
 70
     0
  9
$PSLTSCALE
 70
     1
  9
$TREEDEPTH
 70
  3020
  9
$CMLSTYLE
  2
STANDARD
  9
$CMLJUST
 70
     0
  9
$CMLSCALE
 40
1.0
  9
$PROXYGRAPHICS
 70
     1
  9
$MEASUREMENT
 70
     0
  9
$CELWEIGHT
370
    -1
  9
$ENDCAPS
280
     0
  9
$JOINSTYLE
280
     0
  9
$LWDISPLAY
290
     0
  9
$INSUNITS
 70
     0
  9
$HYPERLINKBASE
  1

  9
$STYLESHEET
  1
monochrome.ctb
  9
$XEDIT
290
     1
  9
$CEPSNTYPE
380
     0
  9
$PSTYLEMODE
290
     1
  9
$FINGERPRINTGUID
  2
{56F8B3CC-9D8F-11D3-8C34-00C04F3577A6}
  9
$VERSIONGUID
  2
{302DE8B6-0112-4B82-961D-2BF119C8B6BD}
  9
$EXTNAMES
290
     1
  9
$PSVPSCALE
 40
0.0
  9
$OLESTARTUP
290
     0
  0
ENDSEC
  0
SECTION
  2
CLASSES
  0
CLASS
  1
DICTIONARYVAR
  2
AcDbDictionaryVar
  3
AutoCAD 2000
 90
        0
280
     0
281
     0
  0
CLASS
  1
LWPOLYLINE
  2
AcDbPolyline
  3
AutoCAD 2000
 90
    32768
280
     0
281
     1
  0
CLASS
  1
XRECORD
  2
AcDbXrecord
  3
AutoCAD 2000
 90
    32768
280
     0
281
     0
  0
CLASS
  1
ACDBDICTIONARYWDFLT
  2
AcDbDictionaryWithDefault
  3
AutoCAD 2000
 90
        0
280
     0
281
     0
  0
CLASS
  1
ACDBPLACEHOLDER
  2
AcDbPlaceHolder
  3
AutoCAD 2000
 90
        0
280
     0
281
     0
  0
CLASS
  1
LAYOUT
  2
AcDbLayout
  3
AutoCAD 2000
 90
        0
280
     0
281
     0
  0
CLASS
  1
ACME_DOCUMENT
  2
AcMeDbDoc
  3
AcMeServices
 90
        0
280
     0
281
     0
  0
CLASS
  1
AMGSETTINGSOBJ
  2
AmgSettingsObj
  3
"AcadM|Product Description: AutoCAD Mechanical 2000|Company: Autodesk"
 90
        0
280
     0
281
     0
  0
CLASS
  1
ACMESCOPE
  2
AcMeScope
  3
AcMeServices
 90
        0
280
     0
281
     0
  0
CLASS
  1
ACMECOMMANDHISTORY
  2
AcMeCommandHistory
  3
AcMeServices
 90
        0
280
     0
281
     0
  0
CLASS
  1
ACIMSYSVARMAN
  2
AcImSysVarManager
  3
AcMeServices
 90
        0
280
     0
281
     0
  0
CLASS
  1
ACIMREALSYSVAR
  2
AcImRealSysVar
  3
AcMeServices
 90
        0
280
     0
281
     0
  0
CLASS
  1
ACIMINTSYSVAR
  2
AcImIntSysVar
  3
AcMeServices
 90
        0
280
     0
281
     0
  0
CLASS
  1
ACMEDRAWINGMAN
  2
AcMeDrawingMan
  3
AcMeServices
 90
        0
280
     0
281
     0
  0
CLASS
  1
ACMEVIEW
  2
AcMeView
  3
AcMeServices
 90
        0
280
     0
281
     0
  0
CLASS
  1
ACDBENTITYCACHE
  2
AcMeEntityCache
  3
AcMeServices
 90
        0
280
     0
281
     0
  0
CLASS
  1
GSMANAGER
  2
AcMeGSManager
  3
AcMeServices
 90
        0
280
     0
281
     0
  0
CLASS
  1
AMDTINTERNALREACTOR
  2
AmdtInternalReactor
  3
AcMeServices
 90
        0
280
     0
281
     0
  0
CLASS
  1
ACMESTATEMGR
  2
AcMeStateMgr
  3
AcMeServices
 90
        0
280
     0
281
     0
  0
CLASS
  1
ACGREFMASTER
  2
AcGrefMaster
  3
AcAttribServices
 90
        0
280
     0
281
     0
  0
CLASS
  1
ACME_DATABASE
  2
AcMeDbDatabase
  3
AcMeServices
 90
        0
280
     0
281
     0
  0
CLASS
  1
ACRFINSADJUSTERMGR
  2
AcRfInsAdjusterMgr
  3
AcMeServices
 90
        0
280
     0
281
     0
  0
CLASS
  1
ACGREFMASTER
  2
AcGrefacadMaster
  3
AcGrefServices
 90
        0
280
     0
281
     0
  0
CLASS
  1
AMIMASTER
  2
AmiMaster
  3
AmiServices
 90
        0
280
     0
281
     0
  0
CLASS
  1
ACMDATADICTIONARY
  2
AcmDataDictionary
  3
"AcmSymBB|Product Description: AutoCAD Mechanical 2000|Company: Autodesk"
 90
        0
280
     0
281
     0
  0
CLASS
  1
ACMDATAENTRYBLOCK
  2
AcmDataEntryBlock
  3
"AcmSymBB|Product Description: AutoCAD Mechanical 2000|Company: Autodesk"
 90
        0
280
     0
281
     0
  0
CLASS
  1
ACIMSTRSYSVAR
  2
AcImStrSysVar
  3
AcMeServices
 90
        0
280
     0
281
     0
  0
CLASS
  1
ACMSTANDARDANSI
  2
AcmStandardANSI
  3
"Amdt_StdImp|Product Description: AutoCAD Mechanical 2000|Company: Autodesk"
 90
        0
280
     0
281
     0
  0
CLASS
  1
AMGOBJPROPCFG
  2
AmgObjPropCfg
  3
"AmgLay|Product Description: AutoCAD Mechanical 2000|Company: Autodesk"
 90
        1
280
     0
281
     0
  0
CLASS
  1
ACMSURFSTANDARDANSI
  2
AcmSurfTextStdANSI
  3
"Amdt_StdImp|Product Description: AutoCAD Mechanical 2000|Company: Autodesk"
 90
        0
280
     0
281
     0
  0
CLASS
  1
ACMFCFSTANDARDANSI
  2
AcmFCFStdANSI
  3
"Amdt_StdImp|Product Description: AutoCAD Mechanical 2000|Company: Autodesk"
 90
        0
280
     0
281
     0
  0
CLASS
  1
ACMWELDSTANDARDANSI
  2
AcmWeldingStdANSI
  3
"Amdt_StdImp|Product Description: AutoCAD Mechanical 2000|Company: Autodesk"
 90
        0
280
     0
281
     0
  0
CLASS
  1
ACMIDSTANDARDANSI
  2
AcmIdStdANSI
  3
"Amdt_StdImp|Product Description: AutoCAD Mechanical 2000|Company: Autodesk"
 90
        0
280
     0
281
     0
  0
CLASS
  1
ACMDATUMSTANDARDANSI
  2
AcmDatumStdANSI
  3
"Amdt_StdImp|Product Description: AutoCAD Mechanical 2000|Company: Autodesk"
 90
        0
280
     0
281
     0
  0
CLASS
  1
ACMBOMSTANDARDANSI
  2
AcmBOMStdANSI
  3
"Amdt_StdImp|Product Description: AutoCAD Mechanical 2000|Company: Autodesk"
 90
        0
280
     0
281
     0
  0
CLASS
  1
ACMDETAILSTANDARDANSI
  2
AmdtDetailSymStdANSI
  3
"Amdt_StdImp|Product Description: AutoCAD Mechanical 2000|Company: Autodesk"
 90
        0
280
     0
281
     0
  0
CLASS
  1
ACMSECTIONSTANDARDANSI
  2
AmdtSectionSymStdANSI
  3
"Amdt_StdImp|Product Description: AutoCAD Mechanical 2000|Company: Autodesk"
 90
        0
280
     0
281
     0
  0
CLASS
  1
ACMCENTERLINESTANDARDANSI
  2
AmdtCenterLineStdANSI
  3
"Amdt_StdImp|Product Description: AutoCAD Mechanical 2000|Company: Autodesk"
 90
        0
280
     0
281
     0
  0
CLASS
  1
"AcAmgLayStd"
  2
AcAmgLayStd
  3
"AcAmgLayStd|Product Description: AutoCAD Mechanical 2000|Company: Autodesk"
 90
        0
280
     0
281
     0
  0
CLASS
  1
"AcAmgDimStd"
  2
AcAmgDimStd
  3
"AcAmgDimStd|Product Description: AutoCAD Mechanical 2000|Company: Autodesk"
 90
        0
280
     0
281
     0
  0
CLASS
  1
AcAmgTitleStd
  2
AcAmgTitleStd
  3
"TITLEAPP"
 90
        0
280
     0
281
     0
  0
CLASS
  1
ACAMGFILTERDAT
  2
AcAmgFilterDat
  3
"AcadM|Product Description: AutoCAD Mechanical 2000|Company: Autodesk"
 90
        0
280
     0
281
     0
  0
CLASS
  1
LAYER_INDEX
  2
AcDbLayerIndex
  3
AutoCAD 2000
 90
        0
280
     0
281
     0
  0
CLASS
  1
IDBUFFER
  2
AcDbIdBuffer
  3
AutoCAD 2000
 90
        0
280
     0
281
     0
  0
ENDSEC
  0
SECTION
  2
TABLES
  0
TABLE
  2
VPORT
  5
8
330
0
100
AcDbSymbolTable
 70
     3
  0
VPORT
  5
C339
330
8
100
AcDbSymbolTableRecord
100
AcDbViewportTableRecord
  2
*Active
 70
     0
 10
0.0
 20
0.0
 11
1.0
 21
1.0
 12
89.07286947687337
 22
55.27494898072527
 13
0.0
 23
0.0
 14
1.0
 24
1.0
 15
0.0
 25
0.0
 16
0.0
 26
0.0
 36
1.0
 17
0.0
 27
0.0
 37
0.0
 40
11.10930110711463
 41
1.607079646017698
 42
50.0
 43
0.0
 44
0.0
 50
0.0
 51
0.0
 71
     0
 72
 15000
 73
     1
 74
     0
 75
     0
 76
     0
 77
     0
 78
     0
281
     0
 65
     1
110
0.0
120
0.0
130
0.0
111
1.0
121
0.0
131
0.0
112
0.0
122
1.0
132
0.0
 79
     0
146
0.0
  0
ENDTAB
  0
TABLE
  2
LTYPE
  5
5
330
0
100
AcDbSymbolTable
 70
    18
  0
LTYPE
  5
11
330
5
100
AcDbSymbolTableRecord
100
AcDbLinetypeTableRecord
  2
BYBLOCK
 70
     0
  3

 72
    65
 73
     0
 40
0.0
  0
LTYPE
  5
12
330
5
100
AcDbSymbolTableRecord
100
AcDbLinetypeTableRecord
  2
BYLAYER
 70
     0
  3

 72
    65
 73
     0
 40
0.0
  0
LTYPE
  5
13
330
5
100
AcDbSymbolTableRecord
100
AcDbLinetypeTableRecord
  2
CONTINUOUS
 70
     0
  3
Solid line
 72
    65
 73
     0
 40
0.0
  0
LTYPE
  5
A970
330
5
100
AcDbSymbolTableRecord
100
AcDbLinetypeTableRecord
  2
HIDDEN
 70
     0
  3
__ __ __ __ __ __ __ __ __ __ __ __ __ __ __ __
 72
    65
 73
     2
 40
0.375
 49
0.25
 74
     0
 49
-0.125
 74
     0
  0
LTYPE
  5
AE77
330
5
100
AcDbSymbolTableRecord
100
AcDbLinetypeTableRecord
  2
L5
 70
     0
  3
L5
 72
    65
 73
     0
 40
0.0
  0
LTYPE
  5
AE78
330
5
100
AcDbSymbolTableRecord
100
AcDbLinetypeTableRecord
  2
L0
 70
     0
  3
L0
 72
    65
 73
     0
 40
0.0
  0
LTYPE
  5
BB21
330
5
100
AcDbSymbolTableRecord
100
AcDbLinetypeTableRecord
  2
CENTER2
 70
     0
  3
Center (.5x) ___ _ ___ _ ___ _ ___ _ ___ _ ___
 72
    65
 73
     4
 40
1.125
 49
0.75
 74
     0
 49
-0.125
 74
     0
 49
0.125
 74
     0
 49
-0.125
 74
     0
  0
LTYPE
  5
C2DE
330
5
100
AcDbSymbolTableRecord
100
AcDbLinetypeTableRecord
  2
AM_ISO02W050
 70
     0
  3
__ __ __ __ __ __ __ __ __ __ __ __ __ __ __
 72
    65
 73
     2
 40
7.5
 49
6.0
 74
     0
 49
-1.5
 74
     0
  0
LTYPE
  5
C2DF
330
5
100
AcDbSymbolTableRecord
100
AcDbLinetypeTableRecord
  2
AM_ISO08W050
 70
     0
  3
____ . ____ . ____ . ____ . ____ . ____ . ____
 72
    65
 73
     4
 40
18.0
 49
12.0
 74
     0
 49
-1.5
 74
     0
 49
3.0
 74
     0
 49
-1.5
 74
     0
  0
LTYPE
  5
C2E0
330
5
100
AcDbSymbolTableRecord
100
AcDbLinetypeTableRecord
  2
AM_ISO09W050
 70
     0
  3
_____ . . _____ . . _____ . . ____ .. ____
 72
    65
 73
     6
 40
22.5
 49
12.0
 74
     0
 49
-1.5
 74
     0
 49
3.0
 74
     0
 49
-1.5
 74
     0
 49
3.0
 74
     0
 49
-1.5
 74
     0
  0
LTYPE
  5
C2E1
330
5
100
AcDbSymbolTableRecord
100
AcDbLinetypeTableRecord
  2
Amconstr
 70
     0
  3
_______________________
 72
    65
 73
     2
 40
9999.0
 49
9999.0
 74
     0
 49
0.0
 74
     0
  0
LTYPE
  5
C2E2
330
5
100
AcDbSymbolTableRecord
100
AcDbLinetypeTableRecord
  2
AM_ISO08W050x2
 70
     0
  3
__ . __ . __ . __ . __ . __
 72
    65
 73
     4
 40
9.0
 49
6.0
 74
     0
 49
-0.75
 74
     0
 49
1.5
 74
     0
 49
-0.75
 74
     0
  0
LTYPE
  5
C2E3
330
5
100
AcDbSymbolTableRecord
100
AcDbLinetypeTableRecord
  2
AM_ISO02W050x2
 70
     0
  3
 _ _ _ _ _ _ _ _ _ _ _ _
 72
    65
 73
     2
 40
3.75
 49
3.0
 74
     0
 49
-0.75
 74
     0
  0
LTYPE
  5
C2E6
330
5
100
AcDbSymbolTableRecord
100
AcDbLinetypeTableRecord
  2
Amzigzag
 70
     0
  3
/\/-/\/-/\/-/\/-/\/-/\/
 72
    65
 73
     2
 40
11.00009999999999
 49
0.0001
 74
     4
 75
   135
340
C2E5
 46
0.04
 50
0.0
 44
0.0
 45
0.0
 49
-11.0
 74
     0
  0
LTYPE
  5
C2E7
330
5
100
AcDbSymbolTableRecord
100
AcDbLinetypeTableRecord
  2
CENTER
 70
     0
  3
Center ____ _ ____ _ ____ _ ____ _ ____ _ ____
 72
    65
 73
     4
 40
2.0
 49
1.25
 74
     0
 49
-0.25
 74
     0
 49
0.25
 74
     0
 49
-0.25
 74
     0
  0
LTYPE
  5
C2E8
330
5
100
AcDbSymbolTableRecord
100
AcDbLinetypeTableRecord
  2
PHANTOM2
 70
     0
  3
Phantom (.5x) ___ _ _ ___ _ _ ___ _ _ ___ _ _
 72
    65
 73
     6
 40
1.25
 49
0.625
 74
     0
 49
-0.125
 74
     0
 49
0.125
 74
     0
 49
-0.125
 74
     0
 49
0.125
 74
     0
 49
-0.125
 74
     0
  0
LTYPE
  5
C2E9
330
5
100
AcDbSymbolTableRecord
100
AcDbLinetypeTableRecord
  2
HIDDEN2
 70
     0
  3
Hidden (.5x) _ _ _ _ _ _ _ _ _ _ _ _ _ _ _ _ _
 72
    65
 73
     2
 40
0.1875
 49
0.125
 74
     0
 49
-0.0625
 74
     0
  0
LTYPE
  5
C2EA
330
5
100
AcDbSymbolTableRecord
100
AcDbLinetypeTableRecord
  2
Amzigzag2
 70
     0
  3
/\/-/\/-/\/-/\/-/\/-/\/
 72
    65
 73
     2
 40
0.4401
 49
0.0001
 74
     4
 75
   135
340
C2E5
 46
0.0016
 50
0.0
 44
0.0
 45
0.0
 49
-0.4400000000000001
 74
     0
  0
LTYPE
  5
C2F6
330
5
100
AcDbSymbolTableRecord
100
AcDbLinetypeTableRecord
  2
ACANSTGB
 70
     0
  3
__ . . __ . .
 72
    65
 73
     6
 40
0.35433070866
 49
0.15748031496
 74
     0
 49
-0.03937007874
 74
     0
 49
0.03937007874
 74
     0
 49
-0.03937007874
 74
     0
 49
0.03937007874
 74
     0
 49
-0.03937007874
 74
     0
  0
LTYPE
  5
C2F7
330
5
100
AcDbSymbolTableRecord
100
AcDbLinetypeTableRecord
  2
ACANSTGL
 70
     0
  3
_ _ _ _ _
 72
    65
 73
     2
 40
0.11811023622
 49
0.07874015748
 74
     0
 49
-0.03937007874
 74
     0
  0
ENDTAB
  0
TABLE
  2
LAYER
  5
2
330
0
100
AcDbSymbolTable
 70
     5
  0
LAYER
  5
E
330
2
100
AcDbSymbolTableRecord
100
AcDbLayerTableRecord
  2
0
 70
     0
 62
     7
  6
CONTINUOUS
370
    -3
390
15DE
  0
LAYER
  5
1A4F
330
2
100
AcDbSymbolTableRecord
100
AcDbLayerTableRecord
  2
ASHADE
 70
     0
 62
     7
  6
CONTINUOUS
370
    -3
390
15DE
  0
LAYER
  5
B740
330
2
100
AcDbSymbolTableRecord
100
AcDbLayerTableRecord
  2
BORDER
 70
     0
 62
    15
  6
CONTINUOUS
370
    -3
390
15DE
  0
LAYER
  5
B741
330
2
100
AcDbSymbolTableRecord
100
AcDbLayerTableRecord
  2
Title Block
 70
     0
 62
     2
  6
CONTINUOUS
370
    -3
390
15DE
  0
LAYER
  5
BB22
330
2
100
AcDbSymbolTableRecord
100
AcDbLayerTableRecord
  2
Defpoints
 70
     0
 62
     7
  6
CONTINUOUS
290
     0
370
    -3
390
15DE
  0
ENDTAB
  0
TABLE
  2
STYLE
  5
3
330
0
100
AcDbSymbolTable
 70
     7
  0
STYLE
  5
F
330
3
100
AcDbSymbolTableRecord
100
AcDbTextStyleTableRecord
  2
STANDARD
 70
     0
 40
0.0
 41
1.0
 50
0.0
 71
     0
 42
0.2
  3
txt
  4

  0
STYLE
  5
21
330
3
100
AcDbSymbolTableRecord
100
AcDbTextStyleTableRecord
  2
SIMPLEX
 70
     0
 40
0.0938
 41
1.0
 50
0.0
 71
     0
 42
0.0938
  3
C:\ACADWIN\FONTS\SIMPLEX.SHX
  4

  0
STYLE
  5
22
330
3
100
AcDbSymbolTableRecord
100
AcDbTextStyleTableRecord
  2
ROMANS
 70
     0
 40
0.095
 41
1.0
 50
0.0
 71
     0
 42
0.095
  3
romans
  4

  0
STYLE
  5
B742
330
3
100
AcDbSymbolTableRecord
100
AcDbTextStyleTableRecord
  2
AE
 70
     0
 40
0.0
 41
1.0
 50
0.0
 71
     0
 42
0.16408998
  3
MIGRATOR
  4

  0
STYLE
  5
C2E5
330
3
100
AcDbSymbolTableRecord
100
AcDbTextStyleTableRecord
  2

 70
     1
 40
0.0
 41
1.0
 50
0.0
 71
     0
 42
0.0938
  3
ltypeshp.shx
  4

  0
STYLE
  5
C2EB
330
3
100
AcDbSymbolTableRecord
100
AcDbTextStyleTableRecord
  2
ACANSTS
 70
     0
 40
1.0
 41
1.0
 50
0.0
 71
     0
 42
0.0938
  3
romans.shx
  4

  0
STYLE
  5
C2F5
330
3
100
AcDbSymbolTableRecord
100
AcDbTextStyleTableRecord
  2
ACANSGDT
 70
     0
 40
0.0
 41
1.0
 50
0.0
 71
     0
 42
0.0938
  3
amgdtans.shx
  4

  0
ENDTAB
  0
TABLE
  2
VIEW
  5
6
330
0
100
AcDbSymbolTable
 70
     0
  0
ENDTAB
  0
TABLE
  2
UCS
  5
7
330
0
100
AcDbSymbolTable
 70
     0
  0
ENDTAB
  0
TABLE
  2
APPID
  5
9
330
0
100
AcDbSymbolTable
 70
    13
  0
APPID
  5
10
330
9
100
AcDbSymbolTableRecord
100
AcDbRegAppTableRecord
  2
ACAD
 70
     0
  0
APPID
  5
145B
330
9
100
AcDbSymbolTableRecord
100
AcDbRegAppTableRecord
  2
ABNSLEADERTOOLS
 70
     0
  0
APPID
  5
1A54
330
9
100
AcDbSymbolTableRecord
100
AcDbRegAppTableRecord
  2
AVE_RENDER
 70
     0
  0
APPID
  5
1A55
330
9
100
AcDbSymbolTableRecord
100
AcDbRegAppTableRecord
  2
AVE_ENTITY_MATERIAL
 70
     0
  0
APPID
  5
1A56
330
9
100
AcDbSymbolTableRecord
100
AcDbRegAppTableRecord
  2
AVE_FINISH
 70
     0
  0
APPID
  5
1A57
330
9
100
AcDbSymbolTableRecord
100
AcDbRegAppTableRecord
  2
AVE_MATERIAL
 70
     0
  0
APPID
  5
1A58
330
9
100
AcDbSymbolTableRecord
100
AcDbRegAppTableRecord
  2
AVE_GLOBAL
 70
     0
  0
APPID
  5
ADF8
330
9
100
AcDbSymbolTableRecord
100
AcDbRegAppTableRecord
  2
DCO15
 70
     0
  0
APPID
  5
B743
330
9
100
AcDbSymbolTableRecord
100
AcDbRegAppTableRecord
  2
GENIUS_GENBLLY_14
 70
     0
  0
APPID
  5
B744
330
9
100
AcDbSymbolTableRecord
100
AcDbRegAppTableRecord
  2
GENIUS_GENTRA_14
 70
     0
  0
APPID
  5
C2C0
330
9
100
AcDbSymbolTableRecord
100
AcDbRegAppTableRecord
  2
MCAD_NO_VIS
 70
     0
  0
APPID
  5
C2C1
330
9
100
AcDbSymbolTableRecord
100
AcDbRegAppTableRecord
  2
ACAD_TEMP_GRAPHIC
 70
     0
  0
APPID
  5
C2D2
330
9
100
AcDbSymbolTableRecord
100
AcDbRegAppTableRecord
  2
ACATTRIBSERVICES
 70
     0
  0
ENDTAB
  0
TABLE
  2
DIMSTYLE
  5
A
330
0
100
AcDbSymbolTable
 70
     7
100
AcDbDimStyleTable
 71
     1
340
141F
  0
DIMSTYLE
105
141F
102
{ACAD_REACTORS
330
BE5C
330
BECB
330
BF15
330
BF62
102
}
330
A
100
AcDbSymbolTableRecord
100
AcDbDimStyleTableRecord
  2
STANDARD
 70
     0
340
F
  0
DIMSTYLE
105
C2FA
330
A
100
AcDbSymbolTableRecord
100
AcDbDimStyleTableRecord
  2
AM_ANSI
 70
     0
  4
mm
 41
0.1
 42
0.05
 43
0.5
 44
0.1
 47
0.1
 48
0.1
 78
     7
 79
     2
140
0.12
141
0.0
146
0.71
147
0.06
176
   256
177
   256
178
     2
274
     4
284
     7
340
F
371
    -1
372
    -1
  0
DIMSTYLE
105
C2FB
330
A
100
AcDbSymbolTableRecord
100
AcDbDimStyleTableRecord
  2
AM_ANSI$3
 70
     0
  4
mm
 41
0.1
 42
0.05
 43
0.5
 44
0.1
 47
0.1
 48
0.1
 78
     7
 79
     2
140
0.12
141
0.0
146
0.71
147
0.06
176
   256
177
   256
178
     2
274
     4
284
     7
288
     1
289
     0
340
F
371
    -1
372
    -1
  0
DIMSTYLE
105
C2FC
330
A
100
AcDbSymbolTableRecord
100
AcDbDimStyleTableRecord
  2
AM_ANSI$4
 70
     0
  4
mm
 41
0.1
 42
0.05
 43
0.5
 44
0.1
 47
0.1
 48
0.1
 78
     7
 79
     2
140
0.12
141
0.0
146
0.71
147
0.06
176
   256
177
   256
178
     2
274
     4
284
     7
288
     1
289
     0
340
F
371
    -1
372
    -1
  0
DIMSTYLE
105
C2FD
330
A
100
AcDbSymbolTableRecord
100
AcDbDimStyleTableRecord
  2
AM_ANSI$7
 70
     0
  4
mm
 41
0.1
 42
0.05
 43
0.5
 44
0.1
 47
0.1
 48
0.1
 78
     7
 79
     2
140
0.24
141
0.0
146
0.71
147
0.06
176
   256
177
   256
178
     2
274
     4
284
     7
340
F
371
    -1
372
    -1
  0
DIMSTYLE
105
C2FE
330
A
100
AcDbSymbolTableRecord
100
AcDbDimStyleTableRecord
  2
AM_ANSI$SF
 70
     0
  4
mm
 41
0.1
 42
0.05
 43
0.5
 44
0.1
 47
0.1
 48
0.1
 75
     1
 76
     1
 78
     7
 79
     2
140
0.12
141
0.0
146
0.71
147
0.06
176
   256
177
   256
178
     2
274
     4
284
     7
340
F
371
    -1
372
    -1
  0
DIMSTYLE
105
C303
330
A
100
AcDbSymbolTableRecord
100
AcDbDimStyleTableRecord
  2
AM_ANSI$SH
 70
     0
  4
mm
 41
0.1
 42
0.05
 43
0.5
 44
0.1
 47
0.1
 48
0.1
 75
     1
 76
     1
 78
     7
 79
     2
140
0.12
141
0.0
146
0.71
147
0.06
173
     1
176
   256
177
   256
178
     2
274
     4
284
     7
340
F
343
C2FF
371
    -1
372
    -1
  0
ENDTAB
  0
TABLE
  2
BLOCK_RECORD
  5
1
330
0
100
AcDbSymbolTable
 70
     8
  0
BLOCK_RECORD
  5
17
102
{ACAD_XDICTIONARY
360
C309
102
}
330
1
100
AcDbSymbolTableRecord
100
AcDbBlockTableRecord
  2
*MODEL_SPACE
340
15E1
  0
BLOCK_RECORD
  5
14
330
1
100
AcDbSymbolTableRecord
100
AcDbBlockTableRecord
  2
*PAPER_SPACE
340
15E2
  0
BLOCK_RECORD
  5
1A48
330
1
100
AcDbSymbolTableRecord
100
AcDbBlockTableRecord
  2
AVE_RENDER
340
0
102
{BLKREFS
331
60EB
331
60EC
331
60ED
331
60EE
331
60EF
331
60F0
331
60F1
331
60F2
331
60F6
331
60F7
331
60F8
331
60F9
331
60FA
331
60FB
331
60FC
331
60FD
331
6698
331
6699
331
669A
331
669B
331
669C
331
669D
331
669E
331
669F
331
66A3
331
66A4
331
66A5
331
66A6
331
66A7
331
66A8
331
66A9
331
66AA
331
71DF
331
71E0
331
71E1
331
71E2
331
71E3
331
71E4
331
71E5
331
71E6
331
71EA
331
71EB
331
71EC
331
71ED
331
71EE
331
71EF
331
71F0
331
71F1
331
778C
331
778D
331
778E
331
778F
331
7790
331
7791
331
7792
331
7793
331
7797
331
7798
331
7799
331
779A
331
779B
331
779C
331
779D
331
779E
331
82D1
331
82D2
331
82D3
331
82D4
331
82D5
331
82D6
331
82D7
331
82D8
331
82DC
331
82DD
331
82DE
331
82DF
331
82E0
331
82E1
331
82E2
331
82E3
331
887E
331
887F
331
8880
331
8881
331
8882
331
8883
331
8884
331
8885
331
8889
331
888A
331
888B
331
888C
331
888D
331
888E
331
888F
331
8890
102
}
  0
BLOCK_RECORD
  5
1A4B
330
1
100
AcDbSymbolTableRecord
100
AcDbBlockTableRecord
  2
AVE_GLOBAL
340
0
102
{BLKREFS
331
60F3
331
60FE
331
66A0
331
66AB
331
71E7
331
71F2
331
7794
331
779F
331
82D9
331
82E4
331
8886
331
8891
102
}
  0
BLOCK_RECORD
  5
B6B4
330
1
100
AcDbSymbolTableRecord
100
AcDbBlockTableRecord
  2
ASSEMBLY_B
340
0
102
{BLKREFS
331
BACC
102
}
  0
BLOCK_RECORD
  5
C18D
330
1
100
AcDbSymbolTableRecord
100
AcDbBlockTableRecord
  2
*D3
340
0
  0
BLOCK_RECORD
  5
C19A
330
1
100
AcDbSymbolTableRecord
100
AcDbBlockTableRecord
  2
*D4
340
0
  0
BLOCK_RECORD
  5
C1A7
330
1
100
AcDbSymbolTableRecord
100
AcDbBlockTableRecord
  2
*D5
340
0
  0
BLOCK_RECORD
  5
C1B4
330
1
100
AcDbSymbolTableRecord
100
AcDbBlockTableRecord
  2
*D6
340
0
  0
BLOCK_RECORD
  5
C2FF
330
1
100
AcDbSymbolTableRecord
100
AcDbBlockTableRecord
  2
GENAXEH
340
0
  0
ENDTAB
  0
ENDSEC
  0
SECTION
  2
BLOCKS
  0
BLOCK
  5
2C
330
17
100
AcDbEntity
  8
0
100
AcDbBlockBegin
  2
*MODEL_SPACE
 70
     0
 10
0.0
 20
0.0
 30
0.0
  3
*MODEL_SPACE
  1

  0
ENDBLK
  5
2D
330
17
100
AcDbEntity
  8
0
100
AcDbBlockEnd
  0
BLOCK
  5
2A
330
14
100
AcDbEntity
 67
     1
  8
0
100
AcDbBlockBegin
  2
*PAPER_SPACE
 70
     0
 10
0.0
 20
0.0
 30
0.0
  3
*PAPER_SPACE
  1

  0
ENDBLK
  5
2B
330
14
100
AcDbEntity
 67
     1
  8
0
100
AcDbBlockEnd
  0
BLOCK
  5
1A49
330
1A48
100
AcDbEntity
  8
ASHADE
100
AcDbBlockBegin
  2
AVE_RENDER
 70
     0
 10
0.0
 20
0.0
 30
0.0
  3
AVE_RENDER
  1
AVE_RENDER
  0
ENDBLK
  5
1A4A
330
1A48
100
AcDbEntity
  8
0
100
AcDbBlockEnd
  0
BLOCK
  5
1A4C
330
1A4B
100
AcDbEntity
  8
ASHADE
100
AcDbBlockBegin
  2
AVE_GLOBAL
 70
     0
 10
0.0
 20
0.0
 30
0.0
  3
AVE_GLOBAL
  1
AVE_GLOBAL
  0
ENDBLK
  5
1A4D
330
1A4B
100
AcDbEntity
  8
0
100
AcDbBlockEnd
  0
BLOCK
  5
B73E
330
B6B4
100
AcDbEntity
  8
0
100
AcDbBlockBegin
  2
ASSEMBLY_B
 70
     2
 10
0.0
 20
0.0
 30
0.0
  3
ASSEMBLY_B
  1

  0
LINE
  5
B6B5
330
B6B4
100
AcDbEntity
  8
BORDER
 62
    15
100
AcDbLine
 10
16.6
 20
0.3999656890232617
 30
0.0
 11
16.6
 21
10.63996597902324
 31
0.0
  0
LINE
  5
B6B6
330
B6B4
100
AcDbEntity
  8
BORDER
 62
    15
100
AcDbLine
 10
0.400011260000019
 20
0.3999656890232617
 30
0.0
 11
0.400011260000019
 21
10.63996597902324
 31
0.0
  0
LINE
  5
B6B7
330
B6B4
100
AcDbEntity
  8
BORDER
 62
    15
100
AcDbLine
 10
0.400011260000019
 20
0.3999656890232617
 30
0.0
 11
16.6
 21
0.3999656890232617
 31
0.0
  0
LINE
  5
B6B8
330
B6B4
100
AcDbEntity
  8
BORDER
 62
    15
100
AcDbLine
 10
0.0000022600000076
 20
5.519965834023253
 30
0.0
 11
0.400011260000019
 21
5.519965834023253
 31
0.0
  0
TEXT
  5
B6B9
330
B6B4
100
AcDbEntity
  8
Title Block
  6
Continuous
 62
     2
100
AcDbText
 10
12.30669482722675
 20
2.205546537751305
 30
0.0
 40
0.1010611419
  1
DO NOT SCALE
 50
0.09999996
  7
AE
100
AcDbText
  0
TEXT
  5
B6BA
330
B6B4
100
AcDbEntity
  8
Title Block
  6
Continuous
 62
     2
100
AcDbText
 10
12.30669482722675
 20
1.996163262564665
 30
0.0
 40
0.1010611419
  1
  DRAWING
 50
0.09999996
  7
AE
100
AcDbText
  0
ATTDEF
  5
B6BB
330
B6B4
100
AcDbEntity
  8
Title Block
  6
Continuous
 62
     2
100
AcDbText
 10
10.79999999999999
 20
0.6000000000000001
 30
0.0
 40
0.126326427375
  1

 41
0.8
100
AcDbAttributeDefinition
  3
Drawing Name
  2
GEN-TITLE-DES1{15.54}
 70
     0
1001
GENIUS_GENBLLY_14
1000
BOR5
  0
LINE
  5
B6BC
330
B6B4
100
AcDbEntity
  8
Title Block
  6
Continuous
 62
     2
100
AcDbLine
 10
7.849999999999999
 20
2.4
 30
0.0
 11
16.6
 21
2.4
 31
0.0
  0
LINE
  5
B6BD
330
B6B4
100
AcDbEntity
  8
Title Block
  6
Continuous
 62
     2
100
AcDbLine
 10
12.17518995515351
 20
1.7
 30
0.0
 11
16.6
 21
1.7
 31
0.0
  0
LINE
  5
B6BE
330
B6B4
100
AcDbEntity
  8
Title Block
  6
Continuous
 62
     2
100
AcDbLine
 10
12.17518995515351
 20
1.45
 30
0.0
 11
16.6
 21
1.45
 31
0.0
  0
LINE
  5
B6BF
330
B6B4
100
AcDbEntity
  8
Title Block
  6
Continuous
 62
     2
100
AcDbLine
 10
12.17518995515351
 20
1.199999999999999
 30
0.0
 11
16.6
 21
1.199999999999999
 31
0.0
  0
LINE
  5
B6C0
330
B6B4
100
AcDbEntity
  8
Title Block
  6
Continuous
 62
     2
100
AcDbLine
 10
10.69965639031853
 20
0.95
 30
0.0
 11
16.6
 21
0.95
 31
0.0
  0
ATTDEF
  5
B6C1
330
B6B4
100
AcDbEntity
  8
Title Block
  6
Continuous
 62
     2
100
AcDbText
 10
12.52499999999999
 20
1.024999999999999
 30
0.0
 40
0.1010611419
  1

100
AcDbAttributeDefinition
  3
Approved by
  2
GEN-TITLE-APPM{5}
 70
     0
1001
GENIUS_GENBLLY_14
1000
BOR2
1001
GENIUS_GENTRA_14
1002
{
1070
     3
1000
GENTRAPR,%s,(GENMSG gentitus 73)
1000
Approved by
1000
gb
1070
     0
1002
}
  0
ATTDEF
  5
B6C2
330
B6B4
100
AcDbEntity
  8
Title Block
  6
Continuous
 62
     2
100
AcDbText
 10
12.52499999999999
 20
1.274999999999999
 30
0.0
 40
0.1010611419
  1

100
AcDbAttributeDefinition
  3
Check by
  2
GEN-TITLE-CHKM{5}
 70
     0
1001
GENIUS_GENBLLY_14
1000
BOR2
  0
ATTDEF
  5
B6C3
330
B6B4
100
AcDbEntity
  8
Title Block
  6
Continuous
 62
     2
100
AcDbText
 10
12.52499999999999
 20
1.524999999999999
 30
0.0
 40
0.1010611419
  1

100
AcDbAttributeDefinition
  3
Drawn by
  2
GEN-TITLE-NAME{5}
 70
     0
1001
GENIUS_GENBLLY_14
1000
BOR2
  0
LINE
  5
B6C4
330
B6B4
100
AcDbEntity
  8
Title Block
  6
Continuous
 62
     2
100
AcDbLine
 10
7.849999999999999
 20
0.9
 30
0.0
 11
10.69965639031853
 21
0.9
 31
0.0
  0
LINE
  5
B6C5
330
B6B4
100
AcDbEntity
  8
Title Block
  6
Continuous
 62
     2
100
AcDbLine
 10
7.849999999999999
 20
1.149999999999999
 30
0.0
 11
10.69965639031853
 21
1.149999999999999
 31
0.0
  0
LINE
  5
B6C6
330
B6B4
100
AcDbEntity
  8
Title Block
  6
Continuous
 62
     2
100
AcDbLine
 10
7.849999999999999
 20
2.149999999999999
 30
0.0
 11
10.69965639031853
 21
2.149999999999999
 31
0.0
  0
LINE
  5
B6C7
330
B6B4
100
AcDbEntity
  8
Title Block
  6
Continuous
 62
     2
100
AcDbLine
 10
7.849999999999999
 20
1.9
 30
0.0
 11
10.69965639031853
 21
1.9
 31
0.0
  0
LINE
  5
B6C8
330
B6B4
100
AcDbEntity
  8
Title Block
  6
Continuous
 62
     2
100
AcDbLine
 10
7.849999999999999
 20
1.649999999999999
 30
0.0
 11
10.69965639031853
 21
1.649999999999999
 31
0.0
  0
LINE
  5
B6C9
330
B6B4
100
AcDbEntity
  8
Title Block
  6
Continuous
 62
     2
100
AcDbLine
 10
7.849999999999999
 20
1.399999999999999
 30
0.0
 11
10.69965639031853
 21
1.399999999999999
 31
0.0
  0
LINE
  5
B6CA
330
B6B4
100
AcDbEntity
  8
Title Block
  6
Continuous
 62
     2
100
AcDbLine
 10
7.849999999999999
 20
0.65
 30
0.0
 11
10.69965639031853
 21
0.65
 31
0.0
  0
TEXT
  5
B6CB
330
B6B4
100
AcDbEntity
  8
Title Block
  6
Continuous
 62
     2
100
AcDbText
 10
8.501374022347393
 20
0.7409580908741999
 30
0.0
 40
0.075937067150492
  1
DATE
 50
0.09999996
  7
AE
100
AcDbText
  0
LINE
  5
B6CC
330
B6B4
100
AcDbEntity
  8
BORDER
 62
    15
100
AcDbLine
 10
8.50000126000001
 20
0.2
 30
0.0
 11
8.50000126000001
 21
0.3999656890232617
 31
0.0
  0
TEXT
  5
B6CD
330
B6B4
100
AcDbEntity
  8
BORDER
  6
Continuous
 62
    15
100
AcDbText
 10
8.471503396695657
 20
0.0599741912456094
 30
0.0
 40
0.0799862356161777
  1
0
 50
0.09999996
  7
AE
100
AcDbText
  0
LINE
  5
B6CE
330
B6B4
100
AcDbEntity
  8
BORDER
  6
Continuous
 62
    15
100
AcDbLine
 10
8.57998715545812
 20
0.3399759973137096
 30
0.0
 11
8.57998715545812
 21
0.3999656890232617
 31
0.0
  0
LINE
  5
B6CF
330
B6B4
100
AcDbEntity
  8
BORDER
  6
Continuous
 62
    15
100
AcDbLine
 10
8.559991091469045
 20
0.2999828395124904
 30
0.0
 11
8.559991091469045
 21
0.3999656890232617
 31
0.0
  0
LINE
  5
B6D0
330
B6B4
100
AcDbEntity
  8
BORDER
  6
Continuous
 62
    15
100
AcDbLine
 10
8.539994027651742
 20
0.2999828395124904
 30
0.0
 11
8.539994027651742
 21
0.3999656890232617
 31
0.0
  0
LINE
  5
B6D1
330
B6B4
100
AcDbEntity
  8
BORDER
  6
Continuous
 62
    15
100
AcDbLine
 10
8.519997063817303
 20
0.3399759973137096
 30
0.0
 11
8.519997063817303
 21
0.3999656890232617
 31
0.0
  0
LINE
  5
B6D2
330
B6B4
100
AcDbEntity
  8
BORDER
  6
Continuous
 62
    15
100
AcDbLine
 10
8.599983219447194
 20
0.2599896917095521
 30
0.0
 11
8.599983219447194
 21
0.3999656890232617
 31
0.0
  0
LINE
  5
B6D3
330
B6B4
100
AcDbEntity
  8
Title Block
  6
Continuous
 62
     2
100
AcDbLine
 10
8.199999999999999
 20
0.65
 30
0.0
 11
8.199999999999999
 21
2.4
 31
0.0
  0
LINE
  5
B6D4
330
B6B4
100
AcDbEntity
  8
Title Block
  6
Continuous
 62
     2
100
AcDbLine
 10
7.849999999999999
 20
0.3999656890232617
 30
0.0
 11
7.849999999999999
 21
2.4
 31
0.0
  0
TEXT
  5
B6D5
330
B6B4
100
AcDbEntity
  8
Title Block
  6
Continuous
 62
     2
100
AcDbText
 10
7.938242132245035
 20
0.7403498140978244
 30
0.0
 40
0.0771520776612738
  1
NO.
 50
0.09999996
  7
AE
100
AcDbText
  0
LINE
  5
B6D6
330
B6B4
100
AcDbEntity
  8
BORDER
  6
Continuous
 62
    15
100
AcDbLine
 10
9.499828195159265
 20
0.2
 30
0.0
 11
9.499828195159265
 21
0.3999656890232617
 31
0.0
  0
TEXT
  5
B6D7
330
B6B4
100
AcDbEntity
  8
BORDER
  6
Continuous
 62
    15
100
AcDbText
 10
9.271369052290525
 20
0.1199638829551611
 30
0.0
 40
0.0799862356161777
  1
8
 50
0.09999996
  7
AE
100
AcDbText
  0
TEXT
  5
B6D8
330
B6B4
100
AcDbEntity
  8
BORDER
  6
Continuous
 62
    15
100
AcDbText
 10
10.0712336080743
 20
0.1199638829551611
 30
0.0
 40
0.0799862356161777
  1
6
 50
0.09999996
  7
AE
100
AcDbText
  0
TEXT
  5
B6D9
330
B6B4
100
AcDbEntity
  8
BORDER
  6
Continuous
 62
    15
100
AcDbText
 10
9.671301830096499
 20
0.1199638829551611
 30
0.0
 40
0.0799862356161777
  1
2
 50
0.09999996
  7
AE
100
AcDbText
  0
TEXT
  5
B6DA
330
B6B4
100
AcDbEntity
  8
BORDER
  6
Continuous
 62
    15
100
AcDbText
 10
9.471331591854921
 20
0.0599741912456094
 30
0.0
 40
0.0799862356161777
  1
1
 50
0.09999996
  7
AE
100
AcDbText
  0
TEXT
  5
B6DB
330
B6B4
100
AcDbEntity
  8
BORDER
  6
Continuous
 62
    15
100
AcDbText
 10
9.871267269162689
 20
0.1199638829551611
 30
0.0
 40
0.0799862356161777
  1
4
 50
0.09999996
  7
AE
100
AcDbText
  0
TEXT
  5
B6DC
330
B6B4
100
AcDbEntity
  8
BORDER
  6
Continuous
 62
    15
100
AcDbText
 10
10.27120004696869
 20
0.1199638829551611
 30
0.0
 40
0.0799862356161777
  1
8
 50
0.09999996
  7
AE
100
AcDbText
  0
LINE
  5
B6DD
330
B6B4
100
AcDbEntity
  8
BORDER
  6
Continuous
 62
    15
100
AcDbLine
 10
9.379852711070126
 20
0.3399759973137096
 30
0.0
 11
9.379852711070126
 21
0.3999656890232617
 31
0.0
  0
LINE
  5
B6DE
330
B6B4
100
AcDbEntity
  8
BORDER
  6
Continuous
 62
    15
100
AcDbLine
 10
9.359856647081052
 20
0.2999828395124904
 30
0.0
 11
9.359856647081052
 21
0.3999656890232617
 31
0.0
  0
LINE
  5
B6DF
330
B6B4
100
AcDbEntity
  8
BORDER
  6
Continuous
 62
    15
100
AcDbLine
 10
9.339859683246583
 20
0.2999828395124904
 30
0.0
 11
9.339859683246583
 21
0.3999656890232617
 31
0.0
  0
LINE
  5
B6E0
330
B6B4
100
AcDbEntity
  8
BORDER
  6
Continuous
 62
    15
100
AcDbLine
 10
9.319862619429308
 20
0.3399759973137096
 30
0.0
 11
9.319862619429308
 21
0.3999656890232617
 31
0.0
  0
LINE
  5
B6E1
330
B6B4
100
AcDbEntity
  8
BORDER
  6
Continuous
 62
    15
100
AcDbLine
 10
9.279869591605736
 20
0.3399759973137096
 30
0.0
 11
9.279869591605736
 21
0.3999656890232617
 31
0.0
  0
LINE
  5
B6E2
330
B6B4
100
AcDbEntity
  8
BORDER
  6
Continuous
 62
    15
100
AcDbLine
 10
9.459839866528247
 20
0.2999828395124904
 30
0.0
 11
9.459839866528247
 21
0.3999656890232617
 31
0.0
  0
LINE
  5
B6E3
330
B6B4
100
AcDbEntity
  8
BORDER
  6
Continuous
 62
    15
100
AcDbLine
 10
9.439842902693806
 20
0.2999828395124904
 30
0.0
 11
9.439842902693806
 21
0.3999656890232617
 31
0.0
  0
LINE
  5
B6E4
330
B6B4
100
AcDbEntity
  8
BORDER
  6
Continuous
 62
    15
100
AcDbLine
 10
9.419845838876504
 20
0.3399759973137096
 30
0.0
 11
9.419845838876504
 21
0.3999656890232617
 31
0.0
  0
LINE
  5
B6E5
330
B6B4
100
AcDbEntity
  8
BORDER
  6
Continuous
 62
    15
100
AcDbLine
 10
9.399848775059201
 20
0.2599896917095521
 30
0.0
 11
9.399848775059201
 21
0.3999656890232617
 31
0.0
  0
LINE
  5
B6E6
330
B6B4
100
AcDbEntity
  8
BORDER
  6
Continuous
 62
    15
100
AcDbLine
 10
9.29986565559481
 20
0.2599896917095521
 30
0.0
 11
9.29986565559481
 21
0.3999656890232617
 31
0.0
  0
LINE
  5
B6E7
330
B6B4
100
AcDbEntity
  8
BORDER
  6
Continuous
 62
    15
100
AcDbLine
 10
9.479835930517349
 20
0.3399759973137096
 30
0.0
 11
9.479835930517349
 21
0.3999656890232617
 31
0.0
  0
LINE
  5
B6E8
330
B6B4
100
AcDbEntity
  8
BORDER
  6
Continuous
 62
    15
100
AcDbLine
 10
9.699798433400815
 20
0.2599896917095521
 30
0.0
 11
9.699798433400815
 21
0.3999656890232617
 31
0.0
  0
LINE
  5
B6E9
330
B6B4
100
AcDbEntity
  8
BORDER
  6
Continuous
 62
    15
100
AcDbLine
 10
9.899763872467033
 20
0.2599896917095521
 30
0.0
 11
9.899763872467033
 21
0.3999656890232617
 31
0.0
  0
LINE
  5
B6EA
330
B6B4
100
AcDbEntity
  8
BORDER
  6
Continuous
 62
    15
100
AcDbLine
 10
10.09973031136145
 20
0.2599896917095521
 30
0.0
 11
10.09973031136145
 21
0.3999656890232617
 31
0.0
  0
LINE
  5
B6EB
330
B6B4
100
AcDbEntity
  8
BORDER
  6
Continuous
 62
    15
100
AcDbLine
 10
10.29969665027303
 20
0.2599896917095521
 30
0.0
 11
10.29969665027303
 21
0.3999656890232617
 31
0.0
  0
LINE
  5
B6EC
330
B6B4
100
AcDbEntity
  8
BORDER
  6
Continuous
 62
    15
100
AcDbLine
 10
10.49965928982029
 20
0.2
 30
0.0
 11
10.49965928982029
 21
0.3999656890232617
 31
0.0
  0
TEXT
  5
B6ED
330
B6B4
100
AcDbEntity
  8
BORDER
  6
Continuous
 62
    15
100
AcDbText
 10
10.47115978701421
 20
0.0599741912456095
 30
0.0
 40
0.0799862356161777
  1
2
 50
0.09999996
  7
AE
100
AcDbText
  0
TEXT
  5
B6EE
330
B6B4
100
AcDbEntity
  8
BORDER
  6
Continuous
 62
    15
100
AcDbText
 10
8.671469835590103
 20
0.1199638829551611
 30
0.0
 40
0.0799862356161777
  1
2
 50
0.09999996
  7
AE
100
AcDbText
  0
LINE
  5
B6EF
330
B6B4
100
AcDbEntity
  8
BORDER
  6
Continuous
 62
    15
100
AcDbLine
 10
8.679970374905344
 20
0.3399759973137096
 30
0.0
 11
8.679970374905344
 21
0.3999656890232617
 31
0.0
  0
LINE
  5
B6F0
330
B6B4
100
AcDbEntity
  8
BORDER
  6
Continuous
 62
    15
100
AcDbLine
 10
8.65997431091624
 20
0.2999828395124904
 30
0.0
 11
8.65997431091624
 21
0.3999656890232617
 31
0.0
  0
LINE
  5
B6F1
330
B6B4
100
AcDbEntity
  8
BORDER
  6
Continuous
 62
    15
100
AcDbLine
 10
8.639977247098967
 20
0.2999828395124904
 30
0.0
 11
8.639977247098967
 21
0.3999656890232617
 31
0.0
  0
LINE
  5
B6F2
330
B6B4
100
AcDbEntity
  8
BORDER
  6
Continuous
 62
    15
100
AcDbLine
 10
8.619980183281692
 20
0.3399759973137096
 30
0.0
 11
8.619980183281692
 21
0.3999656890232617
 31
0.0
  0
LINE
  5
B6F3
330
B6B4
100
AcDbEntity
  8
BORDER
  6
Continuous
 62
    15
100
AcDbLine
 10
8.699966438894419
 20
0.2599896917095521
 30
0.0
 11
8.699966438894419
 21
0.3999656890232617
 31
0.0
  0
TEXT
  5
B6F4
330
B6B4
100
AcDbEntity
  8
BORDER
  6
Continuous
 62
    15
100
AcDbText
 10
9.071402613396108
 20
0.1199638829551611
 30
0.0
 40
0.0799862356161777
  1
6
 50
0.09999996
  7
AE
100
AcDbText
  0
TEXT
  5
B6F5
330
B6B4
100
AcDbEntity
  8
BORDER
  6
Continuous
 62
    15
100
AcDbText
 10
8.87143617450166
 20
0.1199638829551611
 30
0.0
 40
0.0799862356161777
  1
4
 50
0.09999996
  7
AE
100
AcDbText
  0
LINE
  5
B6F6
330
B6B4
100
AcDbEntity
  8
BORDER
  6
Continuous
 62
    15
100
AcDbLine
 10
8.779953494369733
 20
0.3399759973137096
 30
0.0
 11
8.779953494369733
 21
0.3999656890232617
 31
0.0
  0
LINE
  5
B6F7
330
B6B4
100
AcDbEntity
  8
BORDER
  6
Continuous
 62
    15
100
AcDbLine
 10
8.75995743038063
 20
0.2999828395124904
 30
0.0
 11
8.75995743038063
 21
0.3999656890232617
 31
0.0
  0
LINE
  5
B6F8
330
B6B4
100
AcDbEntity
  8
BORDER
  6
Continuous
 62
    15
100
AcDbLine
 10
8.73996046654619
 20
0.2999828395124904
 30
0.0
 11
8.73996046654619
 21
0.3999656890232617
 31
0.0
  0
LINE
  5
B6F9
330
B6B4
100
AcDbEntity
  8
BORDER
  6
Continuous
 62
    15
100
AcDbLine
 10
8.719963402728886
 20
0.3399759973137096
 30
0.0
 11
8.719963402728886
 21
0.3999656890232617
 31
0.0
  0
LINE
  5
B6FA
330
B6B4
100
AcDbEntity
  8
BORDER
  6
Continuous
 62
    15
100
AcDbLine
 10
9.119896280517695
 20
0.3399759973137096
 30
0.0
 11
9.119896280517695
 21
0.3999656890232617
 31
0.0
  0
LINE
  5
B6FB
330
B6B4
100
AcDbEntity
  8
BORDER
  6
Continuous
 62
    15
100
AcDbLine
 10
9.079903152711347
 20
0.3399759973137096
 30
0.0
 11
9.079903152711347
 21
0.3999656890232617
 31
0.0
  0
LINE
  5
B6FC
330
B6B4
100
AcDbEntity
  8
BORDER
  6
Continuous
 62
    15
100
AcDbLine
 10
9.059907088722244
 20
0.2999828395124904
 30
0.0
 11
9.059907088722244
 21
0.3999656890232617
 31
0.0
  0
LINE
  5
B6FD
330
B6B4
100
AcDbEntity
  8
BORDER
  6
Continuous
 62
    15
100
AcDbLine
 10
9.039910024904969
 20
0.2999828395124904
 30
0.0
 11
9.039910024904969
 21
0.3999656890232617
 31
0.0
  0
LINE
  5
B6FE
330
B6B4
100
AcDbEntity
  8
BORDER
  6
Continuous
 62
    15
100
AcDbLine
 10
9.0199130610705
 20
0.3399759973137096
 30
0.0
 11
9.0199130610705
 21
0.3999656890232617
 31
0.0
  0
LINE
  5
B6FF
330
B6B4
100
AcDbEntity
  8
BORDER
  6
Continuous
 62
    15
100
AcDbLine
 10
8.979919933264122
 20
0.3399759973137096
 30
0.0
 11
8.979919933264122
 21
0.3999656890232617
 31
0.0
  0
LINE
  5
B700
330
B6B4
100
AcDbEntity
  8
BORDER
  6
Continuous
 62
    15
100
AcDbLine
 10
8.959923869275048
 20
0.2999828395124904
 30
0.0
 11
8.959923869275048
 21
0.3999656890232617
 31
0.0
  0
LINE
  5
B701
330
B6B4
100
AcDbEntity
  8
BORDER
  6
Continuous
 62
    15
100
AcDbLine
 10
8.93992690544058
 20
0.2999828395124904
 30
0.0
 11
8.93992690544058
 21
0.3999656890232617
 31
0.0
  0
LINE
  5
B702
330
B6B4
100
AcDbEntity
  8
BORDER
  6
Continuous
 62
    15
100
AcDbLine
 10
8.919929841623305
 20
0.3399759973137096
 30
0.0
 11
8.919929841623305
 21
0.3999656890232617
 31
0.0
  0
LINE
  5
B703
330
B6B4
100
AcDbEntity
  8
BORDER
  6
Continuous
 62
    15
100
AcDbLine
 10
8.879936713816928
 20
0.3399759973137096
 30
0.0
 11
8.879936713816928
 21
0.3999656890232617
 31
0.0
  0
LINE
  5
B704
330
B6B4
100
AcDbEntity
  8
BORDER
  6
Continuous
 62
    15
100
AcDbLine
 10
8.859940649827825
 20
0.2999828395124904
 30
0.0
 11
8.859940649827825
 21
0.3999656890232617
 31
0.0
  0
LINE
  5
B705
330
B6B4
100
AcDbEntity
  8
BORDER
  6
Continuous
 62
    15
100
AcDbLine
 10
8.839943685993384
 20
0.2999828395124904
 30
0.0
 11
8.839943685993384
 21
0.3999656890232617
 31
0.0
  0
LINE
  5
B706
330
B6B4
100
AcDbEntity
  8
BORDER
  6
Continuous
 62
    15
100
AcDbLine
 10
8.819946622176082
 20
0.3399759973137096
 30
0.0
 11
8.819946622176082
 21
0.3999656890232617
 31
0.0
  0
LINE
  5
B707
330
B6B4
100
AcDbEntity
  8
BORDER
  6
Continuous
 62
    15
100
AcDbLine
 10
9.099899216700421
 20
0.2599896917095521
 30
0.0
 11
9.099899216700421
 21
0.3999656890232617
 31
0.0
  0
LINE
  5
B708
330
B6B4
100
AcDbEntity
  8
BORDER
  6
Continuous
 62
    15
100
AcDbLine
 10
8.999915997253197
 20
0.2599896917095521
 30
0.0
 11
8.999915997253197
 21
0.3999656890232617
 31
0.0
  0
LINE
  5
B709
330
B6B4
100
AcDbEntity
  8
BORDER
  6
Continuous
 62
    15
100
AcDbLine
 10
8.899932777806002
 20
0.2599896917095521
 30
0.0
 11
8.899932777806002
 21
0.3999656890232617
 31
0.0
  0
LINE
  5
B70A
330
B6B4
100
AcDbEntity
  8
BORDER
  6
Continuous
 62
    15
100
AcDbLine
 10
8.799949658341613
 20
0.2599896917095521
 30
0.0
 11
8.799949658341613
 21
0.3999656890232617
 31
0.0
  0
LINE
  5
B70B
330
B6B4
100
AcDbEntity
  8
BORDER
  6
Continuous
 62
    15
100
AcDbLine
 10
9.259873527616662
 20
0.2999828395124904
 30
0.0
 11
9.259873527616662
 21
0.3999656890232617
 31
0.0
  0
LINE
  5
B70C
330
B6B4
100
AcDbEntity
  8
BORDER
  6
Continuous
 62
    15
100
AcDbLine
 10
9.239876463799388
 20
0.2999828395124904
 30
0.0
 11
9.239876463799388
 21
0.3999656890232617
 31
0.0
  0
LINE
  5
B70D
330
B6B4
100
AcDbEntity
  8
BORDER
  6
Continuous
 62
    15
100
AcDbLine
 10
9.219879399982085
 20
0.3399759973137096
 30
0.0
 11
9.219879399982085
 21
0.3999656890232617
 31
0.0
  0
LINE
  5
B70E
330
B6B4
100
AcDbEntity
  8
BORDER
  6
Continuous
 62
    15
100
AcDbLine
 10
9.179886372158541
 20
0.3399759973137096
 30
0.0
 11
9.179886372158541
 21
0.3999656890232617
 31
0.0
  0
LINE
  5
B70F
330
B6B4
100
AcDbEntity
  8
BORDER
  6
Continuous
 62
    15
100
AcDbLine
 10
9.159890308169439
 20
0.2999828395124904
 30
0.0
 11
9.159890308169439
 21
0.3999656890232617
 31
0.0
  0
LINE
  5
B710
330
B6B4
100
AcDbEntity
  8
BORDER
  6
Continuous
 62
    15
100
AcDbLine
 10
9.139893244352192
 20
0.2999828395124904
 30
0.0
 11
9.139893244352192
 21
0.3999656890232617
 31
0.0
  0
LINE
  5
B711
330
B6B4
100
AcDbEntity
  8
BORDER
  6
Continuous
 62
    15
100
AcDbLine
 10
9.199882436147616
 20
0.2599896917095521
 30
0.0
 11
9.199882436147616
 21
0.3999656890232617
 31
0.0
  0
TEXT
  5
B712
330
B6B4
100
AcDbEntity
  8
BORDER
  6
Continuous
 62
    15
100
AcDbText
 10
8.702946126881657
 20
0.0329812595588271
 30
0.0
 40
0.0399931278063708
  1
FULL SIZE   50   02
 50
0.09999996
 41
0.7749084200000001
  7
AE
100
AcDbText
  0
TEXT
  5
B713
330
B6B4
100
AcDbEntity
  8
Title Block
  6
Continuous
 62
     2
100
AcDbText
 10
8.973543078500011
 20
0.4900242034427523
 30
0.0
 40
0.075937067150492
  1
REVISION
 50
0.09999996
  7
AE
100
AcDbText
  0
LINE
  5
B714
330
B6B4
100
AcDbEntity
  8
BORDER
  6
Continuous
 62
    15
100
AcDbLine
 10
10.69965639031853
 20
0.3999656890232617
 30
0.0
 11
10.69965639031853
 21
2.4
 31
0.0
  0
LINE
  5
B715
330
B6B4
100
AcDbEntity
  8
Title Block
  6
Continuous
 62
     2
100
AcDbLine
 10
12.17518995515351
 20
1.0
 30
0.0
 11
12.17518995515351
 21
2.4
 31
0.0
  0
TEXT
  5
B716
330
B6B4
100
AcDbEntity
  8
Title Block
  6
Continuous
 62
     2
100
AcDbText
 10
10.74999999999999
 20
0.8
 30
0.0
 40
0.075937067150492
  1
DRAWING NAME
 50
0.09999996
  7
AE
100
AcDbText
  0
TEXT
  5
B717
330
B6B4
100
AcDbEntity
  8
Title Block
  6
Continuous
 62
     2
100
AcDbText
 10
12.19999999999999
 20
0.975
 30
0.0
 40
0.075937067150492
  1
BY
 50
0.09999996
  7
AE
100
AcDbText
  0
TEXT
  5
B718
330
B6B4
100
AcDbEntity
  8
Title Block
  6
Continuous
 62
     2
100
AcDbText
 10
12.21
 20
1.1
 30
0.0
 40
0.075937067150492
  1
APPD
 50
0.09999996
  7
AE
100
AcDbText
  0
TEXT
  5
B719
330
B6B4
100
AcDbEntity
  8
Title Block
  6
Continuous
 62
     2
100
AcDbText
 10
12.19999999999999
 20
1.349999999999999
 30
0.0
 40
0.075937067150492
  1
CHK
 50
0.09999996
  7
AE
100
AcDbText
  0
TEXT
  5
B71A
330
B6B4
100
AcDbEntity
  8
Title Block
  6
Continuous
 62
     2
100
AcDbText
 10
12.20620037256117
 20
1.224999999999999
 30
0.0
 40
0.075937067150492
  1
BY
 50
0.09999996
  7
AE
100
AcDbText
  0
TEXT
  5
B71B
330
B6B4
100
AcDbEntity
  8
Title Block
  6
Continuous
 62
     2
100
AcDbText
 10
12.19999999999999
 20
1.474999999999999
 30
0.0
 40
0.075937067150492
  1
BY
 50
0.09999996
  7
AE
100
AcDbText
  0
TEXT
  5
B71C
330
B6B4
100
AcDbEntity
  8
Title Block
  6
Continuous
 62
     2
100
AcDbText
 10
12.19999999999999
 20
1.599999999999999
 30
0.0
 40
0.075937067150492
  1
DR
 50
0.09999996
  7
AE
100
AcDbText
  0
LINE
  5
B71D
330
B6B4
100
AcDbEntity
  8
Title Block
  6
Continuous
 62
     2
100
AcDbLine
 10
9.0
 20
0.65
 30
0.0
 11
9.0
 21
2.4
 31
0.0
  0
ATTDEF
  5
B71E
330
B6B4
100
AcDbEntity
  8
Title Block
  6
Continuous
 62
     2
100
AcDbText
 10
14.0
 20
0.5
 30
0.0
 40
0.196816573850279
  1

 41
0.8
100
AcDbAttributeDefinition
  3
Drawing Number
  2
GEN-TITLE-NR{13.37}
 70
     0
1001
GENIUS_GENBLLY_14
1000
BOR5
  0
ATTDEF
  5
B71F
330
B6B4
100
AcDbEntity
  8
Title Block
  6
Continuous
 62
     2
100
AcDbText
 10
15.6
 20
1.024999999999999
 30
0.0
 40
0.11808994431015
  1

 41
0.8
100
AcDbAttributeDefinition
  3
Sheet
  2
GEN-TITLE-SHEET{2.62}
 70
     0
1001
GENIUS_GENBLLY_14
1000
BOR3
  0
ATTDEF
  5
B720
330
B6B4
100
AcDbEntity
  8
Title Block
  6
Continuous
 62
     2
100
AcDbText
 10
15.525
 20
1.274999999999999
 30
0.0
 40
0.1010611419
  1

100
AcDbAttributeDefinition
  3
Date
  2
GEN-TITLE-PLOT{5}
 70
     0
1001
GENIUS_GENBLLY_14
1000
BOR2
  0
ATTDEF
  5
B721
330
B6B4
100
AcDbEntity
  8
Title Block
  6
Continuous
 62
     2
100
AcDbText
 10
15.99999999999999
 20
1.024999999999999
 30
0.0
 40
0.11808994431015
  1

 41
0.8
100
AcDbAttributeDefinition
  3
Sheet of
  2
GEN-TITLE-SHEET-OF{2.62}
 70
     0
1001
GENIUS_GENBLLY_14
1000
BOR3
  0
LINE
  5
B722
330
B6B4
100
AcDbEntity
  8
Title Block
  6
Continuous
 62
     2
100
AcDbLine
 10
15.12625718126357
 20
0.95
 30
0.0
 11
15.12625718126354
 21
1.45
 31
0.0
  0
LINE
  5
B723
330
B6B4
100
AcDbEntity
  8
BORDER
  6
Continuous
 62
    15
100
AcDbLine
 10
13.64999999999999
 20
0.3999656890232617
 30
0.0
 11
13.64999999999999
 21
2.4
 31
0.0
  0
TEXT
  5
B724
330
B6B4
100
AcDbEntity
  8
Title Block
  6
Continuous
 62
     2
100
AcDbText
 10
13.7
 20
0.8
 30
0.0
 40
0.075937067150492
  1
DRAWING NUMBER
 50
0.09999996
  7
AE
100
AcDbText
  0
TEXT
  5
B725
330
B6B4
100
AcDbEntity
  8
Title Block
  6
Continuous
 62
     2
100
AcDbText
 10
13.7
 20
1.599999999999999
 30
0.0
 40
0.075937067150492
  1
REF
 50
0.09999996
  7
AE
100
AcDbText
  0
TEXT
  5
B726
330
B6B4
100
AcDbEntity
  8
Title Block
  6
Continuous
 62
     2
100
AcDbText
 10
13.7
 20
1.349999999999999
 30
0.0
 40
0.075937067150492
  1
MACH
 50
0.09999996
  7
AE
100
AcDbText
  0
TEXT
  5
B727
330
B6B4
100
AcDbEntity
  8
Title Block
  6
Continuous
 62
     2
100
AcDbText
 10
13.7
 20
1.1
 30
0.0
 40
0.075937067150492
  1
MATL
 50
0.09999996
  7
AE
100
AcDbText
  0
ATTDEF
  5
B728
330
B6B4
100
AcDbEntity
  8
Title Block
  6
Continuous
 62
     2
100
AcDbText
 10
14.05
 20
1.524999999999999
 30
0.0
 40
0.1010611419
  1

100
AcDbAttributeDefinition
  3
Ref. No.
  2
GEN-TITLE-REF{5}
 70
     0
1001
GENIUS_GENBLLY_14
1000
BOR2
  0
ATTDEF
  5
B729
330
B6B4
100
AcDbEntity
  8
Title Block
  6
Continuous
 62
     2
100
AcDbText
 10
14.05
 20
1.274999999999999
 30
0.0
 40
0.1010611419
  1

100
AcDbAttributeDefinition
  3
Machine
  2
GEN-TITLE-MACH{5}
 70
     0
1001
GENIUS_GENBLLY_14
1000
BOR2
  0
ATTDEF
  5
B72A
330
B6B4
100
AcDbEntity
  8
Title Block
  6
Continuous
 62
     2
100
AcDbText
 10
14.05
 20
1.024999999999999
 30
0.0
 40
0.1010611419
  1

 41
0.8
100
AcDbAttributeDefinition
  3
Material
  2
GEN-TITLE-MAT{11.15}
 70
     0
1001
GENIUS_GENBLLY_14
1000
BOR3
  0
TEXT
  5
B72B
330
B6B4
100
AcDbEntity
  8
Title Block
  6
Continuous
 62
     2
100
AcDbText
 10
15.175
 20
1.1
 30
0.0
 40
0.075937067150492
  1
SHEET   OF
 50
0.09999996
  7
AE
100
AcDbText
  0
TEXT
  5
B72C
330
B6B4
100
AcDbEntity
  8
Title Block
  6
Continuous
 62
     2
100
AcDbText
 10
15.175
 20
1.349999999999999
 30
0.0
 40
0.075937067150492
  1
DATE
 50
0.09999996
  7
AE
100
AcDbText
  0
LINE
  5
B72D
330
B6B4
100
AcDbEntity
  8
BORDER
 62
    15
100
AcDbLine
 10
16.6
 20
5.519965979023269
 30
0.0
 11
16.99999962000001
 21
5.519965979023269
 31
0.0
  0
LINE
  5
B72E
330
B6B4
100
AcDbEntity
  8
BORDER
 62
    15
100
AcDbLine
 10
0.400011260000019
 20
10.63996597902324
 30
0.0
 11
16.6
 21
10.63996597902324
 31
0.0
  0
LINE
  5
B72F
330
B6B4
100
AcDbEntity
  8
BORDER
 62
    15
100
AcDbLine
 10
8.50000126000001
 20
10.63996597902324
 30
0.0
 11
8.50000126000001
 21
11.01996597902326
 31
0.0
  0
MTEXT
  5
B730
330
B6B4
100
AcDbEntity
  8
BORDER
  6
Continuous
100
AcDbMText
 10
15.10308979335871
 20
2.25
 30
0.0
 40
0.125
 41
2.663
 71
     2
 72
     5
  1
{\fArial|b0|i0|c0|p34;\C1;G & L Motion Control Inc.}
 73
     1
 44
1.0
  0
MTEXT
  5
B731
330
B6B4
100
AcDbEntity
  8
BORDER
  6
Continuous
100
AcDbMText
 10
15.10412857763948
 20
1.928264837305509
 30
0.0
 40
0.07874
 41
2.862
 71
     5
 72
     1
  1
{\Fromans.shx;\C9;672 South Military Road\PFond du Lac, Wisconsin 54936 U.S.A.}
 73
     1
 44
1.0
  0
TEXT
  5
B732
330
B6B4
100
AcDbEntity
  8
Title Block
  6
Continuous
 62
     2
100
AcDbText
 10
10.71881861560131
 20
2.036049281269597
 30
0.0
 40
0.0645465051491158
  1
of G&L Motion Control, is
 50
0.0999999600000013
 41
0.6799434399999999
  7
AE
100
AcDbText
  0
TEXT
  5
B733
330
B6B4
100
AcDbEntity
  8
Title Block
  6
Continuous
 62
     2
100
AcDbText
 10
10.71741487412047
 20
2.144627598463487
 30
0.0
 40
0.0645465051491158
  1
contains proprietary information
 50
0.0999999600000013
 41
0.7005041199999999
  7
AE
100
AcDbText
  0
TEXT
  5
B734
330
B6B4
100
AcDbEntity
  8
Title Block
  6
Continuous
 62
     2
100
AcDbText
 10
10.72248667991201
 20
1.924616885729644
 30
0.0
 40
0.0645465051491158
  1
submitted in confidence on
 50
0.0999999600000013
 41
0.6605569100000001
  7
AE
100
AcDbText
  0
TEXT
  5
B735
330
B6B4
100
AcDbEntity
  8
Title Block
  6
Continuous
 62
     2
100
AcDbText
 10
10.71679449751522
 20
1.81708586876793
 30
0.0
 40
0.0645465051491158
  1
condition that it will not be
 50
0.0999999600000013
 41
0.72234601
  7
AE
100
AcDbText
  0
TEXT
  5
B736
330
B6B4
100
AcDbEntity
  8
Title Block
  6
Continuous
 62
     2
100
AcDbText
 10
10.71416899531685
 20
1.597796107226088
 30
0.0
 40
0.0645465051491158
  1
will be used only for your
 50
0.0999999600000013
 41
0.6799434399999999
  7
AE
100
AcDbText
  0
TEXT
  5
B737
330
B6B4
100
AcDbEntity
  8
Title Block
  6
Continuous
 62
     2
100
AcDbText
 10
10.71948721212293
 20
1.489000640399515
 30
0.0
 40
0.0645465051491158
  1
information, and will not be used
 50
0.0999999600000013
 41
0.6605569100000001
  7
AE
100
AcDbText
  0
TEXT
  5
B738
330
B6B4
100
AcDbEntity
  8
Title Block
  6
Continuous
 62
     2
100
AcDbText
 10
10.71739723193344
 20
1.378476657741246
 30
0.0
 40
0.0645465051491158
  1
or disclosed to anyone except as
 50
0.0999999600000013
 41
0.6799434399999999
  7
AE
100
AcDbText
  0
TEXT
  5
B739
330
B6B4
100
AcDbEntity
  8
Title Block
  6
Continuous
 62
     2
100
AcDbText
 10
10.71540499165808
 20
1.267047562975569
 30
0.0
 40
0.0645465051491158
  1
authorized by specific
 50
0.0999999600000013
 41
0.79688752
  7
AE
100
AcDbText
  0
TEXT
  5
B73A
330
B6B4
100
AcDbEntity
  8
Title Block
  6
Continuous
 62
     2
100
AcDbText
 10
10.71777124306261
 20
1.705466828073234
 30
0.0
 40
0.0645465051491158
  1
copied or otherwise reproduced,
 50
0.0999999600000013
 41
0.6799434399999999
  7
AE
100
AcDbText
  0
TEXT
  5
B73B
330
B6B4
100
AcDbEntity
  8
Title Block
  6
Continuous
 62
     2
100
AcDbText
 10
10.72050994356058
 20
2.252555955563673
 30
0.0
 40
0.0645465051491158
  1
NOTICE: This drawing or material
 50
0.0999999600000013
 41
0.7005041199999999
  7
AE
100
AcDbText
  0
TEXT
  5
B73C
330
B6B4
100
AcDbEntity
  8
Title Block
  6
Continuous
 62
     2
100
AcDbText
 10
10.72096632443385
 20
1.159697406318199
 30
0.0
 40
0.0645465051491158
  1
written consent of G&L Motion Control
 50
0.0999999600000013
 41
0.79688752
  7
AE
100
AcDbText
  0
TEXT
  5
B73D
330
B6B4
100
AcDbEntity
  8
Title Block
  6
Continuous
 62
     2
100
AcDbText
 10
10.71875
 20
1.046875
 30
0.0
 40
0.0645465051491158
  1
Automation, LLC
 50
0.0999999600000013
 41
0.79688752
  7
AE
100
AcDbText
  0
ENDBLK
  5
B73F
330
B6B4
100
AcDbEntity
  8
0
100
AcDbBlockEnd
  0
BLOCK
  5
C198
330
C18D
100
AcDbEntity
  8
0
100
AcDbBlockBegin
  2
*D3
 70
     1
 10
0.0
 20
0.0
 30
0.0
  3
*D3
  1

  0
LINE
  5
C1EA
330
C18D
100
AcDbEntity
  8
0
 62
     0
370
    -2
100
AcDbLine
 10
93.36350077961672
 20
58.48576283805326
 30
0.0
 11
93.36350077961672
 21
59.10066083453152
 31
0.0
  0
LINE
  5
C1EB
330
C18D
100
AcDbEntity
  8
0
 62
     0
370
    -2
100
AcDbLine
 10
90.61350077961668
 20
58.48576283805319
 30
0.0
 11
90.61350077961668
 21
59.10066083453152
 31
0.0
  0
LINE
  5
C1EC
330
C18D
100
AcDbEntity
  8
0
 62
     0
370
    -2
100
AcDbLine
 10
93.18350077961671
 20
58.97566083453153
 30
0.0
 11
92.20502508640732
 21
58.97566083453153
 31
0.0
  0
LINE
  5
C1ED
330
C18D
100
AcDbEntity
  8
0
 62
     0
370
    -2
100
AcDbLine
 10
90.79350077961668
 20
58.97566083453153
 30
0.0
 11
91.72502508640734
 21
58.97566083453153
 31
0.0
  0
SOLID
  5
C1EE
330
C18D
100
AcDbEntity
  8
0
 62
     0
100
AcDbTrace
 10
93.18350077961671
 20
59.00566083453153
 30
0.0
 11
93.18350077961671
 21
58.94566083453153
 31
0.0
 12
93.36350077961672
 22
58.97566083453153
 32
0.0
 13
93.36350077961672
 23
58.97566083453153
 33
0.0
  0
SOLID
  5
C1EF
330
C18D
100
AcDbEntity
  8
0
 62
     0
100
AcDbTrace
 10
90.79350077961668
 20
59.00566083453153
 30
0.0
 11
90.79350077961668
 21
58.94566083453153
 31
0.0
 12
90.61350077961668
 22
58.97566083453153
 32
0.0
 13
90.61350077961668
 23
58.97566083453153
 33
0.0
  0
MTEXT
  5
C1F0
330
C18D
100
AcDbEntity
  8
0
 62
     0
100
AcDbMText
 10
91.96502508640733
 20
58.97566083453153
 30
0.0
 40
0.1
 41
0.0
 71
     5
 72
     1
  1
\A1;2.75
 73
     1
 44
1.0
  0
POINT
  5
C1F1
330
C18D
100
AcDbEntity
  8
Defpoints
 62
     0
100
AcDbPoint
 10
93.36350077961672
 20
58.42326283805326
 30
0.0
  0
POINT
  5
C1F2
330
C18D
100
AcDbEntity
  8
Defpoints
 62
     0
100
AcDbPoint
 10
90.61350077961668
 20
58.42326283805319
 30
0.0
  0
POINT
  5
C1F3
330
C18D
100
AcDbEntity
  8
Defpoints
 62
     0
100
AcDbPoint
 10
90.61350077961668
 20
58.97566083453153
 30
0.0
  0
ENDBLK
  5
C199
330
C18D
100
AcDbEntity
  8
0
100
AcDbBlockEnd
  0
BLOCK
  5
C1A5
330
C19A
100
AcDbEntity
  8
0
100
AcDbBlockBegin
  2
*D4
 70
     1
 10
0.0
 20
0.0
 30
0.0
  3
*D4
  1

  0
LINE
  5
C1FE
330
C19A
100
AcDbEntity
  8
0
 62
     0
370
    -2
100
AcDbLine
 10
89.36809809108799
 20
58.42326283805291
 30
0.0
 11
89.90976327382957
 21
58.42326283805291
 31
0.0
  0
LINE
  5
C1FF
330
C19A
100
AcDbEntity
  8
0
 62
     0
370
    -2
100
AcDbLine
 10
89.16209809108801
 20
57.9312628380532
 30
0.0
 11
89.90976327382957
 21
57.9312628380532
 31
0.0
  0
LINE
  5
C200
330
C19A
100
AcDbEntity
  8
0
 62
     0
370
    -2
100
AcDbLine
 10
89.78476327382956
 20
58.6032628380529
 30
0.0
 11
89.78476327382956
 21
58.7832628380529
 31
0.0
  0
LINE
  5
C201
330
C19A
100
AcDbEntity
  8
0
 62
     0
370
    -2
100
AcDbLine
 10
89.78476327382956
 20
57.7512628380532
 30
0.0
 11
89.78476327382956
 21
57.5712628380532
 31
0.0
  0
SOLID
  5
C202
330
C19A
100
AcDbEntity
  8
0
 62
     0
100
AcDbTrace
 10
89.75476327382956
 20
58.6032628380529
 30
0.0
 11
89.81476327382956
 21
58.6032628380529
 31
0.0
 12
89.78476327382956
 22
58.42326283805291
 32
0.0
 13
89.78476327382956
 23
58.42326283805291
 33
0.0
  0
SOLID
  5
C203
330
C19A
100
AcDbEntity
  8
0
 62
     0
100
AcDbTrace
 10
89.75476327382956
 20
57.7512628380532
 30
0.0
 11
89.81476327382956
 21
57.7512628380532
 31
0.0
 12
89.78476327382956
 22
57.9312628380532
 32
0.0
 13
89.78476327382956
 23
57.9312628380532
 33
0.0
  0
MTEXT
  5
C204
330
C19A
100
AcDbEntity
  8
0
 62
     0
100
AcDbMText
 10
89.78476327382955
 20
58.17726283805306
 30
0.0
 40
0.1
 41
0.0
 71
     5
 72
     1
  1
\A1;.492\PTYP
 73
     1
 44
1.0
  0
POINT
  5
C205
330
C19A
100
AcDbEntity
  8
Defpoints
 62
     0
100
AcDbPoint
 10
89.305598091088
 20
58.42326283805291
 30
0.0
  0
POINT
  5
C206
330
C19A
100
AcDbEntity
  8
Defpoints
 62
     0
100
AcDbPoint
 10
89.09959809108801
 20
57.9312628380532
 30
0.0
  0
POINT
  5
C207
330
C19A
100
AcDbEntity
  8
Defpoints
 62
     0
100
AcDbPoint
 10
89.78476327382956
 20
57.9312628380532
 30
0.0
  0
ENDBLK
  5
C1A6
330
C19A
100
AcDbEntity
  8
0
100
AcDbBlockEnd
  0
BLOCK
  5
C1B2
330
C1A7
100
AcDbEntity
  8
0
100
AcDbBlockBegin
  2
*D5
 70
     1
 10
0.0
 20
0.0
 30
0.0
  3
*D5
  1

  0
LINE
  5
C1F4
330
C1A7
100
AcDbEntity
  8
0
 62
     0
370
    -2
100
AcDbLine
 10
88.86037633643173
 20
58.48576283805319
 30
0.0
 11
88.86037633643173
 21
59.21460833378045
 31
0.0
  0
LINE
  5
C1F5
330
C1A7
100
AcDbEntity
  8
0
 62
     0
370
    -2
100
AcDbLine
 10
89.355598091088
 20
58.4357628380529
 30
0.0
 11
89.355598091088
 21
59.21460833378045
 31
0.0
  0
LINE
  5
C1F6
330
C1A7
100
AcDbEntity
  8
0
 62
     0
370
    -2
100
AcDbLine
 10
88.68037633643172
 20
59.08960833378045
 30
0.0
 11
88.50037633643173
 21
59.08960833378045
 31
0.0
  0
LINE
  5
C1F7
330
C1A7
100
AcDbEntity
  8
0
 62
     0
370
    -2
100
AcDbLine
 10
89.53559809108801
 20
59.08960833378045
 30
0.0
 11
89.71559809108802
 21
59.08960833378045
 31
0.0
  0
SOLID
  5
C1F8
330
C1A7
100
AcDbEntity
  8
0
 62
     0
100
AcDbTrace
 10
88.68037633643172
 20
59.11960833378045
 30
0.0
 11
88.68037633643172
 21
59.05960833378045
 31
0.0
 12
88.86037633643173
 22
59.08960833378045
 32
0.0
 13
88.86037633643173
 23
59.08960833378045
 33
0.0
  0
SOLID
  5
C1F9
330
C1A7
100
AcDbEntity
  8
0
 62
     0
100
AcDbTrace
 10
89.53559809108801
 20
59.11960833378045
 30
0.0
 11
89.53559809108801
 21
59.05960833378045
 31
0.0
 12
89.355598091088
 22
59.08960833378045
 32
0.0
 13
89.355598091088
 23
59.08960833378045
 33
0.0
  0
MTEXT
  5
C1FA
330
C1A7
100
AcDbEntity
  8
0
 62
     0
100
AcDbMText
 10
89.10798721375988
 20
59.08960833378045
 30
0.0
 40
0.1
 41
0.0
 71
     5
 72
     1
  1
\A1;.495
 73
     1
 44
1.0
  0
POINT
  5
C1FB
330
C1A7
100
AcDbEntity
  8
Defpoints
 62
     0
100
AcDbPoint
 10
88.86037633643173
 20
58.42326283805319
 30
0.0
  0
POINT
  5
C1FC
330
C1A7
100
AcDbEntity
  8
Defpoints
 62
     0
100
AcDbPoint
 10
89.355598091088
 20
58.37326283805291
 30
0.0
  0
POINT
  5
C1FD
330
C1A7
100
AcDbEntity
  8
Defpoints
 62
     0
100
AcDbPoint
 10
89.355598091088
 20
59.08960833378045
 30
0.0
  0
ENDBLK
  5
C1B3
330
C1A7
100
AcDbEntity
  8
0
100
AcDbBlockEnd
  0
BLOCK
  5
C1BF
330
C1B4
100
AcDbEntity
  8
0
100
AcDbBlockBegin
  2
*D6
 70
     1
 10
0.0
 20
0.0
 30
0.0
  3
*D6
  1

  0
LINE
  5
C208
330
C1B4
100
AcDbEntity
  8
0
 62
     0
370
    -2
100
AcDbLine
 10
93.42600077961671
 20
58.42326283805326
 30
0.0
 11
94.7760180778671
 21
58.42326283805326
 31
0.0
  0
LINE
  5
C209
330
C1B4
100
AcDbEntity
  8
0
 62
     0
370
    -2
100
AcDbLine
 10
93.42600077961673
 20
56.88126283805323
 30
0.0
 11
94.7760180778671
 21
56.88126283805323
 31
0.0
  0
LINE
  5
C20A
330
C1B4
100
AcDbEntity
  8
0
 62
     0
370
    -2
100
AcDbLine
 10
94.65101807786709
 20
58.24326283805326
 30
0.0
 11
94.65101807786709
 21
57.99064186368376
 31
0.0
  0
LINE
  5
C20B
330
C1B4
100
AcDbEntity
  8
0
 62
     0
370
    -2
100
AcDbLine
 10
94.65101807786709
 20
57.06126283805323
 30
0.0
 11
94.65101807786709
 21
57.71064186368376
 31
0.0
  0
SOLID
  5
C20C
330
C1B4
100
AcDbEntity
  8
0
 62
     0
100
AcDbTrace
 10
94.62101807786709
 20
58.24326283805326
 30
0.0
 11
94.68101807786709
 21
58.24326283805326
 31
0.0
 12
94.65101807786709
 22
58.42326283805326
 32
0.0
 13
94.65101807786709
 23
58.42326283805326
 33
0.0
  0
SOLID
  5
C20D
330
C1B4
100
AcDbEntity
  8
0
 62
     0
100
AcDbTrace
 10
94.62101807786709
 20
57.06126283805323
 30
0.0
 11
94.68101807786709
 21
57.06126283805323
 31
0.0
 12
94.65101807786709
 22
56.88126283805323
 32
0.0
 13
94.65101807786709
 23
56.88126283805323
 33
0.0
  0
MTEXT
  5
C20E
330
C1B4
100
AcDbEntity
  8
0
 62
     0
100
AcDbMText
 10
94.65101807786707
 20
57.85064186368377
 30
0.0
 40
0.1
 41
0.0
 71
     5
 72
     1
  1
\A1;1.54
 73
     1
 44
1.0
  0
POINT
  5
C20F
330
C1B4
100
AcDbEntity
  8
Defpoints
 62
     0
100
AcDbPoint
 10
93.36350077961672
 20
58.42326283805326
 30
0.0
  0
POINT
  5
C210
330
C1B4
100
AcDbEntity
  8
Defpoints
 62
     0
100
AcDbPoint
 10
93.36350077961673
 20
56.88126283805323
 30
0.0
  0
POINT
  5
C211
330
C1B4
100
AcDbEntity
  8
Defpoints
 62
     0
100
AcDbPoint
 10
94.65101807786709
 20
56.88126283805323
 30
0.0
  0
ENDBLK
  5
C1C0
330
C1B4
100
AcDbEntity
  8
0
100
AcDbBlockEnd
  0
BLOCK
  5
C301
330
C2FF
100
AcDbEntity
  8
0
100
AcDbBlockBegin
  2
GENAXEH
 70
     0
 10
0.0
 20
0.0
 30
0.0
  3
GENAXEH
  1

  0
LINE
  5
C300
330
C2FF
100
AcDbEntity
  8
0
100
AcDbLine
 10
-1.0
 20
0.0
 30
0.0
 11
1.0
 21
0.0
 31
0.0
  0
ENDBLK
  5
C302
330
C2FF
100
AcDbEntity
  8
0
100
AcDbBlockEnd
  0
ENDSEC
  0
SECTION
  2
ENTITIES
  0
INSERT
  5
60EB
330
17
100
AcDbEntity
  8
ASHADE
 62
     1
100
AcDbBlockReference
  2
AVE_RENDER
 10
-50.6380168074905
 20
-1.942723495473948
 30
0.0
1001
AVE_RENDER
1002
{
1070
     7
1000
Pref
1070
    30
1070
    20
1070
     1
1070
     0
1000

1070
    10
1070
     1
1070
    10
1040
1.0
1070
     1
1040
0.3
1040
0.7
1040
0.0
1040
10.0
1010
-1.0
1020
-1.0
1030
-1.0
1040
0.3
1070
    49
1070
     0
1070
     0
1010
1.0
1020
1.0
1030
1.0
1040
45.0
1070
     1
1070
     0
1000
WCS
1040
0.0
1070
     0
1040
10.0
1002
}
  0
INSERT
  5
60EC
330
17
100
AcDbEntity
  8
ASHADE
 62
     3
100
AcDbBlockReference
  2
AVE_RENDER
 10
-50.6380168074905
 20
-1.942723495473948
 30
0.0
1001
AVE_RENDER
1002
{
1070
     0
1000
Full Opt
1070
     0
1070
     1
1070
     1
1070
     1
1070
     0
1070
     0
1070
     0
1070
     1
1070
     1
1040
0.0001
1040
0.0001
1002
}
  0
INSERT
  5
60ED
330
17
100
AcDbEntity
  8
ASHADE
 62
     4
100
AcDbBlockReference
  2
AVE_RENDER
 10
-50.6380168074905
 20
-1.942723495473948
 30
0.0
1001
AVE_RENDER
1002
{
1070
     0
1000
Quick Opt
1070
     0
1070
     1
1070
     1
1070
     1
1070
     0
1070
     0
1070
     1
1002
}
  0
INSERT
  5
60EE
330
17
100
AcDbEntity
  8
ASHADE
 62
     5
100
AcDbBlockReference
  2
AVE_RENDER
 10
-50.6380168074905
 20
-1.942723495473948
 30
0.0
1001
AVE_RENDER
1002
{
1070
     1
1000
Scanl Opt
1070
     2
1070
     0
1070
     2
1040
2.0
1040
4.0
1070
     0
1070
     1
1070
     0
1040
0.03
1002
}
  0
INSERT
  5
60EF
330
17
100
AcDbEntity
  8
ASHADE
 62
     6
100
AcDbBlockReference
  2
AVE_RENDER
 10
-50.6380168074905
 20
-1.942723495473948
 30
0.0
1001
AVE_RENDER
1002
{
1070
     2
1000
Raytr Opt
1070
     2
1070
     0
1070
     2
1040
2.0
1040
4.0
1070
     0
1070
     1
1070
     1
1040
0.03
1070
     3
1040
0.03
1002
}
  0
INSERT
  5
60F0
330
17
100
AcDbEntity
  8
ASHADE
 62
     7
100
AcDbBlockReference
  2
AVE_RENDER
 10
-50.6380168074905
 20
-1.942723495473948
 30
0.0
1001
AVE_RENDER
1002
{
1070
     0
1000
RFile Opt
1070
     1
1070
   640
1070
   480
1070
 10000
1070
     1
1070
     8
1070
     8
1070
     0
1070
     0
1070
     0
1070
     0
1070
     0
1070
     0
1070
     0
1002
}
  0
INSERT
  5
60F1
330
17
100
AcDbEntity
  8
ASHADE
 62
     8
100
AcDbBlockReference
  2
AVE_RENDER
 10
-50.6380168074905
 20
-1.942723495473948
 30
0.0
1001
AVE_RENDER
1002
{
1070
     0
1000
Fog Opt
1070
     0
1070
     0
1040
0.0
1040
1.0
1040
0.0
1040
1.0
1010
0.5
1020
0.5
1030
0.5
1002
}
  0
INSERT
  5
60F2
330
17
100
AcDbEntity
  8
ASHADE
 62
     9
100
AcDbBlockReference
  2
AVE_RENDER
 10
-50.6380168074905
 20
-1.942723495473948
 30
0.0
1001
AVE_RENDER
1002
{
1070
     0
1000
BG Opt
1070
     0
1070
     1
1010
0.0
1020
0.0
1030
0.0
1010
1.0
1020
0.0
1030
0.0
1010
0.0
1020
1.0
1030
0.0
1010
0.0
1020
0.0
1030
1.0
1040
0.5
1040
0.33
1040
0.0
1000

1070
     1
1000

1070
     1
1070
     1
1040
1.0
1040
1.0
1040
0.0
1040
0.0
1070
     0
1002
}
  0
INSERT
  5
60F3
330
17
100
AcDbEntity
  8
ASHADE
 62
     1
100
AcDbBlockReference
  2
AVE_GLOBAL
 10
-50.6380168074905
 20
-1.942723495473948
 30
0.0
1001
AVE_MATERIAL
1002
{
1000
*GLOBAL*
1000
1
1000
Global finish.
1002
{
1002
}
1002
{
1070
    63
1002
{
1002
{
1010
-1.0
1020
-1.0
1030
-1.0
1002
}
1040
0.1000000014901161
1000

1040
0.0
1002
{
1002
}
1040
0.0
1002
{
1002
}
1040
0.0
1002
}
1002
{
1002
{
1010
-1.0
1020
-1.0
1030
-1.0
1002
}
1040
0.6999999880790711
1000

1040
0.0
1002
{
1002
}
1040
0.0
1002
{
1002
}
1040
0.0
1002
}
1002
{
1002
{
1010
-1.0
1020
-1.0
1030
-1.0
1002
}
1040
0.2000000029802322
1000

1040
0.0
1002
{
1002
}
1040
0.0
1002
{
1002
}
1040
0.0
1002
}
1002
{
1070
     0
1002
{
1070
     1
1002
{
1040
1.0
1040
1.0
1000

1040
0.0
1002
{
1002
}
1040
0.0
1002
{
1002
}
1040
0.0
1002
}
1002
}
1040
1.0
1040
0.0
1040
0.0
1002
}
1002
{
1040
1.0
1040
1.0
1000

1040
0.0
1002
{
1002
}
1040
0.0
1002
{
1002
}
1040
0.0
1002
}
1002
{
1040
0.5
1040
1.0
1000

1040
0.0
1002
{
1002
}
1040
0.0
1002
{
1002
}
1040
0.0
1002
}
1002
{
1070
     0
1040
0.0
1002
{
1002
}
1040
1.0
1002
{
1002
}
1040
0.0
1002
}
1002
{
1040
0.0
1002
{
1002
{
1010
0.0
1020
0.0
1030
0.0
1002
}
1040
1.0
1000

1040
0.0
1002
{
1002
}
1040
0.0
1002
{
1002
}
1040
0.0
1002
}
1002
}
1002
{
1002
{
1070
     1
1002
{
1040
0.0
1040
1.0
1000

1040
0.0
1002
{
1002
}
1040
0.0
1002
{
1002
}
1040
0.0
1002
}
1002
}
1040
0.0
1002
{
1002
}
1010
1.0
1020
0.0
1030
0.0
1010
0.0
1020
1.0
1030
0.0
1010
0.0
1020
0.0
1030
1.0
1070
     0
1002
}
1002
{
1002
{
1040
1.0
1040
1.0
1002
{
1070
     1
1002
{
1040
1.0
1040
1.0
1000

1040
0.0
1002
{
1002
}
1040
0.0
1002
{
1002
}
1040
0.0
1002
}
1002
}
1002
}
1070
     0
1040
0.0
1002
{
1002
}
1002
}
1002
{
1002
}
1002
}
1002
{
1071
        3
1070
     3
1070
     0
1002
{
1070
     2
1070
     0
1070
     0
1040
0.0
1002
}
1070
     0
1070
     2
1002
{
1002
}
1002
}
1002
{
1040
8030.0
1040
190.3000030517578
1040
0.3050000071525574
1040
228.0
1040
545.0
1040
14.0
1040
17.39999961853027
1040
0.4560000002384186
1002
}
1002
}
  0
TEXT
  5
60F4
330
17
100
AcDbEntity
  8
0
100
AcDbText
 10
-8.200179280506617
 20
13.70362867904792
 30
0.0
 40
0.07
  1

  7
ROMANS
 72
     4
 11
-8.200179280506617
 21
13.70362867904792
 31
0.0
100
AcDbText
  0
TEXT
  5
60F5
330
17
100
AcDbEntity
  8
0
100
AcDbText
 10
-7.575179280506617
 20
13.70362867904792
 30
0.0
 40
0.07
  1

  7
ROMANS
 72
     4
 11
-7.575179280506617
 21
13.70362867904792
 31
0.0
100
AcDbText
  0
INSERT
  5
60F6
330
17
100
AcDbEntity
  8
ASHADE
 62
     1
100
AcDbBlockReference
  2
AVE_RENDER
 10
18.52904997715229
 20
-1.409592581455449
 30
0.0
1001
AVE_RENDER
1002
{
1070
     7
1000
Pref
1070
    30
1070
    20
1070
     1
1070
     0
1000

1070
    10
1070
     1
1070
    10
1040
1.0
1070
     1
1040
0.3
1040
0.7
1040
0.0
1040
10.0
1010
-1.0
1020
-1.0
1030
-1.0
1040
0.3
1070
    49
1070
     0
1070
     0
1010
1.0
1020
1.0
1030
1.0
1040
45.0
1070
     1
1070
     0
1000
WCS
1040
0.0
1070
     0
1040
10.0
1002
}
  0
INSERT
  5
60F7
330
17
100
AcDbEntity
  8
ASHADE
 62
     3
100
AcDbBlockReference
  2
AVE_RENDER
 10
18.52904997715229
 20
-1.409592581455449
 30
0.0
1001
AVE_RENDER
1002
{
1070
     0
1000
Full Opt
1070
     0
1070
     1
1070
     1
1070
     1
1070
     0
1070
     0
1070
     0
1070
     1
1070
     1
1040
0.0001
1040
0.0001
1002
}
  0
INSERT
  5
60F8
330
17
100
AcDbEntity
  8
ASHADE
 62
     4
100
AcDbBlockReference
  2
AVE_RENDER
 10
18.52904997715229
 20
-1.409592581455449
 30
0.0
1001
AVE_RENDER
1002
{
1070
     0
1000
Quick Opt
1070
     0
1070
     1
1070
     1
1070
     1
1070
     0
1070
     0
1070
     1
1002
}
  0
INSERT
  5
60F9
330
17
100
AcDbEntity
  8
ASHADE
 62
     5
100
AcDbBlockReference
  2
AVE_RENDER
 10
18.52904997715229
 20
-1.409592581455449
 30
0.0
1001
AVE_RENDER
1002
{
1070
     1
1000
Scanl Opt
1070
     2
1070
     0
1070
     2
1040
2.0
1040
4.0
1070
     0
1070
     1
1070
     0
1040
0.03
1002
}
  0
INSERT
  5
60FA
330
17
100
AcDbEntity
  8
ASHADE
 62
     6
100
AcDbBlockReference
  2
AVE_RENDER
 10
18.52904997715229
 20
-1.409592581455449
 30
0.0
1001
AVE_RENDER
1002
{
1070
     2
1000
Raytr Opt
1070
     2
1070
     0
1070
     2
1040
2.0
1040
4.0
1070
     0
1070
     1
1070
     1
1040
0.03
1070
     3
1040
0.03
1002
}
  0
INSERT
  5
60FB
330
17
100
AcDbEntity
  8
ASHADE
 62
     7
100
AcDbBlockReference
  2
AVE_RENDER
 10
18.52904997715229
 20
-1.409592581455449
 30
0.0
1001
AVE_RENDER
1002
{
1070
     0
1000
RFile Opt
1070
     1
1070
   640
1070
   480
1070
 10000
1070
     1
1070
     8
1070
     8
1070
     0
1070
     0
1070
     0
1070
     0
1070
     0
1070
     0
1070
     0
1002
}
  0
INSERT
  5
60FC
330
17
100
AcDbEntity
  8
ASHADE
 62
     8
100
AcDbBlockReference
  2
AVE_RENDER
 10
18.52904997715229
 20
-1.409592581455449
 30
0.0
1001
AVE_RENDER
1002
{
1070
     0
1000
Fog Opt
1070
     0
1070
     0
1040
0.0
1040
1.0
1040
0.0
1040
1.0
1010
0.5
1020
0.5
1030
0.5
1002
}
  0
INSERT
  5
60FD
330
17
100
AcDbEntity
  8
ASHADE
 62
     9
100
AcDbBlockReference
  2
AVE_RENDER
 10
18.52904997715229
 20
-1.409592581455449
 30
0.0
1001
AVE_RENDER
1002
{
1070
     0
1000
BG Opt
1070
     0
1070
     1
1010
0.0
1020
0.0
1030
0.0
1010
1.0
1020
0.0
1030
0.0
1010
0.0
1020
1.0
1030
0.0
1010
0.0
1020
0.0
1030
1.0
1040
0.5
1040
0.33
1040
0.0
1000

1070
     1
1000

1070
     1
1070
     1
1040
1.0
1040
1.0
1040
0.0
1040
0.0
1070
     0
1002
}
  0
INSERT
  5
60FE
330
17
100
AcDbEntity
  8
ASHADE
 62
     1
100
AcDbBlockReference
  2
AVE_GLOBAL
 10
18.52904997715229
 20
-1.409592581455449
 30
0.0
1001
AVE_MATERIAL
1002
{
1000
*GLOBAL*
1000
1
1000
Global finish.
1002
{
1002
}
1002
{
1070
    63
1002
{
1002
{
1010
-1.0
1020
-1.0
1030
-1.0
1002
}
1040
0.1000000014901161
1000

1040
0.0
1002
{
1002
}
1040
0.0
1002
{
1002
}
1040
0.0
1002
}
1002
{
1002
{
1010
-1.0
1020
-1.0
1030
-1.0
1002
}
1040
0.6999999880790711
1000

1040
0.0
1002
{
1002
}
1040
0.0
1002
{
1002
}
1040
0.0
1002
}
1002
{
1002
{
1010
-1.0
1020
-1.0
1030
-1.0
1002
}
1040
0.2000000029802322
1000

1040
0.0
1002
{
1002
}
1040
0.0
1002
{
1002
}
1040
0.0
1002
}
1002
{
1070
     0
1002
{
1070
     1
1002
{
1040
1.0
1040
1.0
1000

1040
0.0
1002
{
1002
}
1040
0.0
1002
{
1002
}
1040
0.0
1002
}
1002
}
1040
1.0
1040
0.0
1040
0.0
1002
}
1002
{
1040
1.0
1040
1.0
1000

1040
0.0
1002
{
1002
}
1040
0.0
1002
{
1002
}
1040
0.0
1002
}
1002
{
1040
0.5
1040
1.0
1000

1040
0.0
1002
{
1002
}
1040
0.0
1002
{
1002
}
1040
0.0
1002
}
1002
{
1070
     0
1040
0.0
1002
{
1002
}
1040
1.0
1002
{
1002
}
1040
0.0
1002
}
1002
{
1040
0.0
1002
{
1002
{
1010
0.0
1020
0.0
1030
0.0
1002
}
1040
1.0
1000

1040
0.0
1002
{
1002
}
1040
0.0
1002
{
1002
}
1040
0.0
1002
}
1002
}
1002
{
1002
{
1070
     1
1002
{
1040
0.0
1040
1.0
1000

1040
0.0
1002
{
1002
}
1040
0.0
1002
{
1002
}
1040
0.0
1002
}
1002
}
1040
0.0
1002
{
1002
}
1010
1.0
1020
0.0
1030
0.0
1010
0.0
1020
1.0
1030
0.0
1010
0.0
1020
0.0
1030
1.0
1070
     0
1002
}
1002
{
1002
{
1040
1.0
1040
1.0
1002
{
1070
     1
1002
{
1040
1.0
1040
1.0
1000

1040
0.0
1002
{
1002
}
1040
0.0
1002
{
1002
}
1040
0.0
1002
}
1002
}
1002
}
1070
     0
1040
0.0
1002
{
1002
}
1002
}
1002
{
1002
}
1002
}
1002
{
1071
        3
1070
     3
1070
     0
1002
{
1070
     2
1070
     0
1070
     0
1040
0.0
1002
}
1070
     0
1070
     2
1002
{
1002
}
1002
}
1002
{
1040
8030.0
1040
190.3000030517578
1040
0.3050000071525574
1040
228.0
1040
545.0
1040
14.0
1040
17.39999961853027
1040
0.4560000002384186
1002
}
1002
}
  0
TEXT
  5
60FF
330
17
100
AcDbEntity
  8
0
100
AcDbText
 10
-5.324185011201905
 20
17.89180658841635
 30
0.0
 40
0.125
  1

  7
ROMANS
 72
     4
 11
-5.324185011201905
 21
17.89180658841635
 31
0.0
100
AcDbText
  0
INSERT
  5
6698
330
17
100
AcDbEntity
  8
ASHADE
 62
     1
100
AcDbBlockReference
  2
AVE_RENDER
 10
-26.73631017465
 20
-1.934721544905052
 30
0.0
1001
AVE_RENDER
1002
{
1070
     7
1000
Pref
1070
    30
1070
    20
1070
     1
1070
     0
1000

1070
    10
1070
     1
1070
    10
1040
1.0
1070
     1
1040
0.3
1040
0.7
1040
0.0
1040
10.0
1010
-1.0
1020
-1.0
1030
-1.0
1040
0.3
1070
    49
1070
     0
1070
     0
1010
1.0
1020
1.0
1030
1.0
1040
45.0
1070
     1
1070
     0
1000
WCS
1040
0.0
1070
     0
1040
10.0
1002
}
  0
INSERT
  5
6699
330
17
100
AcDbEntity
  8
ASHADE
 62
     3
100
AcDbBlockReference
  2
AVE_RENDER
 10
-26.73631017465
 20
-1.934721544905052
 30
0.0
1001
AVE_RENDER
1002
{
1070
     0
1000
Full Opt
1070
     0
1070
     1
1070
     1
1070
     1
1070
     0
1070
     0
1070
     0
1070
     1
1070
     1
1040
0.0001
1040
0.0001
1002
}
  0
INSERT
  5
669A
330
17
100
AcDbEntity
  8
ASHADE
 62
     4
100
AcDbBlockReference
  2
AVE_RENDER
 10
-26.73631017465
 20
-1.934721544905052
 30
0.0
1001
AVE_RENDER
1002
{
1070
     0
1000
Quick Opt
1070
     0
1070
     1
1070
     1
1070
     1
1070
     0
1070
     0
1070
     1
1002
}
  0
INSERT
  5
669B
330
17
100
AcDbEntity
  8
ASHADE
 62
     5
100
AcDbBlockReference
  2
AVE_RENDER
 10
-26.73631017465
 20
-1.934721544905052
 30
0.0
1001
AVE_RENDER
1002
{
1070
     1
1000
Scanl Opt
1070
     2
1070
     0
1070
     2
1040
2.0
1040
4.0
1070
     0
1070
     1
1070
     0
1040
0.03
1002
}
  0
INSERT
  5
669C
330
17
100
AcDbEntity
  8
ASHADE
 62
     6
100
AcDbBlockReference
  2
AVE_RENDER
 10
-26.73631017465
 20
-1.934721544905052
 30
0.0
1001
AVE_RENDER
1002
{
1070
     2
1000
Raytr Opt
1070
     2
1070
     0
1070
     2
1040
2.0
1040
4.0
1070
     0
1070
     1
1070
     1
1040
0.03
1070
     3
1040
0.03
1002
}
  0
INSERT
  5
669D
330
17
100
AcDbEntity
  8
ASHADE
 62
     7
100
AcDbBlockReference
  2
AVE_RENDER
 10
-26.73631017465
 20
-1.934721544905052
 30
0.0
1001
AVE_RENDER
1002
{
1070
     0
1000
RFile Opt
1070
     1
1070
   640
1070
   480
1070
 10000
1070
     1
1070
     8
1070
     8
1070
     0
1070
     0
1070
     0
1070
     0
1070
     0
1070
     0
1070
     0
1002
}
  0
INSERT
  5
669E
330
17
100
AcDbEntity
  8
ASHADE
 62
     8
100
AcDbBlockReference
  2
AVE_RENDER
 10
-26.73631017465
 20
-1.934721544905052
 30
0.0
1001
AVE_RENDER
1002
{
1070
     0
1000
Fog Opt
1070
     0
1070
     0
1040
0.0
1040
1.0
1040
0.0
1040
1.0
1010
0.5
1020
0.5
1030
0.5
1002
}
  0
INSERT
  5
669F
330
17
100
AcDbEntity
  8
ASHADE
 62
     9
100
AcDbBlockReference
  2
AVE_RENDER
 10
-26.73631017465
 20
-1.934721544905052
 30
0.0
1001
AVE_RENDER
1002
{
1070
     0
1000
BG Opt
1070
     0
1070
     1
1010
0.0
1020
0.0
1030
0.0
1010
1.0
1020
0.0
1030
0.0
1010
0.0
1020
1.0
1030
0.0
1010
0.0
1020
0.0
1030
1.0
1040
0.5
1040
0.33
1040
0.0
1000

1070
     1
1000

1070
     1
1070
     1
1040
1.0
1040
1.0
1040
0.0
1040
0.0
1070
     0
1002
}
  0
INSERT
  5
66A0
330
17
100
AcDbEntity
  8
ASHADE
 62
     1
100
AcDbBlockReference
  2
AVE_GLOBAL
 10
-26.73631017465
 20
-1.934721544905052
 30
0.0
1001
AVE_MATERIAL
1002
{
1000
*GLOBAL*
1000
1
1000
Global finish.
1002
{
1002
}
1002
{
1070
    63
1002
{
1002
{
1010
-1.0
1020
-1.0
1030
-1.0
1002
}
1040
0.1000000014901161
1000

1040
0.0
1002
{
1002
}
1040
0.0
1002
{
1002
}
1040
0.0
1002
}
1002
{
1002
{
1010
-1.0
1020
-1.0
1030
-1.0
1002
}
1040
0.6999999880790711
1000

1040
0.0
1002
{
1002
}
1040
0.0
1002
{
1002
}
1040
0.0
1002
}
1002
{
1002
{
1010
-1.0
1020
-1.0
1030
-1.0
1002
}
1040
0.2000000029802322
1000

1040
0.0
1002
{
1002
}
1040
0.0
1002
{
1002
}
1040
0.0
1002
}
1002
{
1070
     0
1002
{
1070
     1
1002
{
1040
1.0
1040
1.0
1000

1040
0.0
1002
{
1002
}
1040
0.0
1002
{
1002
}
1040
0.0
1002
}
1002
}
1040
1.0
1040
0.0
1040
0.0
1002
}
1002
{
1040
1.0
1040
1.0
1000

1040
0.0
1002
{
1002
}
1040
0.0
1002
{
1002
}
1040
0.0
1002
}
1002
{
1040
0.5
1040
1.0
1000

1040
0.0
1002
{
1002
}
1040
0.0
1002
{
1002
}
1040
0.0
1002
}
1002
{
1070
     0
1040
0.0
1002
{
1002
}
1040
1.0
1002
{
1002
}
1040
0.0
1002
}
1002
{
1040
0.0
1002
{
1002
{
1010
0.0
1020
0.0
1030
0.0
1002
}
1040
1.0
1000

1040
0.0
1002
{
1002
}
1040
0.0
1002
{
1002
}
1040
0.0
1002
}
1002
}
1002
{
1002
{
1070
     1
1002
{
1040
0.0
1040
1.0
1000

1040
0.0
1002
{
1002
}
1040
0.0
1002
{
1002
}
1040
0.0
1002
}
1002
}
1040
0.0
1002
{
1002
}
1010
1.0
1020
0.0
1030
0.0
1010
0.0
1020
1.0
1030
0.0
1010
0.0
1020
0.0
1030
1.0
1070
     0
1002
}
1002
{
1002
{
1040
1.0
1040
1.0
1002
{
1070
     1
1002
{
1040
1.0
1040
1.0
1000

1040
0.0
1002
{
1002
}
1040
0.0
1002
{
1002
}
1040
0.0
1002
}
1002
}
1002
}
1070
     0
1040
0.0
1002
{
1002
}
1002
}
1002
{
1002
}
1002
}
1002
{
1071
        3
1070
     3
1070
     0
1002
{
1070
     2
1070
     0
1070
     0
1040
0.0
1002
}
1070
     0
1070
     2
1002
{
1002
}
1002
}
1002
{
1040
8030.0
1040
190.3000030517578
1040
0.3050000071525574
1040
228.0
1040
545.0
1040
14.0
1040
17.39999961853027
1040
0.4560000002384186
1002
}
1002
}
  0
TEXT
  5
66A1
330
17
100
AcDbEntity
  8
0
100
AcDbText
 10
15.70152735233387
 20
13.71163062961682
 30
0.0
 40
0.07
  1

  7
ROMANS
 72
     4
 11
15.70152735233387
 21
13.71163062961682
 31
0.0
100
AcDbText
  0
TEXT
  5
66A2
330
17
100
AcDbEntity
  8
0
100
AcDbText
 10
16.32652735233387
 20
13.71163062961682
 30
0.0
 40
0.07
  1

  7
ROMANS
 72
     4
 11
16.32652735233387
 21
13.71163062961682
 31
0.0
100
AcDbText
  0
INSERT
  5
66A3
330
17
100
AcDbEntity
  8
ASHADE
 62
     1
100
AcDbBlockReference
  2
AVE_RENDER
 10
42.43075660999278
 20
-1.401590630886552
 30
0.0
1001
AVE_RENDER
1002
{
1070
     7
1000
Pref
1070
    30
1070
    20
1070
     1
1070
     0
1000

1070
    10
1070
     1
1070
    10
1040
1.0
1070
     1
1040
0.3
1040
0.7
1040
0.0
1040
10.0
1010
-1.0
1020
-1.0
1030
-1.0
1040
0.3
1070
    49
1070
     0
1070
     0
1010
1.0
1020
1.0
1030
1.0
1040
45.0
1070
     1
1070
     0
1000
WCS
1040
0.0
1070
     0
1040
10.0
1002
}
  0
INSERT
  5
66A4
330
17
100
AcDbEntity
  8
ASHADE
 62
     3
100
AcDbBlockReference
  2
AVE_RENDER
 10
42.43075660999278
 20
-1.401590630886552
 30
0.0
1001
AVE_RENDER
1002
{
1070
     0
1000
Full Opt
1070
     0
1070
     1
1070
     1
1070
     1
1070
     0
1070
     0
1070
     0
1070
     1
1070
     1
1040
0.0001
1040
0.0001
1002
}
  0
INSERT
  5
66A5
330
17
100
AcDbEntity
  8
ASHADE
 62
     4
100
AcDbBlockReference
  2
AVE_RENDER
 10
42.43075660999278
 20
-1.401590630886552
 30
0.0
1001
AVE_RENDER
1002
{
1070
     0
1000
Quick Opt
1070
     0
1070
     1
1070
     1
1070
     1
1070
     0
1070
     0
1070
     1
1002
}
  0
INSERT
  5
66A6
330
17
100
AcDbEntity
  8
ASHADE
 62
     5
100
AcDbBlockReference
  2
AVE_RENDER
 10
42.43075660999278
 20
-1.401590630886552
 30
0.0
1001
AVE_RENDER
1002
{
1070
     1
1000
Scanl Opt
1070
     2
1070
     0
1070
     2
1040
2.0
1040
4.0
1070
     0
1070
     1
1070
     0
1040
0.03
1002
}
  0
INSERT
  5
66A7
330
17
100
AcDbEntity
  8
ASHADE
 62
     6
100
AcDbBlockReference
  2
AVE_RENDER
 10
42.43075660999278
 20
-1.401590630886552
 30
0.0
1001
AVE_RENDER
1002
{
1070
     2
1000
Raytr Opt
1070
     2
1070
     0
1070
     2
1040
2.0
1040
4.0
1070
     0
1070
     1
1070
     1
1040
0.03
1070
     3
1040
0.03
1002
}
  0
INSERT
  5
66A8
330
17
100
AcDbEntity
  8
ASHADE
 62
     7
100
AcDbBlockReference
  2
AVE_RENDER
 10
42.43075660999278
 20
-1.401590630886552
 30
0.0
1001
AVE_RENDER
1002
{
1070
     0
1000
RFile Opt
1070
     1
1070
   640
1070
   480
1070
 10000
1070
     1
1070
     8
1070
     8
1070
     0
1070
     0
1070
     0
1070
     0
1070
     0
1070
     0
1070
     0
1002
}
  0
INSERT
  5
66A9
330
17
100
AcDbEntity
  8
ASHADE
 62
     8
100
AcDbBlockReference
  2
AVE_RENDER
 10
42.43075660999278
 20
-1.401590630886552
 30
0.0
1001
AVE_RENDER
1002
{
1070
     0
1000
Fog Opt
1070
     0
1070
     0
1040
0.0
1040
1.0
1040
0.0
1040
1.0
1010
0.5
1020
0.5
1030
0.5
1002
}
  0
INSERT
  5
66AA
330
17
100
AcDbEntity
  8
ASHADE
 62
     9
100
AcDbBlockReference
  2
AVE_RENDER
 10
42.43075660999278
 20
-1.401590630886552
 30
0.0
1001
AVE_RENDER
1002
{
1070
     0
1000
BG Opt
1070
     0
1070
     1
1010
0.0
1020
0.0
1030
0.0
1010
1.0
1020
0.0
1030
0.0
1010
0.0
1020
1.0
1030
0.0
1010
0.0
1020
0.0
1030
1.0
1040
0.5
1040
0.33
1040
0.0
1000

1070
     1
1000

1070
     1
1070
     1
1040
1.0
1040
1.0
1040
0.0
1040
0.0
1070
     0
1002
}
  0
INSERT
  5
66AB
330
17
100
AcDbEntity
  8
ASHADE
 62
     1
100
AcDbBlockReference
  2
AVE_GLOBAL
 10
42.43075660999278
 20
-1.401590630886552
 30
0.0
1001
AVE_MATERIAL
1002
{
1000
*GLOBAL*
1000
1
1000
Global finish.
1002
{
1002
}
1002
{
1070
    63
1002
{
1002
{
1010
-1.0
1020
-1.0
1030
-1.0
1002
}
1040
0.1000000014901161
1000

1040
0.0
1002
{
1002
}
1040
0.0
1002
{
1002
}
1040
0.0
1002
}
1002
{
1002
{
1010
-1.0
1020
-1.0
1030
-1.0
1002
}
1040
0.6999999880790711
1000

1040
0.0
1002
{
1002
}
1040
0.0
1002
{
1002
}
1040
0.0
1002
}
1002
{
1002
{
1010
-1.0
1020
-1.0
1030
-1.0
1002
}
1040
0.2000000029802322
1000

1040
0.0
1002
{
1002
}
1040
0.0
1002
{
1002
}
1040
0.0
1002
}
1002
{
1070
     0
1002
{
1070
     1
1002
{
1040
1.0
1040
1.0
1000

1040
0.0
1002
{
1002
}
1040
0.0
1002
{
1002
}
1040
0.0
1002
}
1002
}
1040
1.0
1040
0.0
1040
0.0
1002
}
1002
{
1040
1.0
1040
1.0
1000

1040
0.0
1002
{
1002
}
1040
0.0
1002
{
1002
}
1040
0.0
1002
}
1002
{
1040
0.5
1040
1.0
1000

1040
0.0
1002
{
1002
}
1040
0.0
1002
{
1002
}
1040
0.0
1002
}
1002
{
1070
     0
1040
0.0
1002
{
1002
}
1040
1.0
1002
{
1002
}
1040
0.0
1002
}
1002
{
1040
0.0
1002
{
1002
{
1010
0.0
1020
0.0
1030
0.0
1002
}
1040
1.0
1000

1040
0.0
1002
{
1002
}
1040
0.0
1002
{
1002
}
1040
0.0
1002
}
1002
}
1002
{
1002
{
1070
     1
1002
{
1040
0.0
1040
1.0
1000

1040
0.0
1002
{
1002
}
1040
0.0
1002
{
1002
}
1040
0.0
1002
}
1002
}
1040
0.0
1002
{
1002
}
1010
1.0
1020
0.0
1030
0.0
1010
0.0
1020
1.0
1030
0.0
1010
0.0
1020
0.0
1030
1.0
1070
     0
1002
}
1002
{
1002
{
1040
1.0
1040
1.0
1002
{
1070
     1
1002
{
1040
1.0
1040
1.0
1000

1040
0.0
1002
{
1002
}
1040
0.0
1002
{
1002
}
1040
0.0
1002
}
1002
}
1002
}
1070
     0
1040
0.0
1002
{
1002
}
1002
}
1002
{
1002
}
1002
}
1002
{
1071
        3
1070
     3
1070
     0
1002
{
1070
     2
1070
     0
1070
     0
1040
0.0
1002
}
1070
     0
1070
     2
1002
{
1002
}
1002
}
1002
{
1040
8030.0
1040
190.3000030517578
1040
0.3050000071525574
1040
228.0
1040
545.0
1040
14.0
1040
17.39999961853027
1040
0.4560000002384186
1002
}
1002
}
  0
TEXT
  5
66AC
330
17
100
AcDbEntity
  8
0
100
AcDbText
 10
18.57752162163858
 20
17.89980853898525
 30
0.0
 40
0.125
  1

  7
ROMANS
 72
     4
 11
18.57752162163858
 21
17.89980853898525
 31
0.0
100
AcDbText
  0
TEXT
  5
6C45
330
17
100
AcDbEntity
  8
0
100
AcDbText
 10
100.0699825319042
 20
20.87230391926264
 30
0.0
 40
0.07
  1

  7
ROMANS
 72
     4
 11
100.0699825319042
 21
20.87230391926264
 31
0.0
100
AcDbText
  0
TEXT
  5
6C46
330
17
100
AcDbEntity
  8
0
100
AcDbText
 10
100.6949825319042
 20
20.87230391926264
 30
0.0
 40
0.07
  1

  7
ROMANS
 72
     4
 11
100.6949825319042
 21
20.87230391926264
 31
0.0
100
AcDbText
  0
INSERT
  5
71DF
330
17
100
AcDbEntity
  8
ASHADE
 62
     1
100
AcDbBlockReference
  2
AVE_RENDER
 10
128.8649946139053
 20
2.500682540970728
 30
0.0
1001
AVE_RENDER
1002
{
1070
     7
1000
Pref
1070
    30
1070
    20
1070
     1
1070
     0
1000

1070
    10
1070
     1
1070
    10
1040
1.0
1070
     1
1040
0.3
1040
0.7
1040
0.0
1040
10.0
1010
-1.0
1020
-1.0
1030
-1.0
1040
0.3
1070
    49
1070
     0
1070
     0
1010
1.0
1020
1.0
1030
1.0
1040
45.0
1070
     1
1070
     0
1000
WCS
1040
0.0
1070
     0
1040
10.0
1002
}
  0
INSERT
  5
71E0
330
17
100
AcDbEntity
  8
ASHADE
 62
     3
100
AcDbBlockReference
  2
AVE_RENDER
 10
128.8649946139053
 20
2.500682540970728
 30
0.0
1001
AVE_RENDER
1002
{
1070
     0
1000
Full Opt
1070
     0
1070
     1
1070
     1
1070
     1
1070
     0
1070
     0
1070
     0
1070
     1
1070
     1
1040
0.0001
1040
0.0001
1002
}
  0
INSERT
  5
71E1
330
17
100
AcDbEntity
  8
ASHADE
 62
     4
100
AcDbBlockReference
  2
AVE_RENDER
 10
128.8649946139053
 20
2.500682540970728
 30
0.0
1001
AVE_RENDER
1002
{
1070
     0
1000
Quick Opt
1070
     0
1070
     1
1070
     1
1070
     1
1070
     0
1070
     0
1070
     1
1002
}
  0
INSERT
  5
71E2
330
17
100
AcDbEntity
  8
ASHADE
 62
     5
100
AcDbBlockReference
  2
AVE_RENDER
 10
128.8649946139053
 20
2.500682540970728
 30
0.0
1001
AVE_RENDER
1002
{
1070
     1
1000
Scanl Opt
1070
     2
1070
     0
1070
     2
1040
2.0
1040
4.0
1070
     0
1070
     1
1070
     0
1040
0.03
1002
}
  0
INSERT
  5
71E3
330
17
100
AcDbEntity
  8
ASHADE
 62
     6
100
AcDbBlockReference
  2
AVE_RENDER
 10
128.8649946139053
 20
2.500682540970728
 30
0.0
1001
AVE_RENDER
1002
{
1070
     2
1000
Raytr Opt
1070
     2
1070
     0
1070
     2
1040
2.0
1040
4.0
1070
     0
1070
     1
1070
     1
1040
0.03
1070
     3
1040
0.03
1002
}
  0
INSERT
  5
71E4
330
17
100
AcDbEntity
  8
ASHADE
 62
     7
100
AcDbBlockReference
  2
AVE_RENDER
 10
128.8649946139053
 20
2.500682540970728
 30
0.0
1001
AVE_RENDER
1002
{
1070
     0
1000
RFile Opt
1070
     1
1070
   640
1070
   480
1070
 10000
1070
     1
1070
     8
1070
     8
1070
     0
1070
     0
1070
     0
1070
     0
1070
     0
1070
     0
1070
     0
1002
}
  0
INSERT
  5
71E5
330
17
100
AcDbEntity
  8
ASHADE
 62
     8
100
AcDbBlockReference
  2
AVE_RENDER
 10
128.8649946139053
 20
2.500682540970728
 30
0.0
1001
AVE_RENDER
1002
{
1070
     0
1000
Fog Opt
1070
     0
1070
     0
1040
0.0
1040
1.0
1040
0.0
1040
1.0
1010
0.5
1020
0.5
1030
0.5
1002
}
  0
INSERT
  5
71E6
330
17
100
AcDbEntity
  8
ASHADE
 62
     9
100
AcDbBlockReference
  2
AVE_RENDER
 10
128.8649946139053
 20
2.500682540970728
 30
0.0
1001
AVE_RENDER
1002
{
1070
     0
1000
BG Opt
1070
     0
1070
     1
1010
0.0
1020
0.0
1030
0.0
1010
1.0
1020
0.0
1030
0.0
1010
0.0
1020
1.0
1030
0.0
1010
0.0
1020
0.0
1030
1.0
1040
0.5
1040
0.33
1040
0.0
1000

1070
     1
1000

1070
     1
1070
     1
1040
1.0
1040
1.0
1040
0.0
1040
0.0
1070
     0
1002
}
  0
INSERT
  5
71E7
330
17
100
AcDbEntity
  8
ASHADE
 62
     1
100
AcDbBlockReference
  2
AVE_GLOBAL
 10
128.8649946139053
 20
2.500682540970728
 30
0.0
1001
AVE_MATERIAL
1002
{
1000
*GLOBAL*
1000
1
1000
Global finish.
1002
{
1002
}
1002
{
1070
    63
1002
{
1002
{
1010
-1.0
1020
-1.0
1030
-1.0
1002
}
1040
0.1000000014901161
1000

1040
0.0
1002
{
1002
}
1040
0.0
1002
{
1002
}
1040
0.0
1002
}
1002
{
1002
{
1010
-1.0
1020
-1.0
1030
-1.0
1002
}
1040
0.6999999880790711
1000

1040
0.0
1002
{
1002
}
1040
0.0
1002
{
1002
}
1040
0.0
1002
}
1002
{
1002
{
1010
-1.0
1020
-1.0
1030
-1.0
1002
}
1040
0.2000000029802322
1000

1040
0.0
1002
{
1002
}
1040
0.0
1002
{
1002
}
1040
0.0
1002
}
1002
{
1070
     0
1002
{
1070
     1
1002
{
1040
1.0
1040
1.0
1000

1040
0.0
1002
{
1002
}
1040
0.0
1002
{
1002
}
1040
0.0
1002
}
1002
}
1040
1.0
1040
0.0
1040
0.0
1002
}
1002
{
1040
1.0
1040
1.0
1000

1040
0.0
1002
{
1002
}
1040
0.0
1002
{
1002
}
1040
0.0
1002
}
1002
{
1040
0.5
1040
1.0
1000

1040
0.0
1002
{
1002
}
1040
0.0
1002
{
1002
}
1040
0.0
1002
}
1002
{
1070
     0
1040
0.0
1002
{
1002
}
1040
1.0
1002
{
1002
}
1040
0.0
1002
}
1002
{
1040
0.0
1002
{
1002
{
1010
0.0
1020
0.0
1030
0.0
1002
}
1040
1.0
1000

1040
0.0
1002
{
1002
}
1040
0.0
1002
{
1002
}
1040
0.0
1002
}
1002
}
1002
{
1002
{
1070
     1
1002
{
1040
0.0
1040
1.0
1000

1040
0.0
1002
{
1002
}
1040
0.0
1002
{
1002
}
1040
0.0
1002
}
1002
}
1040
0.0
1002
{
1002
}
1010
1.0
1020
0.0
1030
0.0
1010
0.0
1020
1.0
1030
0.0
1010
0.0
1020
0.0
1030
1.0
1070
     0
1002
}
1002
{
1002
{
1040
1.0
1040
1.0
1002
{
1070
     1
1002
{
1040
1.0
1040
1.0
1000

1040
0.0
1002
{
1002
}
1040
0.0
1002
{
1002
}
1040
0.0
1002
}
1002
}
1002
}
1070
     0
1040
0.0
1002
{
1002
}
1002
}
1002
{
1002
}
1002
}
1002
{
1071
        3
1070
     3
1070
     0
1002
{
1070
     2
1070
     0
1070
     0
1040
0.0
1002
}
1070
     0
1070
     2
1002
{
1002
}
1002
}
1002
{
1040
8030.0
1040
190.3000030517578
1040
0.3050000071525574
1040
228.0
1040
545.0
1040
14.0
1040
17.39999961853027
1040
0.4560000002384186
1002
}
1002
}
  0
TEXT
  5
71E8
330
17
100
AcDbEntity
  8
0
100
AcDbText
 10
171.3028321408891
 20
18.1470347154926
 30
0.0
 40
0.07
  1

  7
ROMANS
 72
     4
 11
171.3028321408891
 21
18.1470347154926
 31
0.0
100
AcDbText
  0
TEXT
  5
71E9
330
17
100
AcDbEntity
  8
0
100
AcDbText
 10
171.9278321408891
 20
18.1470347154926
 30
0.0
 40
0.07
  1

  7
ROMANS
 72
     4
 11
171.9278321408891
 21
18.1470347154926
 31
0.0
100
AcDbText
  0
INSERT
  5
71EA
330
17
100
AcDbEntity
  8
ASHADE
 62
     1
100
AcDbBlockReference
  2
AVE_RENDER
 10
198.032061398548
 20
3.033813454989228
 30
0.0
1001
AVE_RENDER
1002
{
1070
     7
1000
Pref
1070
    30
1070
    20
1070
     1
1070
     0
1000

1070
    10
1070
     1
1070
    10
1040
1.0
1070
     1
1040
0.3
1040
0.7
1040
0.0
1040
10.0
1010
-1.0
1020
-1.0
1030
-1.0
1040
0.3
1070
    49
1070
     0
1070
     0
1010
1.0
1020
1.0
1030
1.0
1040
45.0
1070
     1
1070
     0
1000
WCS
1040
0.0
1070
     0
1040
10.0
1002
}
  0
INSERT
  5
71EB
330
17
100
AcDbEntity
  8
ASHADE
 62
     3
100
AcDbBlockReference
  2
AVE_RENDER
 10
198.032061398548
 20
3.033813454989228
 30
0.0
1001
AVE_RENDER
1002
{
1070
     0
1000
Full Opt
1070
     0
1070
     1
1070
     1
1070
     1
1070
     0
1070
     0
1070
     0
1070
     1
1070
     1
1040
0.0001
1040
0.0001
1002
}
  0
INSERT
  5
71EC
330
17
100
AcDbEntity
  8
ASHADE
 62
     4
100
AcDbBlockReference
  2
AVE_RENDER
 10
198.032061398548
 20
3.033813454989228
 30
0.0
1001
AVE_RENDER
1002
{
1070
     0
1000
Quick Opt
1070
     0
1070
     1
1070
     1
1070
     1
1070
     0
1070
     0
1070
     1
1002
}
  0
INSERT
  5
71ED
330
17
100
AcDbEntity
  8
ASHADE
 62
     5
100
AcDbBlockReference
  2
AVE_RENDER
 10
198.032061398548
 20
3.033813454989228
 30
0.0
1001
AVE_RENDER
1002
{
1070
     1
1000
Scanl Opt
1070
     2
1070
     0
1070
     2
1040
2.0
1040
4.0
1070
     0
1070
     1
1070
     0
1040
0.03
1002
}
  0
INSERT
  5
71EE
330
17
100
AcDbEntity
  8
ASHADE
 62
     6
100
AcDbBlockReference
  2
AVE_RENDER
 10
198.032061398548
 20
3.033813454989228
 30
0.0
1001
AVE_RENDER
1002
{
1070
     2
1000
Raytr Opt
1070
     2
1070
     0
1070
     2
1040
2.0
1040
4.0
1070
     0
1070
     1
1070
     1
1040
0.03
1070
     3
1040
0.03
1002
}
  0
INSERT
  5
71EF
330
17
100
AcDbEntity
  8
ASHADE
 62
     7
100
AcDbBlockReference
  2
AVE_RENDER
 10
198.032061398548
 20
3.033813454989228
 30
0.0
1001
AVE_RENDER
1002
{
1070
     0
1000
RFile Opt
1070
     1
1070
   640
1070
   480
1070
 10000
1070
     1
1070
     8
1070
     8
1070
     0
1070
     0
1070
     0
1070
     0
1070
     0
1070
     0
1070
     0
1002
}
  0
INSERT
  5
71F0
330
17
100
AcDbEntity
  8
ASHADE
 62
     8
100
AcDbBlockReference
  2
AVE_RENDER
 10
198.032061398548
 20
3.033813454989228
 30
0.0
1001
AVE_RENDER
1002
{
1070
     0
1000
Fog Opt
1070
     0
1070
     0
1040
0.0
1040
1.0
1040
0.0
1040
1.0
1010
0.5
1020
0.5
1030
0.5
1002
}
  0
INSERT
  5
71F1
330
17
100
AcDbEntity
  8
ASHADE
 62
     9
100
AcDbBlockReference
  2
AVE_RENDER
 10
198.032061398548
 20
3.033813454989228
 30
0.0
1001
AVE_RENDER
1002
{
1070
     0
1000
BG Opt
1070
     0
1070
     1
1010
0.0
1020
0.0
1030
0.0
1010
1.0
1020
0.0
1030
0.0
1010
0.0
1020
1.0
1030
0.0
1010
0.0
1020
0.0
1030
1.0
1040
0.5
1040
0.33
1040
0.0
1000

1070
     1
1000

1070
     1
1070
     1
1040
1.0
1040
1.0
1040
0.0
1040
0.0
1070
     0
1002
}
  0
INSERT
  5
71F2
330
17
100
AcDbEntity
  8
ASHADE
 62
     1
100
AcDbBlockReference
  2
AVE_GLOBAL
 10
198.032061398548
 20
3.033813454989228
 30
0.0
1001
AVE_MATERIAL
1002
{
1000
*GLOBAL*
1000
1
1000
Global finish.
1002
{
1002
}
1002
{
1070
    63
1002
{
1002
{
1010
-1.0
1020
-1.0
1030
-1.0
1002
}
1040
0.1000000014901161
1000

1040
0.0
1002
{
1002
}
1040
0.0
1002
{
1002
}
1040
0.0
1002
}
1002
{
1002
{
1010
-1.0
1020
-1.0
1030
-1.0
1002
}
1040
0.6999999880790711
1000

1040
0.0
1002
{
1002
}
1040
0.0
1002
{
1002
}
1040
0.0
1002
}
1002
{
1002
{
1010
-1.0
1020
-1.0
1030
-1.0
1002
}
1040
0.2000000029802322
1000

1040
0.0
1002
{
1002
}
1040
0.0
1002
{
1002
}
1040
0.0
1002
}
1002
{
1070
     0
1002
{
1070
     1
1002
{
1040
1.0
1040
1.0
1000

1040
0.0
1002
{
1002
}
1040
0.0
1002
{
1002
}
1040
0.0
1002
}
1002
}
1040
1.0
1040
0.0
1040
0.0
1002
}
1002
{
1040
1.0
1040
1.0
1000

1040
0.0
1002
{
1002
}
1040
0.0
1002
{
1002
}
1040
0.0
1002
}
1002
{
1040
0.5
1040
1.0
1000

1040
0.0
1002
{
1002
}
1040
0.0
1002
{
1002
}
1040
0.0
1002
}
1002
{
1070
     0
1040
0.0
1002
{
1002
}
1040
1.0
1002
{
1002
}
1040
0.0
1002
}
1002
{
1040
0.0
1002
{
1002
{
1010
0.0
1020
0.0
1030
0.0
1002
}
1040
1.0
1000

1040
0.0
1002
{
1002
}
1040
0.0
1002
{
1002
}
1040
0.0
1002
}
1002
}
1002
{
1002
{
1070
     1
1002
{
1040
0.0
1040
1.0
1000

1040
0.0
1002
{
1002
}
1040
0.0
1002
{
1002
}
1040
0.0
1002
}
1002
}
1040
0.0
1002
{
1002
}
1010
1.0
1020
0.0
1030
0.0
1010
0.0
1020
1.0
1030
0.0
1010
0.0
1020
0.0
1030
1.0
1070
     0
1002
}
1002
{
1002
{
1040
1.0
1040
1.0
1002
{
1070
     1
1002
{
1040
1.0
1040
1.0
1000

1040
0.0
1002
{
1002
}
1040
0.0
1002
{
1002
}
1040
0.0
1002
}
1002
}
1002
}
1070
     0
1040
0.0
1002
{
1002
}
1002
}
1002
{
1002
}
1002
}
1002
{
1071
        3
1070
     3
1070
     0
1002
{
1070
     2
1070
     0
1070
     0
1040
0.0
1002
}
1070
     0
1070
     2
1002
{
1002
}
1002
}
1002
{
1040
8030.0
1040
190.3000030517578
1040
0.3050000071525574
1040
228.0
1040
545.0
1040
14.0
1040
17.39999961853027
1040
0.4560000002384186
1002
}
1002
}
  0
TEXT
  5
71F3
330
17
100
AcDbEntity
  8
0
100
AcDbText
 10
174.1788264101938
 20
22.33521262486103
 30
0.0
 40
0.125
  1

  7
ROMANS
 72
     4
 11
174.1788264101938
 21
22.33521262486103
 31
0.0
100
AcDbText
  0
INSERT
  5
778C
330
17
100
AcDbEntity
  8
ASHADE
 62
     1
100
AcDbBlockReference
  2
AVE_RENDER
 10
152.7667012467457
 20
2.508684491539625
 30
0.0
1001
AVE_RENDER
1002
{
1070
     7
1000
Pref
1070
    30
1070
    20
1070
     1
1070
     0
1000

1070
    10
1070
     1
1070
    10
1040
1.0
1070
     1
1040
0.3
1040
0.7
1040
0.0
1040
10.0
1010
-1.0
1020
-1.0
1030
-1.0
1040
0.3
1070
    49
1070
     0
1070
     0
1010
1.0
1020
1.0
1030
1.0
1040
45.0
1070
     1
1070
     0
1000
WCS
1040
0.0
1070
     0
1040
10.0
1002
}
  0
INSERT
  5
778D
330
17
100
AcDbEntity
  8
ASHADE
 62
     3
100
AcDbBlockReference
  2
AVE_RENDER
 10
152.7667012467457
 20
2.508684491539625
 30
0.0
1001
AVE_RENDER
1002
{
1070
     0
1000
Full Opt
1070
     0
1070
     1
1070
     1
1070
     1
1070
     0
1070
     0
1070
     0
1070
     1
1070
     1
1040
0.0001
1040
0.0001
1002
}
  0
INSERT
  5
778E
330
17
100
AcDbEntity
  8
ASHADE
 62
     4
100
AcDbBlockReference
  2
AVE_RENDER
 10
152.7667012467457
 20
2.508684491539625
 30
0.0
1001
AVE_RENDER
1002
{
1070
     0
1000
Quick Opt
1070
     0
1070
     1
1070
     1
1070
     1
1070
     0
1070
     0
1070
     1
1002
}
  0
INSERT
  5
778F
330
17
100
AcDbEntity
  8
ASHADE
 62
     5
100
AcDbBlockReference
  2
AVE_RENDER
 10
152.7667012467457
 20
2.508684491539625
 30
0.0
1001
AVE_RENDER
1002
{
1070
     1
1000
Scanl Opt
1070
     2
1070
     0
1070
     2
1040
2.0
1040
4.0
1070
     0
1070
     1
1070
     0
1040
0.03
1002
}
  0
INSERT
  5
7790
330
17
100
AcDbEntity
  8
ASHADE
 62
     6
100
AcDbBlockReference
  2
AVE_RENDER
 10
152.7667012467457
 20
2.508684491539625
 30
0.0
1001
AVE_RENDER
1002
{
1070
     2
1000
Raytr Opt
1070
     2
1070
     0
1070
     2
1040
2.0
1040
4.0
1070
     0
1070
     1
1070
     1
1040
0.03
1070
     3
1040
0.03
1002
}
  0
INSERT
  5
7791
330
17
100
AcDbEntity
  8
ASHADE
 62
     7
100
AcDbBlockReference
  2
AVE_RENDER
 10
152.7667012467457
 20
2.508684491539625
 30
0.0
1001
AVE_RENDER
1002
{
1070
     0
1000
RFile Opt
1070
     1
1070
   640
1070
   480
1070
 10000
1070
     1
1070
     8
1070
     8
1070
     0
1070
     0
1070
     0
1070
     0
1070
     0
1070
     0
1070
     0
1002
}
  0
INSERT
  5
7792
330
17
100
AcDbEntity
  8
ASHADE
 62
     8
100
AcDbBlockReference
  2
AVE_RENDER
 10
152.7667012467457
 20
2.508684491539625
 30
0.0
1001
AVE_RENDER
1002
{
1070
     0
1000
Fog Opt
1070
     0
1070
     0
1040
0.0
1040
1.0
1040
0.0
1040
1.0
1010
0.5
1020
0.5
1030
0.5
1002
}
  0
INSERT
  5
7793
330
17
100
AcDbEntity
  8
ASHADE
 62
     9
100
AcDbBlockReference
  2
AVE_RENDER
 10
152.7667012467457
 20
2.508684491539625
 30
0.0
1001
AVE_RENDER
1002
{
1070
     0
1000
BG Opt
1070
     0
1070
     1
1010
0.0
1020
0.0
1030
0.0
1010
1.0
1020
0.0
1030
0.0
1010
0.0
1020
1.0
1030
0.0
1010
0.0
1020
0.0
1030
1.0
1040
0.5
1040
0.33
1040
0.0
1000

1070
     1
1000

1070
     1
1070
     1
1040
1.0
1040
1.0
1040
0.0
1040
0.0
1070
     0
1002
}
  0
INSERT
  5
7794
330
17
100
AcDbEntity
  8
ASHADE
 62
     1
100
AcDbBlockReference
  2
AVE_GLOBAL
 10
152.7667012467457
 20
2.508684491539625
 30
0.0
1001
AVE_MATERIAL
1002
{
1000
*GLOBAL*
1000
1
1000
Global finish.
1002
{
1002
}
1002
{
1070
    63
1002
{
1002
{
1010
-1.0
1020
-1.0
1030
-1.0
1002
}
1040
0.1000000014901161
1000

1040
0.0
1002
{
1002
}
1040
0.0
1002
{
1002
}
1040
0.0
1002
}
1002
{
1002
{
1010
-1.0
1020
-1.0
1030
-1.0
1002
}
1040
0.6999999880790711
1000

1040
0.0
1002
{
1002
}
1040
0.0
1002
{
1002
}
1040
0.0
1002
}
1002
{
1002
{
1010
-1.0
1020
-1.0
1030
-1.0
1002
}
1040
0.2000000029802322
1000

1040
0.0
1002
{
1002
}
1040
0.0
1002
{
1002
}
1040
0.0
1002
}
1002
{
1070
     0
1002
{
1070
     1
1002
{
1040
1.0
1040
1.0
1000

1040
0.0
1002
{
1002
}
1040
0.0
1002
{
1002
}
1040
0.0
1002
}
1002
}
1040
1.0
1040
0.0
1040
0.0
1002
}
1002
{
1040
1.0
1040
1.0
1000

1040
0.0
1002
{
1002
}
1040
0.0
1002
{
1002
}
1040
0.0
1002
}
1002
{
1040
0.5
1040
1.0
1000

1040
0.0
1002
{
1002
}
1040
0.0
1002
{
1002
}
1040
0.0
1002
}
1002
{
1070
     0
1040
0.0
1002
{
1002
}
1040
1.0
1002
{
1002
}
1040
0.0
1002
}
1002
{
1040
0.0
1002
{
1002
{
1010
0.0
1020
0.0
1030
0.0
1002
}
1040
1.0
1000

1040
0.0
1002
{
1002
}
1040
0.0
1002
{
1002
}
1040
0.0
1002
}
1002
}
1002
{
1002
{
1070
     1
1002
{
1040
0.0
1040
1.0
1000

1040
0.0
1002
{
1002
}
1040
0.0
1002
{
1002
}
1040
0.0
1002
}
1002
}
1040
0.0
1002
{
1002
}
1010
1.0
1020
0.0
1030
0.0
1010
0.0
1020
1.0
1030
0.0
1010
0.0
1020
0.0
1030
1.0
1070
     0
1002
}
1002
{
1002
{
1040
1.0
1040
1.0
1002
{
1070
     1
1002
{
1040
1.0
1040
1.0
1000

1040
0.0
1002
{
1002
}
1040
0.0
1002
{
1002
}
1040
0.0
1002
}
1002
}
1002
}
1070
     0
1040
0.0
1002
{
1002
}
1002
}
1002
{
1002
}
1002
}
1002
{
1071
        3
1070
     3
1070
     0
1002
{
1070
     2
1070
     0
1070
     0
1040
0.0
1002
}
1070
     0
1070
     2
1002
{
1002
}
1002
}
1002
{
1040
8030.0
1040
190.3000030517578
1040
0.3050000071525574
1040
228.0
1040
545.0
1040
14.0
1040
17.39999961853027
1040
0.4560000002384186
1002
}
1002
}
  0
TEXT
  5
7795
330
17
100
AcDbEntity
  8
0
100
AcDbText
 10
195.2045387737296
 20
18.15503666606149
 30
0.0
 40
0.07
  1

  7
ROMANS
 72
     4
 11
195.2045387737296
 21
18.15503666606149
 31
0.0
100
AcDbText
  0
TEXT
  5
7796
330
17
100
AcDbEntity
  8
0
100
AcDbText
 10
195.8295387737296
 20
18.15503666606149
 30
0.0
 40
0.07
  1

  7
ROMANS
 72
     4
 11
195.8295387737296
 21
18.15503666606149
 31
0.0
100
AcDbText
  0
INSERT
  5
7797
330
17
100
AcDbEntity
  8
ASHADE
 62
     1
100
AcDbBlockReference
  2
AVE_RENDER
 10
221.9337680313885
 20
3.041815405558125
 30
0.0
1001
AVE_RENDER
1002
{
1070
     7
1000
Pref
1070
    30
1070
    20
1070
     1
1070
     0
1000

1070
    10
1070
     1
1070
    10
1040
1.0
1070
     1
1040
0.3
1040
0.7
1040
0.0
1040
10.0
1010
-1.0
1020
-1.0
1030
-1.0
1040
0.3
1070
    49
1070
     0
1070
     0
1010
1.0
1020
1.0
1030
1.0
1040
45.0
1070
     1
1070
     0
1000
WCS
1040
0.0
1070
     0
1040
10.0
1002
}
  0
INSERT
  5
7798
330
17
100
AcDbEntity
  8
ASHADE
 62
     3
100
AcDbBlockReference
  2
AVE_RENDER
 10
221.9337680313885
 20
3.041815405558125
 30
0.0
1001
AVE_RENDER
1002
{
1070
     0
1000
Full Opt
1070
     0
1070
     1
1070
     1
1070
     1
1070
     0
1070
     0
1070
     0
1070
     1
1070
     1
1040
0.0001
1040
0.0001
1002
}
  0
INSERT
  5
7799
330
17
100
AcDbEntity
  8
ASHADE
 62
     4
100
AcDbBlockReference
  2
AVE_RENDER
 10
221.9337680313885
 20
3.041815405558125
 30
0.0
1001
AVE_RENDER
1002
{
1070
     0
1000
Quick Opt
1070
     0
1070
     1
1070
     1
1070
     1
1070
     0
1070
     0
1070
     1
1002
}
  0
INSERT
  5
779A
330
17
100
AcDbEntity
  8
ASHADE
 62
     5
100
AcDbBlockReference
  2
AVE_RENDER
 10
221.9337680313885
 20
3.041815405558125
 30
0.0
1001
AVE_RENDER
1002
{
1070
     1
1000
Scanl Opt
1070
     2
1070
     0
1070
     2
1040
2.0
1040
4.0
1070
     0
1070
     1
1070
     0
1040
0.03
1002
}
  0
INSERT
  5
779B
330
17
100
AcDbEntity
  8
ASHADE
 62
     6
100
AcDbBlockReference
  2
AVE_RENDER
 10
221.9337680313885
 20
3.041815405558125
 30
0.0
1001
AVE_RENDER
1002
{
1070
     2
1000
Raytr Opt
1070
     2
1070
     0
1070
     2
1040
2.0
1040
4.0
1070
     0
1070
     1
1070
     1
1040
0.03
1070
     3
1040
0.03
1002
}
  0
INSERT
  5
779C
330
17
100
AcDbEntity
  8
ASHADE
 62
     7
100
AcDbBlockReference
  2
AVE_RENDER
 10
221.9337680313885
 20
3.041815405558125
 30
0.0
1001
AVE_RENDER
1002
{
1070
     0
1000
RFile Opt
1070
     1
1070
   640
1070
   480
1070
 10000
1070
     1
1070
     8
1070
     8
1070
     0
1070
     0
1070
     0
1070
     0
1070
     0
1070
     0
1070
     0
1002
}
  0
INSERT
  5
779D
330
17
100
AcDbEntity
  8
ASHADE
 62
     8
100
AcDbBlockReference
  2
AVE_RENDER
 10
221.9337680313885
 20
3.041815405558125
 30
0.0
1001
AVE_RENDER
1002
{
1070
     0
1000
Fog Opt
1070
     0
1070
     0
1040
0.0
1040
1.0
1040
0.0
1040
1.0
1010
0.5
1020
0.5
1030
0.5
1002
}
  0
INSERT
  5
779E
330
17
100
AcDbEntity
  8
ASHADE
 62
     9
100
AcDbBlockReference
  2
AVE_RENDER
 10
221.9337680313885
 20
3.041815405558125
 30
0.0
1001
AVE_RENDER
1002
{
1070
     0
1000
BG Opt
1070
     0
1070
     1
1010
0.0
1020
0.0
1030
0.0
1010
1.0
1020
0.0
1030
0.0
1010
0.0
1020
1.0
1030
0.0
1010
0.0
1020
0.0
1030
1.0
1040
0.5
1040
0.33
1040
0.0
1000

1070
     1
1000

1070
     1
1070
     1
1040
1.0
1040
1.0
1040
0.0
1040
0.0
1070
     0
1002
}
  0
INSERT
  5
779F
330
17
100
AcDbEntity
  8
ASHADE
 62
     1
100
AcDbBlockReference
  2
AVE_GLOBAL
 10
221.9337680313885
 20
3.041815405558125
 30
0.0
1001
AVE_MATERIAL
1002
{
1000
*GLOBAL*
1000
1
1000
Global finish.
1002
{
1002
}
1002
{
1070
    63
1002
{
1002
{
1010
-1.0
1020
-1.0
1030
-1.0
1002
}
1040
0.1000000014901161
1000

1040
0.0
1002
{
1002
}
1040
0.0
1002
{
1002
}
1040
0.0
1002
}
1002
{
1002
{
1010
-1.0
1020
-1.0
1030
-1.0
1002
}
1040
0.6999999880790711
1000

1040
0.0
1002
{
1002
}
1040
0.0
1002
{
1002
}
1040
0.0
1002
}
1002
{
1002
{
1010
-1.0
1020
-1.0
1030
-1.0
1002
}
1040
0.2000000029802322
1000

1040
0.0
1002
{
1002
}
1040
0.0
1002
{
1002
}
1040
0.0
1002
}
1002
{
1070
     0
1002
{
1070
     1
1002
{
1040
1.0
1040
1.0
1000

1040
0.0
1002
{
1002
}
1040
0.0
1002
{
1002
}
1040
0.0
1002
}
1002
}
1040
1.0
1040
0.0
1040
0.0
1002
}
1002
{
1040
1.0
1040
1.0
1000

1040
0.0
1002
{
1002
}
1040
0.0
1002
{
1002
}
1040
0.0
1002
}
1002
{
1040
0.5
1040
1.0
1000

1040
0.0
1002
{
1002
}
1040
0.0
1002
{
1002
}
1040
0.0
1002
}
1002
{
1070
     0
1040
0.0
1002
{
1002
}
1040
1.0
1002
{
1002
}
1040
0.0
1002
}
1002
{
1040
0.0
1002
{
1002
{
1010
0.0
1020
0.0
1030
0.0
1002
}
1040
1.0
1000

1040
0.0
1002
{
1002
}
1040
0.0
1002
{
1002
}
1040
0.0
1002
}
1002
}
1002
{
1002
{
1070
     1
1002
{
1040
0.0
1040
1.0
1000

1040
0.0
1002
{
1002
}
1040
0.0
1002
{
1002
}
1040
0.0
1002
}
1002
}
1040
0.0
1002
{
1002
}
1010
1.0
1020
0.0
1030
0.0
1010
0.0
1020
1.0
1030
0.0
1010
0.0
1020
0.0
1030
1.0
1070
     0
1002
}
1002
{
1002
{
1040
1.0
1040
1.0
1002
{
1070
     1
1002
{
1040
1.0
1040
1.0
1000

1040
0.0
1002
{
1002
}
1040
0.0
1002
{
1002
}
1040
0.0
1002
}
1002
}
1002
}
1070
     0
1040
0.0
1002
{
1002
}
1002
}
1002
{
1002
}
1002
}
1002
{
1071
        3
1070
     3
1070
     0
1002
{
1070
     2
1070
     0
1070
     0
1040
0.0
1002
}
1070
     0
1070
     2
1002
{
1002
}
1002
}
1002
{
1040
8030.0
1040
190.3000030517578
1040
0.3050000071525574
1040
228.0
1040
545.0
1040
14.0
1040
17.39999961853027
1040
0.4560000002384186
1002
}
1002
}
  0
TEXT
  5
77A0
330
17
100
AcDbEntity
  8
0
100
AcDbText
 10
198.0805330430343
 20
22.34321457542992
 30
0.0
 40
0.125
  1

  7
ROMANS
 72
     4
 11
198.0805330430343
 21
22.34321457542992
 31
0.0
100
AcDbText
  0
INSERT
  5
82D1
330
17
100
AcDbEntity
  8
ASHADE
 62
     1
100
AcDbBlockReference
  2
AVE_RENDER
 10
-11.38269069823991
 20
5.092135968565855
 30
0.0
1001
AVE_RENDER
1002
{
1070
     7
1000
Pref
1070
    30
1070
    20
1070
     1
1070
     0
1000

1070
    10
1070
     1
1070
    10
1040
1.0
1070
     1
1040
0.3
1040
0.7
1040
0.0
1040
10.0
1010
-1.0
1020
-1.0
1030
-1.0
1040
0.3
1070
    49
1070
     0
1070
     0
1010
1.0
1020
1.0
1030
1.0
1040
45.0
1070
     1
1070
     0
1000
WCS
1040
0.0
1070
     0
1040
10.0
1002
}
  0
INSERT
  5
82D2
330
17
100
AcDbEntity
  8
ASHADE
 62
     3
100
AcDbBlockReference
  2
AVE_RENDER
 10
-11.38269069823991
 20
5.092135968565855
 30
0.0
1001
AVE_RENDER
1002
{
1070
     0
1000
Full Opt
1070
     0
1070
     1
1070
     1
1070
     1
1070
     0
1070
     0
1070
     0
1070
     1
1070
     1
1040
0.0001
1040
0.0001
1002
}
  0
INSERT
  5
82D3
330
17
100
AcDbEntity
  8
ASHADE
 62
     4
100
AcDbBlockReference
  2
AVE_RENDER
 10
-11.38269069823991
 20
5.092135968565855
 30
0.0
1001
AVE_RENDER
1002
{
1070
     0
1000
Quick Opt
1070
     0
1070
     1
1070
     1
1070
     1
1070
     0
1070
     0
1070
     1
1002
}
  0
INSERT
  5
82D4
330
17
100
AcDbEntity
  8
ASHADE
 62
     5
100
AcDbBlockReference
  2
AVE_RENDER
 10
-11.38269069823991
 20
5.092135968565855
 30
0.0
1001
AVE_RENDER
1002
{
1070
     1
1000
Scanl Opt
1070
     2
1070
     0
1070
     2
1040
2.0
1040
4.0
1070
     0
1070
     1
1070
     0
1040
0.03
1002
}
  0
INSERT
  5
82D5
330
17
100
AcDbEntity
  8
ASHADE
 62
     6
100
AcDbBlockReference
  2
AVE_RENDER
 10
-11.38269069823991
 20
5.092135968565855
 30
0.0
1001
AVE_RENDER
1002
{
1070
     2
1000
Raytr Opt
1070
     2
1070
     0
1070
     2
1040
2.0
1040
4.0
1070
     0
1070
     1
1070
     1
1040
0.03
1070
     3
1040
0.03
1002
}
  0
INSERT
  5
82D6
330
17
100
AcDbEntity
  8
ASHADE
 62
     7
100
AcDbBlockReference
  2
AVE_RENDER
 10
-11.38269069823991
 20
5.092135968565855
 30
0.0
1001
AVE_RENDER
1002
{
1070
     0
1000
RFile Opt
1070
     1
1070
   640
1070
   480
1070
 10000
1070
     1
1070
     8
1070
     8
1070
     0
1070
     0
1070
     0
1070
     0
1070
     0
1070
     0
1070
     0
1002
}
  0
INSERT
  5
82D7
330
17
100
AcDbEntity
  8
ASHADE
 62
     8
100
AcDbBlockReference
  2
AVE_RENDER
 10
-11.38269069823991
 20
5.092135968565855
 30
0.0
1001
AVE_RENDER
1002
{
1070
     0
1000
Fog Opt
1070
     0
1070
     0
1040
0.0
1040
1.0
1040
0.0
1040
1.0
1010
0.5
1020
0.5
1030
0.5
1002
}
  0
INSERT
  5
82D8
330
17
100
AcDbEntity
  8
ASHADE
 62
     9
100
AcDbBlockReference
  2
AVE_RENDER
 10
-11.38269069823991
 20
5.092135968565855
 30
0.0
1001
AVE_RENDER
1002
{
1070
     0
1000
BG Opt
1070
     0
1070
     1
1010
0.0
1020
0.0
1030
0.0
1010
1.0
1020
0.0
1030
0.0
1010
0.0
1020
1.0
1030
0.0
1010
0.0
1020
0.0
1030
1.0
1040
0.5
1040
0.33
1040
0.0
1000

1070
     1
1000

1070
     1
1070
     1
1040
1.0
1040
1.0
1040
0.0
1040
0.0
1070
     0
1002
}
  0
INSERT
  5
82D9
330
17
100
AcDbEntity
  8
ASHADE
 62
     1
100
AcDbBlockReference
  2
AVE_GLOBAL
 10
-11.38269069823991
 20
5.092135968565855
 30
0.0
1001
AVE_MATERIAL
1002
{
1000
*GLOBAL*
1000
1
1000
Global finish.
1002
{
1002
}
1002
{
1070
    63
1002
{
1002
{
1010
-1.0
1020
-1.0
1030
-1.0
1002
}
1040
0.1000000014901161
1000

1040
0.0
1002
{
1002
}
1040
0.0
1002
{
1002
}
1040
0.0
1002
}
1002
{
1002
{
1010
-1.0
1020
-1.0
1030
-1.0
1002
}
1040
0.6999999880790711
1000

1040
0.0
1002
{
1002
}
1040
0.0
1002
{
1002
}
1040
0.0
1002
}
1002
{
1002
{
1010
-1.0
1020
-1.0
1030
-1.0
1002
}
1040
0.2000000029802322
1000

1040
0.0
1002
{
1002
}
1040
0.0
1002
{
1002
}
1040
0.0
1002
}
1002
{
1070
     0
1002
{
1070
     1
1002
{
1040
1.0
1040
1.0
1000

1040
0.0
1002
{
1002
}
1040
0.0
1002
{
1002
}
1040
0.0
1002
}
1002
}
1040
1.0
1040
0.0
1040
0.0
1002
}
1002
{
1040
1.0
1040
1.0
1000

1040
0.0
1002
{
1002
}
1040
0.0
1002
{
1002
}
1040
0.0
1002
}
1002
{
1040
0.5
1040
1.0
1000

1040
0.0
1002
{
1002
}
1040
0.0
1002
{
1002
}
1040
0.0
1002
}
1002
{
1070
     0
1040
0.0
1002
{
1002
}
1040
1.0
1002
{
1002
}
1040
0.0
1002
}
1002
{
1040
0.0
1002
{
1002
{
1010
0.0
1020
0.0
1030
0.0
1002
}
1040
1.0
1000

1040
0.0
1002
{
1002
}
1040
0.0
1002
{
1002
}
1040
0.0
1002
}
1002
}
1002
{
1002
{
1070
     1
1002
{
1040
0.0
1040
1.0
1000

1040
0.0
1002
{
1002
}
1040
0.0
1002
{
1002
}
1040
0.0
1002
}
1002
}
1040
0.0
1002
{
1002
}
1010
1.0
1020
0.0
1030
0.0
1010
0.0
1020
1.0
1030
0.0
1010
0.0
1020
0.0
1030
1.0
1070
     0
1002
}
1002
{
1002
{
1040
1.0
1040
1.0
1002
{
1070
     1
1002
{
1040
1.0
1040
1.0
1000

1040
0.0
1002
{
1002
}
1040
0.0
1002
{
1002
}
1040
0.0
1002
}
1002
}
1002
}
1070
     0
1040
0.0
1002
{
1002
}
1002
}
1002
{
1002
}
1002
}
1002
{
1071
        3
1070
     3
1070
     0
1002
{
1070
     2
1070
     0
1070
     0
1040
0.0
1002
}
1070
     0
1070
     2
1002
{
1002
}
1002
}
1002
{
1040
8030.0
1040
190.3000030517578
1040
0.3050000071525574
1040
228.0
1040
545.0
1040
14.0
1040
17.39999961853027
1040
0.4560000002384186
1002
}
1002
}
  0
TEXT
  5
82DA
330
17
100
AcDbEntity
  8
0
100
AcDbText
 10
31.05514682874396
 20
20.73848814308772
 30
0.0
 40
0.07
  1

  7
ROMANS
 72
     4
 11
31.05514682874396
 21
20.73848814308772
 31
0.0
100
AcDbText
  0
TEXT
  5
82DB
330
17
100
AcDbEntity
  8
0
100
AcDbText
 10
31.68014682874396
 20
20.73848814308772
 30
0.0
 40
0.07
  1

  7
ROMANS
 72
     4
 11
31.68014682874396
 21
20.73848814308772
 31
0.0
100
AcDbText
  0
INSERT
  5
82DC
330
17
100
AcDbEntity
  8
ASHADE
 62
     1
100
AcDbBlockReference
  2
AVE_RENDER
 10
57.78437608640287
 20
5.625266882584355
 30
0.0
1001
AVE_RENDER
1002
{
1070
     7
1000
Pref
1070
    30
1070
    20
1070
     1
1070
     0
1000

1070
    10
1070
     1
1070
    10
1040
1.0
1070
     1
1040
0.3
1040
0.7
1040
0.0
1040
10.0
1010
-1.0
1020
-1.0
1030
-1.0
1040
0.3
1070
    49
1070
     0
1070
     0
1010
1.0
1020
1.0
1030
1.0
1040
45.0
1070
     1
1070
     0
1000
WCS
1040
0.0
1070
     0
1040
10.0
1002
}
  0
INSERT
  5
82DD
330
17
100
AcDbEntity
  8
ASHADE
 62
     3
100
AcDbBlockReference
  2
AVE_RENDER
 10
57.78437608640287
 20
5.625266882584355
 30
0.0
1001
AVE_RENDER
1002
{
1070
     0
1000
Full Opt
1070
     0
1070
     1
1070
     1
1070
     1
1070
     0
1070
     0
1070
     0
1070
     1
1070
     1
1040
0.0001
1040
0.0001
1002
}
  0
INSERT
  5
82DE
330
17
100
AcDbEntity
  8
ASHADE
 62
     4
100
AcDbBlockReference
  2
AVE_RENDER
 10
57.78437608640287
 20
5.625266882584355
 30
0.0
1001
AVE_RENDER
1002
{
1070
     0
1000
Quick Opt
1070
     0
1070
     1
1070
     1
1070
     1
1070
     0
1070
     0
1070
     1
1002
}
  0
INSERT
  5
82DF
330
17
100
AcDbEntity
  8
ASHADE
 62
     5
100
AcDbBlockReference
  2
AVE_RENDER
 10
57.78437608640287
 20
5.625266882584355
 30
0.0
1001
AVE_RENDER
1002
{
1070
     1
1000
Scanl Opt
1070
     2
1070
     0
1070
     2
1040
2.0
1040
4.0
1070
     0
1070
     1
1070
     0
1040
0.03
1002
}
  0
INSERT
  5
82E0
330
17
100
AcDbEntity
  8
ASHADE
 62
     6
100
AcDbBlockReference
  2
AVE_RENDER
 10
57.78437608640287
 20
5.625266882584355
 30
0.0
1001
AVE_RENDER
1002
{
1070
     2
1000
Raytr Opt
1070
     2
1070
     0
1070
     2
1040
2.0
1040
4.0
1070
     0
1070
     1
1070
     1
1040
0.03
1070
     3
1040
0.03
1002
}
  0
INSERT
  5
82E1
330
17
100
AcDbEntity
  8
ASHADE
 62
     7
100
AcDbBlockReference
  2
AVE_RENDER
 10
57.78437608640287
 20
5.625266882584355
 30
0.0
1001
AVE_RENDER
1002
{
1070
     0
1000
RFile Opt
1070
     1
1070
   640
1070
   480
1070
 10000
1070
     1
1070
     8
1070
     8
1070
     0
1070
     0
1070
     0
1070
     0
1070
     0
1070
     0
1070
     0
1002
}
  0
INSERT
  5
82E2
330
17
100
AcDbEntity
  8
ASHADE
 62
     8
100
AcDbBlockReference
  2
AVE_RENDER
 10
57.78437608640287
 20
5.625266882584355
 30
0.0
1001
AVE_RENDER
1002
{
1070
     0
1000
Fog Opt
1070
     0
1070
     0
1040
0.0
1040
1.0
1040
0.0
1040
1.0
1010
0.5
1020
0.5
1030
0.5
1002
}
  0
INSERT
  5
82E3
330
17
100
AcDbEntity
  8
ASHADE
 62
     9
100
AcDbBlockReference
  2
AVE_RENDER
 10
57.78437608640287
 20
5.625266882584355
 30
0.0
1001
AVE_RENDER
1002
{
1070
     0
1000
BG Opt
1070
     0
1070
     1
1010
0.0
1020
0.0
1030
0.0
1010
1.0
1020
0.0
1030
0.0
1010
0.0
1020
1.0
1030
0.0
1010
0.0
1020
0.0
1030
1.0
1040
0.5
1040
0.33
1040
0.0
1000

1070
     1
1000

1070
     1
1070
     1
1040
1.0
1040
1.0
1040
0.0
1040
0.0
1070
     0
1002
}
  0
INSERT
  5
82E4
330
17
100
AcDbEntity
  8
ASHADE
 62
     1
100
AcDbBlockReference
  2
AVE_GLOBAL
 10
57.78437608640287
 20
5.625266882584355
 30
0.0
1001
AVE_MATERIAL
1002
{
1000
*GLOBAL*
1000
1
1000
Global finish.
1002
{
1002
}
1002
{
1070
    63
1002
{
1002
{
1010
-1.0
1020
-1.0
1030
-1.0
1002
}
1040
0.1000000014901161
1000

1040
0.0
1002
{
1002
}
1040
0.0
1002
{
1002
}
1040
0.0
1002
}
1002
{
1002
{
1010
-1.0
1020
-1.0
1030
-1.0
1002
}
1040
0.6999999880790711
1000

1040
0.0
1002
{
1002
}
1040
0.0
1002
{
1002
}
1040
0.0
1002
}
1002
{
1002
{
1010
-1.0
1020
-1.0
1030
-1.0
1002
}
1040
0.2000000029802322
1000

1040
0.0
1002
{
1002
}
1040
0.0
1002
{
1002
}
1040
0.0
1002
}
1002
{
1070
     0
1002
{
1070
     1
1002
{
1040
1.0
1040
1.0
1000

1040
0.0
1002
{
1002
}
1040
0.0
1002
{
1002
}
1040
0.0
1002
}
1002
}
1040
1.0
1040
0.0
1040
0.0
1002
}
1002
{
1040
1.0
1040
1.0
1000

1040
0.0
1002
{
1002
}
1040
0.0
1002
{
1002
}
1040
0.0
1002
}
1002
{
1040
0.5
1040
1.0
1000

1040
0.0
1002
{
1002
}
1040
0.0
1002
{
1002
}
1040
0.0
1002
}
1002
{
1070
     0
1040
0.0
1002
{
1002
}
1040
1.0
1002
{
1002
}
1040
0.0
1002
}
1002
{
1040
0.0
1002
{
1002
{
1010
0.0
1020
0.0
1030
0.0
1002
}
1040
1.0
1000

1040
0.0
1002
{
1002
}
1040
0.0
1002
{
1002
}
1040
0.0
1002
}
1002
}
1002
{
1002
{
1070
     1
1002
{
1040
0.0
1040
1.0
1000

1040
0.0
1002
{
1002
}
1040
0.0
1002
{
1002
}
1040
0.0
1002
}
1002
}
1040
0.0
1002
{
1002
}
1010
1.0
1020
0.0
1030
0.0
1010
0.0
1020
1.0
1030
0.0
1010
0.0
1020
0.0
1030
1.0
1070
     0
1002
}
1002
{
1002
{
1040
1.0
1040
1.0
1002
{
1070
     1
1002
{
1040
1.0
1040
1.0
1000

1040
0.0
1002
{
1002
}
1040
0.0
1002
{
1002
}
1040
0.0
1002
}
1002
}
1002
}
1070
     0
1040
0.0
1002
{
1002
}
1002
}
1002
{
1002
}
1002
}
1002
{
1071
        3
1070
     3
1070
     0
1002
{
1070
     2
1070
     0
1070
     0
1040
0.0
1002
}
1070
     0
1070
     2
1002
{
1002
}
1002
}
1002
{
1040
8030.0
1040
190.3000030517578
1040
0.3050000071525574
1040
228.0
1040
545.0
1040
14.0
1040
17.39999961853027
1040
0.4560000002384186
1002
}
1002
}
  0
TEXT
  5
82E5
330
17
100
AcDbEntity
  8
0
100
AcDbText
 10
33.93114109804867
 20
24.92666605245616
 30
0.0
 40
0.125
  1

  7
ROMANS
 72
     4
 11
33.93114109804867
 21
24.92666605245616
 31
0.0
100
AcDbText
  0
INSERT
  5
887E
330
17
100
AcDbEntity
  8
ASHADE
 62
     1
100
AcDbBlockReference
  2
AVE_RENDER
 10
12.51901593460056
 20
5.100137919134752
 30
0.0
1001
AVE_RENDER
1002
{
1070
     7
1000
Pref
1070
    30
1070
    20
1070
     1
1070
     0
1000

1070
    10
1070
     1
1070
    10
1040
1.0
1070
     1
1040
0.3
1040
0.7
1040
0.0
1040
10.0
1010
-1.0
1020
-1.0
1030
-1.0
1040
0.3
1070
    49
1070
     0
1070
     0
1010
1.0
1020
1.0
1030
1.0
1040
45.0
1070
     1
1070
     0
1000
WCS
1040
0.0
1070
     0
1040
10.0
1002
}
  0
INSERT
  5
887F
330
17
100
AcDbEntity
  8
ASHADE
 62
     3
100
AcDbBlockReference
  2
AVE_RENDER
 10
12.51901593460056
 20
5.100137919134752
 30
0.0
1001
AVE_RENDER
1002
{
1070
     0
1000
Full Opt
1070
     0
1070
     1
1070
     1
1070
     1
1070
     0
1070
     0
1070
     0
1070
     1
1070
     1
1040
0.0001
1040
0.0001
1002
}
  0
INSERT
  5
8880
330
17
100
AcDbEntity
  8
ASHADE
 62
     4
100
AcDbBlockReference
  2
AVE_RENDER
 10
12.51901593460056
 20
5.100137919134752
 30
0.0
1001
AVE_RENDER
1002
{
1070
     0
1000
Quick Opt
1070
     0
1070
     1
1070
     1
1070
     1
1070
     0
1070
     0
1070
     1
1002
}
  0
INSERT
  5
8881
330
17
100
AcDbEntity
  8
ASHADE
 62
     5
100
AcDbBlockReference
  2
AVE_RENDER
 10
12.51901593460056
 20
5.100137919134752
 30
0.0
1001
AVE_RENDER
1002
{
1070
     1
1000
Scanl Opt
1070
     2
1070
     0
1070
     2
1040
2.0
1040
4.0
1070
     0
1070
     1
1070
     0
1040
0.03
1002
}
  0
INSERT
  5
8882
330
17
100
AcDbEntity
  8
ASHADE
 62
     6
100
AcDbBlockReference
  2
AVE_RENDER
 10
12.51901593460056
 20
5.100137919134752
 30
0.0
1001
AVE_RENDER
1002
{
1070
     2
1000
Raytr Opt
1070
     2
1070
     0
1070
     2
1040
2.0
1040
4.0
1070
     0
1070
     1
1070
     1
1040
0.03
1070
     3
1040
0.03
1002
}
  0
INSERT
  5
8883
330
17
100
AcDbEntity
  8
ASHADE
 62
     7
100
AcDbBlockReference
  2
AVE_RENDER
 10
12.51901593460056
 20
5.100137919134752
 30
0.0
1001
AVE_RENDER
1002
{
1070
     0
1000
RFile Opt
1070
     1
1070
   640
1070
   480
1070
 10000
1070
     1
1070
     8
1070
     8
1070
     0
1070
     0
1070
     0
1070
     0
1070
     0
1070
     0
1070
     0
1002
}
  0
INSERT
  5
8884
330
17
100
AcDbEntity
  8
ASHADE
 62
     8
100
AcDbBlockReference
  2
AVE_RENDER
 10
12.51901593460056
 20
5.100137919134752
 30
0.0
1001
AVE_RENDER
1002
{
1070
     0
1000
Fog Opt
1070
     0
1070
     0
1040
0.0
1040
1.0
1040
0.0
1040
1.0
1010
0.5
1020
0.5
1030
0.5
1002
}
  0
INSERT
  5
8885
330
17
100
AcDbEntity
  8
ASHADE
 62
     9
100
AcDbBlockReference
  2
AVE_RENDER
 10
12.51901593460056
 20
5.100137919134752
 30
0.0
1001
AVE_RENDER
1002
{
1070
     0
1000
BG Opt
1070
     0
1070
     1
1010
0.0
1020
0.0
1030
0.0
1010
1.0
1020
0.0
1030
0.0
1010
0.0
1020
1.0
1030
0.0
1010
0.0
1020
0.0
1030
1.0
1040
0.5
1040
0.33
1040
0.0
1000

1070
     1
1000

1070
     1
1070
     1
1040
1.0
1040
1.0
1040
0.0
1040
0.0
1070
     0
1002
}
  0
INSERT
  5
8886
330
17
100
AcDbEntity
  8
ASHADE
 62
     1
100
AcDbBlockReference
  2
AVE_GLOBAL
 10
12.51901593460056
 20
5.100137919134752
 30
0.0
1001
AVE_MATERIAL
1002
{
1000
*GLOBAL*
1000
1
1000
Global finish.
1002
{
1002
}
1002
{
1070
    63
1002
{
1002
{
1010
-1.0
1020
-1.0
1030
-1.0
1002
}
1040
0.1000000014901161
1000

1040
0.0
1002
{
1002
}
1040
0.0
1002
{
1002
}
1040
0.0
1002
}
1002
{
1002
{
1010
-1.0
1020
-1.0
1030
-1.0
1002
}
1040
0.6999999880790711
1000

1040
0.0
1002
{
1002
}
1040
0.0
1002
{
1002
}
1040
0.0
1002
}
1002
{
1002
{
1010
-1.0
1020
-1.0
1030
-1.0
1002
}
1040
0.2000000029802322
1000

1040
0.0
1002
{
1002
}
1040
0.0
1002
{
1002
}
1040
0.0
1002
}
1002
{
1070
     0
1002
{
1070
     1
1002
{
1040
1.0
1040
1.0
1000

1040
0.0
1002
{
1002
}
1040
0.0
1002
{
1002
}
1040
0.0
1002
}
1002
}
1040
1.0
1040
0.0
1040
0.0
1002
}
1002
{
1040
1.0
1040
1.0
1000

1040
0.0
1002
{
1002
}
1040
0.0
1002
{
1002
}
1040
0.0
1002
}
1002
{
1040
0.5
1040
1.0
1000

1040
0.0
1002
{
1002
}
1040
0.0
1002
{
1002
}
1040
0.0
1002
}
1002
{
1070
     0
1040
0.0
1002
{
1002
}
1040
1.0
1002
{
1002
}
1040
0.0
1002
}
1002
{
1040
0.0
1002
{
1002
{
1010
0.0
1020
0.0
1030
0.0
1002
}
1040
1.0
1000

1040
0.0
1002
{
1002
}
1040
0.0
1002
{
1002
}
1040
0.0
1002
}
1002
}
1002
{
1002
{
1070
     1
1002
{
1040
0.0
1040
1.0
1000

1040
0.0
1002
{
1002
}
1040
0.0
1002
{
1002
}
1040
0.0
1002
}
1002
}
1040
0.0
1002
{
1002
}
1010
1.0
1020
0.0
1030
0.0
1010
0.0
1020
1.0
1030
0.0
1010
0.0
1020
0.0
1030
1.0
1070
     0
1002
}
1002
{
1002
{
1040
1.0
1040
1.0
1002
{
1070
     1
1002
{
1040
1.0
1040
1.0
1000

1040
0.0
1002
{
1002
}
1040
0.0
1002
{
1002
}
1040
0.0
1002
}
1002
}
1002
}
1070
     0
1040
0.0
1002
{
1002
}
1002
}
1002
{
1002
}
1002
}
1002
{
1071
        3
1070
     3
1070
     0
1002
{
1070
     2
1070
     0
1070
     0
1040
0.0
1002
}
1070
     0
1070
     2
1002
{
1002
}
1002
}
1002
{
1040
8030.0
1040
190.3000030517578
1040
0.3050000071525574
1040
228.0
1040
545.0
1040
14.0
1040
17.39999961853027
1040
0.4560000002384186
1002
}
1002
}
  0
TEXT
  5
8887
330
17
100
AcDbEntity
  8
0
100
AcDbText
 10
54.95685346158444
 20
20.74649009365662
 30
0.0
 40
0.07
  1

  7
ROMANS
 72
     4
 11
54.95685346158444
 21
20.74649009365662
 31
0.0
100
AcDbText
  0
TEXT
  5
8888
330
17
100
AcDbEntity
  8
0
100
AcDbText
 10
55.58185346158444
 20
20.74649009365662
 30
0.0
 40
0.07
  1

  7
ROMANS
 72
     4
 11
55.58185346158444
 21
20.74649009365662
 31
0.0
100
AcDbText
  0
INSERT
  5
8889
330
17
100
AcDbEntity
  8
ASHADE
 62
     1
100
AcDbBlockReference
  2
AVE_RENDER
 10
81.68608271924336
 20
5.633268833153252
 30
0.0
1001
AVE_RENDER
1002
{
1070
     7
1000
Pref
1070
    30
1070
    20
1070
     1
1070
     0
1000

1070
    10
1070
     1
1070
    10
1040
1.0
1070
     1
1040
0.3
1040
0.7
1040
0.0
1040
10.0
1010
-1.0
1020
-1.0
1030
-1.0
1040
0.3
1070
    49
1070
     0
1070
     0
1010
1.0
1020
1.0
1030
1.0
1040
45.0
1070
     1
1070
     0
1000
WCS
1040
0.0
1070
     0
1040
10.0
1002
}
  0
INSERT
  5
888A
330
17
100
AcDbEntity
  8
ASHADE
 62
     3
100
AcDbBlockReference
  2
AVE_RENDER
 10
81.68608271924336
 20
5.633268833153252
 30
0.0
1001
AVE_RENDER
1002
{
1070
     0
1000
Full Opt
1070
     0
1070
     1
1070
     1
1070
     1
1070
     0
1070
     0
1070
     0
1070
     1
1070
     1
1040
0.0001
1040
0.0001
1002
}
  0
INSERT
  5
888B
330
17
100
AcDbEntity
  8
ASHADE
 62
     4
100
AcDbBlockReference
  2
AVE_RENDER
 10
81.68608271924336
 20
5.633268833153252
 30
0.0
1001
AVE_RENDER
1002
{
1070
     0
1000
Quick Opt
1070
     0
1070
     1
1070
     1
1070
     1
1070
     0
1070
     0
1070
     1
1002
}
  0
INSERT
  5
888C
330
17
100
AcDbEntity
  8
ASHADE
 62
     5
100
AcDbBlockReference
  2
AVE_RENDER
 10
81.68608271924336
 20
5.633268833153252
 30
0.0
1001
AVE_RENDER
1002
{
1070
     1
1000
Scanl Opt
1070
     2
1070
     0
1070
     2
1040
2.0
1040
4.0
1070
     0
1070
     1
1070
     0
1040
0.03
1002
}
  0
INSERT
  5
888D
330
17
100
AcDbEntity
  8
ASHADE
 62
     6
100
AcDbBlockReference
  2
AVE_RENDER
 10
81.68608271924336
 20
5.633268833153252
 30
0.0
1001
AVE_RENDER
1002
{
1070
     2
1000
Raytr Opt
1070
     2
1070
     0
1070
     2
1040
2.0
1040
4.0
1070
     0
1070
     1
1070
     1
1040
0.03
1070
     3
1040
0.03
1002
}
  0
INSERT
  5
888E
330
17
100
AcDbEntity
  8
ASHADE
 62
     7
100
AcDbBlockReference
  2
AVE_RENDER
 10
81.68608271924336
 20
5.633268833153252
 30
0.0
1001
AVE_RENDER
1002
{
1070
     0
1000
RFile Opt
1070
     1
1070
   640
1070
   480
1070
 10000
1070
     1
1070
     8
1070
     8
1070
     0
1070
     0
1070
     0
1070
     0
1070
     0
1070
     0
1070
     0
1002
}
  0
INSERT
  5
888F
330
17
100
AcDbEntity
  8
ASHADE
 62
     8
100
AcDbBlockReference
  2
AVE_RENDER
 10
81.68608271924336
 20
5.633268833153252
 30
0.0
1001
AVE_RENDER
1002
{
1070
     0
1000
Fog Opt
1070
     0
1070
     0
1040
0.0
1040
1.0
1040
0.0
1040
1.0
1010
0.5
1020
0.5
1030
0.5
1002
}
  0
INSERT
  5
8890
330
17
100
AcDbEntity
  8
ASHADE
 62
     9
100
AcDbBlockReference
  2
AVE_RENDER
 10
81.68608271924336
 20
5.633268833153252
 30
0.0
1001
AVE_RENDER
1002
{
1070
     0
1000
BG Opt
1070
     0
1070
     1
1010
0.0
1020
0.0
1030
0.0
1010
1.0
1020
0.0
1030
0.0
1010
0.0
1020
1.0
1030
0.0
1010
0.0
1020
0.0
1030
1.0
1040
0.5
1040
0.33
1040
0.0
1000

1070
     1
1000

1070
     1
1070
     1
1040
1.0
1040
1.0
1040
0.0
1040
0.0
1070
     0
1002
}
  0
INSERT
  5
8891
330
17
100
AcDbEntity
  8
ASHADE
 62
     1
100
AcDbBlockReference
  2
AVE_GLOBAL
 10
81.68608271924336
 20
5.633268833153252
 30
0.0
1001
AVE_MATERIAL
1002
{
1000
*GLOBAL*
1000
1
1000
Global finish.
1002
{
1002
}
1002
{
1070
    63
1002
{
1002
{
1010
-1.0
1020
-1.0
1030
-1.0
1002
}
1040
0.1000000014901161
1000

1040
0.0
1002
{
1002
}
1040
0.0
1002
{
1002
}
1040
0.0
1002
}
1002
{
1002
{
1010
-1.0
1020
-1.0
1030
-1.0
1002
}
1040
0.6999999880790711
1000

1040
0.0
1002
{
1002
}
1040
0.0
1002
{
1002
}
1040
0.0
1002
}
1002
{
1002
{
1010
-1.0
1020
-1.0
1030
-1.0
1002
}
1040
0.2000000029802322
1000

1040
0.0
1002
{
1002
}
1040
0.0
1002
{
1002
}
1040
0.0
1002
}
1002
{
1070
     0
1002
{
1070
     1
1002
{
1040
1.0
1040
1.0
1000

1040
0.0
1002
{
1002
}
1040
0.0
1002
{
1002
}
1040
0.0
1002
}
1002
}
1040
1.0
1040
0.0
1040
0.0
1002
}
1002
{
1040
1.0
1040
1.0
1000

1040
0.0
1002
{
1002
}
1040
0.0
1002
{
1002
}
1040
0.0
1002
}
1002
{
1040
0.5
1040
1.0
1000

1040
0.0
1002
{
1002
}
1040
0.0
1002
{
1002
}
1040
0.0
1002
}
1002
{
1070
     0
1040
0.0
1002
{
1002
}
1040
1.0
1002
{
1002
}
1040
0.0
1002
}
1002
{
1040
0.0
1002
{
1002
{
1010
0.0
1020
0.0
1030
0.0
1002
}
1040
1.0
1000

1040
0.0
1002
{
1002
}
1040
0.0
1002
{
1002
}
1040
0.0
1002
}
1002
}
1002
{
1002
{
1070
     1
1002
{
1040
0.0
1040
1.0
1000

1040
0.0
1002
{
1002
}
1040
0.0
1002
{
1002
}
1040
0.0
1002
}
1002
}
1040
0.0
1002
{
1002
}
1010
1.0
1020
0.0
1030
0.0
1010
0.0
1020
1.0
1030
0.0
1010
0.0
1020
0.0
1030
1.0
1070
     0
1002
}
1002
{
1002
{
1040
1.0
1040
1.0
1002
{
1070
     1
1002
{
1040
1.0
1040
1.0
1000

1040
0.0
1002
{
1002
}
1040
0.0
1002
{
1002
}
1040
0.0
1002
}
1002
}
1002
}
1070
     0
1040
0.0
1002
{
1002
}
1002
}
1002
{
1002
}
1002
}
1002
{
1071
        3
1070
     3
1070
     0
1002
{
1070
     2
1070
     0
1070
     0
1040
0.0
1002
}
1070
     0
1070
     2
1002
{
1002
}
1002
}
1002
{
1040
8030.0
1040
190.3000030517578
1040
0.3050000071525574
1040
228.0
1040
545.0
1040
14.0
1040
17.39999961853027
1040
0.4560000002384186
1002
}
1002
}
  0
TEXT
  5
8892
330
17
100
AcDbEntity
  8
0
100
AcDbText
 10
57.83284773088915
 20
24.93466800302505
 30
0.0
 40
0.125
  1

  7
ROMANS
 72
     4
 11
57.83284773088915
 21
24.93466800302505
 31
0.0
100
AcDbText
  0
TEXT
  5
8E2B
330
17
100
AcDbEntity
  8
0
100
AcDbText
 10
83.86121169453282
 20
32.66582015260669
 30
0.0
 40
0.125
  1

  7
ROMANS
 72
     4
 11
83.86121169453282
 21
32.66582015260669
 31
0.0
100
AcDbText
  0
TEXT
  5
8E2C
330
17
100
AcDbEntity
  8
0
100
AcDbText
 10
154.2027231526585
 20
33.87480657082611
 30
0.0
 40
0.125
  1

  7
ROMANS
 72
     4
 11
154.2027231526585
 21
33.87480657082611
 31
0.0
100
AcDbText
  0
TEXT
  5
A914
330
17
100
AcDbEntity
  8
0
100
AcDbText
 10
69.39369604564323
 20
40.93040104021554
 30
0.0
 40
0.07
  1

  7
ROMANS
100
AcDbText
  0
TEXT
  5
A917
330
17
100
AcDbEntity
  8
0
100
AcDbText
 10
72.03603003872036
 20
40.93619570426382
 30
0.0
 40
0.07
  1

  7
ROMANS
 72
     1
 11
72.03603003872036
 21
40.93619570426382
 31
0.0
100
AcDbText
  0
TEXT
  5
A92C
330
17
100
AcDbEntity
  8
0
100
AcDbText
 10
69.39369604564323
 20
40.74240104021554
 30
0.0
 40
0.07
  1

 41
0.95
  7
ROMANS
100
AcDbText
  0
TEXT
  5
A92E
330
17
100
AcDbEntity
  8
0
100
AcDbText
 10
69.08689210768585
 20
40.74819570426382
 30
0.0
 40
0.07
  1

  7
ROMANS
 72
     1
 11
69.08689210768585
 21
40.74819570426382
 31
0.0
100
AcDbText
  0
TEXT
  5
A92F
330
17
100
AcDbEntity
  8
0
100
AcDbText
 10
72.03603003872036
 20
40.74819570426382
 30
0.0
 40
0.07
  1

  7
ROMANS
 72
     1
 11
72.03603003872036
 21
40.74819570426382
 31
0.0
100
AcDbText
  0
TEXT
  5
A969
330
17
100
AcDbEntity
  8
0
100
AcDbText
 10
69.39369604564323
 20
40.55440104021554
 30
0.0
 40
0.07
  1

 41
0.95
  7
ROMANS
100
AcDbText
  0
TEXT
  5
A96B
330
17
100
AcDbEntity
  8
0
100
AcDbText
 10
69.08689210768585
 20
40.56019570426381
 30
0.0
 40
0.07
  1

  7
ROMANS
 72
     1
 11
69.08689210768585
 21
40.56019570426381
 31
0.0
100
AcDbText
  0
TEXT
  5
A96C
330
17
100
AcDbEntity
  8
0
100
AcDbText
 10
72.03603003872036
 20
40.56019570426381
 30
0.0
 40
0.07
  1

  7
ROMANS
 72
     1
 11
72.03603003872036
 21
40.56019570426381
 31
0.0
100
AcDbText
  0
TEXT
  5
BA8E
330
17
100
AcDbEntity
  8
0
100
AcDbText
 10
81.99226897932284
 20
34.52622005486395
 30
0.0
 40
0.09999999999968
  1

  7
ROMANS
100
AcDbText
  0
TEXT
  5
BA91
330
17
100
AcDbEntity
  8
0
 62
     2
100
AcDbText
 10
81.92424817030547
 20
37.14589750365664
 30
0.0
 40
0.112
  1

  7
ROMANS
100
AcDbText
  0
INSERT
  5
BACC
330
17
100
AcDbEntity
  8
0
100
AcDbBlockReference
 66
     1
  2
ASSEMBLY_B
 10
80.57384345265269
 20
49.74691767822941
 30
0.0
  0
ATTRIB
  5
BACD
330
BACC
100
AcDbEntity
  8
Title Block
  6
Continuous
 62
     2
100
AcDbText
 10
91.37384345265269
 20
50.3469176782294
 30
0.0
 40
0.126326427375
  1
BREAKOUT BD, USER I/O MMC-SD
 41
0.8
100
AcDbAttribute
  2
GEN-TITLE-DES1{15.54}
 70
     0
  0
ATTRIB
  5
BACE
330
BACC
100
AcDbEntity
  8
Title Block
  6
Continuous
 62
     2
100
AcDbText
 10
93.09884345265269
 20
50.77191767822941
 30
0.0
 40
0.1010611419
  1

100
AcDbAttribute
  2
GEN-TITLE-APPM{5}
 70
     0
  0
ATTRIB
  5
BACF
330
BACC
100
AcDbEntity
  8
Title Block
  6
Continuous
 62
     2
100
AcDbText
 10
93.09884345265269
 20
51.0219176782294
 30
0.0
 40
0.1010611419
  1

100
AcDbAttribute
  2
GEN-TITLE-CHKM{5}
 70
     0
  0
ATTRIB
  5
BAD0
330
BACC
100
AcDbEntity
  8
Title Block
  6
Continuous
 62
     2
100
AcDbText
 10
93.09884345265269
 20
51.27191767822941
 30
0.0
 40
0.1010611419
  1
G. MUMM
100
AcDbAttribute
  2
GEN-TITLE-NAME{5}
 70
     0
  0
ATTRIB
  5
BAD1
330
BACC
100
AcDbEntity
  8
Title Block
  6
Continuous
 62
     2
100
AcDbText
 10
94.57384345265269
 20
50.24691767822941
 30
0.0
 40
0.196816573850279
  1
MD.1000.8490
 41
0.8
100
AcDbAttribute
  2
GEN-TITLE-NR{13.37}
 70
     0
  0
ATTRIB
  5
BAD2
330
BACC
100
AcDbEntity
  8
Title Block
  6
Continuous
 62
     2
100
AcDbText
 10
96.1738434526527
 20
50.77191767822941
 30
0.0
 40
0.11808994431015
  1
1
 41
0.8
100
AcDbAttribute
  2
GEN-TITLE-SHEET{2.62}
 70
     0
  0
ATTRIB
  5
BAD3
330
BACC
100
AcDbEntity
  8
Title Block
  6
Continuous
 62
     2
100
AcDbText
 10
96.09884345265269
 20
51.0219176782294
 30
0.0
 40
0.1010611419
  1
17.06.03
100
AcDbAttribute
  2
GEN-TITLE-PLOT{5}
 70
     0
  0
ATTRIB
  5
BAD4
330
BACC
100
AcDbEntity
  8
Title Block
  6
Continuous
 62
     2
100
AcDbText
 10
96.57384345265271
 20
50.77191767822941
 30
0.0
 40
0.11808994431015
  1
1
 41
0.8
100
AcDbAttribute
  2
GEN-TITLE-SHEET-OF{2.62}
 70
     0
  0
ATTRIB
  5
BAD5
330
BACC
100
AcDbEntity
  8
Title Block
  6
Continuous
 62
     2
100
AcDbText
 10
94.62384345265268
 20
51.27191767822941
 30
0.0
 40
0.1010611419
  1

100
AcDbAttribute
  2
GEN-TITLE-REF{5}
 70
     0
  0
ATTRIB
  5
BAD6
330
BACC
100
AcDbEntity
  8
Title Block
  6
Continuous
 62
     2
100
AcDbText
 10
94.62384345265268
 20
51.0219176782294
 30
0.0
 40
0.1010611419
  1

100
AcDbAttribute
  2
GEN-TITLE-MACH{5}
 70
     0
  0
ATTRIB
  5
BAD7
330
BACC
100
AcDbEntity
  8
Title Block
  6
Continuous
 62
     2
100
AcDbText
 10
94.62384345265268
 20
50.77191767822941
 30
0.0
 40
0.1010611419
  1

 41
0.8
100
AcDbAttribute
  2
GEN-TITLE-MAT{11.15}
 70
     0
  0
SEQEND
  5
BAD8
330
BACC
100
AcDbEntity
  8
0
  0
LINE
  5
BAD9
330
17
100
AcDbEntity
  8
0
 62
     4
100
AcDbLine
 10
95.72368357736037
 20
52.66515785732979
 30
0.0
 11
95.72368357736037
 21
53.41515785732977
 31
0.0
  0
LINE
  5
BADA
330
17
100
AcDbEntity
  8
0
 62
     4
100
AcDbLine
 10
92.84868357736035
 20
52.66515785732979
 30
0.0
 11
92.84868357736035
 21
53.41515785732977
 31
0.0
  0
TEXT
  5
BADB
330
17
100
AcDbEntity
  8
0
100
AcDbText
 10
93.14808833926514
 20
52.7274987157429
 30
0.0
 40
0.125
  1
BKOUT BD,IO,MMC-SD DR MT
 41
0.8
  7
ROMANS
 72
     1
 11
94.28618357736038
 21
52.7274987157429
 31
0.0
100
AcDbText
  0
TEXT
  5
BADC
330
17
100
AcDbEntity
  8
0
100
AcDbText
 10
93.18499310116989
 20
53.18209313638885
 30
0.0
 40
0.125
  1
G&L Motion Control
  7
ROMANS
 72
     1
 11
94.28618357736038
 21
53.18209313638885
 31
0.0
100
AcDbText
  0
TEXT
  5
BADD
330
17
100
AcDbEntity
  8
0
100
AcDbText
 10
93.33380262497943
 20
52.98957607436716
 30
0.0
 40
0.125
  1
SHORT DESCRIPTION
  7
ROMANS
 72
     1
 11
94.28618357736038
 21
52.98957607436716
 31
0.0
100
AcDbText
  0
TEXT
  5
BADE
330
17
100
AcDbEntity
  8
0
 62
     2
100
AcDbText
 10
90.33036005617885
 20
54.54342977017318
 30
0.0
 40
0.1563326226013594
  1
%%UNOTES
  7
ROMANS
100
AcDbText
  0
LINE
  5
BADF
330
17
100
AcDbEntity
  8
0
 62
     4
100
AcDbLine
 10
90.84868357736036
 20
52.66515785732979
 30
0.0
 11
90.84868357736036
 21
53.41515785732977
 31
0.0
  0
LINE
  5
BAE0
330
17
100
AcDbEntity
  8
0
 62
     4
100
AcDbLine
 10
90.84868357736036
 20
52.66515785732979
 30
0.0
 11
90.84868357736036
 21
53.41515785732977
 31
0.0
  0
LINE
  5
BAE1
330
17
100
AcDbEntity
  8
0
 62
     4
100
AcDbLine
 10
88.97368357736036
 20
52.66515785732979
 30
0.0
 11
88.97368357736036
 21
53.41515785732977
 31
0.0
  0
TEXT
  5
BAE2
330
17
100
AcDbEntity
  8
0
100
AcDbText
 10
89.53440799988888
 20
52.7274987157429
 30
0.0
 40
0.125
  1
P27986
  7
ROMANS
 72
     1
 11
89.89750323798411
 21
52.7274987157429
 31
0.0
100
AcDbText
  0
TEXT
  5
BAE3
330
17
100
AcDbEntity
  8
0
100
AcDbText
 10
89.23872421181586
 20
52.98957607436716
 30
0.0
 40
0.125
  1
PART NUMBER
  7
ROMANS
 72
     1
 11
89.91431944991111
 21
52.98957607436716
 31
0.0
100
AcDbText
  0
TEXT
  5
BAE4
330
17
100
AcDbEntity
  8
0
100
AcDbText
 10
89.37562897372062
 20
53.18209313638885
 30
0.0
 40
0.125
  1
REFERENCE
  7
ROMANS
 72
     1
 11
89.91431944991111
 21
53.18209313638885
 31
0.0
100
AcDbText
  0
LINE
  5
BAE5
330
17
100
AcDbEntity
  8
0
 62
     4
100
AcDbLine
 10
95.72368357736037
 20
52.91515785732979
 30
0.0
 11
88.97368357736036
 21
52.91515785732979
 31
0.0
  0
LINE
  5
BAE6
330
17
100
AcDbEntity
  8
0
 62
     4
100
AcDbLine
 10
95.72368357736037
 20
52.66515785732979
 30
0.0
 11
88.97368357736036
 21
52.66515785732979
 31
0.0
  0
TEXT
  5
BAE7
330
17
100
AcDbEntity
  8
0
100
AcDbText
 10
91.25642167259846
 20
52.7274987157429
 30
0.0
 40
0.125
  1
M.1302.6971
  7
ROMANS
 72
     1
 11
91.84868357736036
 21
52.7274987157429
 31
0.0
100
AcDbText
  0
LINE
  5
BAE8
330
17
100
AcDbEntity
  8
0
 62
     4
100
AcDbLine
 10
95.72368357736037
 20
53.41515785732977
 30
0.0
 11
88.97368357736036
 21
53.41515785732977
 31
0.0
  0
TEXT
  5
BAE9
330
17
100
AcDbEntity
  8
0
100
AcDbText
 10
91.22665976783656
 20
52.98957607436716
 30
0.0
 40
0.125
  1
SAP NUMBER
  7
ROMANS
 72
     1
 11
91.84868357736036
 21
52.98957607436716
 31
0.0
100
AcDbText
  0
TEXT
  5
BAEA
330
17
100
AcDbEntity
  8
0
100
AcDbText
 10
91.3665407202175
 20
53.18209313638885
 30
0.0
 40
0.125
  1
G&L Motion Control
  7
ROMANS
 72
     1
 11
91.84868357736036
 21
53.18209313638885
 31
0.0
100
AcDbText
  0
TEXT
  5
BAEB
330
17
100
AcDbEntity
  8
0
100
AcDbText
 10
90.87786434079701
 20
53.86069733044624
 30
0.0
 40
0.1252665245199191
  1

  7
ROMANS
100
AcDbText
  0
TEXT
  5
BAEC
330
17
100
AcDbEntity
  8
0
100
AcDbText
 10
90.55572287379801
 20
54.11823152903004
 30
0.0
 40
0.1252665245199191
  1
1) LABEL & PACKAGE PER MD.1000.5034
  7
ROMANS
100
AcDbText
  0
LINE
  5
BE5A
330
17
100
AcDbEntity
  8
0
 62
     4
100
AcDbLine
 10
93.36350077961672
 20
58.42326283805326
 30
0.0
 11
90.61350077961668
 21
58.42326283805319
 31
0.0
  0
LINE
  5
BE5B
330
17
100
AcDbEntity
  8
0
 62
     4
100
AcDbLine
 10
90.61350077961668
 20
56.88126283805321
 30
0.0
 11
93.36350077961673
 21
56.88126283805323
 31
0.0
  0
DIMENSION
  5
BE5C
330
17
100
AcDbEntity
  8
0
100
AcDbDimension
  2
*D3
 10
90.61350077961668
 20
58.97566083453153
 30
0.0
 11
91.96502508640733
 21
58.97566083453153
 31
0.0
 70
   160
 71
     5
 42
2.750000000000042
  3
STANDARD
100
AcDbAlignedDimension
 13
93.36350077961672
 23
58.42326283805326
 33
0.0
 14
90.61350077961668
 24
58.42326283805319
 34
0.0
100
AcDbRotatedDimension
1001
ACAD
1000
DSTYLE
1002
{
1070
    44
1040
0.125
1070
    78
1070
     4
1070
   140
1040
0.1
1070
   141
1040
-0.09
1070
   271
1070
     2
1070
   272
1070
     2
1070
   288
1070
     1
1070
   289
1070
     1
1002
}
  0
LINE
  5
BE5D
330
17
100
AcDbEntity
  8
0
 62
     4
100
AcDbLine
 10
84.05500636500851
 20
58.4232628380532
 30
0.0
 11
86.80500636500854
 21
58.42326283805313
 31
0.0
  0
LINE
  5
BE5E
330
17
100
AcDbEntity
  8
0
 62
     4
100
AcDbLine
 10
86.80500636500854
 20
56.88126283805317
 30
0.0
 11
84.05500636500851
 21
56.88126283805321
 31
0.0
  0
MTEXT
  5
BE5F
102
{ACAD_REACTORS
330
BEA4
102
}
330
17
100
AcDbEntity
  8
0
100
AcDbMText
 10
86.51020189918297
 20
59.09311888594356
 30
0.0
 40
0.1
 41
0.0
 71
     9
 72
     1
  1
\A1;JACKSCREW WITH 4-40 UNC THREAD
 73
     1
 44
1.0
  0
MTEXT
  5
BE60
102
{ACAD_REACTORS
330
BE68
102
}
330
17
100
AcDbEntity
  8
0
100
AcDbMText
 10
87.27033327909849
 20
59.80632567194946
 30
0.0
 40
0.1
 41
0.0
 71
     9
 72
     1
  1
{\Fsimplex.shx;D-SUB, HI-DENSITY, 26 PIN,\PMALE (PIN CONTACTS)}
 73
     1
 44
1.0
  0
CIRCLE
  5
BE61
330
17
100
AcDbEntity
  8
0
100
AcDbCircle
 10
84.52200636500855
 20
57.67826283805316
 30
0.0
 40
0.04
  0
CIRCLE
  5
BE62
330
17
100
AcDbEntity
  8
0
100
AcDbCircle
 10
84.52200636500853
 20
58.20326283805314
 30
0.0
 40
0.04
  0
CIRCLE
  5
BE63
330
17
100
AcDbEntity
  8
0
100
AcDbCircle
 10
84.52200636500858
 20
57.15326283805316
 30
0.0
 40
0.04
  0
LINE
  5
BE64
330
17
100
AcDbEntity
  8
0
 62
     4
100
AcDbLine
 10
84.05500636500851
 20
58.4232628380532
 30
0.0
 11
84.05500636500851
 21
56.88126283805321
 31
0.0
  0
CIRCLE
  5
BE65
330
17
100
AcDbEntity
  8
0
100
AcDbCircle
 10
84.32500636500858
 20
57.15326283805314
 30
0.0
 40
0.04
  0
CIRCLE
  5
BE66
330
17
100
AcDbEntity
  8
0
100
AcDbCircle
 10
84.32500636500854
 20
57.67826283805315
 30
0.0
 40
0.04
  0
CIRCLE
  5
BE67
330
17
100
AcDbEntity
  8
0
100
AcDbCircle
 10
84.32500636500853
 20
58.20326283805314
 30
0.0
 40
0.04
  0
LEADER
  5
BE68
330
17
100
AcDbEntity
  8
0
100
AcDbLeader
  3
STANDARD
 73
     0
 40
0.319047619047619
 41
2.20952380952381
 76
     3
 10
88.32316641685705
 20
58.41161840302103
 30
0.0
 10
87.54276482481508
 20
59.85632567194946
 30
0.0
 10
87.36033327909849
 20
59.85632567194946
 30
0.0
340
BE60
213
0.0
223
0.05
233
0.0
1001
ACAD
1000
DSTYLE
1002
{
1070
   147
1040
0.09
1070
    77
1070
     0
1070
    44
1040
0.125
1070
    78
1070
     4
1070
   140
1040
0.1
1070
   141
1040
-0.09
1070
   271
1070
     3
1070
   272
1070
     3
1070
   288
1070
     1
1070
   289
1070
     1
1002
}
  0
LINE
  5
BE69
330
17
100
AcDbEntity
  8
0
 62
     2
100
AcDbLine
 10
86.64000636500853
 20
58.42326283805313
 30
0.0
 11
86.64000636500849
 21
56.88126283805317
 31
0.0
  0
LINE
  5
BE6A
330
17
100
AcDbEntity
  8
0
 62
     2
100
AcDbLine
 10
86.76500636500852
 20
58.42326283805313
 30
0.0
 11
86.76500636500851
 21
56.88126283805317
 31
0.0
  0
LINE
  5
BE6B
330
17
100
AcDbEntity
  8
0
 62
     4
100
AcDbLine
 10
86.80500636500854
 20
58.42326283805313
 30
0.0
 11
86.8050063650085
 21
56.88126283805317
 31
0.0
  0
LINE
  5
BE6C
330
17
100
AcDbEntity
  8
0
 62
     2
100
AcDbLine
 10
87.03700636500853
 20
57.15854957117272
 30
0.0
 11
87.03700636500853
 21
58.14597570032844
 31
0.0
  0
LINE
  5
BE6D
330
17
100
AcDbEntity
  8
0
 62
     2
100
AcDbLine
 10
86.17100636500854
 20
56.88126283805318
 30
0.0
 11
86.17100636500854
 21
58.42326283805317
 31
0.0
  0
LINE
  5
BE6E
330
17
100
AcDbEntity
  8
0
 62
     2
100
AcDbLine
 10
86.64000636500851
 20
57.17726283805314
 30
0.0
 11
86.17100636500852
 21
57.17726283805314
 31
0.0
  0
CIRCLE
  5
BE6F
330
17
100
AcDbEntity
  8
0
100
AcDbCircle
 10
84.71900636500858
 20
57.15326283805316
 30
0.0
 40
0.04
  0
CIRCLE
  5
BE70
330
17
100
AcDbEntity
  8
0
100
AcDbCircle
 10
84.91600636500859
 20
57.15326283805318
 30
0.0
 40
0.04
  0
CIRCLE
  5
BE71
330
17
100
AcDbEntity
  8
0
100
AcDbCircle
 10
85.11300636500859
 20
57.15326283805318
 30
0.0
 40
0.04
  0
CIRCLE
  5
BE72
330
17
100
AcDbEntity
  8
0
100
AcDbCircle
 10
85.31000636500859
 20
57.15326283805318
 30
0.0
 40
0.04
  0
CIRCLE
  5
BE73
330
17
100
AcDbEntity
  8
0
100
AcDbCircle
 10
84.71900636500855
 20
57.67826283805316
 30
0.0
 40
0.04
  0
CIRCLE
  5
BE74
330
17
100
AcDbEntity
  8
0
100
AcDbCircle
 10
84.91600636500855
 20
57.67826283805318
 30
0.0
 40
0.04
  0
CIRCLE
  5
BE75
330
17
100
AcDbEntity
  8
0
100
AcDbCircle
 10
85.11300636500855
 20
57.67826283805318
 30
0.0
 40
0.04
  0
CIRCLE
  5
BE76
330
17
100
AcDbEntity
  8
0
100
AcDbCircle
 10
85.31000636500856
 20
57.67826283805318
 30
0.0
 40
0.04
  0
CIRCLE
  5
BE77
330
17
100
AcDbEntity
  8
0
100
AcDbCircle
 10
85.50700636500859
 20
57.15326283805316
 30
0.0
 40
0.04
  0
CIRCLE
  5
BE78
330
17
100
AcDbEntity
  8
0
100
AcDbCircle
 10
85.7040063650086
 20
57.15326283805316
 30
0.0
 40
0.04
  0
CIRCLE
  5
BE79
330
17
100
AcDbEntity
  8
0
100
AcDbCircle
 10
85.9010063650086
 20
57.15326283805314
 30
0.0
 40
0.04
  0
CIRCLE
  5
BE7A
330
17
100
AcDbEntity
  8
0
100
AcDbCircle
 10
85.50700636500856
 20
57.67826283805316
 30
0.0
 40
0.04
  0
CIRCLE
  5
BE7B
330
17
100
AcDbEntity
  8
0
100
AcDbCircle
 10
85.70400636500856
 20
57.67826283805316
 30
0.0
 40
0.04
  0
CIRCLE
  5
BE7C
330
17
100
AcDbEntity
  8
0
100
AcDbCircle
 10
85.90100636500856
 20
57.67826283805315
 30
0.0
 40
0.04
  0
LINE
  5
BE7D
330
17
100
AcDbEntity
  8
0
 62
     4
100
AcDbLine
 10
86.80500636500854
 20
57.0522628380532
 30
0.0
 11
87.16200636500854
 21
57.05226283805319
 31
0.0
  0
LINE
  5
BE7E
330
17
100
AcDbEntity
  8
0
 62
     4
100
AcDbLine
 10
86.80500636500854
 20
56.94026283805319
 30
0.0
 11
87.16200636500854
 21
56.94026283805318
 31
0.0
  0
LINE
  5
BE7F
330
17
100
AcDbEntity
  8
0
  6
CENTER2
100
AcDbLine
 10
86.55500636500851
 20
56.99626283805321
 30
0.0
 11
87.16200636500854
 21
56.99626283805319
 31
0.0
  0
LINE
  5
BE80
330
17
100
AcDbEntity
  8
0
 62
     4
100
AcDbLine
 10
86.57600636500852
 20
56.8782628380532
 30
0.0
 11
86.55500636500853
 21
56.8992628380532
 31
0.0
  0
LINE
  5
BE81
330
17
100
AcDbEntity
  8
0
 62
     4
100
AcDbLine
 10
86.57600636500852
 20
56.98226283805319
 30
0.0
 11
86.57600636500852
 21
56.87826283805319
 31
0.0
  0
LINE
  5
BE82
330
17
100
AcDbEntity
  8
0
100
AcDbLine
 10
86.35500636500855
 20
56.90926283805318
 30
0.0
 11
86.35500636500855
 21
57.08926283805317
 31
0.0
  0
CIRCLE
  5
BE83
330
17
100
AcDbEntity
  8
0
 62
     2
100
AcDbCircle
 10
86.35500636500854
 20
56.99926283805318
 30
0.0
 40
0.06
  0
LINE
  5
BE84
330
17
100
AcDbEntity
  8
0
100
AcDbLine
 10
86.26500636500855
 20
56.99926283805317
 30
0.0
 11
86.44500636500856
 21
56.99926283805317
 31
0.0
  0
LINE
  5
BE85
330
17
100
AcDbEntity
  8
0
 62
     4
100
AcDbLine
 10
86.55500636500853
 20
57.09326283805318
 30
0.0
 11
86.55500636500851
 21
57.01026283805319
 31
0.0
  0
LINE
  5
BE86
330
17
100
AcDbEntity
  8
0
 62
     4
100
AcDbLine
 10
86.57600636500852
 20
57.1142628380532
 30
0.0
 11
86.57600636500852
 21
57.01026283805319
 31
0.0
  0
LINE
  5
BE87
330
17
100
AcDbEntity
  8
0
 62
     4
100
AcDbLine
 10
86.61200636500852
 20
57.01026283805319
 30
0.0
 11
86.61200636500852
 21
56.9822628380532
 31
0.0
  0
LINE
  5
BE88
330
17
100
AcDbEntity
  8
0
 62
     4
100
AcDbLine
 10
86.61200636500852
 20
56.98226283805318
 30
0.0
 11
86.55500636500853
 21
56.98226283805319
 31
0.0
  0
LINE
  5
BE89
330
17
100
AcDbEntity
  8
0
 62
     4
100
AcDbLine
 10
86.61200636500852
 20
57.01026283805319
 30
0.0
 11
86.55500636500853
 21
57.01026283805319
 31
0.0
  0
LINE
  5
BE8A
330
17
100
AcDbEntity
  8
0
 62
     4
100
AcDbLine
 10
86.57600636500852
 20
57.1142628380532
 30
0.0
 11
86.55500636500853
 21
57.09326283805318
 31
0.0
  0
LINE
  5
BE8B
330
17
100
AcDbEntity
  8
0
 62
     4
100
AcDbLine
 10
86.57600636500852
 20
57.11426283805322
 30
0.0
 11
86.64000636500855
 21
57.11426283805322
 31
0.0
  0
LINE
  5
BE8C
330
17
100
AcDbEntity
  8
0
 62
     4
100
AcDbLine
 10
86.55500636500851
 20
56.98226283805318
 30
0.0
 11
86.55500636500853
 21
56.8992628380532
 31
0.0
  0
LINE
  5
BE8D
330
17
100
AcDbEntity
  8
0
 62
     2
100
AcDbLine
 10
87.03700636500853
 20
57.15854957117272
 30
0.0
 11
86.80500636500854
 21
57.15854957117272
 31
0.0
  0
LINE
  5
BE8E
330
17
100
AcDbEntity
  8
0
100
AcDbLine
 10
87.01200636500853
 20
56.95526283805318
 30
0.0
 11
87.01200636500853
 21
57.05226283805319
 31
0.0
  0
LINE
  5
BE8F
330
17
100
AcDbEntity
  8
0
100
AcDbLine
 10
87.04200636500852
 20
56.95526283805318
 30
0.0
 11
87.04200636500853
 21
57.05226283805319
 31
0.0
  0
LINE
  5
BE90
330
17
100
AcDbEntity
  8
0
100
AcDbLine
 10
87.07200636500854
 20
56.95526283805318
 30
0.0
 11
87.07200636500854
 21
57.05226283805319
 31
0.0
  0
LINE
  5
BE91
330
17
100
AcDbEntity
  8
0
100
AcDbLine
 10
87.10200636500854
 20
56.95526283805318
 30
0.0
 11
87.10200636500854
 21
57.05226283805319
 31
0.0
  0
LINE
  5
BE92
330
17
100
AcDbEntity
  8
0
100
AcDbLine
 10
87.02700636500852
 20
56.94026283805318
 30
0.0
 11
87.02700636500852
 21
57.0372628380532
 31
0.0
  0
LINE
  5
BE93
330
17
100
AcDbEntity
  8
0
100
AcDbLine
 10
87.05700636500852
 20
56.94026283805318
 30
0.0
 11
87.05700636500852
 21
57.0372628380532
 31
0.0
  0
LINE
  5
BE94
330
17
100
AcDbEntity
  8
0
100
AcDbLine
 10
87.08700636500852
 20
56.94026283805318
 30
0.0
 11
87.08700636500852
 21
57.0372628380532
 31
0.0
  0
LINE
  5
BE95
330
17
100
AcDbEntity
  8
0
100
AcDbLine
 10
87.11700636500852
 20
56.94026283805318
 30
0.0
 11
87.11700636500852
 21
57.0372628380532
 31
0.0
  0
LINE
  5
BE96
330
17
100
AcDbEntity
  8
0
100
AcDbLine
 10
87.13200636500854
 20
56.95526283805318
 30
0.0
 11
87.13200636500854
 21
57.05226283805319
 31
0.0
  0
LINE
  5
BE97
330
17
100
AcDbEntity
  8
0
100
AcDbLine
 10
87.14700636500852
 20
56.94026283805318
 30
0.0
 11
87.14700636500852
 21
57.0372628380532
 31
0.0
  0
LINE
  5
BE98
330
17
100
AcDbEntity
  8
0
 62
     4
100
AcDbLine
 10
87.16200636500854
 20
56.94026283805318
 30
0.0
 11
87.16200636500854
 21
57.05226283805319
 31
0.0
  0
LINE
  5
BE99
330
17
100
AcDbEntity
  8
0
 62
     2
100
AcDbLine
 10
86.64000636500851
 20
58.12726283805317
 30
0.0
 11
86.17100636500852
 21
58.12726283805317
 31
0.0
  0
CIRCLE
  5
BE9A
330
17
100
AcDbEntity
  8
0
100
AcDbCircle
 10
84.71900636500853
 20
58.20326283805314
 30
0.0
 40
0.04
  0
CIRCLE
  5
BE9B
330
17
100
AcDbEntity
  8
0
100
AcDbCircle
 10
84.91600636500853
 20
58.20326283805316
 30
0.0
 40
0.04
  0
CIRCLE
  5
BE9C
330
17
100
AcDbEntity
  8
0
100
AcDbCircle
 10
85.31000636500854
 20
58.20326283805316
 30
0.0
 40
0.04
  0
CIRCLE
  5
BE9D
330
17
100
AcDbEntity
  8
0
100
AcDbCircle
 10
85.11300636500854
 20
58.20326283805316
 30
0.0
 40
0.04
  0
CIRCLE
  5
BE9E
330
17
100
AcDbEntity
  8
0
100
AcDbCircle
 10
85.70400636500854
 20
58.20326283805314
 30
0.0
 40
0.04
  0
CIRCLE
  5
BE9F
330
17
100
AcDbEntity
  8
0
100
AcDbCircle
 10
85.50700636500854
 20
58.20326283805314
 30
0.0
 40
0.04
  0
CIRCLE
  5
BEA0
330
17
100
AcDbEntity
  8
0
100
AcDbCircle
 10
85.90100636500855
 20
58.20326283805314
 30
0.0
 40
0.04
  0
LINE
  5
BEA1
330
17
100
AcDbEntity
  8
0
 62
     4
100
AcDbLine
 10
86.80500636500854
 20
58.25226283805321
 30
0.0
 11
87.16200636500854
 21
58.25226283805321
 31
0.0
  0
LINE
  5
BEA2
330
17
100
AcDbEntity
  8
0
 62
     4
100
AcDbLine
 10
86.80500636500854
 20
58.36426283805322
 30
0.0
 11
87.16200636500854
 21
58.3642628380532
 31
0.0
  0
LINE
  5
BEA3
330
17
100
AcDbEntity
  8
0
  6
CENTER2
100
AcDbLine
 10
86.55500636500851
 20
58.30826283805324
 30
0.0
 11
87.16200636500854
 21
58.30826283805321
 31
0.0
  0
LEADER
  5
BEA4
330
17
100
AcDbEntity
  8
0
100
AcDbLeader
  3
STANDARD
 73
     0
 40
0.1
 41
2.983333333333334
 76
     3
 10
87.01574039979178
 20
58.3648065757866
 30
0.0
 10
86.78263344489957
 20
59.14311888594356
 30
0.0
 10
86.60020189918297
 20
59.14311888594355
 30
0.0
340
BE5F
213
0.0
223
0.05
233
0.0
1001
ACAD
1000
DSTYLE
1002
{
1070
   147
1040
0.09
1070
    77
1070
     0
1070
    44
1040
0.125
1070
    78
1070
     4
1070
   140
1040
0.1
1070
   141
1040
-0.09
1070
   271
1070
     3
1070
   272
1070
     3
1070
   288
1070
     1
1070
   289
1070
     1
1002
}
  0
LINE
  5
BEA5
330
17
100
AcDbEntity
  8
0
 62
     4
100
AcDbLine
 10
86.57600636500852
 20
58.29426283805322
 30
0.0
 11
86.57600636500852
 21
58.19026283805321
 31
0.0
  0
LINE
  5
BEA6
330
17
100
AcDbEntity
  8
0
 62
     4
100
AcDbLine
 10
86.55500636500851
 20
58.29426283805322
 30
0.0
 11
86.55500636500853
 21
58.21126283805321
 31
0.0
  0
LINE
  5
BEA7
330
17
100
AcDbEntity
  8
0
100
AcDbLine
 10
86.35500636500854
 20
58.21526283805317
 30
0.0
 11
86.35500636500854
 21
58.39526283805318
 31
0.0
  0
LINE
  5
BEA8
330
17
100
AcDbEntity
  8
0
 62
     4
100
AcDbLine
 10
86.57600636500852
 20
58.19026283805322
 30
0.0
 11
86.64000636500855
 21
58.19026283805322
 31
0.0
  0
LINE
  5
BEA9
330
17
100
AcDbEntity
  8
0
 62
     4
100
AcDbLine
 10
86.57600636500852
 20
58.19026283805322
 30
0.0
 11
86.55500636500853
 21
58.21126283805323
 31
0.0
  0
CIRCLE
  5
BEAA
330
17
100
AcDbEntity
  8
0
 62
     2
100
AcDbCircle
 10
86.35500636500854
 20
58.30526283805318
 30
0.0
 40
0.06
  0
LINE
  5
BEAB
330
17
100
AcDbEntity
  8
0
100
AcDbLine
 10
86.26500636500853
 20
58.30526283805317
 30
0.0
 11
86.44500636500854
 21
58.30526283805317
 31
0.0
  0
LINE
  5
BEAC
330
17
100
AcDbEntity
  8
0
 62
     4
100
AcDbLine
 10
86.61200636500852
 20
58.29426283805322
 30
0.0
 11
86.55500636500853
 21
58.29426283805322
 31
0.0
  0
LINE
  5
BEAD
330
17
100
AcDbEntity
  8
0
 62
     4
100
AcDbLine
 10
86.61200636500852
 20
58.32226283805321
 30
0.0
 11
86.55500636500853
 21
58.32226283805322
 31
0.0
  0
LINE
  5
BEAE
330
17
100
AcDbEntity
  8
0
 62
     4
100
AcDbLine
 10
86.61200636500852
 20
58.32226283805321
 30
0.0
 11
86.61200636500852
 21
58.29426283805322
 31
0.0
  0
LINE
  5
BEAF
330
17
100
AcDbEntity
  8
0
 62
     4
100
AcDbLine
 10
86.57600636500852
 20
58.42626283805321
 30
0.0
 11
86.55500636500853
 21
58.40526283805321
 31
0.0
  0
LINE
  5
BEB0
330
17
100
AcDbEntity
  8
0
 62
     4
100
AcDbLine
 10
86.57600636500852
 20
58.42626283805321
 30
0.0
 11
86.57600636500852
 21
58.32226283805322
 31
0.0
  0
LINE
  5
BEB1
330
17
100
AcDbEntity
  8
0
 62
     4
100
AcDbLine
 10
86.55500636500853
 20
58.40526283805321
 30
0.0
 11
86.55500636500851
 21
58.32226283805321
 31
0.0
  0
LINE
  5
BEB2
330
17
100
AcDbEntity
  8
0
 62
     2
100
AcDbLine
 10
87.03700636500853
 20
58.14597570032844
 30
0.0
 11
86.80500636500854
 21
58.14597570032844
 31
0.0
  0
LINE
  5
BEB3
330
17
100
AcDbEntity
  8
0
100
AcDbLine
 10
87.01200636500853
 20
58.26726283805321
 30
0.0
 11
87.01200636500853
 21
58.3642628380532
 31
0.0
  0
LINE
  5
BEB4
330
17
100
AcDbEntity
  8
0
100
AcDbLine
 10
87.02700636500852
 20
58.25226283805321
 30
0.0
 11
87.02700636500852
 21
58.34926283805321
 31
0.0
  0
LINE
  5
BEB5
330
17
100
AcDbEntity
  8
0
100
AcDbLine
 10
87.04200636500852
 20
58.26726283805321
 30
0.0
 11
87.04200636500853
 21
58.3642628380532
 31
0.0
  0
LINE
  5
BEB6
330
17
100
AcDbEntity
  8
0
100
AcDbLine
 10
87.05700636500852
 20
58.25226283805321
 30
0.0
 11
87.05700636500852
 21
58.34926283805321
 31
0.0
  0
LINE
  5
BEB7
330
17
100
AcDbEntity
  8
0
100
AcDbLine
 10
87.07200636500854
 20
58.26726283805321
 30
0.0
 11
87.07200636500854
 21
58.3642628380532
 31
0.0
  0
LINE
  5
BEB8
330
17
100
AcDbEntity
  8
0
100
AcDbLine
 10
87.08700636500852
 20
58.25226283805321
 30
0.0
 11
87.08700636500852
 21
58.34926283805321
 31
0.0
  0
LINE
  5
BEB9
330
17
100
AcDbEntity
  8
0
100
AcDbLine
 10
87.10200636500854
 20
58.26726283805321
 30
0.0
 11
87.10200636500854
 21
58.3642628380532
 31
0.0
  0
LINE
  5
BEBA
330
17
100
AcDbEntity
  8
0
100
AcDbLine
 10
87.11700636500852
 20
58.25226283805321
 30
0.0
 11
87.11700636500852
 21
58.34926283805321
 31
0.0
  0
LINE
  5
BEBB
330
17
100
AcDbEntity
  8
0
100
AcDbLine
 10
87.13200636500854
 20
58.26726283805321
 30
0.0
 11
87.13200636500854
 21
58.3642628380532
 31
0.0
  0
LINE
  5
BEBC
330
17
100
AcDbEntity
  8
0
100
AcDbLine
 10
87.14700636500852
 20
58.25226283805321
 30
0.0
 11
87.14700636500852
 21
58.34926283805321
 31
0.0
  0
LINE
  5
BEBD
330
17
100
AcDbEntity
  8
0
 62
     4
100
AcDbLine
 10
87.16200636500854
 20
58.25226283805321
 30
0.0
 11
87.16200636500854
 21
58.3642628380532
 31
0.0
  0
LINE
  5
BEBE
330
17
100
AcDbEntity
  8
0
  6
HIDDEN
 62
     3
100
AcDbLine
 10
91.24750077961667
 20
56.88126283805321
 30
0.0
 11
91.24750077961667
 21
58.42326283805324
 31
0.0
  0
LINE
  5
BEBF
330
17
100
AcDbEntity
  8
0
 62
     2
100
AcDbLine
 10
89.3039872137599
 20
57.89826283805319
 30
0.0
 11
89.35398721375989
 21
57.84826283805319
 31
0.0
  0
LINE
  5
BEC0
330
17
100
AcDbEntity
  8
0
 62
     2
100
AcDbLine
 10
88.90288555307133
 20
57.89826283805319
 30
0.0
 11
89.0893925228458
 21
57.75170917414848
 31
0.0
  0
LINE
  5
BEC1
330
17
100
AcDbEntity
  8
0
 62
     2
100
AcDbLine
 10
88.86198721375988
 20
57.89826283805319
 30
0.0
 11
89.07020167015296
 21
57.73251832145564
 31
0.0
  0
LINE
  5
BEC2
330
17
100
AcDbEntity
  8
0
 62
     4
100
AcDbLine
 10
90.61350077961668
 20
58.42326283805319
 30
0.0
 11
90.61350077961668
 21
56.88126283805321
 31
0.0
  0
LWPOLYLINE
  5
BEC3
330
17
100
AcDbEntity
  8
0
  6
L0
 62
     2
100
AcDbPolyline
 90
        2
 70
     0
 43
0.0
 10
88.73237633643173
 20
57.28661483805317
 10
88.73237633643173
 20
58.01490183805317
  0
LWPOLYLINE
  5
BEC4
330
17
100
AcDbEntity
  8
0
  6
L0
 62
     2
100
AcDbPolyline
 90
        2
 70
     0
 43
0.0
 10
88.71537633643173
 20
57.28661483805317
 10
88.71537633643173
 20
58.01490183805317
  0
LINE
  5
BEC5
330
17
100
AcDbEntity
  8
0
 62
     4
100
AcDbLine
 10
88.86037633643175
 20
56.88126283805319
 30
0.0
 11
88.86037633643173
 21
58.42326283805319
 31
0.0
  0
LINE
  5
BEC6
330
17
100
AcDbEntity
  8
0
 62
     4
100
AcDbLine
 10
88.79837633643173
 20
58.42326283805319
 30
0.0
 11
88.79837633643173
 21
56.88126283805319
 31
0.0
  0
LINE
  5
BEC7
330
17
100
AcDbEntity
  8
0
 62
     2
100
AcDbLine
 10
90.38150077961667
 20
57.15854957117272
 30
0.0
 11
90.38150077961667
 21
58.14597570032844
 31
0.0
  0
LWPOLYLINE
  5
BEC8
330
17
100
AcDbEntity
  8
0
  6
L0
 62
     2
100
AcDbPolyline
 90
        2
 70
     0
 43
0.0
 10
88.36437633643173
 20
57.25954983805317
 10
88.36437633643173
 20
58.04497583805319
  0
LWPOLYLINE
  5
BEC9
330
17
100
AcDbEntity
  8
0
  6
L0
 62
     2
100
AcDbPolyline
 90
        2
 70
     0
 43
0.0
 10
88.38137633643173
 20
57.25954983805317
 10
88.38137733643176
 20
58.04497583805319
  0
LWPOLYLINE
  5
BECA
330
17
100
AcDbEntity
  8
0
  6
L5
 62
     2
100
AcDbPolyline
 90
        2
 70
     0
 43
0.0
 10
88.29837633643176
 20
56.9292628380532
 10
88.29837633643176
 20
58.37526283805319
  0
DIMENSION
  5
BECB
330
17
100
AcDbEntity
  8
0
100
AcDbDimension
  2
*D4
 10
89.78476327382956
 20
57.9312628380532
 30
0.0
 11
89.78476327382955
 21
58.17726283805306
 31
0.0
 70
   160
  1
<>\PTYP
 71
     5
 42
0.491999999999706
  3
STANDARD
100
AcDbAlignedDimension
 13
89.305598091088
 23
58.42326283805291
 33
0.0
 14
89.09959809108801
 24
57.9312628380532
 34
0.0
 50
90.0
100
AcDbRotatedDimension
1001
ACAD
1000
DSTYLE
1002
{
1070
    44
1040
0.125
1070
    78
1070
     4
1070
   140
1040
0.1
1070
   141
1040
-0.09
1070
   271
1070
     3
1070
   272
1070
     3
1070
   288
1070
     1
1070
   289
1070
     1
1002
}
  0
LINE
  5
BECC
330
17
100
AcDbEntity
  8
0
 62
     4
100
AcDbLine
 10
88.86037633643175
 20
56.88126283805319
 30
0.0
 11
88.79837633643173
 21
56.88126283805319
 31
0.0
  0
LWPOLYLINE
  5
BECD
330
17
100
AcDbEntity
  8
0
  6
L0
 62
     2
100
AcDbPolyline
 90
        2
 70
     0
 43
0.0
 10
88.36437633643173
 20
57.25954983805317
 42
0.4623840000000001
 10
88.48162933643173
 20
57.15986583805317
  0
LWPOLYLINE
  5
BECE
330
17
100
AcDbEntity
  8
0
  6
L0
 62
     2
100
AcDbPolyline
 90
        2
 70
     0
 43
0.0
 10
88.38137633643173
 20
57.25954983805317
 42
0.4623850000000001
 10
88.47889333643173
 20
57.17664383805317
  0
LWPOLYLINE
  5
BECF
330
17
100
AcDbEntity
  8
0
  6
L0
 62
     2
100
AcDbPolyline
 90
        2
 70
     0
 43
0.0
 10
88.64762933643174
 20
57.18693083805317
 42
0.367631
 10
88.73237633643173
 20
57.28661483805317
  0
LWPOLYLINE
  5
BED0
330
17
100
AcDbEntity
  8
0
  6
L0
 62
     2
100
AcDbPolyline
 90
        2
 70
     0
 43
0.0
 10
88.64489333643174
 20
57.20370983805316
 42
0.367631
 10
88.71537633643173
 20
57.28661483805317
  0
LWPOLYLINE
  5
BED1
330
17
100
AcDbEntity
  8
0
  6
L5
 62
     2
100
AcDbPolyline
 90
        2
 70
     0
 43
0.0
 10
88.75037633643172
 20
56.88126283805321
 10
88.34637633643174
 20
56.88126283805321
  0
LWPOLYLINE
  5
BED2
330
17
100
AcDbEntity
  8
0
  6
L5
 62
     2
100
AcDbPolyline
 90
        2
 70
     0
 43
0.0
 10
88.29837633643176
 20
56.9292628380532
 42
0.4142140000000001
 10
88.34637633643174
 20
56.88126283805321
  0
LWPOLYLINE
  5
BED3
330
17
100
AcDbEntity
  8
0
  6
L5
 62
     2
100
AcDbPolyline
 90
        2
 70
     0
 43
0.0
 10
88.75037633643172
 20
56.88126283805321
 42
0.4142140000000001
 10
88.79837633643173
 20
56.9292628380532
  0
LINE
  5
BED4
330
17
100
AcDbEntity
  8
0
100
AcDbLine
 10
88.63837633643173
 20
56.99626283805319
 30
0.0
 11
88.45837633643172
 21
56.99626283805319
 31
0.0
  0
LWPOLYLINE
  5
BED5
330
17
100
AcDbEntity
  8
0
  6
L0
 62
     2
100
AcDbPolyline
 90
        2
 70
     0
 43
0.0
 10
88.48162933643173
 20
57.15986583805317
 10
88.64762933643174
 20
57.18693083805317
  0
LWPOLYLINE
  5
BED6
330
17
100
AcDbEntity
  8
0
  6
L0
 62
     2
100
AcDbPolyline
 90
        2
 70
     0
 43
0.0
 10
88.47889333643173
 20
57.17664483805316
 10
88.64489333643174
 20
57.20370983805316
  0
LINE
  5
BED7
330
17
100
AcDbEntity
  8
0
100
AcDbLine
 10
88.54837633643173
 20
57.08626283805319
 30
0.0
 11
88.54837633643173
 21
56.90626283805318
 31
0.0
  0
CIRCLE
  5
BED8
330
17
100
AcDbEntity
  8
0
 62
     2
100
AcDbCircle
 10
88.54837633643173
 20
56.99626283805319
 30
0.0
 40
0.06
  0
CIRCLE
  5
BED9
330
17
100
AcDbEntity
  8
0
100
AcDbCircle
 10
88.6309833892681
 20
57.57250430394243
 30
0.0
 40
0.02077621
  0
CIRCLE
  5
BEDA
330
17
100
AcDbEntity
  8
0
100
AcDbCircle
 10
88.45359994926811
 20
57.57250430394243
 30
0.0
 40
0.02077621
  0
CIRCLE
  5
BEDB
330
17
100
AcDbEntity
  8
0
100
AcDbCircle
 10
88.54229166926812
 20
57.55033137394244
 30
0.0
 40
0.02077621
  0
CIRCLE
  5
BEDC
330
17
100
AcDbEntity
  8
0
100
AcDbCircle
 10
88.6309833892681
 20
57.37714030394243
 30
0.0
 40
0.02077621
  0
CIRCLE
  5
BEDD
330
17
100
AcDbEntity
  8
0
100
AcDbCircle
 10
88.6309833892681
 20
57.47482230394244
 30
0.0
 40
0.02077621
  0
CIRCLE
  5
BEDE
330
17
100
AcDbEntity
  8
0
100
AcDbCircle
 10
88.6309833892681
 20
57.27945830394244
 30
0.0
 40
0.02077621
  0
CIRCLE
  5
BEDF
330
17
100
AcDbEntity
  8
0
100
AcDbCircle
 10
88.45359994926811
 20
57.37714030394243
 30
0.0
 40
0.02077621
  0
CIRCLE
  5
BEE0
330
17
100
AcDbEntity
  8
0
100
AcDbCircle
 10
88.54229166926812
 20
57.35496737394244
 30
0.0
 40
0.02077621
  0
CIRCLE
  5
BEE1
330
17
100
AcDbEntity
  8
0
100
AcDbCircle
 10
88.45359994926811
 20
57.47482230394244
 30
0.0
 40
0.02077621
  0
CIRCLE
  5
BEE2
330
17
100
AcDbEntity
  8
0
100
AcDbCircle
 10
88.54229166926812
 20
57.45264937394243
 30
0.0
 40
0.02077621
  0
CIRCLE
  5
BEE3
330
17
100
AcDbEntity
  8
0
100
AcDbCircle
 10
88.45359994926811
 20
57.27945830394244
 30
0.0
 40
0.02077621
  0
CIRCLE
  5
BEE4
330
17
100
AcDbEntity
  8
0
100
AcDbCircle
 10
88.54229166926812
 20
57.25728537394243
 30
0.0
 40
0.02077621
  0
CIRCLE
  5
BEE5
330
17
100
AcDbEntity
  8
0
100
AcDbCircle
 10
88.6309833892681
 20
57.86555030394244
 30
0.0
 40
0.02077621
  0
CIRCLE
  5
BEE6
330
17
100
AcDbEntity
  8
0
100
AcDbCircle
 10
88.6309833892681
 20
57.67018630394244
 30
0.0
 40
0.02077621
  0
CIRCLE
  5
BEE7
330
17
100
AcDbEntity
  8
0
100
AcDbCircle
 10
88.6309833892681
 20
57.76786830394245
 30
0.0
 40
0.02077621
  0
CIRCLE
  5
BEE8
330
17
100
AcDbEntity
  8
0
100
AcDbCircle
 10
88.45359994926811
 20
57.86555030394244
 30
0.0
 40
0.02077621
  0
CIRCLE
  5
BEE9
330
17
100
AcDbEntity
  8
0
100
AcDbCircle
 10
88.45359994926811
 20
57.67018630394244
 30
0.0
 40
0.02077621
  0
CIRCLE
  5
BEEA
330
17
100
AcDbEntity
  8
0
100
AcDbCircle
 10
88.54229166926812
 20
57.64801337394245
 30
0.0
 40
0.02077621
  0
CIRCLE
  5
BEEB
330
17
100
AcDbEntity
  8
0
100
AcDbCircle
 10
88.45359994926811
 20
57.76786830394245
 30
0.0
 40
0.02077621
  0
CIRCLE
  5
BEEC
330
17
100
AcDbEntity
  8
0
100
AcDbCircle
 10
88.54229166926812
 20
57.74569537394244
 30
0.0
 40
0.02077621
  0
CIRCLE
  5
BEED
330
17
100
AcDbEntity
  8
0
100
AcDbCircle
 10
88.54229166926812
 20
57.84337737394243
 30
0.0
 40
0.02077621
  0
LINE
  5
BEEE
330
17
100
AcDbEntity
  8
0
 62
     2
100
AcDbLine
 10
89.35398721375989
 20
57.32326283805318
 30
0.0
 11
89.35398721375989
 21
57.13726283805318
 31
0.0
  0
LINE
  5
BEEF
330
17
100
AcDbEntity
  8
0
 62
     2
100
AcDbLine
 10
88.86198721375988
 20
57.37326283805318
 30
0.0
 11
89.07020167015296
 21
57.20751832145562
 31
0.0
  0
LINE
  5
BEF0
330
17
100
AcDbEntity
  8
0
 62
     2
100
AcDbLine
 10
89.0893925228458
 20
57.22670917414847
 30
0.0
 11
89.07020167015295
 21
57.20751832145562
 31
0.0
  0
LINE
  5
BEF1
330
17
100
AcDbEntity
  8
0
 62
     2
100
AcDbLine
 10
89.35398721375989
 20
57.13726283805318
 30
0.0
 11
89.0979872137599
 21
56.88126283805318
 31
0.0
  0
LINE
  5
BEF2
330
17
100
AcDbEntity
  8
0
 62
     2
100
AcDbLine
 10
88.86037633643175
 20
56.88126283805318
 30
0.0
 11
89.0979872137599
 21
56.88126283805318
 31
0.0
  0
LINE
  5
BEF3
330
17
100
AcDbEntity
  8
0
 62
     2
100
AcDbLine
 10
89.3039872137599
 20
57.37326283805318
 30
0.0
 11
88.86037633643175
 21
57.37326283805318
 31
0.0
  0
LINE
  5
BEF4
330
17
100
AcDbEntity
  8
0
 62
     2
100
AcDbLine
 10
89.35398721375989
 20
57.6622628380532
 30
0.0
 11
89.0979872137599
 21
57.4062628380532
 31
0.0
  0
LINE
  5
BEF5
330
17
100
AcDbEntity
  8
0
 62
     2
100
AcDbLine
 10
88.86037633643175
 20
57.4062628380532
 30
0.0
 11
89.0979872137599
 21
57.4062628380532
 31
0.0
  0
LINE
  5
BEF6
330
17
100
AcDbEntity
  8
0
 62
     2
100
AcDbLine
 10
88.90288555307133
 20
57.37326283805318
 30
0.0
 11
89.0893925228458
 21
57.22670917414847
 31
0.0
  0
LINE
  5
BEF7
330
17
100
AcDbEntity
  8
0
 62
     2
100
AcDbLine
 10
89.0893925228458
 20
57.75170917414848
 30
0.0
 11
89.07020167015295
 21
57.73251832145564
 31
0.0
  0
LINE
  5
BEF8
330
17
100
AcDbEntity
  8
0
 62
     2
100
AcDbLine
 10
89.3039872137599
 20
57.37326283805318
 30
0.0
 11
89.35398721375989
 21
57.32326283805318
 31
0.0
  0
LINE
  5
BEF9
330
17
100
AcDbEntity
  8
0
 62
     2
100
AcDbLine
 10
89.35398721375989
 20
57.84826283805319
 30
0.0
 11
89.35398721375989
 21
57.6622628380532
 31
0.0
  0
LINE
  5
BEFA
330
17
100
AcDbEntity
  8
0
 62
     2
100
AcDbLine
 10
90.38150077961667
 20
57.15854957117272
 30
0.0
 11
90.61350077961668
 21
57.15854957117272
 31
0.0
  0
LINE
  5
BEFB
330
17
100
AcDbEntity
  8
0
100
AcDbLine
 10
91.15350077961666
 20
56.99626283805319
 30
0.0
 11
90.97350077961666
 21
56.99626283805319
 31
0.0
  0
LINE
  5
BEFC
330
17
100
AcDbEntity
  8
0
100
AcDbLine
 10
91.06350077961666
 20
56.90626283805319
 30
0.0
 11
91.06350077961666
 21
57.08626283805319
 31
0.0
  0
CIRCLE
  5
BEFD
330
17
100
AcDbEntity
  8
0
 62
     2
100
AcDbCircle
 10
91.06350077961668
 20
56.99626283805319
 30
0.0
 40
0.06
  0
TEXT
  5
BEFE
330
17
100
AcDbEntity
  8
0
 62
     2
100
AcDbText
 10
91.27305574184962
 20
57.14782096474272
 30
0.0
 40
0.07
  1
19
  7
ROMANS
 72
     4
 11
91.34305574184962
 21
57.18282096474272
 31
0.0
100
AcDbText
  0
CIRCLE
  5
BEFF
330
17
100
AcDbEntity
  8
0
100
AcDbCircle
 10
90.9635007796167
 20
57.57250430394243
 30
0.0
 40
0.02077621
  0
CIRCLE
  5
BF00
330
17
100
AcDbEntity
  8
0
100
AcDbCircle
 10
90.9635007796167
 20
57.86555030394244
 30
0.0
 40
0.02077621
  0
CIRCLE
  5
BF01
330
17
100
AcDbEntity
  8
0
100
AcDbCircle
 10
90.9635007796167
 20
57.67018630394244
 30
0.0
 40
0.02077621
  0
CIRCLE
  5
BF02
330
17
100
AcDbEntity
  8
0
100
AcDbCircle
 10
90.9635007796167
 20
57.76786830394245
 30
0.0
 40
0.02077621
  0
CIRCLE
  5
BF03
330
17
100
AcDbEntity
  8
0
100
AcDbCircle
 10
90.9635007796167
 20
57.37714030394243
 30
0.0
 40
0.02077621
  0
CIRCLE
  5
BF04
330
17
100
AcDbEntity
  8
0
100
AcDbCircle
 10
90.9635007796167
 20
57.47482230394244
 30
0.0
 40
0.02077621
  0
CIRCLE
  5
BF05
330
17
100
AcDbEntity
  8
0
100
AcDbCircle
 10
90.9635007796167
 20
57.27945830394244
 30
0.0
 40
0.02077621
  0
CIRCLE
  5
BF06
330
17
100
AcDbEntity
  8
0
100
AcDbCircle
 10
91.16350077961666
 20
57.57250430394243
 30
0.0
 40
0.02077621
  0
CIRCLE
  5
BF07
330
17
100
AcDbEntity
  8
0
100
AcDbCircle
 10
91.06350077961668
 20
57.55033137394244
 30
0.0
 40
0.02077621
  0
CIRCLE
  5
BF08
330
17
100
AcDbEntity
  8
0
100
AcDbCircle
 10
91.16350077961666
 20
57.37714030394243
 30
0.0
 40
0.02077621
  0
CIRCLE
  5
BF09
330
17
100
AcDbEntity
  8
0
100
AcDbCircle
 10
91.16350077961666
 20
57.47482230394244
 30
0.0
 40
0.02077621
  0
CIRCLE
  5
BF0A
330
17
100
AcDbEntity
  8
0
100
AcDbCircle
 10
91.16350077961666
 20
57.27945830394244
 30
0.0
 40
0.02077621
  0
CIRCLE
  5
BF0B
330
17
100
AcDbEntity
  8
0
100
AcDbCircle
 10
91.06350077961668
 20
57.35496737394244
 30
0.0
 40
0.02077621
  0
CIRCLE
  5
BF0C
330
17
100
AcDbEntity
  8
0
100
AcDbCircle
 10
91.06350077961668
 20
57.45264937394243
 30
0.0
 40
0.02077621
  0
CIRCLE
  5
BF0D
330
17
100
AcDbEntity
  8
0
100
AcDbCircle
 10
91.06350077961668
 20
57.25728537394243
 30
0.0
 40
0.02077621
  0
CIRCLE
  5
BF0E
330
17
100
AcDbEntity
  8
0
100
AcDbCircle
 10
91.16350077961666
 20
57.86555030394244
 30
0.0
 40
0.02077621
  0
CIRCLE
  5
BF0F
330
17
100
AcDbEntity
  8
0
100
AcDbCircle
 10
91.16350077961666
 20
57.67018630394244
 30
0.0
 40
0.02077621
  0
CIRCLE
  5
BF10
330
17
100
AcDbEntity
  8
0
100
AcDbCircle
 10
91.16350077961666
 20
57.76786830394245
 30
0.0
 40
0.02077621
  0
CIRCLE
  5
BF11
330
17
100
AcDbEntity
  8
0
100
AcDbCircle
 10
91.06350077961668
 20
57.64801337394245
 30
0.0
 40
0.02077621
  0
CIRCLE
  5
BF12
330
17
100
AcDbEntity
  8
0
100
AcDbCircle
 10
91.06350077961668
 20
57.74569537394244
 30
0.0
 40
0.02077621
  0
CIRCLE
  5
BF13
330
17
100
AcDbEntity
  8
0
100
AcDbCircle
 10
91.06350077961668
 20
57.84337737394243
 30
0.0
 40
0.02077621
  0
TEXT
  5
BF14
330
17
100
AcDbEntity
  8
0
 62
     2
100
AcDbText
 10
91.27138907518292
 20
57.67282096474268
 30
0.0
 40
0.07
  1
10
  7
ROMANS
 72
     4
 11
91.34305574184958
 21
57.70782096474267
 31
0.0
100
AcDbText
  0
DIMENSION
  5
BF15
330
17
100
AcDbEntity
  8
0
100
AcDbDimension
  2
*D5
 10
89.355598091088
 20
59.08960833378045
 30
0.0
 11
89.10798721375988
 21
59.08960833378045
 31
0.0
 70
   160
 71
     5
 42
0.495221754656285
  3
STANDARD
100
AcDbAlignedDimension
 13
88.86037633643173
 23
58.42326283805319
 33
0.0
 14
89.355598091088
 24
58.37326283805291
 34
0.0
100
AcDbRotatedDimension
1001
ACAD
1000
DSTYLE
1002
{
1070
    44
1040
0.125
1070
    78
1070
     4
1070
   140
1040
0.1
1070
   141
1040
-0.09
1070
   271
1070
     3
1070
   272
1070
     3
1070
   288
1070
     1
1070
   289
1070
     1
1002
}
  0
LINE
  5
BF16
330
17
100
AcDbEntity
  8
0
 62
     4
100
AcDbLine
 10
88.86037633643173
 20
58.42326283805319
 30
0.0
 11
88.79837633643173
 21
58.42326283805319
 31
0.0
  0
LWPOLYLINE
  5
BF17
330
17
100
AcDbEntity
  8
0
  6
L0
 62
     2
100
AcDbPolyline
 90
        2
 70
     0
 43
0.0
 10
88.48338133643174
 20
58.14435783805318
 42
0.467738
 10
88.36437633643173
 20
58.04497583805319
  0
LWPOLYLINE
  5
BF18
330
17
100
AcDbEntity
  8
0
  6
L0
 62
     2
100
AcDbPolyline
 90
        2
 70
     0
 43
0.0
 10
88.48035133643175
 20
58.12763083805318
 42
0.467737
 10
88.38137633643173
 20
58.04497583805319
  0
LWPOLYLINE
  5
BF19
330
17
100
AcDbEntity
  8
0
  6
L5
 62
     2
100
AcDbPolyline
 90
        2
 70
     0
 43
0.0
 10
88.75037633643172
 20
58.42326283805319
 10
88.34637633643174
 20
58.42326283805319
  0
LWPOLYLINE
  5
BF1A
330
17
100
AcDbEntity
  8
0
  6
L5
 62
     2
100
AcDbPolyline
 90
        2
 70
     0
 43
0.0
 10
88.34637633643174
 20
58.42326283805319
 42
0.4142140000000001
 10
88.29837633643176
 20
58.37526283805319
  0
LINE
  5
BF1B
330
17
100
AcDbEntity
  8
0
100
AcDbLine
 10
88.54837633643173
 20
58.39826283805315
 30
0.0
 11
88.54837633643173
 21
58.21826283805316
 31
0.0
  0
LWPOLYLINE
  5
BF1C
330
17
100
AcDbEntity
  8
0
  6
L0
 62
     2
100
AcDbPolyline
 90
        2
 70
     0
 43
0.0
 10
88.48338133643174
 20
58.14435783805318
 10
88.64938133643175
 20
58.11428383805317
  0
LWPOLYLINE
  5
BF1D
330
17
100
AcDbEntity
  8
0
  6
L0
 62
     2
100
AcDbPolyline
 90
        2
 70
     0
 43
0.0
 10
88.48035133643175
 20
58.12763083805318
 10
88.64635133643174
 20
58.09755583805316
  0
CIRCLE
  5
BF1E
330
17
100
AcDbEntity
  8
0
100
AcDbCircle
 10
88.6309833892681
 20
57.96323230394245
 30
0.0
 40
0.02077621
  0
CIRCLE
  5
BF1F
330
17
100
AcDbEntity
  8
0
100
AcDbCircle
 10
88.45359994926811
 20
57.96323230394245
 30
0.0
 40
0.02077621
  0
CIRCLE
  5
BF20
330
17
100
AcDbEntity
  8
0
100
AcDbCircle
 10
88.54229166926812
 20
57.94105937394244
 30
0.0
 40
0.02077621
  0
CIRCLE
  5
BF21
330
17
100
AcDbEntity
  8
0
100
AcDbCircle
 10
88.54229166926812
 20
58.03874137394244
 30
0.0
 40
0.02077621
  0
CIRCLE
  5
BF22
330
17
100
AcDbEntity
  8
0
100
AcDbCircle
 10
88.45359994926811
 20
58.06091430394244
 30
0.0
 40
0.02077621
  0
LWPOLYLINE
  5
BF23
330
17
100
AcDbEntity
  8
0
  6
L0
 62
     2
100
AcDbPolyline
 90
        2
 70
     0
 43
0.0
 10
88.73237633643173
 20
58.01490183805317
 42
0.362643
 10
88.64938133643175
 20
58.11428383805317
  0
LWPOLYLINE
  5
BF24
330
17
100
AcDbEntity
  8
0
  6
L0
 62
     2
100
AcDbPolyline
 90
        2
 70
     0
 43
0.0
 10
88.71537633643173
 20
58.01490183805317
 42
0.362643
 10
88.64635033643175
 20
58.09755683805317
  0
LINE
  5
BF25
330
17
100
AcDbEntity
  8
0
100
AcDbLine
 10
88.63837633643173
 20
58.30826283805317
 30
0.0
 11
88.45837633643172
 21
58.30826283805317
 31
0.0
  0
CIRCLE
  5
BF26
330
17
100
AcDbEntity
  8
0
 62
     2
100
AcDbCircle
 10
88.54837633643173
 20
58.30826283805316
 30
0.0
 40
0.06
  0
LWPOLYLINE
  5
BF27
330
17
100
AcDbEntity
  8
0
  6
L5
 62
     2
100
AcDbPolyline
 90
        2
 70
     0
 43
0.0
 10
88.79837633643173
 20
58.37526283805319
 42
0.4142140000000001
 10
88.75037633643172
 20
58.42326283805319
  0
TEXT
  5
BF28
330
17
100
AcDbEntity
  8
0
 62
     2
100
AcDbText
 10
87.85681129333831
 20
57.6770316543878
 30
0.0
 40
0.125
  1
P1
  7
SIMPLEX
100
AcDbText
  0
LINE
  5
BF29
330
17
100
AcDbEntity
  8
0
 62
     2
100
AcDbLine
 10
89.30559809108801
 20
58.42326283805319
 30
0.0
 11
88.86037633643173
 21
58.42326283805319
 31
0.0
  0
LINE
  5
BF2A
330
17
100
AcDbEntity
  8
0
 62
     2
100
AcDbLine
 10
89.3039872137599
 20
57.89826283805319
 30
0.0
 11
88.86037633643175
 21
57.8982628380532
 31
0.0
  0
LINE
  5
BF2B
330
17
100
AcDbEntity
  8
0
 62
     2
100
AcDbLine
 10
89.355598091088
 20
58.1872628380532
 30
0.0
 11
89.09959809108801
 21
57.9312628380532
 31
0.0
  0
LINE
  5
BF2C
330
17
100
AcDbEntity
  8
0
 62
     2
100
AcDbLine
 10
88.86198721375988
 20
57.9312628380532
 30
0.0
 11
89.09959809108801
 21
57.9312628380532
 31
0.0
  0
LINE
  5
BF2D
330
17
100
AcDbEntity
  8
0
 62
     2
100
AcDbLine
 10
88.90449643039945
 20
58.42326283805319
 30
0.0
 11
89.09100340017394
 21
58.27670917414848
 31
0.0
  0
LINE
  5
BF2E
330
17
100
AcDbEntity
  8
0
 62
     2
100
AcDbLine
 10
88.86359809108801
 20
58.42326283805319
 30
0.0
 11
89.07181254748108
 21
58.25751832145563
 31
0.0
  0
LINE
  5
BF2F
330
17
100
AcDbEntity
  8
0
 62
     2
100
AcDbLine
 10
89.09100340017394
 20
58.27670917414848
 30
0.0
 11
89.07181254748108
 21
58.25751832145563
 31
0.0
  0
LINE
  5
BF30
330
17
100
AcDbEntity
  8
0
 62
     2
100
AcDbLine
 10
89.355598091088
 20
58.37326283805319
 30
0.0
 11
89.355598091088
 21
58.1872628380532
 31
0.0
  0
LINE
  5
BF31
330
17
100
AcDbEntity
  8
0
 62
     2
100
AcDbLine
 10
89.30559809108801
 20
58.42326283805319
 30
0.0
 11
89.355598091088
 21
58.37326283805319
 31
0.0
  0
LINE
  5
BF32
330
17
100
AcDbEntity
  8
0
 62
     2
100
AcDbLine
 10
90.38150077961667
 20
58.14597570032844
 30
0.0
 11
90.61350077961668
 21
58.14597570032844
 31
0.0
  0
CIRCLE
  5
BF33
330
17
100
AcDbEntity
  8
0
100
AcDbCircle
 10
90.9635007796167
 20
57.96323230394245
 30
0.0
 40
0.02077621
  0
LINE
  5
BF34
330
17
100
AcDbEntity
  8
0
100
AcDbLine
 10
91.15350077961668
 20
58.30826283805316
 30
0.0
 11
90.97350077961667
 21
58.30826283805316
 31
0.0
  0
LINE
  5
BF35
330
17
100
AcDbEntity
  8
0
100
AcDbLine
 10
91.06350077961668
 20
58.21826283805315
 30
0.0
 11
91.06350077961668
 21
58.39826283805316
 31
0.0
  0
TEXT
  5
BF36
330
17
100
AcDbEntity
  8
0
 62
     2
100
AcDbText
 10
91.31472240851621
 20
58.19782096474269
 30
0.0
 40
0.07
  1
1
  7
ROMANS
 72
     4
 11
91.34305574184955
 21
58.23282096474269
 31
0.0
100
AcDbText
  0
CIRCLE
  5
BF37
330
17
100
AcDbEntity
  8
0
100
AcDbCircle
 10
91.16350077961666
 20
57.96323230394245
 30
0.0
 40
0.02077621
  0
CIRCLE
  5
BF38
330
17
100
AcDbEntity
  8
0
100
AcDbCircle
 10
91.06350077961668
 20
57.94105937394244
 30
0.0
 40
0.02077621
  0
CIRCLE
  5
BF39
330
17
100
AcDbEntity
  8
0
100
AcDbCircle
 10
91.06350077961668
 20
58.03874137394244
 30
0.0
 40
0.02077621
  0
CIRCLE
  5
BF3A
330
17
100
AcDbEntity
  8
0
100
AcDbCircle
 10
91.16350077961666
 20
58.06091430394244
 30
0.0
 40
0.02077621
  0
CIRCLE
  5
BF3B
330
17
100
AcDbEntity
  8
0
 62
     2
100
AcDbCircle
 10
91.06350077961668
 20
58.30826283805317
 30
0.0
 40
0.06
  0
CIRCLE
  5
BF3C
330
17
100
AcDbEntity
  8
0
100
AcDbCircle
 10
93.09350077961671
 20
57.82446283805319
 30
0.0
 40
0.069
  0
CIRCLE
  5
BF3D
330
17
100
AcDbEntity
  8
0
100
AcDbCircle
 10
92.89650077961672
 20
57.82446283805319
 30
0.0
 40
0.069
  0
LINE
  5
BF3E
330
17
100
AcDbEntity
  8
0
100
AcDbLine
 10
92.81950077961672
 20
57.8982628380532
 30
0.0
 11
92.81950077961672
 21
57.75066283805319
 31
0.0
  0
LINE
  5
BF3F
330
17
100
AcDbEntity
  8
0
100
AcDbLine
 10
93.01650077961673
 20
57.8982628380532
 30
0.0
 11
93.01650077961673
 21
57.75066283805319
 31
0.0
  0
LINE
  5
BF40
330
17
100
AcDbEntity
  8
0
100
AcDbLine
 10
92.97350077961672
 20
57.8982628380532
 30
0.0
 11
92.97350077961672
 21
57.75066283805319
 31
0.0
  0
LINE
  5
BF41
330
17
100
AcDbEntity
  8
0
100
AcDbLine
 10
93.17050077961672
 20
57.8982628380532
 30
0.0
 11
93.17050077961672
 21
57.75066283805319
 31
0.0
  0
CIRCLE
  5
BF42
330
17
100
AcDbEntity
  8
0
100
AcDbCircle
 10
92.69950077961672
 20
57.82446283805319
 30
0.0
 40
0.069
  0
LINE
  5
BF43
330
17
100
AcDbEntity
  8
0
100
AcDbLine
 10
92.62250077961672
 20
57.8982628380532
 30
0.0
 11
92.62250077961672
 21
57.75066283805319
 31
0.0
  0
LINE
  5
BF44
330
17
100
AcDbEntity
  8
0
100
AcDbLine
 10
92.57950077961671
 20
57.8982628380532
 30
0.0
 11
92.57950077961671
 21
57.75066283805319
 31
0.0
  0
LINE
  5
BF45
330
17
100
AcDbEntity
  8
0
100
AcDbLine
 10
92.77650077961672
 20
57.8982628380532
 30
0.0
 11
92.77650077961672
 21
57.75066283805319
 31
0.0
  0
LINE
  5
BF46
330
17
100
AcDbEntity
  8
0
100
AcDbLine
 10
92.42550077961672
 20
57.8982628380532
 30
0.0
 11
92.42550077961672
 21
57.75066283805319
 31
0.0
  0
LINE
  5
BF47
330
17
100
AcDbEntity
  8
0
100
AcDbLine
 10
92.38250077961671
 20
57.8982628380532
 30
0.0
 11
92.38250077961671
 21
57.75066283805319
 31
0.0
  0
CIRCLE
  5
BF48
330
17
100
AcDbEntity
  8
0
100
AcDbCircle
 10
92.30550077961671
 20
57.82446283805319
 30
0.0
 40
0.069
  0
LINE
  5
BF49
330
17
100
AcDbEntity
  8
0
100
AcDbLine
 10
92.22850077961671
 20
57.8982628380532
 30
0.0
 11
92.22850077961671
 21
57.75066283805319
 31
0.0
  0
CIRCLE
  5
BF4A
330
17
100
AcDbEntity
  8
0
100
AcDbCircle
 10
92.50250077961672
 20
57.82446283805319
 30
0.0
 40
0.069
  0
CIRCLE
  5
BF4B
330
17
100
AcDbEntity
  8
0
100
AcDbCircle
 10
91.91150077961671
 20
57.82446283805319
 30
0.0
 40
0.069
  0
LINE
  5
BF4C
330
17
100
AcDbEntity
  8
0
100
AcDbLine
 10
91.83450077961671
 20
57.8982628380532
 30
0.0
 11
91.83450077961671
 21
57.75066283805319
 31
0.0
  0
LINE
  5
BF4D
330
17
100
AcDbEntity
  8
0
100
AcDbLine
 10
91.7915007796167
 20
57.8982628380532
 30
0.0
 11
91.7915007796167
 21
57.75066283805319
 31
0.0
  0
CIRCLE
  5
BF4E
330
17
100
AcDbEntity
  8
0
100
AcDbCircle
 10
91.7145007796167
 20
57.82446283805319
 30
0.0
 40
0.069
  0
LINE
  5
BF4F
330
17
100
AcDbEntity
  8
0
100
AcDbLine
 10
91.63750077961671
 20
57.8982628380532
 30
0.0
 11
91.63750077961671
 21
57.75066283805319
 31
0.0
  0
CIRCLE
  5
BF50
330
17
100
AcDbEntity
  8
0
100
AcDbCircle
 10
92.10850077961671
 20
57.82446283805319
 30
0.0
 40
0.069
  0
LINE
  5
BF51
330
17
100
AcDbEntity
  8
0
100
AcDbLine
 10
92.03150077961671
 20
57.8982628380532
 30
0.0
 11
92.03150077961671
 21
57.75066283805319
 31
0.0
  0
LINE
  5
BF52
330
17
100
AcDbEntity
  8
0
100
AcDbLine
 10
91.98850077961671
 20
57.8982628380532
 30
0.0
 11
91.98850077961671
 21
57.75066283805319
 31
0.0
  0
LINE
  5
BF53
330
17
100
AcDbEntity
  8
0
100
AcDbLine
 10
92.18550077961671
 20
57.8982628380532
 30
0.0
 11
92.18550077961671
 21
57.75066283805319
 31
0.0
  0
CIRCLE
  5
BF54
330
17
100
AcDbEntity
  8
0
100
AcDbCircle
 10
91.5175007796167
 20
57.82446283805319
 30
0.0
 40
0.069
  0
LINE
  5
BF55
330
17
100
AcDbEntity
  8
0
100
AcDbLine
 10
91.44050077961674
 20
57.8982628380532
 30
0.0
 11
91.44050077961674
 21
57.75066283805319
 31
0.0
  0
LINE
  5
BF56
330
17
100
AcDbEntity
  8
0
100
AcDbLine
 10
91.59450077961674
 20
57.8982628380532
 30
0.0
 11
91.59450077961674
 21
57.75066283805319
 31
0.0
  0
LINE
  5
BF57
330
17
100
AcDbEntity
  8
0
 62
     4
100
AcDbLine
 10
93.36350077961672
 20
58.42326283805326
 30
0.0
 11
93.36350077961673
 21
56.88126283805323
 31
0.0
  0
LINE
  5
BF58
330
17
100
AcDbEntity
  8
0
 62
     2
100
AcDbLine
 10
92.60100077961672
 20
57.89826283805319
 30
0.0
 11
92.60100077961672
 21
57.4062628380532
 31
0.0
  0
LINE
  5
BF59
330
17
100
AcDbEntity
  8
0
 62
     2
100
AcDbLine
 10
92.79800077961672
 20
57.89826283805319
 30
0.0
 11
92.79800077961672
 21
57.4062628380532
 31
0.0
  0
LINE
  5
BF5A
330
17
100
AcDbEntity
  8
0
 62
     2
100
AcDbLine
 10
92.99500077961672
 20
57.89826283805319
 30
0.0
 11
92.99500077961672
 21
57.4062628380532
 31
0.0
  0
LINE
  5
BF5B
330
17
100
AcDbEntity
  8
0
 62
     2
100
AcDbLine
 10
92.40400077961671
 20
57.89826283805319
 30
0.0
 11
92.40400077961671
 21
57.4062628380532
 31
0.0
  0
LINE
  5
BF5C
330
17
100
AcDbEntity
  8
0
 62
     2
100
AcDbLine
 10
93.19200077961671
 20
57.89826283805319
 30
0.0
 11
93.19200077961673
 21
57.4062628380532
 31
0.0
  0
LINE
  5
BF5D
330
17
100
AcDbEntity
  8
0
 62
     2
100
AcDbLine
 10
91.4190007796167
 20
57.89826283805319
 30
0.0
 11
91.41900077961674
 21
57.4062628380532
 31
0.0
  0
LINE
  5
BF5E
330
17
100
AcDbEntity
  8
0
 62
     2
100
AcDbLine
 10
91.81300077961671
 20
57.89826283805319
 30
0.0
 11
91.81300077961671
 21
57.4062628380532
 31
0.0
  0
LINE
  5
BF5F
330
17
100
AcDbEntity
  8
0
 62
     2
100
AcDbLine
 10
91.6160007796167
 20
57.89826283805319
 30
0.0
 11
91.61600077961674
 21
57.4062628380532
 31
0.0
  0
LINE
  5
BF60
330
17
100
AcDbEntity
  8
0
 62
     2
100
AcDbLine
 10
92.01000077961671
 20
57.89826283805319
 30
0.0
 11
92.01000077961671
 21
57.4062628380532
 31
0.0
  0
LINE
  5
BF61
330
17
100
AcDbEntity
  8
0
 62
     2
100
AcDbLine
 10
92.20700077961671
 20
57.89826283805319
 30
0.0
 11
92.20700077961671
 21
57.4062628380532
 31
0.0
  0
DIMENSION
  5
BF62
330
17
100
AcDbEntity
  8
0
100
AcDbDimension
  2
*D6
 10
94.65101807786709
 20
56.88126283805323
 30
0.0
 11
94.65101807786707
 21
57.85064186368377
 31
0.0
 70
   160
 71
     5
 42
1.54200000000003
  3
STANDARD
100
AcDbAlignedDimension
 13
93.36350077961672
 23
58.42326283805326
 33
0.0
 14
93.36350077961673
 24
56.88126283805323
 34
0.0
 50
90.0
100
AcDbRotatedDimension
1001
ACAD
1000
DSTYLE
1002
{
1070
    44
1040
0.125
1070
    78
1070
     4
1070
   140
1040
0.1
1070
   141
1040
-0.09
1070
   271
1070
     2
1070
   272
1070
     2
1070
   288
1070
     1
1070
   289
1070
     1
1002
}
  0
LINE
  5
BF63
330
17
100
AcDbEntity
  8
0
100
AcDbLine
 10
93.17050077961672
 20
57.75066283805319
 30
0.0
 11
93.01650077961671
 21
57.75066283805319
 31
0.0
  0
LINE
  5
BF64
330
17
100
AcDbEntity
  8
0
100
AcDbLine
 10
93.17050077961672
 20
57.6622628380532
 30
0.0
 11
93.01650077961671
 21
57.6622628380532
 31
0.0
  0
LINE
  5
BF65
330
17
100
AcDbEntity
  8
0
100
AcDbLine
 10
93.04050077961671
 20
57.53628767494284
 30
0.0
 11
93.14650077961672
 21
57.53628767494284
 31
0.0
  0
LINE
  5
BF66
330
17
100
AcDbEntity
  8
0
100
AcDbLine
 10
93.13638727112152
 20
57.77166775481916
 30
0.0
 11
93.06148897880072
 21
57.88420562619223
 31
0.0
  0
LINE
  5
BF67
330
17
100
AcDbEntity
  8
0
100
AcDbLine
 10
93.13638727112154
 20
57.2466677548192
 30
0.0
 11
93.06148897880076
 21
57.35920562619227
 31
0.0
  0
LINE
  5
BF68
330
17
100
AcDbEntity
  8
0
100
AcDbLine
 10
93.04050077961674
 20
56.96512578441444
 30
0.0
 11
93.14650077961676
 21
56.96512578441444
 31
0.0
  0
LINE
  5
BF69
330
17
100
AcDbEntity
  8
0
100
AcDbLine
 10
93.01650077961673
 20
56.94778099502615
 30
0.0
 11
93.17050077961676
 21
56.94778099502615
 31
0.0
  0
LINE
  5
BF6A
330
17
100
AcDbEntity
  8
0
100
AcDbLine
 10
93.17050077961676
 20
57.22566283805324
 30
0.0
 11
93.01650077961673
 21
57.22566283805324
 31
0.0
  0
LINE
  5
BF6B
330
17
100
AcDbEntity
  8
0
100
AcDbLine
 10
93.17050077961676
 20
57.13726283805323
 30
0.0
 11
93.01650077961673
 21
57.13726283805323
 31
0.0
  0
LINE
  5
BF6C
330
17
100
AcDbEntity
  8
0
100
AcDbLine
 10
93.04050077961674
 20
57.01128767494288
 30
0.0
 11
93.14650077961676
 21
57.01128767494288
 31
0.0
  0
CIRCLE
  5
BF6D
330
17
100
AcDbEntity
  8
0
100
AcDbCircle
 10
93.09350077961672
 20
57.29946283805323
 30
0.0
 40
0.069
  0
LINE
  5
BF6E
330
17
100
AcDbEntity
  8
0
100
AcDbLine
 10
93.04050077961671
 20
57.4901257844144
 30
0.0
 11
93.14650077961672
 21
57.4901257844144
 31
0.0
  0
LINE
  5
BF6F
330
17
100
AcDbEntity
  8
0
100
AcDbLine
 10
93.01650077961671
 20
57.47278099502612
 30
0.0
 11
93.17050077961672
 21
57.47278099502612
 31
0.0
  0
LINE
  5
BF70
330
17
100
AcDbEntity
  8
0
 62
     2
100
AcDbLine
 10
91.41900077961674
 20
57.37326283805323
 30
0.0
 11
93.19200077961673
 21
57.37326283805323
 31
0.0
  0
LINE
  5
BF71
330
17
100
AcDbEntity
  8
0
 62
     2
100
AcDbLine
 10
91.41900077961674
 20
57.4062628380532
 30
0.0
 11
93.19200077961673
 21
57.4062628380532
 31
0.0
  0
LINE
  5
BF72
330
17
100
AcDbEntity
  8
0
100
AcDbLine
 10
92.38250077961671
 20
57.75066283805319
 30
0.0
 11
92.22850077961671
 21
57.75066283805319
 31
0.0
  0
LINE
  5
BF73
330
17
100
AcDbEntity
  8
0
100
AcDbLine
 10
92.38250077961671
 20
57.6622628380532
 30
0.0
 11
92.22850077961671
 21
57.6622628380532
 31
0.0
  0
LINE
  5
BF74
330
17
100
AcDbEntity
  8
0
100
AcDbLine
 10
92.25250077961673
 20
57.53628767494284
 30
0.0
 11
92.35850077961671
 21
57.53628767494284
 31
0.0
  0
LINE
  5
BF75
330
17
100
AcDbEntity
  8
0
100
AcDbLine
 10
92.3334076330253
 20
57.7616960453459
 30
0.0
 11
92.25993596078039
 21
57.87280938313532
 31
0.0
  0
LINE
  5
BF76
330
17
100
AcDbEntity
  8
0
100
AcDbLine
 10
92.38250077961675
 20
57.22566283805324
 30
0.0
 11
92.22850077961675
 21
57.22566283805324
 31
0.0
  0
LINE
  5
BF77
330
17
100
AcDbEntity
  8
0
100
AcDbLine
 10
92.38250077961675
 20
57.13726283805323
 30
0.0
 11
92.22850077961675
 21
57.13726283805323
 31
0.0
  0
LINE
  5
BF78
330
17
100
AcDbEntity
  8
0
100
AcDbLine
 10
92.25250077961675
 20
57.01128767494288
 30
0.0
 11
92.35850077961675
 21
57.01128767494288
 31
0.0
  0
LINE
  5
BF79
330
17
100
AcDbEntity
  8
0
100
AcDbLine
 10
92.22850077961675
 20
56.94778099502615
 30
0.0
 11
92.38250077961675
 21
56.94778099502615
 31
0.0
  0
LINE
  5
BF7A
330
17
100
AcDbEntity
  8
0
100
AcDbLine
 10
92.25250077961675
 20
56.96512578441444
 30
0.0
 11
92.35850077961675
 21
56.96512578441444
 31
0.0
  0
CIRCLE
  5
BF7B
330
17
100
AcDbEntity
  8
0
100
AcDbCircle
 10
92.30550077961675
 20
57.29946283805323
 30
0.0
 40
0.069
  0
LINE
  5
BF7C
330
17
100
AcDbEntity
  8
0
100
AcDbLine
 10
92.33340763302534
 20
57.23669604534595
 30
0.0
 11
92.25993596078041
 21
57.34780938313537
 31
0.0
  0
LINE
  5
BF7D
330
17
100
AcDbEntity
  8
0
100
AcDbLine
 10
92.22850077961671
 20
57.47278099502612
 30
0.0
 11
92.38250077961671
 21
57.47278099502612
 31
0.0
  0
LINE
  5
BF7E
330
17
100
AcDbEntity
  8
0
100
AcDbLine
 10
92.25250077961673
 20
57.4901257844144
 30
0.0
 11
92.35850077961671
 21
57.4901257844144
 31
0.0
  0
LINE
  5
BF7F
330
17
100
AcDbEntity
  8
0
 62
     2
100
AcDbLine
 10
91.41900077961674
 20
57.37326283805323
 30
0.0
 11
91.41900077961677
 21
56.88126283805323
 31
0.0
  0
LINE
  5
BF80
330
17
100
AcDbEntity
  8
0
 62
     2
100
AcDbLine
 10
91.61600077961674
 20
57.37326283805323
 30
0.0
 11
91.61600077961677
 21
56.88126283805323
 31
0.0
  0
LINE
  5
BF81
330
17
100
AcDbEntity
  8
0
 62
     2
100
AcDbLine
 10
91.81300077961674
 20
57.37326283805323
 30
0.0
 11
91.81300077961674
 21
56.88126283805323
 31
0.0
  0
LINE
  5
BF82
330
17
100
AcDbEntity
  8
0
 62
     2
100
AcDbLine
 10
92.01000077961674
 20
57.37326283805323
 30
0.0
 11
92.01000077961674
 21
56.88126283805323
 31
0.0
  0
LINE
  5
BF83
330
17
100
AcDbEntity
  8
0
 62
     2
100
AcDbLine
 10
92.20700077961675
 20
57.37326283805323
 30
0.0
 11
92.20700077961675
 21
56.88126283805323
 31
0.0
  0
LINE
  5
BF84
330
17
100
AcDbEntity
  8
0
100
AcDbLine
 10
91.83450077961675
 20
56.94778099502615
 30
0.0
 11
91.98850077961674
 21
56.94778099502615
 31
0.0
  0
LINE
  5
BF85
330
17
100
AcDbEntity
  8
0
100
AcDbLine
 10
91.98850077961674
 20
57.13726283805323
 30
0.0
 11
91.83450077961675
 21
57.13726283805323
 31
0.0
  0
LINE
  5
BF86
330
17
100
AcDbEntity
  8
0
100
AcDbLine
 10
91.44050077961678
 20
57.13726283805323
 30
0.0
 11
91.44050077961674
 21
56.88126283805323
 31
0.0
  0
LINE
  5
BF87
330
17
100
AcDbEntity
  8
0
100
AcDbLine
 10
91.59450077961677
 20
57.13726283805323
 30
0.0
 11
91.59450077961677
 21
56.88126283805323
 31
0.0
  0
LINE
  5
BF88
330
17
100
AcDbEntity
  8
0
100
AcDbLine
 10
91.63750077961674
 20
57.13726283805323
 30
0.0
 11
91.63750077961674
 21
56.88126283805323
 31
0.0
  0
LINE
  5
BF89
330
17
100
AcDbEntity
  8
0
100
AcDbLine
 10
91.83450077961675
 20
57.13726283805323
 30
0.0
 11
91.83450077961675
 21
56.88126283805323
 31
0.0
  0
LINE
  5
BF8A
330
17
100
AcDbEntity
  8
0
100
AcDbLine
 10
91.79150077961674
 20
57.13726283805323
 30
0.0
 11
91.79150077961674
 21
56.88126283805323
 31
0.0
  0
LINE
  5
BF8B
330
17
100
AcDbEntity
  8
0
100
AcDbLine
 10
91.59450077961677
 20
57.13726283805323
 30
0.0
 11
91.44050077961674
 21
57.13726283805323
 31
0.0
  0
LINE
  5
BF8C
330
17
100
AcDbEntity
  8
0
100
AcDbLine
 10
91.46450077961674
 20
57.01128767494288
 30
0.0
 11
91.57050077961676
 21
57.01128767494288
 31
0.0
  0
LINE
  5
BF8D
330
17
100
AcDbEntity
  8
0
100
AcDbLine
 10
91.44050077961674
 20
56.94778099502615
 30
0.0
 11
91.59450077961677
 21
56.94778099502615
 31
0.0
  0
LINE
  5
BF8E
330
17
100
AcDbEntity
  8
0
100
AcDbLine
 10
91.46450077961674
 20
56.96512578441444
 30
0.0
 11
91.57050077961676
 21
56.96512578441444
 31
0.0
  0
LINE
  5
BF8F
330
17
100
AcDbEntity
  8
0
100
AcDbLine
 10
91.46450077961674
 20
57.13726283805323
 30
0.0
 11
91.46450077961674
 21
56.96512578441444
 31
0.0
  0
LINE
  5
BF90
330
17
100
AcDbEntity
  8
0
100
AcDbLine
 10
91.57050077961676
 20
57.13726283805323
 30
0.0
 11
91.57050077961676
 21
56.96512578441444
 31
0.0
  0
LINE
  5
BF91
330
17
100
AcDbEntity
  8
0
100
AcDbLine
 10
91.79150077961674
 20
57.13726283805323
 30
0.0
 11
91.63750077961674
 21
57.13726283805323
 31
0.0
  0
LINE
  5
BF92
330
17
100
AcDbEntity
  8
0
100
AcDbLine
 10
91.66150077961674
 20
57.01128767494288
 30
0.0
 11
91.76750077961674
 21
57.01128767494288
 31
0.0
  0
LINE
  5
BF93
330
17
100
AcDbEntity
  8
0
100
AcDbLine
 10
91.66150077961674
 20
56.96512578441444
 30
0.0
 11
91.76750077961674
 21
56.96512578441444
 31
0.0
  0
LINE
  5
BF94
330
17
100
AcDbEntity
  8
0
100
AcDbLine
 10
91.63750077961674
 20
56.94778099502615
 30
0.0
 11
91.79150077961674
 21
56.94778099502615
 31
0.0
  0
LINE
  5
BF95
330
17
100
AcDbEntity
  8
0
100
AcDbLine
 10
91.66150077961674
 20
57.13726283805323
 30
0.0
 11
91.66150077961674
 21
56.96512578441444
 31
0.0
  0
LINE
  5
BF96
330
17
100
AcDbEntity
  8
0
100
AcDbLine
 10
91.76750077961674
 20
57.13726283805323
 30
0.0
 11
91.76750077961674
 21
56.96512578441444
 31
0.0
  0
LINE
  5
BF97
330
17
100
AcDbEntity
  8
0
100
AcDbLine
 10
92.22850077961675
 20
57.13726283805323
 30
0.0
 11
92.22850077961675
 21
56.88126283805323
 31
0.0
  0
LINE
  5
BF98
330
17
100
AcDbEntity
  8
0
100
AcDbLine
 10
92.03150077961675
 20
57.13726283805323
 30
0.0
 11
92.03150077961675
 21
56.88126283805323
 31
0.0
  0
LINE
  5
BF99
330
17
100
AcDbEntity
  8
0
100
AcDbLine
 10
91.98850077961674
 20
57.13726283805323
 30
0.0
 11
91.98850077961674
 21
56.88126283805323
 31
0.0
  0
LINE
  5
BF9A
330
17
100
AcDbEntity
  8
0
100
AcDbLine
 10
92.18550077961674
 20
57.13726283805323
 30
0.0
 11
92.18550077961674
 21
56.88126283805323
 31
0.0
  0
LINE
  5
BF9B
330
17
100
AcDbEntity
  8
0
100
AcDbLine
 10
92.18550077961674
 20
57.13726283805323
 30
0.0
 11
92.03150077961675
 21
57.13726283805323
 31
0.0
  0
LINE
  5
BF9C
330
17
100
AcDbEntity
  8
0
100
AcDbLine
 10
92.03150077961675
 20
56.94778099502615
 30
0.0
 11
92.18550077961674
 21
56.94778099502615
 31
0.0
  0
LINE
  5
BF9D
330
17
100
AcDbEntity
  8
0
100
AcDbLine
 10
91.85850077961674
 20
56.96512578441444
 30
0.0
 11
91.96450077961674
 21
56.96512578441444
 31
0.0
  0
LINE
  5
BF9E
330
17
100
AcDbEntity
  8
0
100
AcDbLine
 10
91.85850077961674
 20
57.01128767494288
 30
0.0
 11
91.96450077961674
 21
57.01128767494288
 31
0.0
  0
LINE
  5
BF9F
330
17
100
AcDbEntity
  8
0
100
AcDbLine
 10
91.85850077961674
 20
57.13726283805323
 30
0.0
 11
91.85850077961674
 21
56.96512578441444
 31
0.0
  0
LINE
  5
BFA0
330
17
100
AcDbEntity
  8
0
100
AcDbLine
 10
91.96450077961674
 20
57.13726283805323
 30
0.0
 11
91.96450077961674
 21
56.96512578441444
 31
0.0
  0
LINE
  5
BFA1
330
17
100
AcDbEntity
  8
0
100
AcDbLine
 10
92.25250077961675
 20
57.13726283805323
 30
0.0
 11
92.25250077961675
 21
56.96512578441444
 31
0.0
  0
LINE
  5
BFA2
330
17
100
AcDbEntity
  8
0
100
AcDbLine
 10
92.05550077961675
 20
57.01128767494288
 30
0.0
 11
92.16150077961675
 21
57.01128767494288
 31
0.0
  0
LINE
  5
BFA3
330
17
100
AcDbEntity
  8
0
100
AcDbLine
 10
92.05550077961675
 20
56.96512578441444
 30
0.0
 11
92.16150077961675
 21
56.96512578441444
 31
0.0
  0
LINE
  5
BFA4
330
17
100
AcDbEntity
  8
0
100
AcDbLine
 10
92.05550077961675
 20
57.13726283805323
 30
0.0
 11
92.05550077961675
 21
56.96512578441444
 31
0.0
  0
LINE
  5
BFA5
330
17
100
AcDbEntity
  8
0
100
AcDbLine
 10
92.16150077961675
 20
57.13726283805323
 30
0.0
 11
92.16150077961675
 21
56.96512578441444
 31
0.0
  0
LINE
  5
BFA6
330
17
100
AcDbEntity
  8
0
100
AcDbLine
 10
91.98850077961671
 20
57.75066283805319
 30
0.0
 11
91.83450077961671
 21
57.75066283805319
 31
0.0
  0
LINE
  5
BFA7
330
17
100
AcDbEntity
  8
0
100
AcDbLine
 10
91.98850077961671
 20
57.6622628380532
 30
0.0
 11
91.83450077961671
 21
57.6622628380532
 31
0.0
  0
LINE
  5
BFA8
330
17
100
AcDbEntity
  8
0
100
AcDbLine
 10
91.98850077961674
 20
57.22566283805324
 30
0.0
 11
91.83450077961675
 21
57.22566283805324
 31
0.0
  0
LINE
  5
BFA9
330
17
100
AcDbEntity
  8
0
100
AcDbLine
 10
91.83450077961671
 20
57.47278099502612
 30
0.0
 11
91.98850077961671
 21
57.47278099502612
 31
0.0
  0
LINE
  5
BFAA
330
17
100
AcDbEntity
  8
0
100
AcDbLine
 10
91.83450077961671
 20
57.6622628380532
 30
0.0
 11
91.83450077961671
 21
57.40626283805319
 31
0.0
  0
LINE
  5
BFAB
330
17
100
AcDbEntity
  8
0
100
AcDbLine
 10
91.7915007796167
 20
57.6622628380532
 30
0.0
 11
91.7915007796167
 21
57.40626283805319
 31
0.0
  0
LINE
  5
BFAC
330
17
100
AcDbEntity
  8
0
100
AcDbLine
 10
91.63750077961671
 20
57.6622628380532
 30
0.0
 11
91.63750077961671
 21
57.40626283805319
 31
0.0
  0
LINE
  5
BFAD
330
17
100
AcDbEntity
  8
0
100
AcDbLine
 10
91.44050077961674
 20
57.6622628380532
 30
0.0
 11
91.4405007796167
 21
57.40626283805319
 31
0.0
  0
LINE
  5
BFAE
330
17
100
AcDbEntity
  8
0
100
AcDbLine
 10
91.59450077961674
 20
57.6622628380532
 30
0.0
 11
91.59450077961674
 21
57.40626283805319
 31
0.0
  0
LINE
  5
BFAF
330
17
100
AcDbEntity
  8
0
100
AcDbLine
 10
91.46450077961672
 20
57.6622628380532
 30
0.0
 11
91.46450077961672
 21
57.4901257844144
 31
0.0
  0
LINE
  5
BFB0
330
17
100
AcDbEntity
  8
0
100
AcDbLine
 10
91.57050077961674
 20
57.6622628380532
 30
0.0
 11
91.57050077961674
 21
57.4901257844144
 31
0.0
  0
LINE
  5
BFB1
330
17
100
AcDbEntity
  8
0
100
AcDbLine
 10
91.76750077961671
 20
57.6622628380532
 30
0.0
 11
91.76750077961671
 21
57.4901257844144
 31
0.0
  0
LINE
  5
BFB2
330
17
100
AcDbEntity
  8
0
100
AcDbLine
 10
91.66150077961672
 20
57.6622628380532
 30
0.0
 11
91.66150077961672
 21
57.4901257844144
 31
0.0
  0
LINE
  5
BFB3
330
17
100
AcDbEntity
  8
0
100
AcDbLine
 10
91.63750077961674
 20
57.31575815380995
 30
0.0
 11
91.61600077961674
 21
57.31575815380995
 31
0.0
  0
LINE
  5
BFB4
330
17
100
AcDbEntity
  8
0
100
AcDbLine
 10
91.46450077961672
 20
57.53628767494284
 30
0.0
 11
91.57050077961674
 21
57.53628767494284
 31
0.0
  0
LINE
  5
BFB5
330
17
100
AcDbEntity
  8
0
100
AcDbLine
 10
91.61600077961674
 20
57.31575815380995
 30
0.0
 11
91.59450077961677
 21
57.31575815380995
 31
0.0
  0
LINE
  5
BFB6
330
17
100
AcDbEntity
  8
0
100
AcDbLine
 10
91.56038727112155
 20
57.2466677548192
 30
0.0
 11
91.48548897880075
 21
57.35920562619227
 31
0.0
  0
LINE
  5
BFB7
330
17
100
AcDbEntity
  8
0
100
AcDbLine
 10
91.44050077961674
 20
57.31575815380995
 30
0.0
 11
91.41900077961677
 21
57.31575815380995
 31
0.0
  0
LINE
  5
BFB8
330
17
100
AcDbEntity
  8
0
100
AcDbLine
 10
91.59450077961677
 20
57.22566283805324
 30
0.0
 11
91.44050077961674
 21
57.22566283805324
 31
0.0
  0
LINE
  5
BFB9
330
17
100
AcDbEntity
  8
0
100
AcDbLine
 10
91.51750077961674
 20
57.23046283805324
 30
0.0
 11
91.51750077961674
 21
57.23046283805324
 31
0.0
  0
CIRCLE
  5
BFBA
330
17
100
AcDbEntity
  8
0
100
AcDbCircle
 10
91.51750077961674
 20
57.29946283805323
 30
0.0
 40
0.069
  0
LINE
  5
BFBB
330
17
100
AcDbEntity
  8
0
100
AcDbLine
 10
91.54540763302533
 20
57.23669604534595
 30
0.0
 11
91.47193596078039
 21
57.34780938313537
 31
0.0
  0
LINE
  5
BFBC
330
17
100
AcDbEntity
  8
0
100
AcDbLine
 10
91.44050077961678
 20
57.37326283805323
 30
0.0
 11
91.44050077961678
 21
57.22566283805324
 31
0.0
  0
LINE
  5
BFBD
330
17
100
AcDbEntity
  8
0
100
AcDbLine
 10
91.59450077961677
 20
57.37326283805323
 30
0.0
 11
91.59450077961677
 21
57.22566283805324
 31
0.0
  0
LINE
  5
BFBE
330
17
100
AcDbEntity
  8
0
100
AcDbLine
 10
91.4405007796167
 20
57.47278099502612
 30
0.0
 11
91.59450077961674
 21
57.47278099502612
 31
0.0
  0
LINE
  5
BFBF
330
17
100
AcDbEntity
  8
0
100
AcDbLine
 10
91.46450077961672
 20
57.4901257844144
 30
0.0
 11
91.57050077961674
 21
57.4901257844144
 31
0.0
  0
LINE
  5
BFC0
330
17
100
AcDbEntity
  8
0
100
AcDbLine
 10
91.66150077961672
 20
57.53628767494284
 30
0.0
 11
91.76750077961671
 21
57.53628767494284
 31
0.0
  0
LINE
  5
BFC1
330
17
100
AcDbEntity
  8
0
100
AcDbLine
 10
91.83450077961675
 20
57.31575815380995
 30
0.0
 11
91.81300077961674
 21
57.31575815380995
 31
0.0
  0
LINE
  5
BFC2
330
17
100
AcDbEntity
  8
0
100
AcDbLine
 10
91.81300077961674
 20
57.31575815380995
 30
0.0
 11
91.79150077961674
 21
57.31575815380995
 31
0.0
  0
LINE
  5
BFC3
330
17
100
AcDbEntity
  8
0
100
AcDbLine
 10
91.75738727112156
 20
57.2466677548192
 30
0.0
 11
91.68248897880076
 21
57.35920562619227
 31
0.0
  0
LINE
  5
BFC4
330
17
100
AcDbEntity
  8
0
100
AcDbLine
 10
91.71450077961674
 20
57.23046283805324
 30
0.0
 11
91.71450077961674
 21
57.23046283805324
 31
0.0
  0
LINE
  5
BFC5
330
17
100
AcDbEntity
  8
0
100
AcDbLine
 10
91.79150077961674
 20
57.22566283805324
 30
0.0
 11
91.63750077961674
 21
57.22566283805324
 31
0.0
  0
LINE
  5
BFC6
330
17
100
AcDbEntity
  8
0
100
AcDbLine
 10
91.83450077961675
 20
57.37326283805323
 30
0.0
 11
91.83450077961675
 21
57.22566283805324
 31
0.0
  0
LINE
  5
BFC7
330
17
100
AcDbEntity
  8
0
100
AcDbLine
 10
91.79150077961674
 20
57.37326283805323
 30
0.0
 11
91.79150077961674
 21
57.22566283805324
 31
0.0
  0
LINE
  5
BFC8
330
17
100
AcDbEntity
  8
0
100
AcDbLine
 10
91.74240763302533
 20
57.23669604534595
 30
0.0
 11
91.6689359607804
 21
57.34780938313537
 31
0.0
  0
CIRCLE
  5
BFC9
330
17
100
AcDbEntity
  8
0
100
AcDbCircle
 10
91.71450077961674
 20
57.29946283805323
 30
0.0
 40
0.069
  0
LINE
  5
BFCA
330
17
100
AcDbEntity
  8
0
100
AcDbLine
 10
91.63750077961674
 20
57.37326283805323
 30
0.0
 11
91.63750077961674
 21
57.22566283805324
 31
0.0
  0
LINE
  5
BFCB
330
17
100
AcDbEntity
  8
0
100
AcDbLine
 10
91.66150077961672
 20
57.4901257844144
 30
0.0
 11
91.76750077961671
 21
57.4901257844144
 31
0.0
  0
LINE
  5
BFCC
330
17
100
AcDbEntity
  8
0
100
AcDbLine
 10
91.63750077961671
 20
57.47278099502612
 30
0.0
 11
91.7915007796167
 21
57.47278099502612
 31
0.0
  0
LINE
  5
BFCD
330
17
100
AcDbEntity
  8
0
100
AcDbLine
 10
91.63750077961671
 20
57.8407581538099
 30
0.0
 11
91.6160007796167
 21
57.8407581538099
 31
0.0
  0
LINE
  5
BFCE
330
17
100
AcDbEntity
  8
0
100
AcDbLine
 10
91.6160007796167
 20
57.8407581538099
 30
0.0
 11
91.59450077961674
 21
57.8407581538099
 31
0.0
  0
LINE
  5
BFCF
330
17
100
AcDbEntity
  8
0
100
AcDbLine
 10
91.59450077961674
 20
57.75066283805319
 30
0.0
 11
91.4405007796167
 21
57.75066283805319
 31
0.0
  0
LINE
  5
BFD0
330
17
100
AcDbEntity
  8
0
100
AcDbLine
 10
91.4405007796167
 20
57.8407581538099
 30
0.0
 11
91.41900077961674
 21
57.8407581538099
 31
0.0
  0
LINE
  5
BFD1
330
17
100
AcDbEntity
  8
0
100
AcDbLine
 10
91.5175007796167
 20
57.75546283805319
 30
0.0
 11
91.5175007796167
 21
57.75546283805319
 31
0.0
  0
LINE
  5
BFD2
330
17
100
AcDbEntity
  8
0
100
AcDbLine
 10
91.59450077961674
 20
57.6622628380532
 30
0.0
 11
91.4405007796167
 21
57.6622628380532
 31
0.0
  0
LINE
  5
BFD3
330
17
100
AcDbEntity
  8
0
100
AcDbLine
 10
91.56038727112152
 20
57.77166775481916
 30
0.0
 11
91.48548897880074
 21
57.88420562619223
 31
0.0
  0
LINE
  5
BFD4
330
17
100
AcDbEntity
  8
0
100
AcDbLine
 10
91.54540763302529
 20
57.7616960453459
 30
0.0
 11
91.47193596078038
 21
57.87280938313532
 31
0.0
  0
LINE
  5
BFD5
330
17
100
AcDbEntity
  8
0
100
AcDbLine
 10
91.83450077961671
 20
57.8407581538099
 30
0.0
 11
91.81300077961671
 21
57.8407581538099
 31
0.0
  0
LINE
  5
BFD6
330
17
100
AcDbEntity
  8
0
100
AcDbLine
 10
91.81300077961671
 20
57.8407581538099
 30
0.0
 11
91.7915007796167
 21
57.8407581538099
 31
0.0
  0
LINE
  5
BFD7
330
17
100
AcDbEntity
  8
0
100
AcDbLine
 10
91.7145007796167
 20
57.75546283805319
 30
0.0
 11
91.7145007796167
 21
57.75546283805319
 31
0.0
  0
LINE
  5
BFD8
330
17
100
AcDbEntity
  8
0
100
AcDbLine
 10
91.7915007796167
 20
57.75066283805319
 30
0.0
 11
91.63750077961671
 21
57.75066283805319
 31
0.0
  0
LINE
  5
BFD9
330
17
100
AcDbEntity
  8
0
100
AcDbLine
 10
91.7915007796167
 20
57.6622628380532
 30
0.0
 11
91.63750077961671
 21
57.6622628380532
 31
0.0
  0
LINE
  5
BFDA
330
17
100
AcDbEntity
  8
0
100
AcDbLine
 10
91.74240763302529
 20
57.7616960453459
 30
0.0
 11
91.66893596078038
 21
57.87280938313532
 31
0.0
  0
LINE
  5
BFDB
330
17
100
AcDbEntity
  8
0
100
AcDbLine
 10
91.75738727112152
 20
57.77166775481916
 30
0.0
 11
91.68248897880074
 21
57.88420562619223
 31
0.0
  0
LINE
  5
BFDC
330
17
100
AcDbEntity
  8
0
100
AcDbLine
 10
92.22850077961671
 20
57.6622628380532
 30
0.0
 11
92.22850077961671
 21
57.40626283805319
 31
0.0
  0
LINE
  5
BFDD
330
17
100
AcDbEntity
  8
0
100
AcDbLine
 10
92.03150077961671
 20
57.6622628380532
 30
0.0
 11
92.03150077961671
 21
57.40626283805319
 31
0.0
  0
LINE
  5
BFDE
330
17
100
AcDbEntity
  8
0
100
AcDbLine
 10
91.98850077961671
 20
57.6622628380532
 30
0.0
 11
91.98850077961671
 21
57.40626283805319
 31
0.0
  0
LINE
  5
BFDF
330
17
100
AcDbEntity
  8
0
100
AcDbLine
 10
92.18550077961671
 20
57.6622628380532
 30
0.0
 11
92.18550077961671
 21
57.40626283805319
 31
0.0
  0
LINE
  5
BFE0
330
17
100
AcDbEntity
  8
0
100
AcDbLine
 10
91.85850077961672
 20
57.6622628380532
 30
0.0
 11
91.85850077961672
 21
57.4901257844144
 31
0.0
  0
LINE
  5
BFE1
330
17
100
AcDbEntity
  8
0
100
AcDbLine
 10
91.96450077961671
 20
57.6622628380532
 30
0.0
 11
91.96450077961671
 21
57.4901257844144
 31
0.0
  0
LINE
  5
BFE2
330
17
100
AcDbEntity
  8
0
100
AcDbLine
 10
92.05550077961673
 20
57.6622628380532
 30
0.0
 11
92.05550077961673
 21
57.4901257844144
 31
0.0
  0
LINE
  5
BFE3
330
17
100
AcDbEntity
  8
0
100
AcDbLine
 10
92.16150077961671
 20
57.6622628380532
 30
0.0
 11
92.16150077961671
 21
57.4901257844144
 31
0.0
  0
LINE
  5
BFE4
330
17
100
AcDbEntity
  8
0
100
AcDbLine
 10
92.25250077961673
 20
57.6622628380532
 30
0.0
 11
92.25250077961673
 21
57.4901257844144
 31
0.0
  0
LINE
  5
BFE5
330
17
100
AcDbEntity
  8
0
100
AcDbLine
 10
92.18550077961674
 20
57.22566283805324
 30
0.0
 11
92.03150077961675
 21
57.22566283805324
 31
0.0
  0
CIRCLE
  5
BFE6
330
17
100
AcDbEntity
  8
0
100
AcDbCircle
 10
92.10850077961675
 20
57.29946283805323
 30
0.0
 40
0.069
  0
LINE
  5
BFE7
330
17
100
AcDbEntity
  8
0
100
AcDbLine
 10
92.03150077961671
 20
57.47278099502612
 30
0.0
 11
92.18550077961671
 21
57.47278099502612
 31
0.0
  0
LINE
  5
BFE8
330
17
100
AcDbEntity
  8
0
100
AcDbLine
 10
91.85850077961672
 20
57.53628767494284
 30
0.0
 11
91.96450077961671
 21
57.53628767494284
 31
0.0
  0
LINE
  5
BFE9
330
17
100
AcDbEntity
  8
0
100
AcDbLine
 10
91.95438727112156
 20
57.2466677548192
 30
0.0
 11
91.87948897880076
 21
57.35920562619227
 31
0.0
  0
LINE
  5
BFEA
330
17
100
AcDbEntity
  8
0
100
AcDbLine
 10
92.03150077961675
 20
57.31575815380995
 30
0.0
 11
92.01000077961674
 21
57.31575815380995
 31
0.0
  0
LINE
  5
BFEB
330
17
100
AcDbEntity
  8
0
100
AcDbLine
 10
92.01000077961674
 20
57.31575815380995
 30
0.0
 11
91.98850077961674
 21
57.31575815380995
 31
0.0
  0
LINE
  5
BFEC
330
17
100
AcDbEntity
  8
0
100
AcDbLine
 10
91.91150077961674
 20
57.23046283805324
 30
0.0
 11
91.91150077961674
 21
57.23046283805324
 31
0.0
  0
LINE
  5
BFED
330
17
100
AcDbEntity
  8
0
100
AcDbLine
 10
91.93940763302533
 20
57.23669604534595
 30
0.0
 11
91.8659359607804
 21
57.34780938313537
 31
0.0
  0
CIRCLE
  5
BFEE
330
17
100
AcDbEntity
  8
0
100
AcDbCircle
 10
91.91150077961674
 20
57.29946283805323
 30
0.0
 40
0.069
  0
LINE
  5
BFEF
330
17
100
AcDbEntity
  8
0
100
AcDbLine
 10
92.03150077961675
 20
57.37326283805323
 30
0.0
 11
92.03150077961675
 21
57.22566283805324
 31
0.0
  0
LINE
  5
BFF0
330
17
100
AcDbEntity
  8
0
100
AcDbLine
 10
91.98850077961674
 20
57.37326283805323
 30
0.0
 11
91.98850077961674
 21
57.22566283805324
 31
0.0
  0
LINE
  5
BFF1
330
17
100
AcDbEntity
  8
0
100
AcDbLine
 10
91.85850077961672
 20
57.4901257844144
 30
0.0
 11
91.96450077961671
 21
57.4901257844144
 31
0.0
  0
LINE
  5
BFF2
330
17
100
AcDbEntity
  8
0
100
AcDbLine
 10
92.05550077961673
 20
57.53628767494284
 30
0.0
 11
92.16150077961671
 21
57.53628767494284
 31
0.0
  0
LINE
  5
BFF3
330
17
100
AcDbEntity
  8
0
100
AcDbLine
 10
92.22850077961675
 20
57.37326283805323
 30
0.0
 11
92.22850077961675
 21
57.22566283805324
 31
0.0
  0
LINE
  5
BFF4
330
17
100
AcDbEntity
  8
0
100
AcDbLine
 10
92.15138727112156
 20
57.2466677548192
 30
0.0
 11
92.07648897880076
 21
57.35920562619227
 31
0.0
  0
LINE
  5
BFF5
330
17
100
AcDbEntity
  8
0
100
AcDbLine
 10
92.20700077961675
 20
57.31575815380995
 30
0.0
 11
92.18550077961674
 21
57.31575815380995
 31
0.0
  0
LINE
  5
BFF6
330
17
100
AcDbEntity
  8
0
100
AcDbLine
 10
92.10850077961675
 20
57.23046283805324
 30
0.0
 11
92.10850077961675
 21
57.23046283805324
 31
0.0
  0
LINE
  5
BFF7
330
17
100
AcDbEntity
  8
0
100
AcDbLine
 10
92.13640763302533
 20
57.23669604534595
 30
0.0
 11
92.0629359607804
 21
57.34780938313537
 31
0.0
  0
LINE
  5
BFF8
330
17
100
AcDbEntity
  8
0
100
AcDbLine
 10
92.18550077961674
 20
57.37326283805323
 30
0.0
 11
92.18550077961674
 21
57.22566283805324
 31
0.0
  0
LINE
  5
BFF9
330
17
100
AcDbEntity
  8
0
100
AcDbLine
 10
92.05550077961673
 20
57.4901257844144
 30
0.0
 11
92.16150077961671
 21
57.4901257844144
 31
0.0
  0
LINE
  5
BFFA
330
17
100
AcDbEntity
  8
0
100
AcDbLine
 10
92.22850077961675
 20
57.31575815380995
 30
0.0
 11
92.20700077961675
 21
57.31575815380995
 31
0.0
  0
LINE
  5
BFFB
330
17
100
AcDbEntity
  8
0
100
AcDbLine
 10
92.18550077961671
 20
57.75066283805319
 30
0.0
 11
92.03150077961671
 21
57.75066283805319
 31
0.0
  0
LINE
  5
BFFC
330
17
100
AcDbEntity
  8
0
100
AcDbLine
 10
92.18550077961671
 20
57.6622628380532
 30
0.0
 11
92.03150077961671
 21
57.6622628380532
 31
0.0
  0
LINE
  5
BFFD
330
17
100
AcDbEntity
  8
0
100
AcDbLine
 10
91.91150077961671
 20
57.75546283805319
 30
0.0
 11
91.91150077961671
 21
57.75546283805319
 31
0.0
  0
LINE
  5
BFFE
330
17
100
AcDbEntity
  8
0
100
AcDbLine
 10
92.03150077961671
 20
57.8407581538099
 30
0.0
 11
92.01000077961671
 21
57.8407581538099
 31
0.0
  0
LINE
  5
BFFF
330
17
100
AcDbEntity
  8
0
100
AcDbLine
 10
92.01000077961671
 20
57.8407581538099
 30
0.0
 11
91.98850077961671
 21
57.8407581538099
 31
0.0
  0
LINE
  5
C000
330
17
100
AcDbEntity
  8
0
100
AcDbLine
 10
91.9394076330253
 20
57.7616960453459
 30
0.0
 11
91.86593596078038
 21
57.87280938313532
 31
0.0
  0
LINE
  5
C001
330
17
100
AcDbEntity
  8
0
100
AcDbLine
 10
91.95438727112152
 20
57.77166775481916
 30
0.0
 11
91.87948897880074
 21
57.88420562619223
 31
0.0
  0
LINE
  5
C002
330
17
100
AcDbEntity
  8
0
100
AcDbLine
 10
92.10850077961671
 20
57.75546283805319
 30
0.0
 11
92.10850077961671
 21
57.75546283805319
 31
0.0
  0
LINE
  5
C003
330
17
100
AcDbEntity
  8
0
100
AcDbLine
 10
92.20700077961671
 20
57.8407581538099
 30
0.0
 11
92.18550077961671
 21
57.8407581538099
 31
0.0
  0
LINE
  5
C004
330
17
100
AcDbEntity
  8
0
100
AcDbLine
 10
92.15138727112153
 20
57.77166775481916
 30
0.0
 11
92.07648897880075
 21
57.88420562619223
 31
0.0
  0
LINE
  5
C005
330
17
100
AcDbEntity
  8
0
100
AcDbLine
 10
92.1364076330253
 20
57.7616960453459
 30
0.0
 11
92.06293596078038
 21
57.87280938313532
 31
0.0
  0
LINE
  5
C006
330
17
100
AcDbEntity
  8
0
100
AcDbLine
 10
92.22850077961671
 20
57.8407581538099
 30
0.0
 11
92.20700077961671
 21
57.8407581538099
 31
0.0
  0
LINE
  5
C007
330
17
100
AcDbEntity
  8
0
 62
     2
100
AcDbLine
 10
92.40400077961675
 20
57.37326283805323
 30
0.0
 11
92.40400077961675
 21
56.88126283805323
 31
0.0
  0
LINE
  5
C008
330
17
100
AcDbEntity
  8
0
 62
     2
100
AcDbLine
 10
92.60100077961675
 20
57.37326283805323
 30
0.0
 11
92.60100077961675
 21
56.88126283805323
 31
0.0
  0
LINE
  5
C009
330
17
100
AcDbEntity
  8
0
 62
     2
100
AcDbLine
 10
92.79800077961676
 20
57.37326283805323
 30
0.0
 11
92.79800077961676
 21
56.88126283805323
 31
0.0
  0
LINE
  5
C00A
330
17
100
AcDbEntity
  8
0
 62
     2
100
AcDbLine
 10
92.99500077961676
 20
57.37326283805323
 30
0.0
 11
92.99500077961676
 21
56.88126283805323
 31
0.0
  0
LINE
  5
C00B
330
17
100
AcDbEntity
  8
0
100
AcDbLine
 10
92.77650077961675
 20
57.13726283805323
 30
0.0
 11
92.62250077961676
 21
57.13726283805323
 31
0.0
  0
LINE
  5
C00C
330
17
100
AcDbEntity
  8
0
100
AcDbLine
 10
92.64650077961675
 20
57.01128767494288
 30
0.0
 11
92.75250077961675
 21
57.01128767494288
 31
0.0
  0
LINE
  5
C00D
330
17
100
AcDbEntity
  8
0
100
AcDbLine
 10
92.62250077961676
 20
56.94778099502615
 30
0.0
 11
92.77650077961675
 21
56.94778099502615
 31
0.0
  0
LINE
  5
C00E
330
17
100
AcDbEntity
  8
0
100
AcDbLine
 10
92.64650077961675
 20
56.96512578441444
 30
0.0
 11
92.75250077961675
 21
56.96512578441444
 31
0.0
  0
LINE
  5
C00F
330
17
100
AcDbEntity
  8
0
100
AcDbLine
 10
92.42550077961675
 20
57.13726283805323
 30
0.0
 11
92.42550077961675
 21
56.88126283805323
 31
0.0
  0
LINE
  5
C010
330
17
100
AcDbEntity
  8
0
100
AcDbLine
 10
92.38250077961675
 20
57.13726283805323
 30
0.0
 11
92.38250077961675
 21
56.88126283805323
 31
0.0
  0
LINE
  5
C011
330
17
100
AcDbEntity
  8
0
100
AcDbLine
 10
92.62250077961676
 20
57.13726283805323
 30
0.0
 11
92.62250077961676
 21
56.88126283805323
 31
0.0
  0
LINE
  5
C012
330
17
100
AcDbEntity
  8
0
100
AcDbLine
 10
92.57950077961675
 20
57.13726283805323
 30
0.0
 11
92.57950077961675
 21
56.88126283805323
 31
0.0
  0
LINE
  5
C013
330
17
100
AcDbEntity
  8
0
100
AcDbLine
 10
92.44950077961675
 20
57.01128767494288
 30
0.0
 11
92.55550077961675
 21
57.01128767494288
 31
0.0
  0
LINE
  5
C014
330
17
100
AcDbEntity
  8
0
100
AcDbLine
 10
92.57950077961675
 20
57.13726283805323
 30
0.0
 11
92.42550077961675
 21
57.13726283805323
 31
0.0
  0
LINE
  5
C015
330
17
100
AcDbEntity
  8
0
100
AcDbLine
 10
92.44950077961675
 20
56.96512578441444
 30
0.0
 11
92.55550077961675
 21
56.96512578441444
 31
0.0
  0
LINE
  5
C016
330
17
100
AcDbEntity
  8
0
100
AcDbLine
 10
92.42550077961675
 20
56.94778099502615
 30
0.0
 11
92.57950077961675
 21
56.94778099502615
 31
0.0
  0
LINE
  5
C017
330
17
100
AcDbEntity
  8
0
100
AcDbLine
 10
92.44950077961675
 20
57.13726283805323
 30
0.0
 11
92.44950077961675
 21
56.96512578441444
 31
0.0
  0
LINE
  5
C018
330
17
100
AcDbEntity
  8
0
100
AcDbLine
 10
92.35850077961675
 20
57.13726283805323
 30
0.0
 11
92.35850077961675
 21
56.96512578441444
 31
0.0
  0
LINE
  5
C019
330
17
100
AcDbEntity
  8
0
100
AcDbLine
 10
92.64650077961675
 20
57.13726283805323
 30
0.0
 11
92.64650077961675
 21
56.96512578441444
 31
0.0
  0
LINE
  5
C01A
330
17
100
AcDbEntity
  8
0
100
AcDbLine
 10
92.55550077961675
 20
57.13726283805323
 30
0.0
 11
92.55550077961675
 21
56.96512578441444
 31
0.0
  0
LINE
  5
C01B
330
17
100
AcDbEntity
  8
0
100
AcDbLine
 10
92.77650077961675
 20
57.13726283805323
 30
0.0
 11
92.77650077961675
 21
56.88126283805323
 31
0.0
  0
LINE
  5
C01C
330
17
100
AcDbEntity
  8
0
100
AcDbLine
 10
93.01650077961676
 20
57.13726283805323
 30
0.0
 11
93.01650077961673
 21
56.88126283805323
 31
0.0
  0
LINE
  5
C01D
330
17
100
AcDbEntity
  8
0
100
AcDbLine
 10
92.97350077961676
 20
57.13726283805323
 30
0.0
 11
92.97350077961676
 21
56.88126283805323
 31
0.0
  0
LINE
  5
C01E
330
17
100
AcDbEntity
  8
0
100
AcDbLine
 10
92.81950077961676
 20
57.13726283805323
 30
0.0
 11
92.81950077961676
 21
56.88126283805323
 31
0.0
  0
LINE
  5
C01F
330
17
100
AcDbEntity
  8
0
100
AcDbLine
 10
92.97350077961676
 20
57.13726283805323
 30
0.0
 11
92.81950077961676
 21
57.13726283805323
 31
0.0
  0
LINE
  5
C020
330
17
100
AcDbEntity
  8
0
100
AcDbLine
 10
92.84350077961676
 20
57.01128767494288
 30
0.0
 11
92.94950077961676
 21
57.01128767494288
 31
0.0
  0
LINE
  5
C021
330
17
100
AcDbEntity
  8
0
100
AcDbLine
 10
92.81950077961676
 20
56.94778099502615
 30
0.0
 11
92.97350077961676
 21
56.94778099502615
 31
0.0
  0
LINE
  5
C022
330
17
100
AcDbEntity
  8
0
100
AcDbLine
 10
92.84350077961676
 20
56.96512578441444
 30
0.0
 11
92.94950077961676
 21
56.96512578441444
 31
0.0
  0
LINE
  5
C023
330
17
100
AcDbEntity
  8
0
100
AcDbLine
 10
92.84350077961676
 20
57.13726283805323
 30
0.0
 11
92.84350077961676
 21
56.96512578441444
 31
0.0
  0
LINE
  5
C024
330
17
100
AcDbEntity
  8
0
100
AcDbLine
 10
92.75250077961675
 20
57.13726283805323
 30
0.0
 11
92.75250077961675
 21
56.96512578441444
 31
0.0
  0
LINE
  5
C025
330
17
100
AcDbEntity
  8
0
100
AcDbLine
 10
93.04050077961674
 20
57.13726283805323
 30
0.0
 11
93.04050077961674
 21
56.96512578441444
 31
0.0
  0
LINE
  5
C026
330
17
100
AcDbEntity
  8
0
100
AcDbLine
 10
92.94950077961676
 20
57.13726283805323
 30
0.0
 11
92.94950077961676
 21
56.96512578441444
 31
0.0
  0
LINE
  5
C027
330
17
100
AcDbEntity
  8
0
100
AcDbLine
 10
92.77650077961672
 20
57.75066283805319
 30
0.0
 11
92.62250077961672
 21
57.75066283805319
 31
0.0
  0
LINE
  5
C028
330
17
100
AcDbEntity
  8
0
100
AcDbLine
 10
92.77650077961672
 20
57.6622628380532
 30
0.0
 11
92.62250077961672
 21
57.6622628380532
 31
0.0
  0
LINE
  5
C029
330
17
100
AcDbEntity
  8
0
100
AcDbLine
 10
92.64650077961674
 20
57.53628767494284
 30
0.0
 11
92.75250077961672
 21
57.53628767494284
 31
0.0
  0
LINE
  5
C02A
330
17
100
AcDbEntity
  8
0
100
AcDbLine
 10
92.74238727112152
 20
57.77166775481916
 30
0.0
 11
92.66748897880072
 21
57.88420562619223
 31
0.0
  0
LINE
  5
C02B
330
17
100
AcDbEntity
  8
0
100
AcDbLine
 10
92.72740763302527
 20
57.7616960453459
 30
0.0
 11
92.65393596078036
 21
57.87280938313532
 31
0.0
  0
LINE
  5
C02C
330
17
100
AcDbEntity
  8
0
100
AcDbLine
 10
92.74238727112154
 20
57.2466677548192
 30
0.0
 11
92.66748897880075
 21
57.35920562619227
 31
0.0
  0
LINE
  5
C02D
330
17
100
AcDbEntity
  8
0
100
AcDbLine
 10
92.77650077961675
 20
57.22566283805324
 30
0.0
 11
92.62250077961676
 21
57.22566283805324
 31
0.0
  0
CIRCLE
  5
C02E
330
17
100
AcDbEntity
  8
0
100
AcDbCircle
 10
92.69950077961675
 20
57.29946283805323
 30
0.0
 40
0.069
  0
LINE
  5
C02F
330
17
100
AcDbEntity
  8
0
100
AcDbLine
 10
92.72740763302531
 20
57.23669604534595
 30
0.0
 11
92.65393596078039
 21
57.34780938313537
 31
0.0
  0
LINE
  5
C030
330
17
100
AcDbEntity
  8
0
100
AcDbLine
 10
92.62250077961672
 20
57.47278099502612
 30
0.0
 11
92.77650077961672
 21
57.47278099502612
 31
0.0
  0
LINE
  5
C031
330
17
100
AcDbEntity
  8
0
100
AcDbLine
 10
92.64650077961674
 20
57.4901257844144
 30
0.0
 11
92.75250077961672
 21
57.4901257844144
 31
0.0
  0
LINE
  5
C032
330
17
100
AcDbEntity
  8
0
100
AcDbLine
 10
92.42550077961672
 20
57.6622628380532
 30
0.0
 11
92.42550077961672
 21
57.40626283805319
 31
0.0
  0
LINE
  5
C033
330
17
100
AcDbEntity
  8
0
100
AcDbLine
 10
92.38250077961671
 20
57.6622628380532
 30
0.0
 11
92.38250077961671
 21
57.40626283805319
 31
0.0
  0
LINE
  5
C034
330
17
100
AcDbEntity
  8
0
100
AcDbLine
 10
92.62250077961672
 20
57.6622628380532
 30
0.0
 11
92.62250077961672
 21
57.40626283805319
 31
0.0
  0
LINE
  5
C035
330
17
100
AcDbEntity
  8
0
100
AcDbLine
 10
92.57950077961671
 20
57.6622628380532
 30
0.0
 11
92.57950077961671
 21
57.40626283805319
 31
0.0
  0
LINE
  5
C036
330
17
100
AcDbEntity
  8
0
100
AcDbLine
 10
92.44950077961673
 20
57.6622628380532
 30
0.0
 11
92.44950077961673
 21
57.4901257844144
 31
0.0
  0
LINE
  5
C037
330
17
100
AcDbEntity
  8
0
100
AcDbLine
 10
92.35850077961671
 20
57.6622628380532
 30
0.0
 11
92.35850077961671
 21
57.4901257844144
 31
0.0
  0
LINE
  5
C038
330
17
100
AcDbEntity
  8
0
100
AcDbLine
 10
92.64650077961674
 20
57.6622628380532
 30
0.0
 11
92.64650077961674
 21
57.4901257844144
 31
0.0
  0
LINE
  5
C039
330
17
100
AcDbEntity
  8
0
100
AcDbLine
 10
92.55550077961672
 20
57.6622628380532
 30
0.0
 11
92.55550077961672
 21
57.4901257844144
 31
0.0
  0
LINE
  5
C03A
330
17
100
AcDbEntity
  8
0
100
AcDbLine
 10
92.44950077961673
 20
57.53628767494284
 30
0.0
 11
92.55550077961672
 21
57.53628767494284
 31
0.0
  0
LINE
  5
C03B
330
17
100
AcDbEntity
  8
0
100
AcDbLine
 10
92.54538727112153
 20
57.2466677548192
 30
0.0
 11
92.47048897880075
 21
57.35920562619227
 31
0.0
  0
LINE
  5
C03C
330
17
100
AcDbEntity
  8
0
100
AcDbLine
 10
92.57950077961675
 20
57.22566283805324
 30
0.0
 11
92.42550077961675
 21
57.22566283805324
 31
0.0
  0
LINE
  5
C03D
330
17
100
AcDbEntity
  8
0
100
AcDbLine
 10
92.5304076330253
 20
57.23669604534595
 30
0.0
 11
92.45693596078039
 21
57.34780938313537
 31
0.0
  0
CIRCLE
  5
C03E
330
17
100
AcDbEntity
  8
0
100
AcDbCircle
 10
92.50250077961675
 20
57.29946283805323
 30
0.0
 40
0.069
  0
LINE
  5
C03F
330
17
100
AcDbEntity
  8
0
100
AcDbLine
 10
92.44950077961673
 20
57.4901257844144
 30
0.0
 11
92.55550077961672
 21
57.4901257844144
 31
0.0
  0
LINE
  5
C040
330
17
100
AcDbEntity
  8
0
100
AcDbLine
 10
92.42550077961672
 20
57.47278099502612
 30
0.0
 11
92.57950077961671
 21
57.47278099502612
 31
0.0
  0
LINE
  5
C041
330
17
100
AcDbEntity
  8
0
100
AcDbLine
 10
92.34838727112157
 20
57.2466677548192
 30
0.0
 11
92.27348897880077
 21
57.35920562619227
 31
0.0
  0
LINE
  5
C042
330
17
100
AcDbEntity
  8
0
100
AcDbLine
 10
92.42550077961675
 20
57.31575815380995
 30
0.0
 11
92.40400077961675
 21
57.31575815380995
 31
0.0
  0
LINE
  5
C043
330
17
100
AcDbEntity
  8
0
100
AcDbLine
 10
92.40400077961675
 20
57.31575815380995
 30
0.0
 11
92.38250077961675
 21
57.31575815380995
 31
0.0
  0
LINE
  5
C044
330
17
100
AcDbEntity
  8
0
100
AcDbLine
 10
92.30550077961675
 20
57.23046283805324
 30
0.0
 11
92.30550077961675
 21
57.23046283805324
 31
0.0
  0
LINE
  5
C045
330
17
100
AcDbEntity
  8
0
100
AcDbLine
 10
92.42550077961675
 20
57.37326283805323
 30
0.0
 11
92.42550077961675
 21
57.22566283805324
 31
0.0
  0
LINE
  5
C046
330
17
100
AcDbEntity
  8
0
100
AcDbLine
 10
92.38250077961675
 20
57.37326283805323
 30
0.0
 11
92.38250077961675
 21
57.22566283805324
 31
0.0
  0
LINE
  5
C047
330
17
100
AcDbEntity
  8
0
100
AcDbLine
 10
92.62250077961676
 20
57.31575815380995
 30
0.0
 11
92.60100077961675
 21
57.31575815380995
 31
0.0
  0
LINE
  5
C048
330
17
100
AcDbEntity
  8
0
100
AcDbLine
 10
92.60100077961675
 20
57.31575815380995
 30
0.0
 11
92.57950077961675
 21
57.31575815380995
 31
0.0
  0
LINE
  5
C049
330
17
100
AcDbEntity
  8
0
100
AcDbLine
 10
92.50250077961675
 20
57.23046283805324
 30
0.0
 11
92.50250077961675
 21
57.23046283805324
 31
0.0
  0
LINE
  5
C04A
330
17
100
AcDbEntity
  8
0
100
AcDbLine
 10
92.62250077961676
 20
57.37326283805323
 30
0.0
 11
92.62250077961676
 21
57.22566283805324
 31
0.0
  0
LINE
  5
C04B
330
17
100
AcDbEntity
  8
0
100
AcDbLine
 10
92.57950077961675
 20
57.37326283805323
 30
0.0
 11
92.57950077961675
 21
57.22566283805324
 31
0.0
  0
LINE
  5
C04C
330
17
100
AcDbEntity
  8
0
100
AcDbLine
 10
92.57950077961671
 20
57.75066283805319
 30
0.0
 11
92.42550077961672
 21
57.75066283805319
 31
0.0
  0
LINE
  5
C04D
330
17
100
AcDbEntity
  8
0
100
AcDbLine
 10
92.57950077961671
 20
57.6622628380532
 30
0.0
 11
92.42550077961672
 21
57.6622628380532
 31
0.0
  0
LINE
  5
C04E
330
17
100
AcDbEntity
  8
0
100
AcDbLine
 10
92.53040763302527
 20
57.7616960453459
 30
0.0
 11
92.45693596078035
 21
57.87280938313532
 31
0.0
  0
LINE
  5
C04F
330
17
100
AcDbEntity
  8
0
100
AcDbLine
 10
92.54538727112151
 20
57.77166775481916
 30
0.0
 11
92.47048897880072
 21
57.88420562619223
 31
0.0
  0
LINE
  5
C050
330
17
100
AcDbEntity
  8
0
100
AcDbLine
 10
92.42550077961672
 20
57.8407581538099
 30
0.0
 11
92.40400077961671
 21
57.8407581538099
 31
0.0
  0
LINE
  5
C051
330
17
100
AcDbEntity
  8
0
100
AcDbLine
 10
92.40400077961671
 20
57.8407581538099
 30
0.0
 11
92.38250077961671
 21
57.8407581538099
 31
0.0
  0
LINE
  5
C052
330
17
100
AcDbEntity
  8
0
100
AcDbLine
 10
92.30550077961671
 20
57.75546283805319
 30
0.0
 11
92.30550077961671
 21
57.75546283805319
 31
0.0
  0
LINE
  5
C053
330
17
100
AcDbEntity
  8
0
100
AcDbLine
 10
92.34838727112153
 20
57.77166775481916
 30
0.0
 11
92.27348897880075
 21
57.88420562619223
 31
0.0
  0
LINE
  5
C054
330
17
100
AcDbEntity
  8
0
100
AcDbLine
 10
92.50250077961672
 20
57.75546283805319
 30
0.0
 11
92.50250077961672
 21
57.75546283805319
 31
0.0
  0
LINE
  5
C055
330
17
100
AcDbEntity
  8
0
100
AcDbLine
 10
92.62250077961672
 20
57.8407581538099
 30
0.0
 11
92.60100077961672
 21
57.8407581538099
 31
0.0
  0
LINE
  5
C056
330
17
100
AcDbEntity
  8
0
100
AcDbLine
 10
92.60100077961672
 20
57.8407581538099
 30
0.0
 11
92.57950077961671
 21
57.8407581538099
 31
0.0
  0
LINE
  5
C057
330
17
100
AcDbEntity
  8
0
100
AcDbLine
 10
92.81950077961672
 20
57.6622628380532
 30
0.0
 11
92.81950077961672
 21
57.40626283805319
 31
0.0
  0
LINE
  5
C058
330
17
100
AcDbEntity
  8
0
100
AcDbLine
 10
93.01650077961673
 20
57.6622628380532
 30
0.0
 11
93.01650077961671
 21
57.40626283805319
 31
0.0
  0
LINE
  5
C059
330
17
100
AcDbEntity
  8
0
100
AcDbLine
 10
92.97350077961672
 20
57.6622628380532
 30
0.0
 11
92.97350077961672
 21
57.40626283805319
 31
0.0
  0
LINE
  5
C05A
330
17
100
AcDbEntity
  8
0
100
AcDbLine
 10
92.77650077961672
 20
57.6622628380532
 30
0.0
 11
92.77650077961672
 21
57.40626283805319
 31
0.0
  0
LINE
  5
C05B
330
17
100
AcDbEntity
  8
0
100
AcDbLine
 10
92.75250077961672
 20
57.6622628380532
 30
0.0
 11
92.75250077961672
 21
57.4901257844144
 31
0.0
  0
LINE
  5
C05C
330
17
100
AcDbEntity
  8
0
100
AcDbLine
 10
92.84350077961674
 20
57.6622628380532
 30
0.0
 11
92.84350077961674
 21
57.4901257844144
 31
0.0
  0
LINE
  5
C05D
330
17
100
AcDbEntity
  8
0
100
AcDbLine
 10
93.04050077961671
 20
57.6622628380532
 30
0.0
 11
93.04050077961671
 21
57.4901257844144
 31
0.0
  0
LINE
  5
C05E
330
17
100
AcDbEntity
  8
0
100
AcDbLine
 10
92.94950077961672
 20
57.6622628380532
 30
0.0
 11
92.94950077961672
 21
57.4901257844144
 31
0.0
  0
LINE
  5
C05F
330
17
100
AcDbEntity
  8
0
100
AcDbLine
 10
92.84350077961674
 20
57.53628767494284
 30
0.0
 11
92.94950077961672
 21
57.53628767494284
 31
0.0
  0
LINE
  5
C060
330
17
100
AcDbEntity
  8
0
100
AcDbLine
 10
92.93938727112154
 20
57.2466677548192
 30
0.0
 11
92.86448897880076
 21
57.35920562619227
 31
0.0
  0
LINE
  5
C061
330
17
100
AcDbEntity
  8
0
100
AcDbLine
 10
92.97350077961676
 20
57.22566283805324
 30
0.0
 11
92.81950077961676
 21
57.22566283805324
 31
0.0
  0
CIRCLE
  5
C062
330
17
100
AcDbEntity
  8
0
100
AcDbCircle
 10
92.89650077961676
 20
57.29946283805323
 30
0.0
 40
0.069
  0
LINE
  5
C063
330
17
100
AcDbEntity
  8
0
100
AcDbLine
 10
92.92440763302531
 20
57.23669604534595
 30
0.0
 11
92.8509359607804
 21
57.34780938313537
 31
0.0
  0
LINE
  5
C064
330
17
100
AcDbEntity
  8
0
100
AcDbLine
 10
92.81950077961672
 20
57.47278099502612
 30
0.0
 11
92.97350077961672
 21
57.47278099502612
 31
0.0
  0
LINE
  5
C065
330
17
100
AcDbEntity
  8
0
100
AcDbLine
 10
92.84350077961674
 20
57.4901257844144
 30
0.0
 11
92.94950077961672
 21
57.4901257844144
 31
0.0
  0
LINE
  5
C066
330
17
100
AcDbEntity
  8
0
100
AcDbLine
 10
92.89650077961676
 20
57.23046283805324
 30
0.0
 11
92.89650077961676
 21
57.23046283805324
 31
0.0
  0
LINE
  5
C067
330
17
100
AcDbEntity
  8
0
100
AcDbLine
 10
92.81950077961676
 20
57.37326283805323
 30
0.0
 11
92.81950077961676
 21
57.22566283805324
 31
0.0
  0
LINE
  5
C068
330
17
100
AcDbEntity
  8
0
100
AcDbLine
 10
92.79800077961676
 20
57.31575815380995
 30
0.0
 11
92.77650077961675
 21
57.31575815380995
 31
0.0
  0
LINE
  5
C069
330
17
100
AcDbEntity
  8
0
100
AcDbLine
 10
92.69950077961675
 20
57.23046283805324
 30
0.0
 11
92.69950077961675
 21
57.23046283805324
 31
0.0
  0
LINE
  5
C06A
330
17
100
AcDbEntity
  8
0
100
AcDbLine
 10
92.77650077961675
 20
57.37326283805323
 30
0.0
 11
92.77650077961675
 21
57.22566283805324
 31
0.0
  0
LINE
  5
C06B
330
17
100
AcDbEntity
  8
0
100
AcDbLine
 10
92.81950077961676
 20
57.31575815380995
 30
0.0
 11
92.79800077961676
 21
57.31575815380995
 31
0.0
  0
LINE
  5
C06C
330
17
100
AcDbEntity
  8
0
100
AcDbLine
 10
93.01650077961673
 20
57.31575815380995
 30
0.0
 11
92.99500077961676
 21
57.31575815380995
 31
0.0
  0
LINE
  5
C06D
330
17
100
AcDbEntity
  8
0
100
AcDbLine
 10
92.99500077961676
 20
57.31575815380995
 30
0.0
 11
92.97350077961676
 21
57.31575815380995
 31
0.0
  0
LINE
  5
C06E
330
17
100
AcDbEntity
  8
0
100
AcDbLine
 10
93.09350077961672
 20
57.23046283805324
 30
0.0
 11
93.09350077961672
 21
57.23046283805324
 31
0.0
  0
LINE
  5
C06F
330
17
100
AcDbEntity
  8
0
100
AcDbLine
 10
93.01650077961676
 20
57.37326283805323
 30
0.0
 11
93.01650077961676
 21
57.22566283805324
 31
0.0
  0
LINE
  5
C070
330
17
100
AcDbEntity
  8
0
100
AcDbLine
 10
92.97350077961676
 20
57.37326283805323
 30
0.0
 11
92.97350077961676
 21
57.22566283805324
 31
0.0
  0
LINE
  5
C071
330
17
100
AcDbEntity
  8
0
100
AcDbLine
 10
93.12140763302531
 20
57.23669604534595
 30
0.0
 11
93.0479359607804
 21
57.34780938313537
 31
0.0
  0
LINE
  5
C072
330
17
100
AcDbEntity
  8
0
100
AcDbLine
 10
92.97350077961672
 20
57.75066283805319
 30
0.0
 11
92.81950077961672
 21
57.75066283805319
 31
0.0
  0
LINE
  5
C073
330
17
100
AcDbEntity
  8
0
100
AcDbLine
 10
92.97350077961672
 20
57.6622628380532
 30
0.0
 11
92.81950077961672
 21
57.6622628380532
 31
0.0
  0
LINE
  5
C074
330
17
100
AcDbEntity
  8
0
100
AcDbLine
 10
92.93938727112152
 20
57.77166775481916
 30
0.0
 11
92.86448897880072
 21
57.88420562619223
 31
0.0
  0
LINE
  5
C075
330
17
100
AcDbEntity
  8
0
100
AcDbLine
 10
92.92440763302527
 20
57.7616960453459
 30
0.0
 11
92.85093596078036
 21
57.87280938313532
 31
0.0
  0
LINE
  5
C076
330
17
100
AcDbEntity
  8
0
100
AcDbLine
 10
92.89650077961672
 20
57.75546283805319
 30
0.0
 11
92.89650077961672
 21
57.75546283805319
 31
0.0
  0
LINE
  5
C077
330
17
100
AcDbEntity
  8
0
100
AcDbLine
 10
92.69950077961672
 20
57.75546283805319
 30
0.0
 11
92.69950077961672
 21
57.75546283805319
 31
0.0
  0
LINE
  5
C078
330
17
100
AcDbEntity
  8
0
100
AcDbLine
 10
92.79800077961672
 20
57.8407581538099
 30
0.0
 11
92.77650077961672
 21
57.8407581538099
 31
0.0
  0
LINE
  5
C079
330
17
100
AcDbEntity
  8
0
100
AcDbLine
 10
92.81950077961672
 20
57.8407581538099
 30
0.0
 11
92.79800077961672
 21
57.8407581538099
 31
0.0
  0
LINE
  5
C07A
330
17
100
AcDbEntity
  8
0
100
AcDbLine
 10
93.01650077961671
 20
57.8407581538099
 30
0.0
 11
92.99500077961672
 21
57.8407581538099
 31
0.0
  0
LINE
  5
C07B
330
17
100
AcDbEntity
  8
0
100
AcDbLine
 10
92.99500077961672
 20
57.8407581538099
 30
0.0
 11
92.97350077961672
 21
57.8407581538099
 31
0.0
  0
LINE
  5
C07C
330
17
100
AcDbEntity
  8
0
100
AcDbLine
 10
93.09350077961671
 20
57.75546283805319
 30
0.0
 11
93.09350077961671
 21
57.75546283805319
 31
0.0
  0
LINE
  5
C07D
330
17
100
AcDbEntity
  8
0
100
AcDbLine
 10
93.12140763302528
 20
57.7616960453459
 30
0.0
 11
93.04793596078036
 21
57.87280938313532
 31
0.0
  0
TEXT
  5
C07E
330
17
100
AcDbEntity
  8
0
 62
     2
100
AcDbText
 10
93.64748106313632
 20
57.12560410001572
 30
0.0
 40
0.125
  1
TB3
  7
SIMPLEX
100
AcDbText
  0
LINE
  5
C07F
330
17
100
AcDbEntity
  8
0
 62
     2
100
AcDbLine
 10
93.19200077961673
 20
57.37326283805323
 30
0.0
 11
93.19200077961676
 21
56.88126283805323
 31
0.0
  0
LINE
  5
C080
330
17
100
AcDbEntity
  8
0
100
AcDbLine
 10
93.17050077961676
 20
57.13726283805323
 30
0.0
 11
93.17050077961676
 21
56.88126283805323
 31
0.0
  0
TEXT
  5
C081
330
17
100
AcDbEntity
  8
0
 62
     2
100
AcDbText
 10
93.24790155529573
 20
57.14782096474272
 30
0.0
 40
0.07
  1
S
  7
ROMANS
 72
     4
 11
93.28123488862905
 21
57.18282096474272
 31
0.0
100
AcDbText
  0
LINE
  5
C082
330
17
100
AcDbEntity
  8
0
100
AcDbLine
 10
93.14650077961676
 20
57.13726283805323
 30
0.0
 11
93.14650077961676
 21
56.96512578441444
 31
0.0
  0
LINE
  5
C083
330
17
100
AcDbEntity
  8
0
100
AcDbLine
 10
93.17050077961672
 20
57.6622628380532
 30
0.0
 11
93.17050077961672
 21
57.40626283805319
 31
0.0
  0
LINE
  5
C084
330
17
100
AcDbEntity
  8
0
100
AcDbLine
 10
93.14650077961672
 20
57.6622628380532
 30
0.0
 11
93.14650077961672
 21
57.4901257844144
 31
0.0
  0
LINE
  5
C085
330
17
100
AcDbEntity
  8
0
100
AcDbLine
 10
93.19200077961673
 20
57.31575815380995
 30
0.0
 11
93.17050077961676
 21
57.31575815380995
 31
0.0
  0
LINE
  5
C086
330
17
100
AcDbEntity
  8
0
100
AcDbLine
 10
93.17050077961676
 20
57.37326283805323
 30
0.0
 11
93.17050077961676
 21
57.22566283805324
 31
0.0
  0
TEXT
  5
C087
330
17
100
AcDbEntity
  8
0
 62
     2
100
AcDbText
 10
93.20956822196235
 20
57.67282096474268
 30
0.0
 40
0.07
  1
18
  7
ROMANS
 72
     4
 11
93.28123488862903
 21
57.70782096474267
 31
0.0
100
AcDbText
  0
LINE
  5
C088
330
17
100
AcDbEntity
  8
0
100
AcDbLine
 10
93.19200077961671
 20
57.8407581538099
 30
0.0
 11
93.17050077961672
 21
57.8407581538099
 31
0.0
  0
TEXT
  5
C089
330
17
100
AcDbEntity
  8
0
 62
     2
100
AcDbText
 10
93.6474810631363
 20
57.61760410001572
 30
0.0
 40
0.125
  1
TB2
  7
SIMPLEX
100
AcDbText
  0
LINE
  5
C08A
330
17
100
AcDbEntity
  8
0
100
AcDbLine
 10
93.13638727112149
 20
58.29666775481917
 30
0.0
 11
93.06148897880069
 21
58.40920562619223
 31
0.0
  0
CIRCLE
  5
C08B
330
17
100
AcDbEntity
  8
0
100
AcDbCircle
 10
93.09350077961667
 20
58.3494628380532
 30
0.0
 40
0.069
  0
LINE
  5
C08C
330
17
100
AcDbEntity
  8
0
100
AcDbLine
 10
93.1705007796167
 20
58.27566283805319
 30
0.0
 11
93.01650077961667
 21
58.27566283805319
 31
0.0
  0
LINE
  5
C08D
330
17
100
AcDbEntity
  8
0
100
AcDbLine
 10
93.1705007796167
 20
58.1872628380532
 30
0.0
 11
93.01650077961667
 21
58.1872628380532
 31
0.0
  0
LINE
  5
C08E
330
17
100
AcDbEntity
  8
0
100
AcDbLine
 10
93.01650077961667
 20
57.99778099502611
 30
0.0
 11
93.1705007796167
 21
57.99778099502611
 31
0.0
  0
LINE
  5
C08F
330
17
100
AcDbEntity
  8
0
100
AcDbLine
 10
93.04050077961667
 20
58.06128767494283
 30
0.0
 11
93.14650077961671
 21
58.06128767494283
 31
0.0
  0
LINE
  5
C090
330
17
100
AcDbEntity
  8
0
100
AcDbLine
 10
93.04050077961667
 20
58.0151257844144
 30
0.0
 11
93.14650077961671
 21
58.0151257844144
 31
0.0
  0
LINE
  5
C091
330
17
100
AcDbEntity
  8
0
 62
     2
100
AcDbLine
 10
91.4190007796167
 20
57.89826283805319
 30
0.0
 11
93.19200077961671
 21
57.89826283805319
 31
0.0
  0
LINE
  5
C092
330
17
100
AcDbEntity
  8
0
 62
     2
100
AcDbLine
 10
91.4190007796167
 20
57.93126283805319
 30
0.0
 11
93.19200077961671
 21
57.93126283805319
 31
0.0
  0
LINE
  5
C093
330
17
100
AcDbEntity
  8
0
100
AcDbLine
 10
92.38250077961669
 20
58.1872628380532
 30
0.0
 11
92.2285007796167
 21
58.1872628380532
 31
0.0
  0
LINE
  5
C094
330
17
100
AcDbEntity
  8
0
100
AcDbLine
 10
92.33340763302527
 20
58.2866960453459
 30
0.0
 11
92.25993596078035
 21
58.39780938313532
 31
0.0
  0
CIRCLE
  5
C095
330
17
100
AcDbEntity
  8
0
100
AcDbCircle
 10
92.3055007796167
 20
58.3494628380532
 30
0.0
 40
0.069
  0
LINE
  5
C096
330
17
100
AcDbEntity
  8
0
100
AcDbLine
 10
92.38250077961669
 20
58.27566283805319
 30
0.0
 11
92.2285007796167
 21
58.27566283805319
 31
0.0
  0
LINE
  5
C097
330
17
100
AcDbEntity
  8
0
100
AcDbLine
 10
92.25250077961669
 20
58.06128767494283
 30
0.0
 11
92.3585007796167
 21
58.06128767494283
 31
0.0
  0
LINE
  5
C098
330
17
100
AcDbEntity
  8
0
100
AcDbLine
 10
92.25250077961669
 20
58.0151257844144
 30
0.0
 11
92.3585007796167
 21
58.0151257844144
 31
0.0
  0
LINE
  5
C099
330
17
100
AcDbEntity
  8
0
100
AcDbLine
 10
92.2285007796167
 20
57.99778099502611
 30
0.0
 11
92.38250077961669
 21
57.99778099502611
 31
0.0
  0
LINE
  5
C09A
330
17
100
AcDbEntity
  8
0
100
AcDbLine
 10
91.98850077961669
 20
58.27566283805319
 30
0.0
 11
91.83450077961669
 21
58.27566283805319
 31
0.0
  0
LINE
  5
C09B
330
17
100
AcDbEntity
  8
0
100
AcDbLine
 10
91.98850077961669
 20
58.1872628380532
 30
0.0
 11
91.83450077961669
 21
58.1872628380532
 31
0.0
  0
LINE
  5
C09C
330
17
100
AcDbEntity
  8
0
100
AcDbLine
 10
91.83450077961669
 20
57.99778099502611
 30
0.0
 11
91.98850077961669
 21
57.99778099502611
 31
0.0
  0
LINE
  5
C09D
330
17
100
AcDbEntity
  8
0
 62
     2
100
AcDbLine
 10
91.41900077961668
 20
58.4232628380532
 30
0.0
 11
91.4190007796167
 21
57.93126283805319
 31
0.0
  0
LINE
  5
C09E
330
17
100
AcDbEntity
  8
0
 62
     2
100
AcDbLine
 10
91.61600077961669
 20
58.4232628380532
 30
0.0
 11
91.6160007796167
 21
57.93126283805319
 31
0.0
  0
LINE
  5
C09F
330
17
100
AcDbEntity
  8
0
 62
     2
100
AcDbLine
 10
91.81300077961669
 20
58.4232628380532
 30
0.0
 11
91.81300077961669
 21
57.93126283805319
 31
0.0
  0
LINE
  5
C0A0
330
17
100
AcDbEntity
  8
0
100
AcDbLine
 10
91.5945007796167
 20
58.1872628380532
 30
0.0
 11
91.44050077961669
 21
58.1872628380532
 31
0.0
  0
LINE
  5
C0A1
330
17
100
AcDbEntity
  8
0
100
AcDbLine
 10
91.46450077961668
 20
58.06128767494283
 30
0.0
 11
91.5705007796167
 21
58.06128767494283
 31
0.0
  0
LINE
  5
C0A2
330
17
100
AcDbEntity
  8
0
100
AcDbLine
 10
91.46450077961668
 20
58.0151257844144
 30
0.0
 11
91.5705007796167
 21
58.0151257844144
 31
0.0
  0
LINE
  5
C0A3
330
17
100
AcDbEntity
  8
0
100
AcDbLine
 10
91.44050077961669
 20
57.99778099502611
 30
0.0
 11
91.5945007796167
 21
57.99778099502611
 31
0.0
  0
LINE
  5
C0A4
330
17
100
AcDbEntity
  8
0
100
AcDbLine
 10
91.5705007796167
 20
58.1872628380532
 30
0.0
 11
91.5705007796167
 21
58.0151257844144
 31
0.0
  0
LINE
  5
C0A5
330
17
100
AcDbEntity
  8
0
100
AcDbLine
 10
91.5945007796167
 20
58.1872628380532
 30
0.0
 11
91.5945007796167
 21
57.93126283805319
 31
0.0
  0
LINE
  5
C0A6
330
17
100
AcDbEntity
  8
0
100
AcDbLine
 10
91.46450077961668
 20
58.1872628380532
 30
0.0
 11
91.46450077961668
 21
58.0151257844144
 31
0.0
  0
LINE
  5
C0A7
330
17
100
AcDbEntity
  8
0
100
AcDbLine
 10
91.4405007796167
 20
58.1872628380532
 30
0.0
 11
91.44050077961669
 21
57.93126283805319
 31
0.0
  0
LINE
  5
C0A8
330
17
100
AcDbEntity
  8
0
100
AcDbLine
 10
91.79150077961669
 20
58.1872628380532
 30
0.0
 11
91.63750077961669
 21
58.1872628380532
 31
0.0
  0
LINE
  5
C0A9
330
17
100
AcDbEntity
  8
0
100
AcDbLine
 10
91.63750077961669
 20
57.99778099502611
 30
0.0
 11
91.79150077961669
 21
57.99778099502611
 31
0.0
  0
LINE
  5
C0AA
330
17
100
AcDbEntity
  8
0
100
AcDbLine
 10
91.66150077961669
 20
58.0151257844144
 30
0.0
 11
91.76750077961669
 21
58.0151257844144
 31
0.0
  0
LINE
  5
C0AB
330
17
100
AcDbEntity
  8
0
100
AcDbLine
 10
91.66150077961669
 20
58.06128767494283
 30
0.0
 11
91.76750077961669
 21
58.06128767494283
 31
0.0
  0
LINE
  5
C0AC
330
17
100
AcDbEntity
  8
0
100
AcDbLine
 10
91.66150077961669
 20
58.1872628380532
 30
0.0
 11
91.66150077961669
 21
58.0151257844144
 31
0.0
  0
LINE
  5
C0AD
330
17
100
AcDbEntity
  8
0
100
AcDbLine
 10
91.63750077961669
 20
58.1872628380532
 30
0.0
 11
91.63750077961669
 21
57.93126283805319
 31
0.0
  0
LINE
  5
C0AE
330
17
100
AcDbEntity
  8
0
100
AcDbLine
 10
91.76750077961669
 20
58.1872628380532
 30
0.0
 11
91.76750077961669
 21
58.0151257844144
 31
0.0
  0
LINE
  5
C0AF
330
17
100
AcDbEntity
  8
0
100
AcDbLine
 10
91.79150077961669
 20
58.1872628380532
 30
0.0
 11
91.79150077961669
 21
57.93126283805319
 31
0.0
  0
LINE
  5
C0B0
330
17
100
AcDbEntity
  8
0
100
AcDbLine
 10
91.83450077961669
 20
58.1872628380532
 30
0.0
 11
91.83450077961669
 21
57.93126283805319
 31
0.0
  0
LINE
  5
C0B1
330
17
100
AcDbEntity
  8
0
100
AcDbLine
 10
91.63750077961669
 20
58.36575815380991
 30
0.0
 11
91.61600077961669
 21
58.36575815380991
 31
0.0
  0
LINE
  5
C0B2
330
17
100
AcDbEntity
  8
0
100
AcDbLine
 10
91.5945007796167
 20
58.4232628380532
 30
0.0
 11
91.5945007796167
 21
58.27566283805319
 31
0.0
  0
LINE
  5
C0B3
330
17
100
AcDbEntity
  8
0
100
AcDbLine
 10
91.4405007796167
 20
58.4232628380532
 30
0.0
 11
91.4405007796167
 21
58.27566283805321
 31
0.0
  0
LINE
  5
C0B4
330
17
100
AcDbEntity
  8
0
100
AcDbLine
 10
91.54540763302525
 20
58.2866960453459
 30
0.0
 11
91.47193596078034
 21
58.39780938313532
 31
0.0
  0
LINE
  5
C0B5
330
17
100
AcDbEntity
  8
0
100
AcDbLine
 10
91.5603872711215
 20
58.29666775481917
 30
0.0
 11
91.4854889788007
 21
58.40920562619223
 31
0.0
  0
CIRCLE
  5
C0B6
330
17
100
AcDbEntity
  8
0
100
AcDbCircle
 10
91.51750077961668
 20
58.3494628380532
 30
0.0
 40
0.069
  0
LINE
  5
C0B7
330
17
100
AcDbEntity
  8
0
100
AcDbLine
 10
91.51750077961668
 20
58.2804628380532
 30
0.0
 11
91.51750077961668
 21
58.2804628380532
 31
0.0
  0
LINE
  5
C0B8
330
17
100
AcDbEntity
  8
0
100
AcDbLine
 10
91.5945007796167
 20
58.27566283805319
 30
0.0
 11
91.44050077961669
 21
58.27566283805319
 31
0.0
  0
LINE
  5
C0B9
330
17
100
AcDbEntity
  8
0
100
AcDbLine
 10
91.44050077961669
 20
58.36575815380991
 30
0.0
 11
91.4190007796167
 21
58.36575815380991
 31
0.0
  0
LINE
  5
C0BA
330
17
100
AcDbEntity
  8
0
100
AcDbLine
 10
91.61600077961669
 20
58.36575815380991
 30
0.0
 11
91.5945007796167
 21
58.36575815380991
 31
0.0
  0
LINE
  5
C0BB
330
17
100
AcDbEntity
  8
0
100
AcDbLine
 10
91.81300077961669
 20
58.36575815380991
 30
0.0
 11
91.79150077961669
 21
58.36575815380991
 31
0.0
  0
LINE
  5
C0BC
330
17
100
AcDbEntity
  8
0
100
AcDbLine
 10
91.83450077961669
 20
58.36575815380991
 30
0.0
 11
91.81300077961669
 21
58.36575815380991
 31
0.0
  0
LINE
  5
C0BD
330
17
100
AcDbEntity
  8
0
100
AcDbLine
 10
91.63750077961669
 20
58.4232628380532
 30
0.0
 11
91.63750077961669
 21
58.27566283805321
 31
0.0
  0
CIRCLE
  5
C0BE
330
17
100
AcDbEntity
  8
0
100
AcDbCircle
 10
91.71450077961669
 20
58.3494628380532
 30
0.0
 40
0.069
  0
LINE
  5
C0BF
330
17
100
AcDbEntity
  8
0
100
AcDbLine
 10
91.7573872711215
 20
58.29666775481917
 30
0.0
 11
91.6824889788007
 21
58.40920562619223
 31
0.0
  0
LINE
  5
C0C0
330
17
100
AcDbEntity
  8
0
100
AcDbLine
 10
91.74240763302526
 20
58.2866960453459
 30
0.0
 11
91.66893596078034
 21
58.39780938313532
 31
0.0
  0
LINE
  5
C0C1
330
17
100
AcDbEntity
  8
0
100
AcDbLine
 10
91.79150077961669
 20
58.4232628380532
 30
0.0
 11
91.79150077961669
 21
58.27566283805319
 31
0.0
  0
LINE
  5
C0C2
330
17
100
AcDbEntity
  8
0
100
AcDbLine
 10
91.83450077961669
 20
58.4232628380532
 30
0.0
 11
91.83450077961669
 21
58.27566283805321
 31
0.0
  0
LINE
  5
C0C3
330
17
100
AcDbEntity
  8
0
100
AcDbLine
 10
91.79150077961669
 20
58.27566283805319
 30
0.0
 11
91.63750077961669
 21
58.27566283805319
 31
0.0
  0
LINE
  5
C0C4
330
17
100
AcDbEntity
  8
0
100
AcDbLine
 10
91.71450077961669
 20
58.2804628380532
 30
0.0
 11
91.71450077961669
 21
58.2804628380532
 31
0.0
  0
LINE
  5
C0C5
330
17
100
AcDbEntity
  8
0
 62
     2
100
AcDbLine
 10
92.20700077961669
 20
58.4232628380532
 30
0.0
 11
92.20700077961669
 21
57.93126283805319
 31
0.0
  0
LINE
  5
C0C6
330
17
100
AcDbEntity
  8
0
 62
     2
100
AcDbLine
 10
92.01000077961669
 20
58.4232628380532
 30
0.0
 11
92.01000077961669
 21
57.93126283805319
 31
0.0
  0
LINE
  5
C0C7
330
17
100
AcDbEntity
  8
0
100
AcDbLine
 10
92.18550077961669
 20
58.1872628380532
 30
0.0
 11
92.03150077961669
 21
58.1872628380532
 31
0.0
  0
LINE
  5
C0C8
330
17
100
AcDbEntity
  8
0
100
AcDbLine
 10
92.03150077961669
 20
57.99778099502611
 30
0.0
 11
92.18550077961669
 21
57.99778099502611
 31
0.0
  0
LINE
  5
C0C9
330
17
100
AcDbEntity
  8
0
100
AcDbLine
 10
91.85850077961669
 20
58.06128767494283
 30
0.0
 11
91.96450077961669
 21
58.06128767494283
 31
0.0
  0
LINE
  5
C0CA
330
17
100
AcDbEntity
  8
0
100
AcDbLine
 10
91.85850077961669
 20
58.0151257844144
 30
0.0
 11
91.96450077961669
 21
58.0151257844144
 31
0.0
  0
LINE
  5
C0CB
330
17
100
AcDbEntity
  8
0
100
AcDbLine
 10
91.98850077961669
 20
58.1872628380532
 30
0.0
 11
91.98850077961669
 21
57.93126283805319
 31
0.0
  0
LINE
  5
C0CC
330
17
100
AcDbEntity
  8
0
100
AcDbLine
 10
92.03150077961669
 20
58.1872628380532
 30
0.0
 11
92.03150077961669
 21
57.93126283805319
 31
0.0
  0
LINE
  5
C0CD
330
17
100
AcDbEntity
  8
0
100
AcDbLine
 10
91.96450077961669
 20
58.1872628380532
 30
0.0
 11
91.96450077961669
 21
58.0151257844144
 31
0.0
  0
LINE
  5
C0CE
330
17
100
AcDbEntity
  8
0
100
AcDbLine
 10
91.85850077961669
 20
58.1872628380532
 30
0.0
 11
91.85850077961669
 21
58.0151257844144
 31
0.0
  0
LINE
  5
C0CF
330
17
100
AcDbEntity
  8
0
100
AcDbLine
 10
92.25250077961669
 20
58.1872628380532
 30
0.0
 11
92.25250077961669
 21
58.0151257844144
 31
0.0
  0
LINE
  5
C0D0
330
17
100
AcDbEntity
  8
0
100
AcDbLine
 10
92.2285007796167
 20
58.1872628380532
 30
0.0
 11
92.2285007796167
 21
57.93126283805319
 31
0.0
  0
LINE
  5
C0D1
330
17
100
AcDbEntity
  8
0
100
AcDbLine
 10
92.05550077961669
 20
58.06128767494283
 30
0.0
 11
92.16150077961669
 21
58.06128767494283
 31
0.0
  0
LINE
  5
C0D2
330
17
100
AcDbEntity
  8
0
100
AcDbLine
 10
92.05550077961669
 20
58.0151257844144
 30
0.0
 11
92.16150077961669
 21
58.0151257844144
 31
0.0
  0
LINE
  5
C0D3
330
17
100
AcDbEntity
  8
0
100
AcDbLine
 10
92.16150077961669
 20
58.1872628380532
 30
0.0
 11
92.16150077961669
 21
58.0151257844144
 31
0.0
  0
LINE
  5
C0D4
330
17
100
AcDbEntity
  8
0
100
AcDbLine
 10
92.05550077961669
 20
58.1872628380532
 30
0.0
 11
92.05550077961669
 21
58.0151257844144
 31
0.0
  0
LINE
  5
C0D5
330
17
100
AcDbEntity
  8
0
100
AcDbLine
 10
92.18550077961669
 20
58.1872628380532
 30
0.0
 11
92.18550077961669
 21
57.93126283805319
 31
0.0
  0
CIRCLE
  5
C0D6
330
17
100
AcDbEntity
  8
0
100
AcDbCircle
 10
92.10850077961669
 20
58.3494628380532
 30
0.0
 40
0.069
  0
LINE
  5
C0D7
330
17
100
AcDbEntity
  8
0
100
AcDbLine
 10
92.18550077961669
 20
58.27566283805319
 30
0.0
 11
92.03150077961669
 21
58.27566283805319
 31
0.0
  0
LINE
  5
C0D8
330
17
100
AcDbEntity
  8
0
100
AcDbLine
 10
92.01000077961669
 20
58.36575815380991
 30
0.0
 11
91.98850077961669
 21
58.36575815380991
 31
0.0
  0
LINE
  5
C0D9
330
17
100
AcDbEntity
  8
0
100
AcDbLine
 10
92.03150077961669
 20
58.36575815380991
 30
0.0
 11
92.01000077961669
 21
58.36575815380991
 31
0.0
  0
LINE
  5
C0DA
330
17
100
AcDbEntity
  8
0
100
AcDbLine
 10
91.98850077961669
 20
58.4232628380532
 30
0.0
 11
91.98850077961669
 21
58.27566283805319
 31
0.0
  0
LINE
  5
C0DB
330
17
100
AcDbEntity
  8
0
100
AcDbLine
 10
92.03150077961669
 20
58.4232628380532
 30
0.0
 11
92.03150077961669
 21
58.27566283805321
 31
0.0
  0
LINE
  5
C0DC
330
17
100
AcDbEntity
  8
0
100
AcDbLine
 10
91.91150077961669
 20
58.2804628380532
 30
0.0
 11
91.91150077961669
 21
58.2804628380532
 31
0.0
  0
CIRCLE
  5
C0DD
330
17
100
AcDbEntity
  8
0
100
AcDbCircle
 10
91.91150077961669
 20
58.3494628380532
 30
0.0
 40
0.069
  0
LINE
  5
C0DE
330
17
100
AcDbEntity
  8
0
100
AcDbLine
 10
91.93940763302526
 20
58.2866960453459
 30
0.0
 11
91.86593596078035
 21
58.39780938313532
 31
0.0
  0
LINE
  5
C0DF
330
17
100
AcDbEntity
  8
0
100
AcDbLine
 10
91.95438727112151
 20
58.29666775481917
 30
0.0
 11
91.87948897880071
 21
58.40920562619223
 31
0.0
  0
LINE
  5
C0E0
330
17
100
AcDbEntity
  8
0
100
AcDbLine
 10
92.2285007796167
 20
58.4232628380532
 30
0.0
 11
92.2285007796167
 21
58.27566283805321
 31
0.0
  0
LINE
  5
C0E1
330
17
100
AcDbEntity
  8
0
100
AcDbLine
 10
92.20700077961669
 20
58.36575815380991
 30
0.0
 11
92.18550077961669
 21
58.36575815380991
 31
0.0
  0
LINE
  5
C0E2
330
17
100
AcDbEntity
  8
0
100
AcDbLine
 10
92.18550077961669
 20
58.4232628380532
 30
0.0
 11
92.18550077961669
 21
58.27566283805319
 31
0.0
  0
LINE
  5
C0E3
330
17
100
AcDbEntity
  8
0
100
AcDbLine
 10
92.13640763302526
 20
58.2866960453459
 30
0.0
 11
92.06293596078035
 21
58.39780938313532
 31
0.0
  0
LINE
  5
C0E4
330
17
100
AcDbEntity
  8
0
100
AcDbLine
 10
92.15138727112151
 20
58.29666775481917
 30
0.0
 11
92.07648897880071
 21
58.40920562619223
 31
0.0
  0
LINE
  5
C0E5
330
17
100
AcDbEntity
  8
0
100
AcDbLine
 10
92.10850077961669
 20
58.2804628380532
 30
0.0
 11
92.10850077961669
 21
58.2804628380532
 31
0.0
  0
LINE
  5
C0E6
330
17
100
AcDbEntity
  8
0
100
AcDbLine
 10
92.2285007796167
 20
58.36575815380991
 30
0.0
 11
92.20700077961669
 21
58.36575815380991
 31
0.0
  0
LINE
  5
C0E7
330
17
100
AcDbEntity
  8
0
100
AcDbLine
 10
92.72740763302525
 20
58.2866960453459
 30
0.0
 11
92.65393596078032
 21
58.39780938313532
 31
0.0
  0
LINE
  5
C0E8
330
17
100
AcDbEntity
  8
0
100
AcDbLine
 10
92.74238727112148
 20
58.29666775481917
 30
0.0
 11
92.66748897880068
 21
58.40920562619223
 31
0.0
  0
CIRCLE
  5
C0E9
330
17
100
AcDbEntity
  8
0
100
AcDbCircle
 10
92.6995007796167
 20
58.3494628380532
 30
0.0
 40
0.069
  0
LINE
  5
C0EA
330
17
100
AcDbEntity
  8
0
100
AcDbLine
 10
92.7765007796167
 20
58.27566283805319
 30
0.0
 11
92.6225007796167
 21
58.27566283805319
 31
0.0
  0
LINE
  5
C0EB
330
17
100
AcDbEntity
  8
0
100
AcDbLine
 10
92.7765007796167
 20
58.1872628380532
 30
0.0
 11
92.6225007796167
 21
58.1872628380532
 31
0.0
  0
LINE
  5
C0EC
330
17
100
AcDbEntity
  8
0
100
AcDbLine
 10
92.6465007796167
 20
58.06128767494283
 30
0.0
 11
92.7525007796167
 21
58.06128767494283
 31
0.0
  0
LINE
  5
C0ED
330
17
100
AcDbEntity
  8
0
100
AcDbLine
 10
92.6465007796167
 20
58.0151257844144
 30
0.0
 11
92.7525007796167
 21
58.0151257844144
 31
0.0
  0
LINE
  5
C0EE
330
17
100
AcDbEntity
  8
0
100
AcDbLine
 10
92.6225007796167
 20
57.99778099502611
 30
0.0
 11
92.7765007796167
 21
57.99778099502611
 31
0.0
  0
LINE
  5
C0EF
330
17
100
AcDbEntity
  8
0
 62
     2
100
AcDbLine
 10
92.6010007796167
 20
58.4232628380532
 30
0.0
 11
92.6010007796167
 21
57.93126283805319
 31
0.0
  0
LINE
  5
C0F0
330
17
100
AcDbEntity
  8
0
 62
     2
100
AcDbLine
 10
92.4040007796167
 20
58.4232628380532
 30
0.0
 11
92.4040007796167
 21
57.93126283805319
 31
0.0
  0
LINE
  5
C0F1
330
17
100
AcDbEntity
  8
0
100
AcDbLine
 10
92.5795007796167
 20
58.1872628380532
 30
0.0
 11
92.4255007796167
 21
58.1872628380532
 31
0.0
  0
LINE
  5
C0F2
330
17
100
AcDbEntity
  8
0
100
AcDbLine
 10
92.4255007796167
 20
57.99778099502611
 30
0.0
 11
92.5795007796167
 21
57.99778099502611
 31
0.0
  0
LINE
  5
C0F3
330
17
100
AcDbEntity
  8
0
100
AcDbLine
 10
92.4495007796167
 20
58.06128767494283
 30
0.0
 11
92.5555007796167
 21
58.06128767494283
 31
0.0
  0
LINE
  5
C0F4
330
17
100
AcDbEntity
  8
0
100
AcDbLine
 10
92.4495007796167
 20
58.0151257844144
 30
0.0
 11
92.5555007796167
 21
58.0151257844144
 31
0.0
  0
LINE
  5
C0F5
330
17
100
AcDbEntity
  8
0
100
AcDbLine
 10
92.3585007796167
 20
58.1872628380532
 30
0.0
 11
92.3585007796167
 21
58.0151257844144
 31
0.0
  0
LINE
  5
C0F6
330
17
100
AcDbEntity
  8
0
100
AcDbLine
 10
92.4495007796167
 20
58.1872628380532
 30
0.0
 11
92.4495007796167
 21
58.0151257844144
 31
0.0
  0
LINE
  5
C0F7
330
17
100
AcDbEntity
  8
0
100
AcDbLine
 10
92.38250077961669
 20
58.1872628380532
 30
0.0
 11
92.38250077961669
 21
57.93126283805319
 31
0.0
  0
LINE
  5
C0F8
330
17
100
AcDbEntity
  8
0
100
AcDbLine
 10
92.4255007796167
 20
58.1872628380532
 30
0.0
 11
92.4255007796167
 21
57.93126283805319
 31
0.0
  0
LINE
  5
C0F9
330
17
100
AcDbEntity
  8
0
100
AcDbLine
 10
92.5555007796167
 20
58.1872628380532
 30
0.0
 11
92.5555007796167
 21
58.0151257844144
 31
0.0
  0
LINE
  5
C0FA
330
17
100
AcDbEntity
  8
0
100
AcDbLine
 10
92.6465007796167
 20
58.1872628380532
 30
0.0
 11
92.6465007796167
 21
58.0151257844144
 31
0.0
  0
LINE
  5
C0FB
330
17
100
AcDbEntity
  8
0
100
AcDbLine
 10
92.5795007796167
 20
58.1872628380532
 30
0.0
 11
92.5795007796167
 21
57.93126283805319
 31
0.0
  0
LINE
  5
C0FC
330
17
100
AcDbEntity
  8
0
100
AcDbLine
 10
92.6225007796167
 20
58.1872628380532
 30
0.0
 11
92.6225007796167
 21
57.93126283805319
 31
0.0
  0
CIRCLE
  5
C0FD
330
17
100
AcDbEntity
  8
0
100
AcDbCircle
 10
92.5025007796167
 20
58.3494628380532
 30
0.0
 40
0.069
  0
LINE
  5
C0FE
330
17
100
AcDbEntity
  8
0
100
AcDbLine
 10
92.54538727112148
 20
58.29666775481917
 30
0.0
 11
92.47048897880068
 21
58.40920562619223
 31
0.0
  0
LINE
  5
C0FF
330
17
100
AcDbEntity
  8
0
100
AcDbLine
 10
92.5795007796167
 20
58.27566283805319
 30
0.0
 11
92.4255007796167
 21
58.27566283805319
 31
0.0
  0
LINE
  5
C100
330
17
100
AcDbEntity
  8
0
100
AcDbLine
 10
92.53040763302525
 20
58.2866960453459
 30
0.0
 11
92.45693596078032
 21
58.39780938313532
 31
0.0
  0
LINE
  5
C101
330
17
100
AcDbEntity
  8
0
100
AcDbLine
 10
92.4040007796167
 20
58.36575815380991
 30
0.0
 11
92.38250077961669
 21
58.36575815380991
 31
0.0
  0
LINE
  5
C102
330
17
100
AcDbEntity
  8
0
100
AcDbLine
 10
92.4255007796167
 20
58.36575815380991
 30
0.0
 11
92.4040007796167
 21
58.36575815380991
 31
0.0
  0
LINE
  5
C103
330
17
100
AcDbEntity
  8
0
100
AcDbLine
 10
92.38250077961669
 20
58.4232628380532
 30
0.0
 11
92.38250077961669
 21
58.27566283805319
 31
0.0
  0
LINE
  5
C104
330
17
100
AcDbEntity
  8
0
100
AcDbLine
 10
92.4255007796167
 20
58.4232628380532
 30
0.0
 11
92.4255007796167
 21
58.27566283805321
 31
0.0
  0
LINE
  5
C105
330
17
100
AcDbEntity
  8
0
100
AcDbLine
 10
92.34838727112151
 20
58.29666775481917
 30
0.0
 11
92.27348897880071
 21
58.40920562619223
 31
0.0
  0
LINE
  5
C106
330
17
100
AcDbEntity
  8
0
100
AcDbLine
 10
92.3055007796167
 20
58.2804628380532
 30
0.0
 11
92.3055007796167
 21
58.2804628380532
 31
0.0
  0
LINE
  5
C107
330
17
100
AcDbEntity
  8
0
100
AcDbLine
 10
92.5795007796167
 20
58.4232628380532
 30
0.0
 11
92.5795007796167
 21
58.27566283805319
 31
0.0
  0
LINE
  5
C108
330
17
100
AcDbEntity
  8
0
100
AcDbLine
 10
92.6225007796167
 20
58.4232628380532
 30
0.0
 11
92.6225007796167
 21
58.27566283805321
 31
0.0
  0
LINE
  5
C109
330
17
100
AcDbEntity
  8
0
100
AcDbLine
 10
92.6010007796167
 20
58.36575815380991
 30
0.0
 11
92.5795007796167
 21
58.36575815380991
 31
0.0
  0
LINE
  5
C10A
330
17
100
AcDbEntity
  8
0
100
AcDbLine
 10
92.6225007796167
 20
58.36575815380991
 30
0.0
 11
92.6010007796167
 21
58.36575815380991
 31
0.0
  0
LINE
  5
C10B
330
17
100
AcDbEntity
  8
0
100
AcDbLine
 10
92.5025007796167
 20
58.2804628380532
 30
0.0
 11
92.5025007796167
 21
58.2804628380532
 31
0.0
  0
LINE
  5
C10C
330
17
100
AcDbEntity
  8
0
 62
     2
100
AcDbLine
 10
92.7980007796167
 20
58.4232628380532
 30
0.0
 11
92.7980007796167
 21
57.93126283805319
 31
0.0
  0
LINE
  5
C10D
330
17
100
AcDbEntity
  8
0
 62
     2
100
AcDbLine
 10
92.9950007796167
 20
58.4232628380532
 30
0.0
 11
92.9950007796167
 21
57.93126283805319
 31
0.0
  0
LINE
  5
C10E
330
17
100
AcDbEntity
  8
0
100
AcDbLine
 10
92.9735007796167
 20
58.1872628380532
 30
0.0
 11
92.81950077961671
 21
58.1872628380532
 31
0.0
  0
LINE
  5
C10F
330
17
100
AcDbEntity
  8
0
100
AcDbLine
 10
92.8435007796167
 20
58.06128767494283
 30
0.0
 11
92.9495007796167
 21
58.06128767494283
 31
0.0
  0
LINE
  5
C110
330
17
100
AcDbEntity
  8
0
100
AcDbLine
 10
92.8435007796167
 20
58.0151257844144
 30
0.0
 11
92.9495007796167
 21
58.0151257844144
 31
0.0
  0
LINE
  5
C111
330
17
100
AcDbEntity
  8
0
100
AcDbLine
 10
92.81950077961671
 20
57.99778099502611
 30
0.0
 11
92.9735007796167
 21
57.99778099502611
 31
0.0
  0
LINE
  5
C112
330
17
100
AcDbEntity
  8
0
100
AcDbLine
 10
92.7525007796167
 20
58.1872628380532
 30
0.0
 11
92.7525007796167
 21
58.0151257844144
 31
0.0
  0
LINE
  5
C113
330
17
100
AcDbEntity
  8
0
100
AcDbLine
 10
92.7765007796167
 20
58.1872628380532
 30
0.0
 11
92.7765007796167
 21
57.93126283805319
 31
0.0
  0
LINE
  5
C114
330
17
100
AcDbEntity
  8
0
100
AcDbLine
 10
92.8435007796167
 20
58.1872628380532
 30
0.0
 11
92.8435007796167
 21
58.0151257844144
 31
0.0
  0
LINE
  5
C115
330
17
100
AcDbEntity
  8
0
100
AcDbLine
 10
92.81950077961671
 20
58.1872628380532
 30
0.0
 11
92.81950077961671
 21
57.93126283805319
 31
0.0
  0
LINE
  5
C116
330
17
100
AcDbEntity
  8
0
100
AcDbLine
 10
92.9495007796167
 20
58.1872628380532
 30
0.0
 11
92.9495007796167
 21
58.0151257844144
 31
0.0
  0
LINE
  5
C117
330
17
100
AcDbEntity
  8
0
100
AcDbLine
 10
93.04050077961667
 20
58.1872628380532
 30
0.0
 11
93.04050077961667
 21
58.0151257844144
 31
0.0
  0
LINE
  5
C118
330
17
100
AcDbEntity
  8
0
100
AcDbLine
 10
92.9735007796167
 20
58.1872628380532
 30
0.0
 11
92.9735007796167
 21
57.93126283805319
 31
0.0
  0
LINE
  5
C119
330
17
100
AcDbEntity
  8
0
100
AcDbLine
 10
93.01650077961671
 20
58.1872628380532
 30
0.0
 11
93.01650077961667
 21
57.93126283805319
 31
0.0
  0
LINE
  5
C11A
330
17
100
AcDbEntity
  8
0
100
AcDbLine
 10
92.92440763302526
 20
58.2866960453459
 30
0.0
 11
92.85093596078032
 21
58.39780938313532
 31
0.0
  0
LINE
  5
C11B
330
17
100
AcDbEntity
  8
0
100
AcDbLine
 10
92.93938727112148
 20
58.29666775481917
 30
0.0
 11
92.86448897880068
 21
58.40920562619223
 31
0.0
  0
CIRCLE
  5
C11C
330
17
100
AcDbEntity
  8
0
100
AcDbCircle
 10
92.8965007796167
 20
58.3494628380532
 30
0.0
 40
0.069
  0
LINE
  5
C11D
330
17
100
AcDbEntity
  8
0
100
AcDbLine
 10
92.9735007796167
 20
58.27566283805319
 30
0.0
 11
92.81950077961671
 21
58.27566283805319
 31
0.0
  0
LINE
  5
C11E
330
17
100
AcDbEntity
  8
0
100
AcDbLine
 10
92.81950077961671
 20
58.4232628380532
 30
0.0
 11
92.81950077961671
 21
58.27566283805321
 31
0.0
  0
LINE
  5
C11F
330
17
100
AcDbEntity
  8
0
100
AcDbLine
 10
92.8965007796167
 20
58.2804628380532
 30
0.0
 11
92.8965007796167
 21
58.2804628380532
 31
0.0
  0
LINE
  5
C120
330
17
100
AcDbEntity
  8
0
100
AcDbLine
 10
92.7765007796167
 20
58.4232628380532
 30
0.0
 11
92.7765007796167
 21
58.27566283805319
 31
0.0
  0
LINE
  5
C121
330
17
100
AcDbEntity
  8
0
100
AcDbLine
 10
92.6995007796167
 20
58.2804628380532
 30
0.0
 11
92.6995007796167
 21
58.2804628380532
 31
0.0
  0
LINE
  5
C122
330
17
100
AcDbEntity
  8
0
100
AcDbLine
 10
92.7980007796167
 20
58.36575815380991
 30
0.0
 11
92.7765007796167
 21
58.36575815380991
 31
0.0
  0
LINE
  5
C123
330
17
100
AcDbEntity
  8
0
100
AcDbLine
 10
92.81950077961671
 20
58.36575815380991
 30
0.0
 11
92.7980007796167
 21
58.36575815380991
 31
0.0
  0
LINE
  5
C124
330
17
100
AcDbEntity
  8
0
100
AcDbLine
 10
92.9735007796167
 20
58.4232628380532
 30
0.0
 11
92.9735007796167
 21
58.27566283805319
 31
0.0
  0
LINE
  5
C125
330
17
100
AcDbEntity
  8
0
100
AcDbLine
 10
93.01650077961671
 20
58.4232628380532
 30
0.0
 11
93.01650077961671
 21
58.27566283805321
 31
0.0
  0
LINE
  5
C126
330
17
100
AcDbEntity
  8
0
100
AcDbLine
 10
93.09350077961667
 20
58.2804628380532
 30
0.0
 11
93.09350077961667
 21
58.2804628380532
 31
0.0
  0
LINE
  5
C127
330
17
100
AcDbEntity
  8
0
100
AcDbLine
 10
92.9950007796167
 20
58.36575815380991
 30
0.0
 11
92.9735007796167
 21
58.36575815380991
 31
0.0
  0
LINE
  5
C128
330
17
100
AcDbEntity
  8
0
100
AcDbLine
 10
93.01650077961667
 20
58.36575815380991
 30
0.0
 11
92.9950007796167
 21
58.36575815380991
 31
0.0
  0
LINE
  5
C129
330
17
100
AcDbEntity
  8
0
100
AcDbLine
 10
93.12140763302526
 20
58.2866960453459
 30
0.0
 11
93.04793596078033
 21
58.39780938313532
 31
0.0
  0
TEXT
  5
C12A
330
17
100
AcDbEntity
  8
0
 62
     2
100
AcDbText
 10
93.24956822196233
 20
58.19782096474269
 30
0.0
 40
0.07
  1
9
  7
ROMANS
 72
     4
 11
93.281234888629
 21
58.23282096474269
 31
0.0
100
AcDbText
  0
LINE
  5
C12B
330
17
100
AcDbEntity
  8
0
 62
     2
100
AcDbLine
 10
93.19200077961667
 20
58.4232628380532
 30
0.0
 11
93.19200077961671
 21
57.93126283805319
 31
0.0
  0
LINE
  5
C12C
330
17
100
AcDbEntity
  8
0
100
AcDbLine
 10
93.14650077961671
 20
58.1872628380532
 30
0.0
 11
93.14650077961671
 21
58.0151257844144
 31
0.0
  0
LINE
  5
C12D
330
17
100
AcDbEntity
  8
0
100
AcDbLine
 10
93.1705007796167
 20
58.1872628380532
 30
0.0
 11
93.1705007796167
 21
57.93126283805319
 31
0.0
  0
LINE
  5
C12E
330
17
100
AcDbEntity
  8
0
100
AcDbLine
 10
93.1705007796167
 20
58.4232628380532
 30
0.0
 11
93.1705007796167
 21
58.27566283805319
 31
0.0
  0
LINE
  5
C12F
330
17
100
AcDbEntity
  8
0
100
AcDbLine
 10
93.19200077961667
 20
58.36575815380991
 30
0.0
 11
93.1705007796167
 21
58.36575815380991
 31
0.0
  0
TEXT
  5
C130
330
17
100
AcDbEntity
  8
0
 62
     2
100
AcDbText
 10
93.64748106313626
 20
58.10960410001572
 30
0.0
 40
0.125
  1
TB1
  7
SIMPLEX
100
AcDbText
  0
TEXT
  5
C131
330
17
100
AcDbEntity
  8
0
100
AcDbText
 10
86.52374745284165
 20
54.196131513771
 30
0.0
 40
0.085
  1
7
  7
SIMPLEX
 72
     4
 11
86.55208078617498
 21
54.238631513771
 31
0.0
100
AcDbText
  0
LINE
  5
C132
330
17
100
AcDbEntity
  8
0
 62
     2
100
AcDbLine
 10
86.42708078617499
 20
55.33063151377099
 30
0.0
 11
86.42708078617499
 21
50.64607845268023
 31
0.0
  0
LINE
  5
C133
330
17
100
AcDbEntity
  8
0
 62
     2
100
AcDbLine
 10
86.67708078617499
 20
55.33063151377099
 30
0.0
 11
86.67708078617497
 21
50.64607845268023
 31
0.0
  0
TEXT
  5
C134
330
17
100
AcDbEntity
  8
0
100
AcDbText
 10
82.61277995393134
 20
54.19157845268022
 30
0.0
 40
0.085
  1
7
  7
SIMPLEX
 72
     4
 11
82.64111328726468
 21
54.23407845268022
 31
0.0
100
AcDbText
  0
LINE
  5
C135
330
17
100
AcDbEntity
  8
0
 62
     2
100
AcDbLine
 10
82.76611328726465
 20
50.64607845268023
 30
0.0
 11
82.76611328726467
 21
55.32607845268023
 31
0.0
  0
LINE
  5
C136
330
17
100
AcDbEntity
  8
0
 62
     2
100
AcDbLine
 10
82.51611328726465
 20
50.64607845268023
 30
0.0
 11
82.51611328726466
 21
55.32607845268023
 31
0.0
  0
LINE
  5
C137
330
17
100
AcDbEntity
  8
0
100
AcDbLine
 10
82.76611328726467
 20
51.89407845268023
 30
0.0
 11
86.42708078617499
 21
51.89407845268023
 31
0.0
  0
LINE
  5
C138
330
17
100
AcDbEntity
  8
0
100
AcDbLine
 10
82.76611328726467
 20
51.73807845268022
 30
0.0
 11
86.42708078617499
 21
51.73807845268022
 31
0.0
  0
LINE
  5
C139
330
17
100
AcDbEntity
  8
0
100
AcDbLine
 10
82.76611328726467
 20
51.58207845268023
 30
0.0
 11
86.42708078617499
 21
51.58207845268023
 31
0.0
  0
LINE
  5
C13A
330
17
100
AcDbEntity
  8
0
100
AcDbLine
 10
82.76611328726467
 20
51.42607845268023
 30
0.0
 11
86.42708078617499
 21
51.42607845268023
 31
0.0
  0
LINE
  5
C13B
330
17
100
AcDbEntity
  8
0
100
AcDbLine
 10
82.76611328726467
 20
51.27007845268023
 30
0.0
 11
86.42708078617499
 21
51.27007845268023
 31
0.0
  0
LINE
  5
C13C
330
17
100
AcDbEntity
  8
0
100
AcDbLine
 10
82.76611328726467
 20
51.11407845268023
 30
0.0
 11
86.42708078617499
 21
51.11407845268023
 31
0.0
  0
LINE
  5
C13D
330
17
100
AcDbEntity
  8
0
100
AcDbLine
 10
82.76611328726467
 20
50.95807845268023
 30
0.0
 11
86.42708078617499
 21
50.95807845268023
 31
0.0
  0
LINE
  5
C13E
330
17
100
AcDbEntity
  8
0
100
AcDbLine
 10
82.76611328726467
 20
50.80207845268024
 30
0.0
 11
86.42708078617499
 21
50.80207845268024
 31
0.0
  0
LINE
  5
C13F
330
17
100
AcDbEntity
  8
0
100
AcDbLine
 10
82.76611328726467
 20
53.92207845268022
 30
0.0
 11
86.42708078617499
 21
53.92207845268022
 31
0.0
  0
LINE
  5
C140
330
17
100
AcDbEntity
  8
0
100
AcDbLine
 10
82.76611328726467
 20
54.07807845268023
 30
0.0
 11
86.42708078617499
 21
54.07807845268023
 31
0.0
  0
LINE
  5
C141
330
17
100
AcDbEntity
  8
0
100
AcDbLine
 10
82.76611328726467
 20
52.36207845268022
 30
0.0
 11
86.42708078617499
 21
52.36207845268022
 31
0.0
  0
LINE
  5
C142
330
17
100
AcDbEntity
  8
0
100
AcDbLine
 10
82.76611328726467
 20
52.51807845268023
 30
0.0
 11
86.42708078617499
 21
52.51807845268023
 31
0.0
  0
LINE
  5
C143
330
17
100
AcDbEntity
  8
0
100
AcDbLine
 10
82.76611328726467
 20
52.67407845268023
 30
0.0
 11
86.42708078617499
 21
52.67407845268023
 31
0.0
  0
LINE
  5
C144
330
17
100
AcDbEntity
  8
0
100
AcDbLine
 10
82.76611328726467
 20
52.83007845268023
 30
0.0
 11
86.42708078617499
 21
52.83007845268023
 31
0.0
  0
LINE
  5
C145
330
17
100
AcDbEntity
  8
0
100
AcDbLine
 10
82.76611328726467
 20
52.98607845268023
 30
0.0
 11
86.42708078617499
 21
52.98607845268023
 31
0.0
  0
LINE
  5
C146
330
17
100
AcDbEntity
  8
0
100
AcDbLine
 10
82.76611328726467
 20
53.14207845268023
 30
0.0
 11
86.42708078617499
 21
53.14207845268023
 31
0.0
  0
LINE
  5
C147
330
17
100
AcDbEntity
  8
0
100
AcDbLine
 10
82.76611328726467
 20
53.29807845268023
 30
0.0
 11
86.42708078617499
 21
53.29807845268023
 31
0.0
  0
LINE
  5
C148
330
17
100
AcDbEntity
  8
0
100
AcDbLine
 10
82.76611328726467
 20
53.45407845268024
 30
0.0
 11
86.42708078617499
 21
53.45407845268024
 31
0.0
  0
LINE
  5
C149
330
17
100
AcDbEntity
  8
0
100
AcDbLine
 10
82.76611328726467
 20
53.61007845268023
 30
0.0
 11
86.42708078617499
 21
53.61007845268023
 31
0.0
  0
LINE
  5
C14A
330
17
100
AcDbEntity
  8
0
100
AcDbLine
 10
82.76611328726467
 20
52.05007845268023
 30
0.0
 11
86.42708078617499
 21
52.05007845268023
 31
0.0
  0
TEXT
  5
C14B
330
17
100
AcDbEntity
  8
0
100
AcDbText
 10
82.57230376345516
 20
51.53957845268023
 30
0.0
 40
0.085
  1
22
  7
SIMPLEX
 72
     4
 11
82.64111328726468
 21
51.58207845268023
 31
0.0
100
AcDbText
  0
TEXT
  5
C14C
330
17
100
AcDbEntity
  8
0
100
AcDbText
 10
82.55111328726467
 20
50.77207845268023
 30
0.0
 40
0.06
  1
SHELL
 41
0.7
  7
SIMPLEX
 72
     4
 11
82.64111328726468
 21
50.80207845268023
 31
0.0
100
AcDbText
  0
LINE
  5
C14D
330
17
100
AcDbEntity
  8
0
 62
     2
100
AcDbLine
 10
82.51611328726465
 20
50.64607845268023
 30
0.0
 11
82.76611328726465
 21
50.64607845268023
 31
0.0
  0
TEXT
  5
C14E
330
17
100
AcDbEntity
  8
0
100
AcDbText
 10
82.57027995393134
 20
51.22757845268022
 30
0.0
 40
0.085
  1
24
  7
SIMPLEX
 72
     4
 11
82.64111328726468
 21
51.27007845268022
 31
0.0
100
AcDbText
  0
TEXT
  5
C14F
330
17
100
AcDbEntity
  8
0
100
AcDbText
 10
82.57432757297896
 20
50.91557845268023
 30
0.0
 40
0.085
  1
26
  7
SIMPLEX
 72
     4
 11
82.64111328726468
 21
50.95807845268023
 31
0.0
100
AcDbText
  0
TEXT
  5
C150
330
17
100
AcDbEntity
  8
0
100
AcDbText
 10
82.57230376345516
 20
51.07157845268023
 30
0.0
 40
0.085
  1
25
  7
SIMPLEX
 72
     4
 11
82.64111328726468
 21
51.11407845268023
 31
0.0
100
AcDbText
  0
TEXT
  5
C151
330
17
100
AcDbEntity
  8
0
100
AcDbText
 10
82.57230376345516
 20
51.38357845268023
 30
0.0
 40
0.085
  1
23
  7
SIMPLEX
 72
     4
 11
82.64111328726468
 21
51.42607845268023
 31
0.0
100
AcDbText
  0
TEXT
  5
C152
330
17
100
AcDbEntity
  8
0
100
AcDbText
 10
82.57230376345516
 20
51.85157845268023
 30
0.0
 40
0.085
  1
20
  7
SIMPLEX
 72
     4
 11
82.64111328726468
 21
51.89407845268023
 31
0.0
100
AcDbText
  0
TEXT
  5
C153
330
17
100
AcDbEntity
  8
0
100
AcDbText
 10
82.59051804916943
 20
51.69557845268023
 30
0.0
 40
0.085
  1
21
  7
SIMPLEX
 72
     4
 11
82.64111328726468
 21
51.73807845268022
 31
0.0
100
AcDbText
  0
TEXT
  5
C154
330
17
100
AcDbEntity
  8
0
100
AcDbText
 10
82.58242281107419
 20
52.00757845268022
 30
0.0
 40
0.085
  1
19
  7
SIMPLEX
 72
     4
 11
82.64111328726468
 21
52.05007845268022
 31
0.0
100
AcDbText
  0
TEXT
  5
C155
330
17
100
AcDbEntity
  8
0
100
AcDbText
 10
82.58039900155038
 20
52.47557845268023
 30
0.0
 40
0.085
  1
17
  7
SIMPLEX
 72
     4
 11
82.64111328726468
 21
52.51807845268023
 31
0.0
100
AcDbText
  0
TEXT
  5
C156
330
17
100
AcDbEntity
  8
0
100
AcDbText
 10
82.58039900155038
 20
52.31957845268023
 30
0.0
 40
0.085
  1
18
  7
SIMPLEX
 72
     4
 11
82.64111328726468
 21
52.36207845268022
 31
0.0
100
AcDbText
  0
TEXT
  5
C157
330
17
100
AcDbEntity
  8
0
100
AcDbText
 10
82.58039900155038
 20
52.78757845268023
 30
0.0
 40
0.085
  1
15
  7
SIMPLEX
 72
     4
 11
82.64111328726468
 21
52.83007845268023
 31
0.0
100
AcDbText
  0
TEXT
  5
C158
330
17
100
AcDbEntity
  8
0
100
AcDbText
 10
82.58242281107419
 20
52.63157845268023
 30
0.0
 40
0.085
  1
16
  7
SIMPLEX
 72
     4
 11
82.64111328726468
 21
52.67407845268023
 31
0.0
100
AcDbText
  0
TEXT
  5
C159
330
17
100
AcDbEntity
  8
0
100
AcDbText
 10
82.58039900155038
 20
53.09957845268023
 30
0.0
 40
0.085
  1
13
  7
SIMPLEX
 72
     4
 11
82.64111328726468
 21
53.14207845268022
 31
0.0
100
AcDbText
  0
TEXT
  5
C15A
330
17
100
AcDbEntity
  8
0
100
AcDbText
 10
82.57837519202658
 20
52.94357845268024
 30
0.0
 40
0.085
  1
14
  7
SIMPLEX
 72
     4
 11
82.64111328726468
 21
52.98607845268023
 31
0.0
100
AcDbText
  0
TEXT
  5
C15B
330
17
100
AcDbEntity
  8
0
100
AcDbText
 10
82.59861328726467
 20
53.41157845268023
 30
0.0
 40
0.085
  1
11
  7
SIMPLEX
 72
     4
 11
82.64111328726468
 21
53.45407845268023
 31
0.0
100
AcDbText
  0
TEXT
  5
C15C
330
17
100
AcDbEntity
  8
0
100
AcDbText
 10
82.58039900155038
 20
53.25557845268023
 30
0.0
 40
0.085
  1
12
  7
SIMPLEX
 72
     4
 11
82.64111328726468
 21
53.29807845268023
 31
0.0
100
AcDbText
  0
TEXT
  5
C15D
330
17
100
AcDbEntity
  8
0
100
AcDbText
 10
82.61480376345515
 20
53.87957845268022
 30
0.0
 40
0.085
  1
9
  7
SIMPLEX
 72
     4
 11
82.64111328726468
 21
53.92207845268022
 31
0.0
100
AcDbText
  0
TEXT
  5
C15E
330
17
100
AcDbEntity
  8
0
100
AcDbText
 10
82.58039900155038
 20
53.56757845268023
 30
0.0
 40
0.085
  1
10
  7
SIMPLEX
 72
     4
 11
82.64111328726468
 21
53.61007845268023
 31
0.0
100
AcDbText
  0
TEXT
  5
C15F
330
17
100
AcDbEntity
  8
0
100
AcDbText
 10
82.61277995393134
 20
54.03557845268023
 30
0.0
 40
0.085
  1
8
  7
SIMPLEX
 72
     4
 11
82.64111328726468
 21
54.07807845268023
 31
0.0
100
AcDbText
  0
TEXT
  5
C160
330
17
100
AcDbEntity
  8
0
100
AcDbText
 10
86.48327126236546
 20
51.544131513771
 30
0.0
 40
0.085
  1
22
  7
SIMPLEX
 72
     4
 11
86.55208078617498
 21
51.58663151377099
 31
0.0
100
AcDbText
  0
LINE
  5
C161
330
17
100
AcDbEntity
  8
0
 62
     2
100
AcDbLine
 10
86.42708078617499
 20
50.64607845268023
 30
0.0
 11
86.67708078617497
 21
50.64607845268023
 31
0.0
  0
TEXT
  5
C162
330
17
100
AcDbEntity
  8
0
100
AcDbText
 10
86.52374745284165
 20
50.76413151377099
 30
0.0
 40
0.085
  1
S
  7
SIMPLEX
 72
     4
 11
86.55208078617498
 21
50.80663151377099
 31
0.0
100
AcDbText
  0
TEXT
  5
C163
330
17
100
AcDbEntity
  8
0
100
AcDbText
 10
86.48327126236546
 20
51.076131513771
 30
0.0
 40
0.085
  1
25
  7
SIMPLEX
 72
     4
 11
86.55208078617498
 21
51.118631513771
 31
0.0
100
AcDbText
  0
TEXT
  5
C164
330
17
100
AcDbEntity
  8
0
100
AcDbText
 10
86.48529507188927
 20
50.920131513771
 30
0.0
 40
0.085
  1
26
  7
SIMPLEX
 72
     4
 11
86.55208078617498
 21
50.962631513771
 31
0.0
100
AcDbText
  0
TEXT
  5
C165
330
17
100
AcDbEntity
  8
0
100
AcDbText
 10
86.48327126236546
 20
51.388131513771
 30
0.0
 40
0.085
  1
23
  7
SIMPLEX
 72
     4
 11
86.55208078617498
 21
51.43063151377099
 31
0.0
100
AcDbText
  0
TEXT
  5
C166
330
17
100
AcDbEntity
  8
0
100
AcDbText
 10
86.48124745284164
 20
51.232131513771
 30
0.0
 40
0.085
  1
24
  7
SIMPLEX
 72
     4
 11
86.55208078617498
 21
51.27463151377099
 31
0.0
100
AcDbText
  0
TEXT
  5
C167
330
17
100
AcDbEntity
  8
0
100
AcDbText
 10
86.48327126236546
 20
51.85613151377101
 30
0.0
 40
0.085
  1
20
  7
SIMPLEX
 72
     4
 11
86.55208078617498
 21
51.898631513771
 31
0.0
100
AcDbText
  0
TEXT
  5
C168
330
17
100
AcDbEntity
  8
0
100
AcDbText
 10
86.50148554807975
 20
51.70013151377101
 30
0.0
 40
0.085
  1
21
  7
SIMPLEX
 72
     4
 11
86.55208078617498
 21
51.742631513771
 31
0.0
100
AcDbText
  0
LINE
  5
C169
330
17
100
AcDbEntity
  8
0
 62
     2
100
AcDbLine
 10
86.42708078617497
 20
52.20607845268023
 30
0.0
 11
86.67708078617495
 21
52.20607845268023
 31
0.0
  0
TEXT
  5
C16A
330
17
100
AcDbEntity
  8
0
100
AcDbText
 10
86.49339030998451
 20
52.012131513771
 30
0.0
 40
0.085
  1
19
  7
SIMPLEX
 72
     4
 11
86.55208078617498
 21
52.054631513771
 31
0.0
100
AcDbText
  0
TEXT
  5
C16B
330
17
100
AcDbEntity
  8
0
100
AcDbText
 10
86.4913665004607
 20
52.48013151377101
 30
0.0
 40
0.085
  1
17
  7
SIMPLEX
 72
     4
 11
86.55208078617498
 21
52.522631513771
 31
0.0
100
AcDbText
  0
TEXT
  5
C16C
330
17
100
AcDbEntity
  8
0
100
AcDbText
 10
86.4913665004607
 20
52.324131513771
 30
0.0
 40
0.085
  1
18
  7
SIMPLEX
 72
     4
 11
86.55208078617498
 21
52.366631513771
 31
0.0
100
AcDbText
  0
TEXT
  5
C16D
330
17
100
AcDbEntity
  8
0
100
AcDbText
 10
86.4913665004607
 20
52.792131513771
 30
0.0
 40
0.085
  1
15
  7
SIMPLEX
 72
     4
 11
86.55208078617498
 21
52.834631513771
 31
0.0
100
AcDbText
  0
TEXT
  5
C16E
330
17
100
AcDbEntity
  8
0
100
AcDbText
 10
86.49339030998451
 20
52.636131513771
 30
0.0
 40
0.085
  1
16
  7
SIMPLEX
 72
     4
 11
86.55208078617498
 21
52.67863151377099
 31
0.0
100
AcDbText
  0
TEXT
  5
C16F
330
17
100
AcDbEntity
  8
0
100
AcDbText
 10
86.4913665004607
 20
53.104131513771
 30
0.0
 40
0.085
  1
13
  7
SIMPLEX
 72
     4
 11
86.55208078617498
 21
53.146631513771
 31
0.0
100
AcDbText
  0
TEXT
  5
C170
330
17
100
AcDbEntity
  8
0
100
AcDbText
 10
86.4893426909369
 20
52.948131513771
 30
0.0
 40
0.085
  1
14
  7
SIMPLEX
 72
     4
 11
86.55208078617498
 21
52.990631513771
 31
0.0
100
AcDbText
  0
TEXT
  5
C171
330
17
100
AcDbEntity
  8
0
100
AcDbText
 10
86.50958078617497
 20
53.41613151377099
 30
0.0
 40
0.085
  1
11
  7
SIMPLEX
 72
     4
 11
86.55208078617498
 21
53.45863151377099
 31
0.0
100
AcDbText
  0
TEXT
  5
C172
330
17
100
AcDbEntity
  8
0
100
AcDbText
 10
86.4913665004607
 20
53.260131513771
 30
0.0
 40
0.085
  1
12
  7
SIMPLEX
 72
     4
 11
86.55208078617498
 21
53.30263151377099
 31
0.0
100
AcDbText
  0
TEXT
  5
C173
330
17
100
AcDbEntity
  8
0
100
AcDbText
 10
86.52577126236545
 20
53.884131513771
 30
0.0
 40
0.085
  1
9
  7
SIMPLEX
 72
     4
 11
86.55208078617498
 21
53.92663151377099
 31
0.0
100
AcDbText
  0
TEXT
  5
C174
330
17
100
AcDbEntity
  8
0
100
AcDbText
 10
86.4913665004607
 20
53.572131513771
 30
0.0
 40
0.085
  1
10
  7
SIMPLEX
 72
     4
 11
86.55208078617498
 21
53.614631513771
 31
0.0
100
AcDbText
  0
LINE
  5
C175
330
17
100
AcDbEntity
  8
0
 62
     2
100
AcDbLine
 10
86.42708078617499
 20
53.76607845268023
 30
0.0
 11
86.67708078617497
 21
53.76607845268022
 31
0.0
  0
TEXT
  5
C176
330
17
100
AcDbEntity
  8
0
100
AcDbText
 10
86.52374745284165
 20
54.040131513771
 30
0.0
 40
0.085
  1
8
  7
SIMPLEX
 72
     4
 11
86.55208078617498
 21
54.082631513771
 31
0.0
100
AcDbText
  0
TEXT
  5
C177
330
17
100
AcDbEntity
  8
0
 62
     2
100
AcDbText
 10
83.85402130606358
 20
55.55050960967021
 30
0.0
 40
0.1131531972483705
  1
WIRING DIAGRAM
  7
SIMPLEX
 72
     4
 11
84.53832873704183
 21
55.60708620829439
 31
0.0
100
AcDbText
  0
LINE
  5
C178
330
17
100
AcDbEntity
  8
0
100
AcDbLine
 10
82.76611328726467
 20
54.39007845268022
 30
0.0
 11
86.42708078617499
 21
54.39007845268022
 31
0.0
  0
LINE
  5
C179
330
17
100
AcDbEntity
  8
0
100
AcDbLine
 10
82.76611328726467
 20
54.54607845268023
 30
0.0
 11
86.42708078617499
 21
54.54607845268023
 31
0.0
  0
LINE
  5
C17A
330
17
100
AcDbEntity
  8
0
100
AcDbLine
 10
82.76611328726467
 20
54.70207845268022
 30
0.0
 11
86.42708078617499
 21
54.70207845268022
 31
0.0
  0
LINE
  5
C17B
330
17
100
AcDbEntity
  8
0
100
AcDbLine
 10
82.76611328726467
 20
54.85807845268023
 30
0.0
 11
86.42708078617499
 21
54.85807845268023
 31
0.0
  0
LINE
  5
C17C
330
17
100
AcDbEntity
  8
0
100
AcDbLine
 10
82.76611328726467
 20
55.01407845268023
 30
0.0
 11
86.42708078617499
 21
55.01407845268023
 31
0.0
  0
LINE
  5
C17D
330
17
100
AcDbEntity
  8
0
100
AcDbLine
 10
82.76611328726467
 20
55.17007845268023
 30
0.0
 11
86.42708078617499
 21
55.17007845268023
 31
0.0
  0
LINE
  5
C17E
330
17
100
AcDbEntity
  8
0
100
AcDbLine
 10
82.76611328726467
 20
54.23407845268023
 30
0.0
 11
86.42708078617499
 21
54.23407845268023
 31
0.0
  0
TEXT
  5
C17F
330
17
100
AcDbEntity
  8
0
100
AcDbText
 10
82.61277995393134
 20
54.81557845268023
 30
0.0
 40
0.085
  1
3
  7
SIMPLEX
 72
     4
 11
82.64111328726468
 21
54.85807845268023
 31
0.0
100
AcDbText
  0
TEXT
  5
C180
330
17
100
AcDbEntity
  8
0
100
AcDbText
 10
82.61277995393134
 20
54.50357845268023
 30
0.0
 40
0.085
  1
5
  7
SIMPLEX
 72
     4
 11
82.64111328726468
 21
54.54607845268022
 31
0.0
100
AcDbText
  0
TEXT
  5
C181
330
17
100
AcDbEntity
  8
0
100
AcDbText
 10
82.61480376345515
 20
54.34757845268023
 30
0.0
 40
0.085
  1
6
  7
SIMPLEX
 72
     4
 11
82.64111328726468
 21
54.39007845268022
 31
0.0
100
AcDbText
  0
TEXT
  5
C182
330
17
100
AcDbEntity
  8
0
100
AcDbText
 10
82.61075614440754
 20
54.65957845268023
 30
0.0
 40
0.085
  1
4
  7
SIMPLEX
 72
     4
 11
82.64111328726468
 21
54.70207845268022
 31
0.0
100
AcDbText
  0
TEXT
  5
C183
330
17
100
AcDbEntity
  8
0
100
AcDbText
 10
82.63099423964563
 20
55.12757845268023
 30
0.0
 40
0.085
  1
1
  7
SIMPLEX
 72
     4
 11
82.64111328726468
 21
55.17007845268023
 31
0.0
100
AcDbText
  0
TEXT
  5
C184
330
17
100
AcDbEntity
  8
0
100
AcDbText
 10
82.61277995393134
 20
54.97157845268023
 30
0.0
 40
0.085
  1
2
  7
SIMPLEX
 72
     4
 11
82.64111328726468
 21
55.01407845268023
 31
0.0
100
AcDbText
  0
LINE
  5
C185
330
17
100
AcDbEntity
  8
0
 62
     2
100
AcDbLine
 10
82.76611328726467
 20
55.32607845268023
 30
0.0
 11
82.51611328726466
 21
55.32607845268023
 31
0.0
  0
TEXT
  5
C186
330
17
100
AcDbEntity
  8
0
100
AcDbText
 10
86.52374745284165
 20
54.82013151377099
 30
0.0
 40
0.085
  1
3
  7
SIMPLEX
 72
     4
 11
86.55208078617498
 21
54.86263151377099
 31
0.0
100
AcDbText
  0
TEXT
  5
C187
330
17
100
AcDbEntity
  8
0
100
AcDbText
 10
86.52374745284165
 20
54.508131513771
 30
0.0
 40
0.085
  1
5
  7
SIMPLEX
 72
     4
 11
86.55208078617498
 21
54.550631513771
 31
0.0
100
AcDbText
  0
TEXT
  5
C188
330
17
100
AcDbEntity
  8
0
100
AcDbText
 10
86.52577126236545
 20
54.352131513771
 30
0.0
 40
0.085
  1
6
  7
SIMPLEX
 72
     4
 11
86.55208078617498
 21
54.394631513771
 31
0.0
100
AcDbText
  0
TEXT
  5
C189
330
17
100
AcDbEntity
  8
0
100
AcDbText
 10
86.52172364331784
 20
54.664131513771
 30
0.0
 40
0.085
  1
4
  7
SIMPLEX
 72
     4
 11
86.55208078617498
 21
54.706631513771
 31
0.0
100
AcDbText
  0
TEXT
  5
C18A
330
17
100
AcDbEntity
  8
0
100
AcDbText
 10
86.54196173855593
 20
55.132131513771
 30
0.0
 40
0.085
  1
1
  7
SIMPLEX
 72
     4
 11
86.55208078617498
 21
55.174631513771
 31
0.0
100
AcDbText
  0
TEXT
  5
C18B
330
17
100
AcDbEntity
  8
0
100
AcDbText
 10
86.52374745284165
 20
54.976131513771
 30
0.0
 40
0.085
  1
2
  7
SIMPLEX
 72
     4
 11
86.55208078617498
 21
55.018631513771
 31
0.0
100
AcDbText
  0
LINE
  5
C18C
330
17
100
AcDbEntity
  8
0
 62
     2
100
AcDbLine
 10
86.67708078617499
 20
55.33063151377099
 30
0.0
 11
86.42708078617499
 21
55.33063151377099
 31
0.0
  0
LINE
  5
C263
330
17
100
AcDbEntity
  8
0
 62
     4
100
AcDbLine
 10
84.5817979627275
 20
57.75061101843331
 30
0.0
 11
85.7077979627275
 21
57.75061101843331
 31
0.0
  0
LINE
  5
C264
330
17
100
AcDbEntity
  8
0
 62
     4
100
AcDbLine
 10
84.5817979627275
 20
58.12661101843332
 30
0.0
 11
85.7077979627275
 21
58.12661101843332
 31
0.0
  0
TEXT
  5
C265
330
17
100
AcDbEntity
  8
0
100
AcDbText
 10
84.80479796272748
 20
57.98822520315708
 30
0.0
 40
0.08
  1
M.1302.6971
 72
     4
 11
85.14479796272748
 21
58.02822520315707
 31
0.0
100
AcDbText
  0
TEXT
  5
C266
330
17
100
AcDbEntity
  8
0
100
AcDbText
 10
84.86479796272748
 20
57.8266186216781
 30
0.0
 40
0.08
  1
(DATE CODE)
 41
0.7
 72
     4
 11
85.14479796272748
 21
57.8666186216781
 31
0.0
100
AcDbText
  0
LINE
  5
C278
330
17
100
AcDbEntity
  8
0
 62
     4
100
AcDbLine
 10
85.76979796272748
 20
58.06461101843332
 30
0.0
 11
85.76979796272748
 21
57.81261101843333
 31
0.0
  0
ARC
  5
C279
330
17
100
AcDbEntity
  8
0
 62
     4
100
AcDbCircle
 10
85.70779796272748
 20
57.8126110184333
 30
0.0
 40
0.062
100
AcDbArc
 50
269.9999999999996
 51
0.0000000000032774
  0
ARC
  5
C27A
330
17
100
AcDbEntity
  8
0
 62
     4
100
AcDbCircle
 10
85.70779796272748
 20
58.06461101843331
 30
0.0
 40
0.062
100
AcDbArc
 50
0.0000000000032774
 51
90.0
  0
ARC
  5
C27B
330
17
100
AcDbEntity
  8
0
 62
     4
100
AcDbCircle
 10
84.58179796272748
 20
58.06461101843331
 30
0.0
 40
0.062
100
AcDbArc
 50
90.0
 51
180.0000000000032
  0
ARC
  5
C27C
330
17
100
AcDbEntity
  8
0
 62
     4
100
AcDbCircle
 10
84.5817979627275
 20
57.81261101843333
 30
0.0
 40
0.062
100
AcDbArc
 50
180.0000000000032
 51
270.0
  0
LINE
  5
C27F
330
17
100
AcDbEntity
  8
0
 62
     4
100
AcDbLine
 10
84.51979796272748
 20
58.06461101843331
 30
0.0
 11
84.5197979627275
 21
57.81261101843331
 31
0.0
  0
TEXT
  5
C2AC
330
17
100
AcDbEntity
  8
0
 62
     2
100
AcDbText
 10
81.97257448307668
 20
52.93320640364187
 30
0.0
 40
0.125
  1
P1
  7
SIMPLEX
100
AcDbText
  0
TEXT
  5
C2AD
330
17
100
AcDbEntity
  8
0
 62
     2
100
AcDbText
 10
87.01790759912304
 20
54.58113904177497
 30
0.0
 40
0.125
  1
TB1
  7
SIMPLEX
100
AcDbText
  0
TEXT
  5
C2AE
330
17
100
AcDbEntity
  8
0
 62
     2
100
AcDbText
 10
87.01790759912306
 20
52.89338142914887
 30
0.0
 40
0.125
  1
TB2
  7
SIMPLEX
100
AcDbText
  0
TEXT
  5
C2AF
330
17
100
AcDbEntity
  8
0
 62
     2
100
AcDbText
 10
87.01790759912309
 20
51.38204711543506
 30
0.0
 40
0.125
  1
TB3
  7
SIMPLEX
100
AcDbText
  0
ENDSEC
  0
SECTION
  2
OBJECTS
  0
DICTIONARY
  5
C
330
0
100
AcDbDictionary
281
     1
  3
ABNSLEADERTOOLS
350
15DA
  3
ACAD_GROUP
350
D
  3
ACAD_LAYOUT
350
15DF
  3
ACAD_MLINESTYLE
350
1A
  3
ACAD_PLOTSETTINGS
350
15E0
  3
ACAD_PLOTSTYLENAME
350
15DD
  3
ACDBHEADERROUNDTRIPXREC
350
C33A
  3
ACDBVARIABLEDICTIONARY
350
2E
  3
AcmDictionary
350
C2D5
  3
AMG
350
C2BB
  3
AMGSNAPSETTINGS
350
C306
  3
ASE_INDEX_DICTIONARY
350
ADF7
  3
DWGPROPS
350
C337
  0
DICTIONARY
  5
C309
330
17
100
AcDbDictionary
280
     1
281
     1
  3
ACAD_INDEX
360
C30A
  0
XRECORD
  5
15DA
102
{ACAD_REACTORS
330
C
102
}
330
C
100
AcDbXrecord
280
     1
1001
AbnsLeaderTools
1071
 97072200
1070
     0
1070
     2
1070
     0
1070
     0
1070
     1
1070
     3
1070
     1
1070
     3
1070
     0
1070
     0
1070
     0
1070
     0
1071
        0
  0
DICTIONARY
  5
D
102
{ACAD_REACTORS
330
C
102
}
330
C
100
AcDbDictionary
281
     1
  0
DICTIONARY
  5
15DF
102
{ACAD_REACTORS
330
C
102
}
330
C
100
AcDbDictionary
281
     1
  3
Layout1
350
15E2
  3
Model
350
15E1
  0
DICTIONARY
  5
1A
102
{ACAD_REACTORS
330
C
102
}
330
C
100
AcDbDictionary
281
     1
  3
STANDARD
350
1B
  0
DICTIONARY
  5
15E0
102
{ACAD_REACTORS
330
C
102
}
330
C
100
AcDbDictionary
281
     1
  0
ACDBDICTIONARYWDFLT
  5
15DD
102
{ACAD_REACTORS
330
C
102
}
330
C
100
AcDbDictionary
281
     1
  3
Normal
350
15DE
100
AcDbDictionaryWithDefault
340
15DE
  0
DICTIONARY
  5
C33A
102
{ACAD_REACTORS
330
C
102
}
330
C
100
AcDbDictionary
281
     1
  3
CEPSNTYPE
350
C344
  3
DIMSTYLEDATA
350
C348
  3
FINGERPRINTGUID
350
C345
  3
HYPERLINKBASE
350
C33D
  3
INSUNITS
350
C343
  3
LAYOUTDICT
350
C33F
  3
LWETCUNION
350
C342
  3
PLOTSETDICT
350
C340
  3
PLOTSTYLNAMDICT
350
C341
  3
PSVPSCALE
350
C347
  3
PUCSBASE
350
C34B
  3
PUCSORGBACK
350
C351
  3
PUCSORGBOTTOM
350
C34D
  3
PUCSORGFRONT
350
C350
  3
PUCSORGLEFT
350
C34E
  3
PUCSORGRIGHT
350
C34F
  3
PUCSORGTOP
350
C34C
  3
PUCSORTHOREF
350
C349
  3
PUCSORTHOVIEW
350
C34A
  3
STYLESHEET
350
C33E
  3
TSTACKALIGN
350
C33B
  3
TSTACKSIZE
350
C33C
  3
UCSBASE
350
C354
  3
UCSORGBACK
350
C35A
  3
UCSORGBOTTOM
350
C356
  3
UCSORGFRONT
350
C359
  3
UCSORGLEFT
350
C357
  3
UCSORGRIGHT
350
C358
  3
UCSORGTOP
350
C355
  3
UCSORTHOREF
350
C352
  3
UCSORTHOVIEW
350
C353
  3
VERSIONGUID
350
C346
  0
DICTIONARY
  5
2E
102
{ACAD_REACTORS
330
C
102
}
330
C
100
AcDbDictionary
281
     1
  3
DIMADEC
350
2F
  3
DIMASSOC
350
C313
  3
INDEXCTL
350
C312
  0
DICTIONARY
  5
C2D5
102
{ACAD_REACTORS
330
C
102
}
330
C
100
AcDbDictionary
281
     1
  3
AcmStdDictionary
350
C2DB
  0
DICTIONARY
  5
C2BB
102
{ACAD_REACTORS
330
C
102
}
330
C
100
AcDbDictionary
281
     1
  3
AcMgSettings
350
C2BC
  0
DICTIONARY
  5
C306
102
{ACAD_REACTORS
330
C
102
}
330
C
100
AcDbDictionary
281
     1
  3
HATCH (1)
350
C307
  3
HATCH (2)
350
C308
  0
DICTIONARY
  5
ADF7
102
{ACAD_REACTORS
330
C
102
}
330
C
100
AcDbDictionary
281
     1
  3
ASEBlockHierarchyIndexRecord
350
ADF9
1001
DCO15
1040
1424065820.29
  0
XRECORD
  5
C337
102
{ACAD_REACTORS
330
C
102
}
330
C
100
AcDbXrecord
280
     1
  1
DWGPROPS COOKIE
  2

  3

  4

  6

  7

  8

  9

300
AmdtFileType=84
301
=
302
=
303
=
304
=
305
=
306
=
307
=
308
=
309
=
 40
1.70640199074074
 41
2450133.646804166
 42
2452888.363352812
  1

 90
        1
  0
DICTIONARY
  5
C30A
102
{ACAD_REACTORS
330
C309
102
}
330
C309
100
AcDbDictionary
281
     1
  3
*A1
350
C30B
  0
LAYOUT
  5
15E2
102
{ACAD_REACTORS
330
15DF
102
}
330
15DF
100
AcDbPlotSettings
  1

  2
C:\PROGRAM FILES\AUTOCAD R14\plotters\HP DesignJet 750C_ (E_A0) by HP.pc3
  4

  6

 40
0.0
 41
0.0
 42
0.0
 43
0.0
 44
0.0
 45
0.0
 46
0.0
 47
0.0
 48
0.0
 49
0.0
140
0.0
141
0.0
142
1.0
143
1.0
 70
   688
 72
     0
 73
     0
 74
     5
  7
monochrome.ctb
 75
    16
147
1.0
148
0.0
149
0.0
100
AcDbLayout
  1
Layout1
 70
     1
 71
     1
 10
0.0
 20
0.0
 11
12.0
 21
9.0
 12
0.0
 22
0.0
 32
0.0
 14
1.000000000000000E+20
 24
1.000000000000000E+20
 34
1.000000000000000E+20
 15
-1.000000000000000E+20
 25
-1.000000000000000E+20
 35
-1.000000000000000E+20
146
0.0
 13
0.0
 23
0.0
 33
0.0
 16
1.0
 26
0.0
 36
0.0
 17
0.0
 27
1.0
 37
0.0
 76
     0
330
14
  0
LAYOUT
  5
15E1
102
{ACAD_REACTORS
330
15DF
102
}
330
15DF
100
AcDbPlotSettings
  1

  2
\\Fdlfs06\Engineering - HP LaserJet 5Si MX
  4
Letter
  6

 40
7.143749713897705
 41
6.974400997161865
 42
7.14373779296875
 43
6.297088623046875
 44
215.8999938964843
 45
279.3999938964843
 46
14.73199999999999
 47
0.0
 48
23.254315
 49
0.516803
140
45.25431499999999
141
17.516803
142
1.0
143
1.623569519131891
 70
 11956
 72
     0
 73
     1
 74
     1
  7
monochrome.ctb
 75
     0
147
0.6159268132446162
148
-2046.48087064441
149
-1264.296347315288
100
AcDbLayout
  1
Model
 70
     1
 71
     0
 10
0.0
 20
0.0
 11
12.0
 21
9.0
 12
0.0
 22
0.0
 32
0.0
 14
0.0
 24
0.0
 34
0.0
 15
0.0
 25
0.0
 35
0.0
146
0.0
 13
0.0
 23
0.0
 33
0.0
 16
1.0
 26
0.0
 36
0.0
 17
0.0
 27
1.0
 37
0.0
 76
     0
330
17
  0
MLINESTYLE
  5
1B
102
{ACAD_REACTORS
330
1A
102
}
330
1A
100
AcDbMlineStyle
  2
STANDARD
 70
     0
  3

 62
   256
 51
90.0
 52
90.0
 71
     2
 49
0.5
 62
   256
  6
BYLAYER
 49
-0.5
 62
   256
  6
BYLAYER
  0
ACDBPLACEHOLDER
  5
15DE
102
{ACAD_REACTORS
330
15DD
102
}
330
15DD
  0
XRECORD
  5
C344
102
{ACAD_REACTORS
330
C33A
102
}
330
C33A
100
AcDbXrecord
280
     1
 90
        0
  0
XRECORD
  5
C348
102
{ACAD_REACTORS
330
C33A
102
}
330
C33A
100
AcDbXrecord
280
     1
1000
DSTYLE
1002
{
1070
   279
 70
     2
1002
}
  0
XRECORD
  5
C345
102
{ACAD_REACTORS
330
C33A
102
}
330
C33A
100
AcDbXrecord
280
     1
  1
{56F8B3CC-9D8F-11D3-8C34-00C04F3577A6}
  0
XRECORD
  5
C33D
102
{ACAD_REACTORS
330
C33A
102
}
330
C33A
100
AcDbXrecord
280
     1
  1

  0
XRECORD
  5
C343
102
{ACAD_REACTORS
330
C33A
102
}
330
C33A
100
AcDbXrecord
280
     1
 90
        0
  0
XRECORD
  5
C33F
102
{ACAD_REACTORS
330
C33A
102
}
330
C33A
100
AcDbXrecord
280
     1
340
15DF
  0
XRECORD
  5
C342
102
{ACAD_REACTORS
330
C33A
102
}
330
C33A
100
AcDbXrecord
280
     1
 90
    10781
  0
XRECORD
  5
C340
102
{ACAD_REACTORS
330
C33A
102
}
330
C33A
100
AcDbXrecord
280
     1
340
15E0
  0
XRECORD
  5
C341
102
{ACAD_REACTORS
330
C33A
102
}
330
C33A
100
AcDbXrecord
280
     1
340
15DD
  0
XRECORD
  5
C347
102
{ACAD_REACTORS
330
C33A
102
}
330
C33A
100
AcDbXrecord
280
     1
 40
0.0
  0
XRECORD
  5
C34B
102
{ACAD_REACTORS
330
C33A
102
}
330
C33A
100
AcDbXrecord
280
     1
340
0
  0
XRECORD
  5
C351
102
{ACAD_REACTORS
330
C33A
102
}
330
C33A
100
AcDbXrecord
280
     1
 10
0.0
 20
0.0
 30
0.0
  0
XRECORD
  5
C34D
102
{ACAD_REACTORS
330
C33A
102
}
330
C33A
100
AcDbXrecord
280
     1
 10
0.0
 20
0.0
 30
0.0
  0
XRECORD
  5
C350
102
{ACAD_REACTORS
330
C33A
102
}
330
C33A
100
AcDbXrecord
280
     1
 10
0.0
 20
0.0
 30
0.0
  0
XRECORD
  5
C34E
102
{ACAD_REACTORS
330
C33A
102
}
330
C33A
100
AcDbXrecord
280
     1
 10
0.0
 20
0.0
 30
0.0
  0
XRECORD
  5
C34F
102
{ACAD_REACTORS
330
C33A
102
}
330
C33A
100
AcDbXrecord
280
     1
 10
0.0
 20
0.0
 30
0.0
  0
XRECORD
  5
C34C
102
{ACAD_REACTORS
330
C33A
102
}
330
C33A
100
AcDbXrecord
280
     1
 10
0.0
 20
0.0
 30
0.0
  0
XRECORD
  5
C349
102
{ACAD_REACTORS
330
C33A
102
}
330
C33A
100
AcDbXrecord
280
     1
340
0
  0
XRECORD
  5
C34A
102
{ACAD_REACTORS
330
C33A
102
}
330
C33A
100
AcDbXrecord
280
     1
 70
     0
  0
XRECORD
  5
C33E
102
{ACAD_REACTORS
330
C33A
102
}
330
C33A
100
AcDbXrecord
280
     1
  1
monochrome.ctb
  0
XRECORD
  5
C33B
102
{ACAD_REACTORS
330
C33A
102
}
330
C33A
100
AcDbXrecord
280
     1
 90
        1
  0
XRECORD
  5
C33C
102
{ACAD_REACTORS
330
C33A
102
}
330
C33A
100
AcDbXrecord
280
     1
 90
       70
  0
XRECORD
  5
C354
102
{ACAD_REACTORS
330
C33A
102
}
330
C33A
100
AcDbXrecord
280
     1
340
0
  0
XRECORD
  5
C35A
102
{ACAD_REACTORS
330
C33A
102
}
330
C33A
100
AcDbXrecord
280
     1
 10
0.0
 20
0.0
 30
0.0
  0
XRECORD
  5
C356
102
{ACAD_REACTORS
330
C33A
102
}
330
C33A
100
AcDbXrecord
280
     1
 10
0.0
 20
0.0
 30
0.0
  0
XRECORD
  5
C359
102
{ACAD_REACTORS
330
C33A
102
}
330
C33A
100
AcDbXrecord
280
     1
 10
0.0
 20
0.0
 30
0.0
  0
XRECORD
  5
C357
102
{ACAD_REACTORS
330
C33A
102
}
330
C33A
100
AcDbXrecord
280
     1
 10
0.0
 20
0.0
 30
0.0
  0
XRECORD
  5
C358
102
{ACAD_REACTORS
330
C33A
102
}
330
C33A
100
AcDbXrecord
280
     1
 10
0.0
 20
0.0
 30
0.0
  0
XRECORD
  5
C355
102
{ACAD_REACTORS
330
C33A
102
}
330
C33A
100
AcDbXrecord
280
     1
 10
0.0
 20
0.0
 30
0.0
  0
XRECORD
  5
C352
102
{ACAD_REACTORS
330
C33A
102
}
330
C33A
100
AcDbXrecord
280
     1
340
0
  0
XRECORD
  5
C353
102
{ACAD_REACTORS
330
C33A
102
}
330
C33A
100
AcDbXrecord
280
     1
 70
     0
  0
XRECORD
  5
C346
102
{ACAD_REACTORS
330
C33A
102
}
330
C33A
100
AcDbXrecord
280
     1
  1
{302DE8B6-0112-4B82-961D-2BF119C8B6BD}
  0
DICTIONARYVAR
  5
2F
102
{ACAD_REACTORS
330
2E
102
}
330
2E
100
DictionaryVariables
280
     0
  1
0
  0
DICTIONARYVAR
  5
C313
102
{ACAD_REACTORS
330
2E
102
}
330
2E
100
DictionaryVariables
280
     0
  1
0
  0
DICTIONARYVAR
  5
C312
102
{ACAD_REACTORS
330
2E
102
}
330
2E
100
DictionaryVariables
280
     0
  1
1
  0
DICTIONARY
  5
C2DB
102
{ACAD_REACTORS
330
C2D5
102
}
330
C2D5
100
AcDbDictionary
281
     1
  0
DICTIONARY
  5
C2BC
102
{ACAD_REACTORS
330
C2BB
102
}
330
C2BB
100
AcDbDictionary
281
     1
  3
DWGSETTINGS
350
C2BD
  3
TRANSSETTINGS
350
C2BE
  0
ACAMGFILTERDAT
  5
C307
102
{ACAD_REACTORS
330
C306
102
}
330
C306
100
AcAmgFilterDat
 70
    15
  1
HATCH
  2
*
  3
*
  4
*
  5
*
290
     1
  0
ACAMGFILTERDAT
  5
C308
102
{ACAD_REACTORS
330
C306
102
}
330
C306
100
AcAmgFilterDat
 70
    15
  1
LINE
  2
8,8N,*-8,*-8N,AM_8,AM_8N,*-AM_8,*-AM_8N
  3
*
  4
*
  5
INSERT,STDPART2D
290
     1
  0
XRECORD
  5
ADF9
102
{ACAD_REACTORS
330
ADF7
102
}
330
ADF7
100
AcDbXrecord
280
     1
330
60EB
330
60EC
330
60ED
330
60EE
330
60EF
330
60F0
330
60F1
330
60F2
330
60F3
330
60F6
330
60F7
330
60F8
330
60F9
330
60FA
330
60FB
330
60FC
330
60FD
330
60FE
330
6698
330
6699
330
669A
330
669B
330
669C
330
669D
330
669E
330
669F
330
66A0
330
66A3
330
66A4
330
66A5
330
66A6
330
66A7
330
66A8
330
66A9
330
66AA
330
66AB
330
71DF
330
71E0
330
71E1
330
71E2
330
71E3
330
71E4
330
71E5
330
71E6
330
71E7
330
71EA
330
71EB
330
71EC
330
71ED
330
71EE
330
71EF
330
71F0
330
71F1
330
71F2
330
778C
330
778D
330
778E
330
778F
330
7790
330
7791
330
7792
330
7793
330
7794
330
7797
330
7798
330
7799
330
779A
330
779B
330
779C
330
779D
330
779E
330
779F
330
82D1
330
82D2
330
82D3
330
82D4
330
82D5
330
82D6
330
82D7
330
82D8
330
82D9
330
82DC
330
82DD
330
82DE
330
82DF
330
82E0
330
82E1
330
82E2
330
82E3
330
82E4
330
887E
330
887F
330
8880
330
8881
330
8882
330
8883
330
8884
330
8885
330
8886
330
8889
330
888A
330
888B
330
888C
330
888D
330
888E
330
888F
330
8890
330
8891
330
0
330
0
330
0
330
0
  0
LAYER_INDEX
  5
C30B
102
{ACAD_REACTORS
330
C30A
102
}
330
C30A
100
AcDbIndex
 40
2452893.357058425
100
AcDbLayerIndex
  8
0
360
C30C
 90
      886
  8
ASHADE
360
C30D
 90
      108
  8
BORDER
360
C30E
 90
        0
  8
Title Block
360
C30F
 90
        0
  8
Defpoints
360
C310
 90
        0
  0
IDBUFFER
  5
C30C
330
0
100
AcDbIdBuffer
330
C015
330
C016
330
C017
330
C018
330
C019
330
C01A
330
C01B
330
C01C
330
C01D
330
C01E
330
C01F
330
C020
330
C021
330
C022
330
C023
330
C024
330
C025
330
C026
330
C027
330
C028
330
C029
330
C02A
330
C02B
330
C02C
330
C02D
330
C02E
330
C02F
330
C030
330
C031
330
C032
330
C033
330
C034
330
C035
330
C036
330
C037
330
C038
330
C039
330
C03A
330
C03B
330
C03C
330
C03D
330
C03E
330
C03F
330
C040
330
C041
330
C042
330
C043
330
C044
330
C045
330
C046
330
C047
330
C048
330
C049
330
C04A
330
C04B
330
C04C
330
C04D
330
C04E
330
C04F
330
C050
330
C051
330
C052
330
C053
330
C054
330
C055
330
C056
330
C057
330
C058
330
C059
330
C05A
330
C05B
330
C05C
330
C05D
330
C05E
330
C05F
330
C060
330
C061
330
C062
330
C063
330
C064
330
C065
330
C066
330
C067
330
C068
330
C069
330
C06A
330
C06B
330
C06C
330
C06D
330
C06E
330
C06F
330
C070
330
C071
330
C072
330
C073
330
C074
330
C075
330
C076
330
C077
330
C078
330
C079
330
C07A
330
C07B
330
C07C
330
C07D
330
C07E
330
C07F
330
C080
330
C081
330
C082
330
C083
330
C084
330
C085
330
C086
330
C087
330
C088
330
C089
330
C08A
330
C08B
330
C08C
330
C08D
330
C08E
330
C08F
330
C090
330
C091
330
C092
330
C093
330
C094
330
C095
330
C096
330
C097
330
C098
330
C099
330
C09A
330
C09B
330
C09C
330
C09D
330
C09E
330
C09F
330
C0A0
330
C0A1
330
C0A2
330
C0A3
330
C0A4
330
C0A5
330
C0A6
330
C0A7
330
C0A8
330
C0A9
330
C0AA
330
C0AB
330
C0AC
330
C0AD
330
C0AE
330
C0AF
330
C0B0
330
C0B1
330
C0B2
330
C0B3
330
C0B4
330
C0B5
330
C0B6
330
C0B7
330
C0B8
330
C0B9
330
C0BA
330
C0BB
330
C0BC
330
C0BD
330
C0BE
330
C0BF
330
C0C0
330
C0C1
330
C0C2
330
C0C3
330
C0C4
330
C0C5
330
C0C6
330
C0C7
330
C0C8
330
C0C9
330
C0CA
330
C0CB
330
C0CC
330
C0CD
330
C0CE
330
C0CF
330
C0D0
330
C0D1
330
C0D2
330
C0D3
330
C0D4
330
C0D5
330
C0D6
330
C0D7
330
C0D8
330
C0D9
330
C0DA
330
C0DB
330
C0DC
330
C0DD
330
C0DE
330
C0DF
330
C0E0
330
C0E1
330
C0E2
330
C0E3
330
C0E4
330
C0E5
330
C0E6
330
C0E7
330
C0E8
330
C0E9
330
C0EA
330
C0EB
330
C0EC
330
C0ED
330
C0EE
330
C0EF
330
C0F0
330
C0F1
330
C0F2
330
C0F3
330
C0F4
330
C0F5
330
C0F6
330
C0F7
330
C0F8
330
C0F9
330
C0FA
330
C0FB
330
C0FC
330
C0FD
330
C0FE
330
C0FF
330
C100
330
C101
330
C102
330
C103
330
C104
330
C105
330
C106
330
C107
330
C108
330
C109
330
C10A
330
C10B
330
C10C
330
C10D
330
C10E
330
C10F
330
C110
330
C111
330
C112
330
C113
330
C114
330
C115
330
C116
330
C117
330
C118
330
C119
330
C11A
330
C11B
330
C11C
330
C11D
330
C11E
330
C11F
330
C120
330
C121
330
C122
330
C123
330
C124
330
C125
330
C126
330
C127
330
C128
330
C129
330
C12A
330
C12B
330
C12C
330
C12D
330
C12E
330
C12F
330
C130
330
C131
330
C132
330
C133
330
C134
330
C135
330
C136
330
C137
330
C138
330
C139
330
C13A
330
C13B
330
C13C
330
C13D
330
C13E
330
C13F
330
C140
330
C141
330
C142
330
C143
330
C144
330
C145
330
C146
330
C147
330
C148
330
C149
330
C14A
330
C14B
330
C14C
330
C14D
330
C14E
330
C14F
330
C150
330
C151
330
C152
330
C153
330
C154
330
C155
330
C156
330
C157
330
C158
330
C159
330
C15A
330
C15B
330
C15C
330
C15D
330
C15E
330
C15F
330
C160
330
C161
330
C162
330
C163
330
C164
330
C165
330
C166
330
C167
330
C168
330
C169
330
C16A
330
C16B
330
C16C
330
C16D
330
C16E
330
C16F
330
C170
330
C171
330
C172
330
C173
330
C174
330
C175
330
C176
330
C177
330
C178
330
C179
330
C17A
330
C17B
330
C17C
330
C17D
330
C17E
330
C17F
330
C180
330
C181
330
C182
330
C183
330
C184
330
C185
330
C186
330
C187
330
C188
330
C189
330
C18A
330
C18B
330
C18C
330
C263
330
C264
330
C265
330
C266
330
C278
330
C279
330
C27A
330
C27B
330
C27C
330
C27F
330
C2AC
330
C2AD
330
C2AE
330
C2AF
330
60F4
330
60F5
330
60FF
330
66A1
330
66A2
330
66AC
330
6C45
330
6C46
330
71E8
330
71E9
330
71F3
330
7795
330
7796
330
77A0
330
82DA
330
82DB
330
82E5
330
8887
330
8888
330
8892
330
8E2B
330
8E2C
330
A914
330
A917
330
A92C
330
A92E
330
A92F
330
A969
330
A96B
330
A96C
330
BA8E
330
BA91
330
BACC
330
BAD9
330
BADA
330
BADB
330
BADC
330
BADD
330
BADE
330
BADF
330
BAE0
330
BAE1
330
BAE2
330
BAE3
330
BAE4
330
BAE5
330
BAE6
330
BAE7
330
BAE8
330
BAE9
330
BAEA
330
BAEB
330
BAEC
330
BE5A
330
BE5B
330
BE5C
330
BE5D
330
BE5E
330
BE5F
330
BE60
330
BE61
330
BE62
330
BE63
330
BE64
330
BE65
330
BE66
330
BE67
330
BE68
330
BE69
330
BE6A
330
BE6B
330
BE6C
330
BE6D
330
BE6E
330
BE6F
330
BE70
330
BE71
330
BE72
330
BE73
330
BE74
330
BE75
330
BE76
330
BE77
330
BE78
330
BE79
330
BE7A
330
BE7B
330
BE7C
330
BE7D
330
BE7E
330
BE7F
330
BE80
330
BE81
330
BE82
330
BE83
330
BE84
330
BE85
330
BE86
330
BE87
330
BE88
330
BE89
330
BE8A
330
BE8B
330
BE8C
330
BE8D
330
BE8E
330
BE8F
330
BE90
330
BE91
330
BE92
330
BE93
330
BE94
330
BE95
330
BE96
330
BE97
330
BE98
330
BE99
330
BE9A
330
BE9B
330
BE9C
330
BE9D
330
BE9E
330
BE9F
330
BEA0
330
BEA1
330
BEA2
330
BEA3
330
BEA4
330
BEA5
330
BEA6
330
BEA7
330
BEA8
330
BEA9
330
BEAA
330
BEAB
330
BEAC
330
BEAD
330
BEAE
330
BEAF
330
BEB0
330
BEB1
330
BEB2
330
BEB3
330
BEB4
330
BEB5
330
BEB6
330
BEB7
330
BEB8
330
BEB9
330
BEBA
330
BEBB
330
BEBC
330
BEBD
330
BEBE
330
BEBF
330
BEC0
330
BEC1
330
BEC2
330
BEC3
330
BEC4
330
BEC5
330
BEC6
330
BEC7
330
BEC8
330
BEC9
330
BECA
330
BECB
330
BECC
330
BECD
330
BECE
330
BECF
330
BED0
330
BED1
330
BED2
330
BED3
330
BED4
330
BED5
330
BED6
330
BED7
330
BED8
330
BED9
330
BEDA
330
BEDB
330
BEDC
330
BEDD
330
BEDE
330
BEDF
330
BEE0
330
BEE1
330
BEE2
330
BEE3
330
BEE4
330
BEE5
330
BEE6
330
BEE7
330
BEE8
330
BEE9
330
BEEA
330
BEEB
330
BEEC
330
BEED
330
BEEE
330
BEEF
330
BEF0
330
BEF1
330
BEF2
330
BEF3
330
BEF4
330
BEF5
330
BEF6
330
BEF7
330
BEF8
330
BEF9
330
BEFA
330
BEFB
330
BEFC
330
BEFD
330
BEFE
330
BEFF
330
BF00
330
BF01
330
BF02
330
BF03
330
BF04
330
BF05
330
BF06
330
BF07
330
BF08
330
BF09
330
BF0A
330
BF0B
330
BF0C
330
BF0D
330
BF0E
330
BF0F
330
BF10
330
BF11
330
BF12
330
BF13
330
BF14
330
BF15
330
BF16
330
BF17
330
BF18
330
BF19
330
BF1A
330
BF1B
330
BF1C
330
BF1D
330
BF1E
330
BF1F
330
BF20
330
BF21
330
BF22
330
BF23
330
BF24
330
BF25
330
BF26
330
BF27
330
BF28
330
BF29
330
BF2A
330
BF2B
330
BF2C
330
BF2D
330
BF2E
330
BF2F
330
BF30
330
BF31
330
BF32
330
BF33
330
BF34
330
BF35
330
BF36
330
BF37
330
BF38
330
BF39
330
BF3A
330
BF3B
330
BF3C
330
BF3D
330
BF3E
330
BF3F
330
BF40
330
BF41
330
BF42
330
BF43
330
BF44
330
BF45
330
BF46
330
BF47
330
BF48
330
BF49
330
BF4A
330
BF4B
330
BF4C
330
BF4D
330
BF4E
330
BF4F
330
BF50
330
BF51
330
BF52
330
BF53
330
BF54
330
BF55
330
BF56
330
BF57
330
BF58
330
BF59
330
BF5A
330
BF5B
330
BF5C
330
BF5D
330
BF5E
330
BF5F
330
BF60
330
BF61
330
BF62
330
BF63
330
BF64
330
BF65
330
BF66
330
BF67
330
BF68
330
BF69
330
BF6A
330
BF6B
330
BF6C
330
BF6D
330
BF6E
330
BF6F
330
BF70
330
BF71
330
BF72
330
BF73
330
BF74
330
BF75
330
BF76
330
BF77
330
BF78
330
BF79
330
BF7A
330
BF7B
330
BF7C
330
BF7D
330
BF7E
330
BF7F
330
BF80
330
BF81
330
BF82
330
BF83
330
BF84
330
BF85
330
BF86
330
BF87
330
BF88
330
BF89
330
BF8A
330
BF8B
330
BF8C
330
BF8D
330
BF8E
330
BF8F
330
BF90
330
BF91
330
BF92
330
BF93
330
BF94
330
BF95
330
BF96
330
BF97
330
BF98
330
BF99
330
BF9A
330
BF9B
330
BF9C
330
BF9D
330
BF9E
330
BF9F
330
BFA0
330
BFA1
330
BFA2
330
BFA3
330
BFA4
330
BFA5
330
BFA6
330
BFA7
330
BFA8
330
BFA9
330
BFAA
330
BFAB
330
BFAC
330
BFAD
330
BFAE
330
BFAF
330
BFB0
330
BFB1
330
BFB2
330
BFB3
330
BFB4
330
BFB5
330
BFB6
330
BFB7
330
BFB8
330
BFB9
330
BFBA
330
BFBB
330
BFBC
330
BFBD
330
BFBE
330
BFBF
330
BFC0
330
BFC1
330
BFC2
330
BFC3
330
BFC4
330
BFC5
330
BFC6
330
BFC7
330
BFC8
330
BFC9
330
BFCA
330
BFCB
330
BFCC
330
BFCD
330
BFCE
330
BFCF
330
BFD0
330
BFD1
330
BFD2
330
BFD3
330
BFD4
330
BFD5
330
BFD6
330
BFD7
330
BFD8
330
BFD9
330
BFDA
330
BFDB
330
BFDC
330
BFDD
330
BFDE
330
BFDF
330
BFE0
330
BFE1
330
BFE2
330
BFE3
330
BFE4
330
BFE5
330
BFE6
330
BFE7
330
BFE8
330
BFE9
330
BFEA
330
BFEB
330
BFEC
330
BFED
330
BFEE
330
BFEF
330
BFF0
330
BFF1
330
BFF2
330
BFF3
330
BFF4
330
BFF5
330
BFF6
330
BFF7
330
BFF8
330
BFF9
330
BFFA
330
BFFB
330
BFFC
330
BFFD
330
BFFE
330
BFFF
330
C000
330
C001
330
C002
330
C003
330
C004
330
C005
330
C006
330
C007
330
C008
330
C009
330
C00A
330
C00B
330
C00C
330
C00D
330
C00E
330
C00F
330
C010
330
C011
330
C012
330
C013
330
C014
  0
IDBUFFER
  5
C30D
330
0
100
AcDbIdBuffer
330
71ED
330
71EE
330
71EF
330
71F0
330
71F1
330
71F2
330
778C
330
778D
330
778E
330
778F
330
7790
330
7791
330
7792
330
7793
330
7794
330
7797
330
7798
330
7799
330
779A
330
779B
330
779C
330
779D
330
779E
330
779F
330
82D1
330
82D2
330
82D3
330
82D4
330
82D5
330
82D6
330
82D7
330
82D8
330
82D9
330
82DC
330
82DD
330
82DE
330
82DF
330
82E0
330
82E1
330
82E2
330
82E3
330
82E4
330
887E
330
887F
330
8880
330
8881
330
8882
330
8883
330
8884
330
8885
330
8886
330
8889
330
888A
330
888B
330
888C
330
888D
330
888E
330
888F
330
8890
330
8891
330
60EB
330
60EC
330
60ED
330
60EE
330
60EF
330
60F0
330
60F1
330
60F2
330
60F3
330
60F6
330
60F7
330
60F8
330
60F9
330
60FA
330
60FB
330
60FC
330
60FD
330
60FE
330
6698
330
6699
330
669A
330
669B
330
669C
330
669D
330
669E
330
669F
330
66A0
330
66A3
330
66A4
330
66A5
330
66A6
330
66A7
330
66A8
330
66A9
330
66AA
330
66AB
330
71DF
330
71E0
330
71E1
330
71E2
330
71E3
330
71E4
330
71E5
330
71E6
330
71E7
330
71EA
330
71EB
330
71EC
  0
IDBUFFER
  5
C30E
330
0
100
AcDbIdBuffer
  0
IDBUFFER
  5
C30F
330
0
100
AcDbIdBuffer
  0
IDBUFFER
  5
C310
330
0
100
AcDbIdBuffer
  0
ENDSEC
  0
EOF
