  0
SECTION
  2
HEADER
  9
$ACADVER
  1
AC1015
  9
$ACADMAINTVER
 70
    11
  9
$DWGCODEPAGE
  3
ANSI_1252
  9
$INSBASE
 10
0.0
 20
0.0
 30
0.0
  9
$EXTMIN
 10
0.0000022600000076
 20
0.0329807186641292
 30
0.0
  9
$EXTMAX
 10
16.99999962000001
 20
11.01996597902326
 30
0.0
  9
$LIMMIN
 10
0.0
 20
0.0
  9
$LIMMAX
 10
12.0
 20
9.0
  9
$ORTHOMODE
 70
     1
  9
$REGENMODE
 70
     1
  9
$FILLMODE
 70
     1
  9
$QTEXTMODE
 70
     0
  9
$MIRRTEXT
 70
     1
  9
$LTSCALE
 40
1.0
  9
$ATTMODE
 70
     1
  9
$TEXTSIZE
 40
0.2
  9
$TRACEWID
 40
0.05
  9
$TEXTSTYLE
  7
Standard
  9
$CLAYER
  8
0
  9
$CELTYPE
  6
ByLayer
  9
$CECOLOR
 62
   256
  9
$CELTSCALE
 40
1.0
  9
$DISPSILH
 70
     0
  9
$DIMSCALE
 40
1.0
  9
$DIMASZ
 40
0.18
  9
$DIMEXO
 40
0.0625
  9
$DIMDLI
 40
0.38
  9
$DIMRND
 40
0.0
  9
$DIMDLE
 40
0.0
  9
$DIMEXE
 40
0.18
  9
$DIMTP
 40
0.0
  9
$DIMTM
 40
0.0
  9
$DIMTXT
 40
0.0938
  9
$DIMCEN
 40
0.09
  9
$DIMTSZ
 40
0.0
  9
$DIMTOL
 70
     0
  9
$DIMLIM
 70
     0
  9
$DIMTIH
 70
     1
  9
$DIMTOH
 70
     1
  9
$DIMSE1
 70
     0
  9
$DIMSE2
 70
     0
  9
$DIMTAD
 70
     0
  9
$DIMZIN
 70
     0
  9
$DIMBLK
  1

  9
$DIMASO
 70
     1
  9
$DIMSHO
 70
     1
  9
$DIMPOST
  1

  9
$DIMAPOST
  1

  9
$DIMALT
 70
     0
  9
$DIMALTD
 70
     2
  9
$DIMALTF
 40
25.4
  9
$DIMLFAC
 40
1.0
  9
$DIMTOFL
 70
     0
  9
$DIMTVP
 40
0.0
  9
$DIMTIX
 70
     0
  9
$DIMSOXD
 70
     0
  9
$DIMSAH
 70
     0
  9
$DIMBLK1
  1

  9
$DIMBLK2
  1

  9
$DIMSTYLE
  2
Standard
  9
$DIMCLRD
 70
     0
  9
$DIMCLRE
 70
     0
  9
$DIMCLRT
 70
     0
  9
$DIMTFAC
 40
1.0
  9
$DIMGAP
 40
0.09
  9
$DIMJUST
 70
     0
  9
$DIMSD1
 70
     0
  9
$DIMSD2
 70
     0
  9
$DIMTOLJ
 70
     1
  9
$DIMTZIN
 70
     0
  9
$DIMALTZ
 70
     0
  9
$DIMALTTZ
 70
     0
  9
$DIMUPT
 70
     0
  9
$DIMDEC
 70
     4
  9
$DIMTDEC
 70
     4
  9
$DIMALTU
 70
     2
  9
$DIMALTTD
 70
     2
  9
$DIMTXSTY
  7
Standard
  9
$DIMAUNIT
 70
     0
  9
$DIMADEC
 70
     0
  9
$DIMALTRND
 40
0.0
  9
$DIMAZIN
 70
     0
  9
$DIMDSEP
 70
    46
  9
$DIMATFIT
 70
     3
  9
$DIMFRAC
 70
     0
  9
$DIMLDRBLK
  1

  9
$DIMLUNIT
 70
     2
  9
$DIMLWD
 70
    -2
  9
$DIMLWE
 70
    -2
  9
$DIMTMOVE
 70
     0
  9
$LUNITS
 70
     2
  9
$LUPREC
 70
     4
  9
$SKETCHINC
 40
0.1
  9
$FILLETRAD
 40
0.5
  9
$AUNITS
 70
     0
  9
$AUPREC
 70
     0
  9
$MENU
  1
.
  9
$ELEVATION
 40
0.0
  9
$PELEVATION
 40
0.0
  9
$THICKNESS
 40
0.0
  9
$LIMCHECK
 70
     0
  9
$CHAMFERA
 40
0.5
  9
$CHAMFERB
 40
0.5
  9
$CHAMFERC
 40
1.0
  9
$CHAMFERD
 40
0.0
  9
$SKPOLY
 70
     0
  9
$TDCREATE
 40
2452544.621411330
  9
$TDUCREATE
 40
2452544.829744664
  9
$TDUPDATE
 40
2452893.357524641
  9
$TDUUPDATE
 40
2452893.565857974
  9
$TDINDWG
 40
0.0749738310
  9
$TDUSRTIMER
 40
0.0749735995
  9
$USRTIMER
 70
     1
  9
$ANGBASE
 50
0.0
  9
$ANGDIR
 70
     0
  9
$PDMODE
 70
     0
  9
$PDSIZE
 40
0.0
  9
$PLINEWID
 40
0.0
  9
$SPLFRAME
 70
     0
  9
$SPLINETYPE
 70
     6
  9
$SPLINESEGS
 70
     8
  9
$HANDSEED
  5
CC7
  9
$SURFTAB1
 70
     6
  9
$SURFTAB2
 70
     6
  9
$SURFTYPE
 70
     6
  9
$SURFU
 70
     6
  9
$SURFV
 70
     6
  9
$UCSBASE
  2

  9
$UCSNAME
  2

  9
$UCSORG
 10
0.0
 20
0.0
 30
0.0
  9
$UCSXDIR
 10
1.0
 20
0.0
 30
0.0
  9
$UCSYDIR
 10
0.0
 20
1.0
 30
0.0
  9
$UCSORTHOREF
  2

  9
$UCSORTHOVIEW
 70
     0
  9
$UCSORGTOP
 10
0.0
 20
0.0
 30
0.0
  9
$UCSORGBOTTOM
 10
0.0
 20
0.0
 30
0.0
  9
$UCSORGLEFT
 10
0.0
 20
0.0
 30
0.0
  9
$UCSORGRIGHT
 10
0.0
 20
0.0
 30
0.0
  9
$UCSORGFRONT
 10
0.0
 20
0.0
 30
0.0
  9
$UCSORGBACK
 10
0.0
 20
0.0
 30
0.0
  9
$PUCSBASE
  2

  9
$PUCSNAME
  2

  9
$PUCSORG
 10
0.0
 20
0.0
 30
0.0
  9
$PUCSXDIR
 10
1.0
 20
0.0
 30
0.0
  9
$PUCSYDIR
 10
0.0
 20
1.0
 30
0.0
  9
$PUCSORTHOREF
  2

  9
$PUCSORTHOVIEW
 70
     0
  9
$PUCSORGTOP
 10
0.0
 20
0.0
 30
0.0
  9
$PUCSORGBOTTOM
 10
0.0
 20
0.0
 30
0.0
  9
$PUCSORGLEFT
 10
0.0
 20
0.0
 30
0.0
  9
$PUCSORGRIGHT
 10
0.0
 20
0.0
 30
0.0
  9
$PUCSORGFRONT
 10
0.0
 20
0.0
 30
0.0
  9
$PUCSORGBACK
 10
0.0
 20
0.0
 30
0.0
  9
$USERI1
 70
     0
  9
$USERI2
 70
     0
  9
$USERI3
 70
     0
  9
$USERI4
 70
     0
  9
$USERI5
 70
     0
  9
$USERR1
 40
0.0
  9
$USERR2
 40
0.0
  9
$USERR3
 40
0.0
  9
$USERR4
 40
0.0
  9
$USERR5
 40
0.0
  9
$WORLDVIEW
 70
     1
  9
$SHADEDGE
 70
     3
  9
$SHADEDIF
 70
    70
  9
$TILEMODE
 70
     1
  9
$MAXACTVP
 70
    64
  9
$PINSBASE
 10
0.0
 20
0.0
 30
0.0
  9
$PLIMCHECK
 70
     0
  9
$PEXTMIN
 10
1.000000000000000E+20
 20
1.000000000000000E+20
 30
1.000000000000000E+20
  9
$PEXTMAX
 10
-1.000000000000000E+20
 20
-1.000000000000000E+20
 30
-1.000000000000000E+20
  9
$PLIMMIN
 10
0.0
 20
0.0
  9
$PLIMMAX
 10
12.0
 20
9.0
  9
$UNITMODE
 70
     0
  9
$VISRETAIN
 70
     1
  9
$PLINEGEN
 70
     0
  9
$PSLTSCALE
 70
     1
  9
$TREEDEPTH
 70
  3020
  9
$CMLSTYLE
  2
Standard
  9
$CMLJUST
 70
     0
  9
$CMLSCALE
 40
1.0
  9
$PROXYGRAPHICS
 70
     1
  9
$MEASUREMENT
 70
     0
  9
$CELWEIGHT
370
    -1
  9
$ENDCAPS
280
     0
  9
$JOINSTYLE
280
     0
  9
$LWDISPLAY
290
     0
  9
$INSUNITS
 70
     1
  9
$HYPERLINKBASE
  1

  9
$STYLESHEET
  1
monochrome.ctb
  9
$XEDIT
290
     1
  9
$CEPSNTYPE
380
     0
  9
$PSTYLEMODE
290
     1
  9
$FINGERPRINTGUID
  2
{B826B720-D14A-11D6-843B-00B0D02CC2F3}
  9
$VERSIONGUID
  2
{1B3CF3DF-304D-45CD-976F-5C69BF11B954}
  9
$EXTNAMES
290
     1
  9
$PSVPSCALE
 40
0.0
  9
$OLESTARTUP
290
     0
  0
ENDSEC
  0
SECTION
  2
CLASSES
  0
CLASS
  1
ACDBDICTIONARYWDFLT
  2
AcDbDictionaryWithDefault
  3
AutoCAD 2000
 90
        0
280
     0
281
     0
  0
CLASS
  1
ACDBPLACEHOLDER
  2
AcDbPlaceHolder
  3
AutoCAD 2000
 90
        0
280
     0
281
     0
  0
CLASS
  1
LAYOUT
  2
AcDbLayout
  3
AutoCAD 2000
 90
        0
280
     0
281
     0
  0
CLASS
  1
ACME_DOCUMENT
  2
AcMeDbDoc
  3
AcMeServices
 90
        0
280
     0
281
     0
  0
CLASS
  1
AMGSETTINGSOBJ
  2
AmgSettingsObj
  3
"AcadM|Product Description: AutoCAD Mechanical 2000|Company: Autodesk"
 90
        0
280
     0
281
     0
  0
CLASS
  1
ACMESCOPE
  2
AcMeScope
  3
AcMeServices
 90
        0
280
     0
281
     0
  0
CLASS
  1
ACMECOMMANDHISTORY
  2
AcMeCommandHistory
  3
AcMeServices
 90
        0
280
     0
281
     0
  0
CLASS
  1
DICTIONARYVAR
  2
AcDbDictionaryVar
  3
AutoCAD 2000
 90
        0
280
     0
281
     0
  0
CLASS
  1
ACIMSYSVARMAN
  2
AcImSysVarManager
  3
AcMeServices
 90
        0
280
     0
281
     0
  0
CLASS
  1
ACIMREALSYSVAR
  2
AcImRealSysVar
  3
AcMeServices
 90
        0
280
     0
281
     0
  0
CLASS
  1
ACIMINTSYSVAR
  2
AcImIntSysVar
  3
AcMeServices
 90
        0
280
     0
281
     0
  0
CLASS
  1
ACMEDRAWINGMAN
  2
AcMeDrawingMan
  3
AcMeServices
 90
        0
280
     0
281
     0
  0
CLASS
  1
ACMEVIEW
  2
AcMeView
  3
AcMeServices
 90
        0
280
     0
281
     0
  0
CLASS
  1
ACDBENTITYCACHE
  2
AcMeEntityCache
  3
AcMeServices
 90
        0
280
     0
281
     0
  0
CLASS
  1
GSMANAGER
  2
AcMeGSManager
  3
AcMeServices
 90
        0
280
     0
281
     0
  0
CLASS
  1
AMDTINTERNALREACTOR
  2
AmdtInternalReactor
  3
AcMeServices
 90
        0
280
     0
281
     0
  0
CLASS
  1
ACMESTATEMGR
  2
AcMeStateMgr
  3
AcMeServices
 90
        0
280
     0
281
     0
  0
CLASS
  1
ACGREFMASTER
  2
AcGrefMaster
  3
AcAttribServices
 90
        0
280
     0
281
     0
  0
CLASS
  1
ACME_DATABASE
  2
AcMeDbDatabase
  3
AcMeServices
 90
        0
280
     0
281
     0
  0
CLASS
  1
ACRFINSADJUSTERMGR
  2
AcRfInsAdjusterMgr
  3
AcMeServices
 90
        0
280
     0
281
     0
  0
CLASS
  1
ACGREFMASTER
  2
AcGrefacadMaster
  3
AcGrefServices
 90
        0
280
     0
281
     0
  0
CLASS
  1
AMIMASTER
  2
AmiMaster
  3
AmiServices
 90
        0
280
     0
281
     0
  0
CLASS
  1
ACMDATADICTIONARY
  2
AcmDataDictionary
  3
"AcmSymBB|Product Description: AutoCAD Mechanical 2000|Company: Autodesk"
 90
        0
280
     0
281
     0
  0
CLASS
  1
ACMDATAENTRYBLOCK
  2
AcmDataEntryBlock
  3
"AcmSymBB|Product Description: AutoCAD Mechanical 2000|Company: Autodesk"
 90
        0
280
     0
281
     0
  0
CLASS
  1
ACIMSTRSYSVAR
  2
AcImStrSysVar
  3
AcMeServices
 90
        0
280
     0
281
     0
  0
CLASS
  1
ACMSTANDARDANSI
  2
AcmStandardANSI
  3
"Amdt_StdImp|Product Description: AutoCAD Mechanical 2000|Company: Autodesk"
 90
        0
280
     0
281
     0
  0
CLASS
  1
AMGOBJPROPCFG
  2
AmgObjPropCfg
  3
"AmgLay|Product Description: AutoCAD Mechanical 2000|Company: Autodesk"
 90
        1
280
     0
281
     0
  0
CLASS
  1
ACMSURFSTANDARDANSI
  2
AcmSurfTextStdANSI
  3
"Amdt_StdImp|Product Description: AutoCAD Mechanical 2000|Company: Autodesk"
 90
        0
280
     0
281
     0
  0
CLASS
  1
ACMFCFSTANDARDANSI
  2
AcmFCFStdANSI
  3
"Amdt_StdImp|Product Description: AutoCAD Mechanical 2000|Company: Autodesk"
 90
        0
280
     0
281
     0
  0
CLASS
  1
ACMWELDSTANDARDANSI
  2
AcmWeldingStdANSI
  3
"Amdt_StdImp|Product Description: AutoCAD Mechanical 2000|Company: Autodesk"
 90
        0
280
     0
281
     0
  0
CLASS
  1
ACMIDSTANDARDANSI
  2
AcmIdStdANSI
  3
"Amdt_StdImp|Product Description: AutoCAD Mechanical 2000|Company: Autodesk"
 90
        0
280
     0
281
     0
  0
CLASS
  1
ACMDATUMSTANDARDANSI
  2
AcmDatumStdANSI
  3
"Amdt_StdImp|Product Description: AutoCAD Mechanical 2000|Company: Autodesk"
 90
        0
280
     0
281
     0
  0
CLASS
  1
ACMBOMSTANDARDANSI
  2
AcmBOMStdANSI
  3
"Amdt_StdImp|Product Description: AutoCAD Mechanical 2000|Company: Autodesk"
 90
        0
280
     0
281
     0
  0
CLASS
  1
ACMDETAILSTANDARDANSI
  2
AmdtDetailSymStdANSI
  3
"Amdt_StdImp|Product Description: AutoCAD Mechanical 2000|Company: Autodesk"
 90
        0
280
     0
281
     0
  0
CLASS
  1
ACMSECTIONSTANDARDANSI
  2
AmdtSectionSymStdANSI
  3
"Amdt_StdImp|Product Description: AutoCAD Mechanical 2000|Company: Autodesk"
 90
        0
280
     0
281
     0
  0
CLASS
  1
ACMCENTERLINESTANDARDANSI
  2
AmdtCenterLineStdANSI
  3
"Amdt_StdImp|Product Description: AutoCAD Mechanical 2000|Company: Autodesk"
 90
        0
280
     0
281
     0
  0
CLASS
  1
ACMTHREADLINESTANDARDANSI
  2
AmdtThreadLineStdANSI
  3
"Amdt_StdImp|Product Description: AutoCAD Mechanical 2000|Company: Autodesk"
 90
        0
280
     0
281
     0
  0
CLASS
  1
"AcAmgLayStd"
  2
AcAmgLayStd
  3
"AcAmgLayStd|Product Description: AutoCAD Mechanical 2000|Company: Autodesk"
 90
        0
280
     0
281
     0
  0
CLASS
  1
"AcAmgDimStd"
  2
AcAmgDimStd
  3
"AcAmgDimStd|Product Description: AutoCAD Mechanical 2000|Company: Autodesk"
 90
        0
280
     0
281
     0
  0
CLASS
  1
AcAmgTitleStd
  2
AcAmgTitleStd
  3
"TITLEAPP"
 90
        0
280
     0
281
     0
  0
CLASS
  1
ACAMGFILTERDAT
  2
AcAmgFilterDat
  3
"AcadM|Product Description: AutoCAD Mechanical 2000|Company: Autodesk"
 90
        0
280
     0
281
     0
  0
CLASS
  1
LAYER_INDEX
  2
AcDbLayerIndex
  3
AutoCAD 2000
 90
        0
280
     0
281
     0
  0
CLASS
  1
IDBUFFER
  2
AcDbIdBuffer
  3
AutoCAD 2000
 90
        0
280
     0
281
     0
  0
CLASS
  1
AMDTFORMULAUPDATEDISPATCHER
  2
AmdtFormulaUpdateDispatcher
  3
AcMeServices
 90
        0
280
     0
281
     0
  0
ENDSEC
  0
SECTION
  2
TABLES
  0
TABLE
  2
VPORT
  5
8
330
0
100
AcDbSymbolTable
 70
     3
  0
VPORT
  5
CA6
330
8
100
AcDbSymbolTableRecord
100
AcDbViewportTableRecord
  2
*Active
 70
     0
 10
0.0
 20
0.0
 11
1.0
 21
1.0
 12
8.500000007918119
 22
5.526210394142291
 13
0.0
 23
0.0
 14
0.5
 24
0.5
 15
0.5
 25
0.5
 16
0.0
 26
0.0
 36
1.0
 17
0.0
 27
0.0
 37
0.0
 40
11.10398673469513
 41
1.607079646017699
 42
50.0
 43
0.0
 44
0.0
 50
0.0
 51
0.0
 71
     0
 72
   100
 73
     1
 74
     3
 75
     0
 76
     0
 77
     0
 78
     0
281
     0
 65
     1
110
0.0
120
0.0
130
0.0
111
1.0
121
0.0
131
0.0
112
0.0
122
1.0
132
0.0
 79
     0
146
0.0
  0
ENDTAB
  0
TABLE
  2
LTYPE
  5
5
330
0
100
AcDbSymbolTable
 70
    25
  0
LTYPE
  5
14
330
5
100
AcDbSymbolTableRecord
100
AcDbLinetypeTableRecord
  2
ByBlock
 70
     0
  3

 72
    65
 73
     0
 40
0.0
  0
LTYPE
  5
15
330
5
100
AcDbSymbolTableRecord
100
AcDbLinetypeTableRecord
  2
ByLayer
 70
     0
  3

 72
    65
 73
     0
 40
0.0
  0
LTYPE
  5
16
330
5
100
AcDbSymbolTableRecord
100
AcDbLinetypeTableRecord
  2
Continuous
 70
     0
  3
Solid line
 72
    65
 73
     0
 40
0.0
  0
LTYPE
  5
2F
330
5
100
AcDbSymbolTableRecord
100
AcDbLinetypeTableRecord
  2
MS
 70
     0
  3
MEDIUM_SOLID
 72
    65
 73
     0
 40
0.0
  0
LTYPE
  5
30
330
5
100
AcDbSymbolTableRecord
100
AcDbLinetypeTableRecord
  2
AM_ISO02W050
 70
     0
  3
__ __ __ __ __ __ __ __ __ __ __ __ __ __ __
 72
    65
 73
     2
 40
7.5
 49
6.0
 74
     0
 49
-1.5
 74
     0
  0
LTYPE
  5
31
330
5
100
AcDbSymbolTableRecord
100
AcDbLinetypeTableRecord
  2
AM_ISO08W050
 70
     0
  3
____ . ____ . ____ . ____ . ____ . ____ . ____
 72
    65
 73
     4
 40
18.0
 49
12.0
 74
     0
 49
-1.5
 74
     0
 49
3.0
 74
     0
 49
-1.5
 74
     0
  0
LTYPE
  5
32
330
5
100
AcDbSymbolTableRecord
100
AcDbLinetypeTableRecord
  2
AM_ISO09W050
 70
     0
  3
_____ . . _____ . . _____ . . ____ .. ____
 72
    65
 73
     6
 40
22.5
 49
12.0
 74
     0
 49
-1.5
 74
     0
 49
3.0
 74
     0
 49
-1.5
 74
     0
 49
3.0
 74
     0
 49
-1.5
 74
     0
  0
LTYPE
  5
33
330
5
100
AcDbSymbolTableRecord
100
AcDbLinetypeTableRecord
  2
Amconstr
 70
     0
  3
_______________________
 72
    65
 73
     2
 40
9999.0
 49
9999.0
 74
     0
 49
0.0
 74
     0
  0
LTYPE
  5
34
330
5
100
AcDbSymbolTableRecord
100
AcDbLinetypeTableRecord
  2
AM_ISO08W050x2
 70
     0
  3
__ . __ . __ . __ . __ . __
 72
    65
 73
     4
 40
9.0
 49
6.0
 74
     0
 49
-0.75
 74
     0
 49
1.5
 74
     0
 49
-0.75
 74
     0
  0
LTYPE
  5
35
330
5
100
AcDbSymbolTableRecord
100
AcDbLinetypeTableRecord
  2
AM_ISO02W050x2
 70
     0
  3
 _ _ _ _ _ _ _ _ _ _ _ _
 72
    65
 73
     2
 40
3.75
 49
3.0
 74
     0
 49
-0.75
 74
     0
  0
LTYPE
  5
36
330
5
100
AcDbSymbolTableRecord
100
AcDbLinetypeTableRecord
  2
Amzigzag
 70
     0
  3
/\/-/\/-/\/-/\/-/\/-/\/
 72
    65
 73
     2
 40
11.00009999999999
 49
0.0001
 74
     4
 75
   135
340
4A
 46
0.04
 50
0.0
 44
0.0
 45
0.0
 49
-11.0
 74
     0
  0
LTYPE
  5
37
330
5
100
AcDbSymbolTableRecord
100
AcDbLinetypeTableRecord
  2
HIDDEN
 70
     0
  3
Hidden __ __ __ __ __ __ __ __ __ __ __ __ __ _
 72
    65
 73
     2
 40
0.375
 49
0.25
 74
     0
 49
-0.125
 74
     0
  0
LTYPE
  5
38
330
5
100
AcDbSymbolTableRecord
100
AcDbLinetypeTableRecord
  2
CENTER
 70
     0
  3
Center ____ _ ____ _ ____ _ ____ _ ____ _ ____
 72
    65
 73
     4
 40
2.0
 49
1.25
 74
     0
 49
-0.25
 74
     0
 49
0.25
 74
     0
 49
-0.25
 74
     0
  0
LTYPE
  5
39
330
5
100
AcDbSymbolTableRecord
100
AcDbLinetypeTableRecord
  2
PHANTOM2
 70
     0
  3
Phantom (.5x) ___ _ _ ___ _ _ ___ _ _ ___ _ _
 72
    65
 73
     6
 40
1.25
 49
0.625
 74
     0
 49
-0.125
 74
     0
 49
0.125
 74
     0
 49
-0.125
 74
     0
 49
0.125
 74
     0
 49
-0.125
 74
     0
  0
LTYPE
  5
3A
330
5
100
AcDbSymbolTableRecord
100
AcDbLinetypeTableRecord
  2
CENTER2
 70
     0
  3
Center (.5x) ___ _ ___ _ ___ _ ___ _ ___ _ ___
 72
    65
 73
     4
 40
1.125
 49
0.75
 74
     0
 49
-0.125
 74
     0
 49
0.125
 74
     0
 49
-0.125
 74
     0
  0
LTYPE
  5
3B
330
5
100
AcDbSymbolTableRecord
100
AcDbLinetypeTableRecord
  2
HIDDEN2
 70
     0
  3
Hidden (.5x) _ _ _ _ _ _ _ _ _ _ _ _ _ _ _ _ _
 72
    65
 73
     2
 40
0.1875
 49
0.125
 74
     0
 49
-0.0625
 74
     0
  0
LTYPE
  5
3C
330
5
100
AcDbSymbolTableRecord
100
AcDbLinetypeTableRecord
  2
Amzigzag2
 70
     0
  3
/\/-/\/-/\/-/\/-/\/-/\/
 72
    65
 73
     2
 40
0.4401
 49
0.0001
 74
     4
 75
   135
340
4A
 46
0.0016
 50
0.0
 44
0.0
 45
0.0
 49
-0.4400000000000001
 74
     0
  0
LTYPE
  5
3D
330
5
100
AcDbSymbolTableRecord
100
AcDbLinetypeTableRecord
  2
ACANSTGB
 70
     0
  3
__ . . __ . .
 72
    65
 73
     6
 40
0.35433070866
 49
0.15748031496
 74
     0
 49
-0.03937007874
 74
     0
 49
0.03937007874
 74
     0
 49
-0.03937007874
 74
     0
 49
0.03937007874
 74
     0
 49
-0.03937007874
 74
     0
  0
LTYPE
  5
3E
330
5
100
AcDbSymbolTableRecord
100
AcDbLinetypeTableRecord
  2
ACANSTGL
 70
     0
  3
_ _ _ _ _
 72
    65
 73
     2
 40
0.11811023622
 49
0.07874015748
 74
     0
 49
-0.03937007874
 74
     0
  0
LTYPE
  5
3F
330
5
100
AcDbSymbolTableRecord
100
AcDbLinetypeTableRecord
  2
gen3
 70
     0
  3
-- -- -- -- -- -- -- -- -- -- -- -- -- -- --
 72
    65
 73
     2
 40
6.25
 49
4.75
 74
     0
 49
-1.5
 74
     0
  0
LTYPE
  5
40
330
5
100
AcDbSymbolTableRecord
100
AcDbLinetypeTableRecord
  2
gen7
 70
     0
  3
____ . ____ . ____ . ____ . ____ . ____ . ____
 72
    65
 73
     4
 40
13.75
 49
9.75
 74
     0
 49
-1.5
 74
     0
 49
1.0
 74
     0
 49
-1.5
 74
     0
  0
LTYPE
  5
41
330
5
100
AcDbSymbolTableRecord
100
AcDbLinetypeTableRecord
  2
gen3a
 70
     0
  3
 - - - - -
 72
    65
 73
     2
 40
3.125
 49
2.25
 74
     0
 49
-0.875
 74
     0
  0
LTYPE
  5
42
330
5
100
AcDbSymbolTableRecord
100
AcDbLinetypeTableRecord
  2
gen7a
 70
     0
  3
__ . __ . __
 72
    65
 73
     4
 40
6.875
 49
4.75
 74
     0
 49
-0.875
 74
     0
 49
0.375
 74
     0
 49
-0.875
 74
     0
  0
LTYPE
  5
43
330
5
100
AcDbSymbolTableRecord
100
AcDbLinetypeTableRecord
  2
gen4a
 70
     0
  3
_____ . . _____ . . _____ . . ____ .. ____
 72
    65
 73
     6
 40
16.25
 49
9.75
 74
     0
 49
-1.5
 74
     0
 49
1.0
 74
     0
 49
-1.5
 74
     0
 49
1.0
 74
     0
 49
-1.5
 74
     0
  0
LTYPE
  5
44
330
5
100
AcDbSymbolTableRecord
100
AcDbLinetypeTableRecord
  2
genzigzag
 70
     0
  3
/\/-/\/-/\/-/\/-/\/-/\/
 72
    65
 73
     2
 40
12.0001
 49
0.0001
 74
     4
 75
   135
340
4D
 46
2.0
 50
0.0
 44
0.0
 45
0.0
 49
-12.0
 74
     0
  0
LTYPE
  5
621
330
5
100
AcDbSymbolTableRecord
100
AcDbLinetypeTableRecord
  2
L5
 70
     0
  3
L5
 72
    65
 73
     0
 40
0.0
  0
LTYPE
  5
622
330
5
100
AcDbSymbolTableRecord
100
AcDbLinetypeTableRecord
  2
L0
 70
     0
  3
L0
 72
    65
 73
     0
 40
0.0
  0
ENDTAB
  0
TABLE
  2
LAYER
  5
2
330
0
100
AcDbSymbolTable
 70
     5
  0
LAYER
  5
10
330
2
100
AcDbSymbolTableRecord
100
AcDbLayerTableRecord
  2
0
 70
     0
 62
     7
  6
Continuous
370
    -3
390
F
  0
LAYER
  5
45
330
2
100
AcDbSymbolTableRecord
100
AcDbLayerTableRecord
  2
BORDER
 70
     0
 62
    15
  6
Continuous
370
    -3
390
F
  0
LAYER
  5
46
330
2
100
AcDbSymbolTableRecord
100
AcDbLayerTableRecord
  2
Title Block
 70
     0
 62
     2
  6
Continuous
370
    -3
390
F
  0
LAYER
  5
47
330
2
100
AcDbSymbolTableRecord
100
AcDbLayerTableRecord
  2
L0
 70
     0
 62
    20
  6
Continuous
370
    -3
390
F
  0
LAYER
  5
623
330
2
100
AcDbSymbolTableRecord
100
AcDbLayerTableRecord
  2
Defpoints
 70
     0
 62
     7
  6
Continuous
290
     0
370
    -3
390
F
  0
ENDTAB
  0
TABLE
  2
STYLE
  5
3
330
0
100
AcDbSymbolTable
 70
     9
  0
STYLE
  5
11
330
3
100
AcDbSymbolTableRecord
100
AcDbTextStyleTableRecord
  2
Standard
 70
     0
 40
0.0
 41
1.0
 50
0.0
 71
     0
 42
0.2
  3
romans.shx
  4

  0
STYLE
  5
48
330
3
100
AcDbSymbolTableRecord
100
AcDbTextStyleTableRecord
  2
AE
 70
     0
 40
0.0
 41
1.0
 50
0.0
 71
     0
 42
0.16408998
  3
MIGRATOR
  4

  0
STYLE
  5
49
330
3
100
AcDbSymbolTableRecord
100
AcDbTextStyleTableRecord
  2

 70
     1
 40
0.0
 41
1.0
 50
0.0
 71
     0
 42
1.0
  3
symtb128
  4

  0
STYLE
  5
4A
330
3
100
AcDbSymbolTableRecord
100
AcDbTextStyleTableRecord
  2

 70
     1
 40
0.0
 41
1.0
 50
0.0
 71
     0
 42
2.5
  3
ltypeshp.shx
  4

  0
STYLE
  5
4B
330
3
100
AcDbSymbolTableRecord
100
AcDbTextStyleTableRecord
  2
ACANSTS
 70
     0
 40
1.0
 41
1.0
 50
0.0
 71
     0
 42
2.5
  3
romans.shx
  4

  0
STYLE
  5
4C
330
3
100
AcDbSymbolTableRecord
100
AcDbTextStyleTableRecord
  2
ACANSGDT
 70
     0
 40
0.0
 41
1.0
 50
0.0
 71
     0
 42
2.5
  3
amgdtans.shx
  4

  0
STYLE
  5
4D
330
3
100
AcDbSymbolTableRecord
100
AcDbTextStyleTableRecord
  2

 70
     1
 40
0.0
 41
1.0
 50
0.0
 71
     0
 42
2.5
  3
genltshp.shx
  4

  0
STYLE
  5
FA
330
3
100
AcDbSymbolTableRecord
100
AcDbTextStyleTableRecord
  2
SIMPLEX
 70
     0
 40
0.0938
 41
1.0
 50
0.0
 71
     0
 42
0.0938
  3
C:\ACADWIN\FONTS\SIMPLEX.SHX
  4

  0
STYLE
  5
FB
330
3
100
AcDbSymbolTableRecord
100
AcDbTextStyleTableRecord
  2
ROMANS
 70
     0
 40
0.095
 41
1.0
 50
0.0
 71
     0
 42
0.095
  3
romans
  4

  0
ENDTAB
  0
TABLE
  2
VIEW
  5
6
330
0
100
AcDbSymbolTable
 70
     0
  0
ENDTAB
  0
TABLE
  2
UCS
  5
7
330
0
100
AcDbSymbolTable
 70
     0
  0
ENDTAB
  0
TABLE
  2
APPID
  5
9
330
0
100
AcDbSymbolTable
 70
     6
  0
APPID
  5
12
330
9
100
AcDbSymbolTableRecord
100
AcDbRegAppTableRecord
  2
ACAD
 70
     0
  0
APPID
  5
5B
330
9
100
AcDbSymbolTableRecord
100
AcDbRegAppTableRecord
  2
GENIUS_GENBLLY_14
 70
     0
  0
APPID
  5
5C
330
9
100
AcDbSymbolTableRecord
100
AcDbRegAppTableRecord
  2
GENIUS_GENTRA_14
 70
     0
  0
APPID
  5
5D
330
9
100
AcDbSymbolTableRecord
100
AcDbRegAppTableRecord
  2
MCAD_NO_VIS
 70
     0
  0
APPID
  5
5E
330
9
100
AcDbSymbolTableRecord
100
AcDbRegAppTableRecord
  2
ACAD_TEMP_GRAPHIC
 70
     0
  0
APPID
  5
5F
330
9
100
AcDbSymbolTableRecord
100
AcDbRegAppTableRecord
  2
ACATTRIBSERVICES
 70
     0
  0
ENDTAB
  0
TABLE
  2
DIMSTYLE
  5
A
330
0
100
AcDbSymbolTable
 70
    15
100
AcDbDimStyleTable
 71
     1
340
27
  0
DIMSTYLE
105
27
330
A
100
AcDbSymbolTableRecord
100
AcDbDimStyleTableRecord
  2
Standard
 70
     0
140
0.0938
340
11
  0
DIMSTYLE
105
4E
330
A
100
AcDbSymbolTableRecord
100
AcDbDimStyleTableRecord
  2
GEN-ANSI
 70
     0
  3
<>
  4
mm
 41
0.14
 42
0.125
 43
0.5
 44
0.125
 47
0.1
 48
0.1
 73
     0
 74
     0
 77
     1
 78
     7
140
0.12
141
0.0
146
0.71
147
0.06
176
   256
177
   256
178
     2
274
     4
340
11
  0
DIMSTYLE
105
4F
330
A
100
AcDbSymbolTableRecord
100
AcDbDimStyleTableRecord
  2
AM_ANSI
 70
     0
  4
mm
 41
0.1
 42
0.05
 43
0.5
 44
0.1
 47
0.1
 48
0.1
 78
     7
 79
     2
140
0.12
141
0.0
146
0.71
147
0.06
176
   256
177
   256
178
     2
274
     4
284
     7
340
11
371
    -1
372
    -1
  0
DIMSTYLE
105
50
330
A
100
AcDbSymbolTableRecord
100
AcDbDimStyleTableRecord
  2
AM_ANSI$3
 70
     0
  4
mm
 41
0.1
 42
0.05
 43
0.5
 44
0.1
 47
0.1
 48
0.1
 78
     7
 79
     2
140
0.12
141
0.0
146
0.71
147
0.06
176
   256
177
   256
178
     2
274
     4
284
     7
288
     1
289
     0
340
11
371
    -1
372
    -1
  0
DIMSTYLE
105
51
330
A
100
AcDbSymbolTableRecord
100
AcDbDimStyleTableRecord
  2
AM_ANSI$4
 70
     0
  4
mm
 41
0.1
 42
0.05
 43
0.5
 44
0.1
 47
0.1
 48
0.1
 78
     7
 79
     2
140
0.12
141
0.0
146
0.71
147
0.06
176
   256
177
   256
178
     2
274
     4
284
     7
288
     1
289
     0
340
11
371
    -1
372
    -1
  0
DIMSTYLE
105
52
330
A
100
AcDbSymbolTableRecord
100
AcDbDimStyleTableRecord
  2
AM_ANSI$7
 70
     0
  4
mm
 41
0.1
 42
0.05
 43
0.5
 44
0.1
 47
0.1
 48
0.1
 78
     7
 79
     2
140
0.24
141
0.0
146
0.71
147
0.06
176
   256
177
   256
178
     2
274
     4
284
     7
340
11
371
    -1
372
    -1
  0
DIMSTYLE
105
53
330
A
100
AcDbSymbolTableRecord
100
AcDbDimStyleTableRecord
  2
AM_ANSI$SF
 70
     0
  4
mm
 41
0.1
 42
0.05
 43
0.5
 44
0.1
 47
0.1
 48
0.1
 75
     1
 76
     1
 78
     7
 79
     2
140
0.12
141
0.0
146
0.71
147
0.06
176
   256
177
   256
178
     2
274
     4
284
     7
340
11
371
    -1
372
    -1
  0
DIMSTYLE
105
54
330
A
100
AcDbSymbolTableRecord
100
AcDbDimStyleTableRecord
  2
AM_ANSI$SH
 70
     0
  4
mm
 41
0.1
 42
0.05
 43
0.5
 44
0.1
 47
0.1
 48
0.1
 75
     1
 76
     1
 78
     7
 79
     2
140
0.12
141
0.0
146
0.71
147
0.06
173
     1
176
   256
177
   256
178
     2
274
     4
284
     7
340
11
343
2B
371
    -1
372
    -1
  0
DIMSTYLE
105
55
330
A
100
AcDbSymbolTableRecord
100
AcDbDimStyleTableRecord
  2
GEN-ANSI$3
 70
     0
  3
<>
  4
mm
 41
0.14
 42
0.125
 43
0.5
 44
0.125
 47
0.1
 48
0.1
 78
     7
140
0.12
141
0.0
146
0.71
147
0.06
176
   256
177
   256
178
     2
274
     4
288
     1
289
     0
340
11
  0
DIMSTYLE
105
56
330
A
100
AcDbSymbolTableRecord
100
AcDbDimStyleTableRecord
  2
GEN-ANSI$4
 70
     0
  3
<>
  4
mm
 41
0.14
 42
0.125
 43
0.5
 44
0.125
 47
0.1
 48
0.1
 78
     7
140
0.12
141
0.0
146
0.71
147
0.06
176
   256
177
   256
178
     2
274
     4
288
     1
289
     0
340
11
  0
DIMSTYLE
105
57
330
A
100
AcDbSymbolTableRecord
100
AcDbDimStyleTableRecord
  2
GEN-ANSI$6
 70
     0
  3
<>
  4
mm
 41
0.14
 42
0.125
 43
0.5
 44
0.125
 47
0.1
 48
0.1
 78
     7
140
0.12
141
0.0
146
0.71
147
0.06
176
   256
177
   256
178
     2
274
     4
340
11
  0
DIMSTYLE
105
58
330
A
100
AcDbSymbolTableRecord
100
AcDbDimStyleTableRecord
  2
GEN-ANSI-POS
 70
     0
  3
<>
  4
mm
 41
0.1
 42
0.125
 43
0.5
 44
0.125
 47
0.1
 48
0.1
 73
     0
 74
     0
 78
     7
140
0.2
141
0.0
146
0.71
147
0.06
176
   256
177
   256
178
     2
274
     4
340
11
  0
DIMSTYLE
105
59
330
A
100
AcDbSymbolTableRecord
100
AcDbDimStyleTableRecord
  2
GEN-ANSI-AXE-F
 70
     0
  3
<>
  4
mm
 41
0.14
 42
0.125
 43
0.5
 44
0.125
 47
0.1
 48
0.1
 75
     1
 76
     1
 78
     7
140
0.12
141
0.0
146
0.71
147
0.06
173
     1
176
   256
177
   256
178
     2
274
     4
340
11
343
2B
  0
DIMSTYLE
105
5A
330
A
100
AcDbSymbolTableRecord
100
AcDbDimStyleTableRecord
  2
GEN-ANSI-AXE-H
 70
     0
  3
<>
  4
mm
 41
0.14
 42
0.125
 43
0.5
 44
0.125
 47
0.1
 48
0.1
 73
     0
 74
     0
 75
     1
 76
     1
 78
     7
140
0.12
141
0.0
144
2.0
146
0.71
147
0.06
172
     1
173
     1
176
   256
177
   256
178
     2
274
     4
340
11
343
2B
  0
DIMSTYLE
105
624
102
{ACAD_REACTORS
330
9B0
330
9B1
330
AB3
102
}
330
A
100
AcDbSymbolTableRecord
100
AcDbDimStyleTableRecord
  2
MEDDIM1148
 70
     0
 45
0.01
 78
    12
146
0.7
172
     1
176
     7
177
     7
178
     7
273
     4
277
     4
279
     2
340
11
  0
ENDTAB
  0
TABLE
  2
BLOCK_RECORD
  5
1
330
0
100
AcDbSymbolTable
 70
     6
  0
BLOCK_RECORD
  5
1F
102
{ACAD_XDICTIONARY
360
50B
102
}
330
1
100
AcDbSymbolTableRecord
100
AcDbBlockTableRecord
  2
*Model_Space
340
22
  0
BLOCK_RECORD
  5
1B
330
1
100
AcDbSymbolTableRecord
100
AcDbBlockTableRecord
  2
*Paper_Space
340
1E
  0
BLOCK_RECORD
  5
23
330
1
100
AcDbSymbolTableRecord
100
AcDbBlockTableRecord
  2
*Paper_Space0
340
26
  0
BLOCK_RECORD
  5
2B
330
1
100
AcDbSymbolTableRecord
100
AcDbBlockTableRecord
  2
GENAXEH
340
0
  0
BLOCK_RECORD
  5
60
330
1
100
AcDbSymbolTableRecord
100
AcDbBlockTableRecord
  2
ASSEMBLY_B
340
0
102
{BLKREFS
331
5CE
102
}
  0
BLOCK_RECORD
  5
BC6
330
1
100
AcDbSymbolTableRecord
100
AcDbBlockTableRecord
  2
*D3
340
0
  0
BLOCK_RECORD
  5
BD3
330
1
100
AcDbSymbolTableRecord
100
AcDbBlockTableRecord
  2
*D4
340
0
  0
BLOCK_RECORD
  5
BE0
330
1
100
AcDbSymbolTableRecord
100
AcDbBlockTableRecord
  2
*D5
340
0
  0
ENDTAB
  0
ENDSEC
  0
SECTION
  2
BLOCKS
  0
BLOCK
  5
20
330
1F
100
AcDbEntity
  8
0
100
AcDbBlockBegin
  2
*Model_Space
 70
     0
 10
0.0
 20
0.0
 30
0.0
  3
*Model_Space
  1

  0
ENDBLK
  5
21
330
1F
100
AcDbEntity
  8
0
100
AcDbBlockEnd
  0
BLOCK
  5
1C
330
1B
100
AcDbEntity
 67
     1
  8
0
100
AcDbBlockBegin
  2
*Paper_Space
 70
     0
 10
0.0
 20
0.0
 30
0.0
  3
*Paper_Space
  1

  0
ENDBLK
  5
1D
330
1B
100
AcDbEntity
 67
     1
  8
0
100
AcDbBlockEnd
  0
BLOCK
  5
24
330
23
100
AcDbEntity
  8
0
100
AcDbBlockBegin
  2
*Paper_Space0
 70
     0
 10
0.0
 20
0.0
 30
0.0
  3
*Paper_Space0
  1

  0
ENDBLK
  5
25
330
23
100
AcDbEntity
  8
0
100
AcDbBlockEnd
  0
BLOCK
  5
2D
330
2B
100
AcDbEntity
  8
0
100
AcDbBlockBegin
  2
GENAXEH
 70
     0
 10
0.0
 20
0.0
 30
0.0
  3
GENAXEH
  1

  0
LINE
  5
2C
330
2B
100
AcDbEntity
  8
0
100
AcDbLine
 10
-1.0
 20
0.0
 30
0.0
 11
1.0
 21
0.0
 31
0.0
  0
ENDBLK
  5
2E
330
2B
100
AcDbEntity
  8
0
100
AcDbBlockEnd
  0
BLOCK
  5
E8
330
60
100
AcDbEntity
  8
0
100
AcDbBlockBegin
  2
ASSEMBLY_B
 70
     2
 10
0.0
 20
0.0
 30
0.0
  3
ASSEMBLY_B
  1

  0
LINE
  5
544
330
60
100
AcDbEntity
  8
BORDER
 62
    15
100
AcDbLine
 10
16.6
 20
0.3999656890232617
 30
0.0
 11
16.6
 21
10.63996597902324
 31
0.0
  0
LINE
  5
545
330
60
100
AcDbEntity
  8
BORDER
 62
    15
100
AcDbLine
 10
0.400011260000019
 20
0.3999656890232617
 30
0.0
 11
0.400011260000019
 21
10.63996597902324
 31
0.0
  0
LINE
  5
546
330
60
100
AcDbEntity
  8
BORDER
 62
    15
100
AcDbLine
 10
0.400011260000019
 20
0.3999656890232617
 30
0.0
 11
16.6
 21
0.3999656890232617
 31
0.0
  0
LINE
  5
547
330
60
100
AcDbEntity
  8
BORDER
 62
    15
100
AcDbLine
 10
0.0000022600000076
 20
5.519965834023253
 30
0.0
 11
0.400011260000019
 21
5.519965834023253
 31
0.0
  0
TEXT
  5
548
330
60
100
AcDbEntity
  8
Title Block
  6
Continuous
 62
     2
100
AcDbText
 10
12.30669482722675
 20
2.205546537751305
 30
0.0
 40
0.1010611419
  1
DO NOT SCALE
 50
0.09999996
  7
AE
100
AcDbText
  0
TEXT
  5
549
330
60
100
AcDbEntity
  8
Title Block
  6
Continuous
 62
     2
100
AcDbText
 10
12.30669482722675
 20
1.996163262564665
 30
0.0
 40
0.1010611419
  1
  DRAWING
 50
0.09999996
  7
AE
100
AcDbText
  0
ATTDEF
  5
54A
330
60
100
AcDbEntity
  8
Title Block
  6
Continuous
 62
     2
100
AcDbText
 10
10.79999999999999
 20
0.6000000000000001
 30
0.0
 40
0.126326427375
  1

 41
0.8
100
AcDbAttributeDefinition
  3
Drawing Name
  2
GEN-TITLE-DES1{15.54}
 70
     0
1001
GENIUS_GENBLLY_14
1000
BOR5
  0
LINE
  5
54B
330
60
100
AcDbEntity
  8
Title Block
  6
Continuous
 62
     2
100
AcDbLine
 10
7.849999999999999
 20
2.4
 30
0.0
 11
16.6
 21
2.4
 31
0.0
  0
LINE
  5
54C
330
60
100
AcDbEntity
  8
Title Block
  6
Continuous
 62
     2
100
AcDbLine
 10
12.17518995515351
 20
1.7
 30
0.0
 11
16.6
 21
1.7
 31
0.0
  0
LINE
  5
54D
330
60
100
AcDbEntity
  8
Title Block
  6
Continuous
 62
     2
100
AcDbLine
 10
12.17518995515351
 20
1.45
 30
0.0
 11
16.6
 21
1.45
 31
0.0
  0
LINE
  5
54E
330
60
100
AcDbEntity
  8
Title Block
  6
Continuous
 62
     2
100
AcDbLine
 10
12.17518995515351
 20
1.199999999999999
 30
0.0
 11
16.6
 21
1.199999999999999
 31
0.0
  0
LINE
  5
54F
330
60
100
AcDbEntity
  8
Title Block
  6
Continuous
 62
     2
100
AcDbLine
 10
10.69965639031853
 20
0.95
 30
0.0
 11
16.6
 21
0.95
 31
0.0
  0
ATTDEF
  5
550
330
60
100
AcDbEntity
  8
Title Block
  6
Continuous
 62
     2
100
AcDbText
 10
12.52499999999999
 20
1.024999999999999
 30
0.0
 40
0.1010611419
  1

100
AcDbAttributeDefinition
  3
Approved by
  2
GEN-TITLE-APPM{5}
 70
     0
1001
GENIUS_GENBLLY_14
1000
BOR2
1001
GENIUS_GENTRA_14
1002
{
1070
     3
1000
GENTRAPR,%s,(GENMSG gentitus 73)
1000
Approved by
1000
gb
1070
     0
1002
}
  0
ATTDEF
  5
551
330
60
100
AcDbEntity
  8
Title Block
  6
Continuous
 62
     2
100
AcDbText
 10
12.52499999999999
 20
1.274999999999999
 30
0.0
 40
0.1010611419
  1

100
AcDbAttributeDefinition
  3
Check by
  2
GEN-TITLE-CHKM{5}
 70
     0
1001
GENIUS_GENBLLY_14
1000
BOR2
  0
ATTDEF
  5
552
330
60
100
AcDbEntity
  8
Title Block
  6
Continuous
 62
     2
100
AcDbText
 10
12.52499999999999
 20
1.524999999999999
 30
0.0
 40
0.1010611419
  1

100
AcDbAttributeDefinition
  3
Drawn by
  2
GEN-TITLE-NAME{5}
 70
     0
1001
GENIUS_GENBLLY_14
1000
BOR2
  0
LINE
  5
553
330
60
100
AcDbEntity
  8
Title Block
  6
Continuous
 62
     2
100
AcDbLine
 10
7.849999999999999
 20
0.9
 30
0.0
 11
10.69965639031853
 21
0.9
 31
0.0
  0
LINE
  5
554
330
60
100
AcDbEntity
  8
Title Block
  6
Continuous
 62
     2
100
AcDbLine
 10
7.849999999999999
 20
1.149999999999999
 30
0.0
 11
10.69965639031853
 21
1.149999999999999
 31
0.0
  0
LINE
  5
555
330
60
100
AcDbEntity
  8
Title Block
  6
Continuous
 62
     2
100
AcDbLine
 10
7.849999999999999
 20
2.149999999999999
 30
0.0
 11
10.69965639031853
 21
2.149999999999999
 31
0.0
  0
LINE
  5
556
330
60
100
AcDbEntity
  8
Title Block
  6
Continuous
 62
     2
100
AcDbLine
 10
7.849999999999999
 20
1.9
 30
0.0
 11
10.69965639031853
 21
1.9
 31
0.0
  0
LINE
  5
557
330
60
100
AcDbEntity
  8
Title Block
  6
Continuous
 62
     2
100
AcDbLine
 10
7.849999999999999
 20
1.649999999999999
 30
0.0
 11
10.69965639031853
 21
1.649999999999999
 31
0.0
  0
LINE
  5
558
330
60
100
AcDbEntity
  8
Title Block
  6
Continuous
 62
     2
100
AcDbLine
 10
7.849999999999999
 20
1.399999999999999
 30
0.0
 11
10.69965639031853
 21
1.399999999999999
 31
0.0
  0
LINE
  5
559
330
60
100
AcDbEntity
  8
Title Block
  6
Continuous
 62
     2
100
AcDbLine
 10
7.849999999999999
 20
0.65
 30
0.0
 11
10.69965639031853
 21
0.65
 31
0.0
  0
TEXT
  5
55A
330
60
100
AcDbEntity
  8
Title Block
  6
Continuous
 62
     2
100
AcDbText
 10
8.501374022347393
 20
0.7409580908741999
 30
0.0
 40
0.075937067150492
  1
DATE
 50
0.09999996
  7
AE
100
AcDbText
  0
LINE
  5
55B
330
60
100
AcDbEntity
  8
BORDER
 62
    15
100
AcDbLine
 10
8.50000126000001
 20
0.2
 30
0.0
 11
8.50000126000001
 21
0.3999656890232617
 31
0.0
  0
TEXT
  5
55C
330
60
100
AcDbEntity
  8
BORDER
  6
Continuous
 62
    15
100
AcDbText
 10
8.471503396695657
 20
0.0599741912456094
 30
0.0
 40
0.0799862356161777
  1
0
 50
0.09999996
  7
AE
100
AcDbText
  0
LINE
  5
55D
330
60
100
AcDbEntity
  8
BORDER
  6
Continuous
 62
    15
100
AcDbLine
 10
8.57998715545812
 20
0.3399759973137096
 30
0.0
 11
8.57998715545812
 21
0.3999656890232617
 31
0.0
  0
LINE
  5
55E
330
60
100
AcDbEntity
  8
BORDER
  6
Continuous
 62
    15
100
AcDbLine
 10
8.559991091469045
 20
0.2999828395124904
 30
0.0
 11
8.559991091469045
 21
0.3999656890232617
 31
0.0
  0
LINE
  5
55F
330
60
100
AcDbEntity
  8
BORDER
  6
Continuous
 62
    15
100
AcDbLine
 10
8.539994027651742
 20
0.2999828395124904
 30
0.0
 11
8.539994027651742
 21
0.3999656890232617
 31
0.0
  0
LINE
  5
560
330
60
100
AcDbEntity
  8
BORDER
  6
Continuous
 62
    15
100
AcDbLine
 10
8.519997063817303
 20
0.3399759973137096
 30
0.0
 11
8.519997063817303
 21
0.3999656890232617
 31
0.0
  0
LINE
  5
561
330
60
100
AcDbEntity
  8
BORDER
  6
Continuous
 62
    15
100
AcDbLine
 10
8.599983219447194
 20
0.2599896917095521
 30
0.0
 11
8.599983219447194
 21
0.3999656890232617
 31
0.0
  0
LINE
  5
562
330
60
100
AcDbEntity
  8
Title Block
  6
Continuous
 62
     2
100
AcDbLine
 10
8.199999999999999
 20
0.65
 30
0.0
 11
8.199999999999999
 21
2.4
 31
0.0
  0
LINE
  5
563
330
60
100
AcDbEntity
  8
Title Block
  6
Continuous
 62
     2
100
AcDbLine
 10
7.849999999999999
 20
0.3999656890232617
 30
0.0
 11
7.849999999999999
 21
2.4
 31
0.0
  0
TEXT
  5
564
330
60
100
AcDbEntity
  8
Title Block
  6
Continuous
 62
     2
100
AcDbText
 10
7.938242132245035
 20
0.7403498140978244
 30
0.0
 40
0.0771520776612738
  1
NO.
 50
0.09999996
  7
AE
100
AcDbText
  0
LINE
  5
565
330
60
100
AcDbEntity
  8
BORDER
  6
Continuous
 62
    15
100
AcDbLine
 10
9.499828195159265
 20
0.2
 30
0.0
 11
9.499828195159265
 21
0.3999656890232617
 31
0.0
  0
TEXT
  5
566
330
60
100
AcDbEntity
  8
BORDER
  6
Continuous
 62
    15
100
AcDbText
 10
9.271369052290525
 20
0.1199638829551611
 30
0.0
 40
0.0799862356161777
  1
8
 50
0.09999996
  7
AE
100
AcDbText
  0
TEXT
  5
567
330
60
100
AcDbEntity
  8
BORDER
  6
Continuous
 62
    15
100
AcDbText
 10
10.0712336080743
 20
0.1199638829551611
 30
0.0
 40
0.0799862356161777
  1
6
 50
0.09999996
  7
AE
100
AcDbText
  0
TEXT
  5
568
330
60
100
AcDbEntity
  8
BORDER
  6
Continuous
 62
    15
100
AcDbText
 10
9.671301830096499
 20
0.1199638829551611
 30
0.0
 40
0.0799862356161777
  1
2
 50
0.09999996
  7
AE
100
AcDbText
  0
TEXT
  5
569
330
60
100
AcDbEntity
  8
BORDER
  6
Continuous
 62
    15
100
AcDbText
 10
9.471331591854921
 20
0.0599741912456094
 30
0.0
 40
0.0799862356161777
  1
1
 50
0.09999996
  7
AE
100
AcDbText
  0
TEXT
  5
56A
330
60
100
AcDbEntity
  8
BORDER
  6
Continuous
 62
    15
100
AcDbText
 10
9.871267269162689
 20
0.1199638829551611
 30
0.0
 40
0.0799862356161777
  1
4
 50
0.09999996
  7
AE
100
AcDbText
  0
TEXT
  5
56B
330
60
100
AcDbEntity
  8
BORDER
  6
Continuous
 62
    15
100
AcDbText
 10
10.27120004696869
 20
0.1199638829551611
 30
0.0
 40
0.0799862356161777
  1
8
 50
0.09999996
  7
AE
100
AcDbText
  0
LINE
  5
56C
330
60
100
AcDbEntity
  8
BORDER
  6
Continuous
 62
    15
100
AcDbLine
 10
9.379852711070126
 20
0.3399759973137096
 30
0.0
 11
9.379852711070126
 21
0.3999656890232617
 31
0.0
  0
LINE
  5
56D
330
60
100
AcDbEntity
  8
BORDER
  6
Continuous
 62
    15
100
AcDbLine
 10
9.359856647081052
 20
0.2999828395124904
 30
0.0
 11
9.359856647081052
 21
0.3999656890232617
 31
0.0
  0
LINE
  5
56E
330
60
100
AcDbEntity
  8
BORDER
  6
Continuous
 62
    15
100
AcDbLine
 10
9.339859683246583
 20
0.2999828395124904
 30
0.0
 11
9.339859683246583
 21
0.3999656890232617
 31
0.0
  0
LINE
  5
56F
330
60
100
AcDbEntity
  8
BORDER
  6
Continuous
 62
    15
100
AcDbLine
 10
9.319862619429308
 20
0.3399759973137096
 30
0.0
 11
9.319862619429308
 21
0.3999656890232617
 31
0.0
  0
LINE
  5
570
330
60
100
AcDbEntity
  8
BORDER
  6
Continuous
 62
    15
100
AcDbLine
 10
9.279869591605736
 20
0.3399759973137096
 30
0.0
 11
9.279869591605736
 21
0.3999656890232617
 31
0.0
  0
LINE
  5
571
330
60
100
AcDbEntity
  8
BORDER
  6
Continuous
 62
    15
100
AcDbLine
 10
9.459839866528247
 20
0.2999828395124904
 30
0.0
 11
9.459839866528247
 21
0.3999656890232617
 31
0.0
  0
LINE
  5
572
330
60
100
AcDbEntity
  8
BORDER
  6
Continuous
 62
    15
100
AcDbLine
 10
9.439842902693806
 20
0.2999828395124904
 30
0.0
 11
9.439842902693806
 21
0.3999656890232617
 31
0.0
  0
LINE
  5
573
330
60
100
AcDbEntity
  8
BORDER
  6
Continuous
 62
    15
100
AcDbLine
 10
9.419845838876504
 20
0.3399759973137096
 30
0.0
 11
9.419845838876504
 21
0.3999656890232617
 31
0.0
  0
LINE
  5
574
330
60
100
AcDbEntity
  8
BORDER
  6
Continuous
 62
    15
100
AcDbLine
 10
9.399848775059201
 20
0.2599896917095521
 30
0.0
 11
9.399848775059201
 21
0.3999656890232617
 31
0.0
  0
LINE
  5
575
330
60
100
AcDbEntity
  8
BORDER
  6
Continuous
 62
    15
100
AcDbLine
 10
9.29986565559481
 20
0.2599896917095521
 30
0.0
 11
9.29986565559481
 21
0.3999656890232617
 31
0.0
  0
LINE
  5
576
330
60
100
AcDbEntity
  8
BORDER
  6
Continuous
 62
    15
100
AcDbLine
 10
9.479835930517349
 20
0.3399759973137096
 30
0.0
 11
9.479835930517349
 21
0.3999656890232617
 31
0.0
  0
LINE
  5
577
330
60
100
AcDbEntity
  8
BORDER
  6
Continuous
 62
    15
100
AcDbLine
 10
9.699798433400815
 20
0.2599896917095521
 30
0.0
 11
9.699798433400815
 21
0.3999656890232617
 31
0.0
  0
LINE
  5
578
330
60
100
AcDbEntity
  8
BORDER
  6
Continuous
 62
    15
100
AcDbLine
 10
9.899763872467033
 20
0.2599896917095521
 30
0.0
 11
9.899763872467033
 21
0.3999656890232617
 31
0.0
  0
LINE
  5
579
330
60
100
AcDbEntity
  8
BORDER
  6
Continuous
 62
    15
100
AcDbLine
 10
10.09973031136145
 20
0.2599896917095521
 30
0.0
 11
10.09973031136145
 21
0.3999656890232617
 31
0.0
  0
LINE
  5
57A
330
60
100
AcDbEntity
  8
BORDER
  6
Continuous
 62
    15
100
AcDbLine
 10
10.29969665027303
 20
0.2599896917095521
 30
0.0
 11
10.29969665027303
 21
0.3999656890232617
 31
0.0
  0
LINE
  5
57B
330
60
100
AcDbEntity
  8
BORDER
  6
Continuous
 62
    15
100
AcDbLine
 10
10.49965928982029
 20
0.2
 30
0.0
 11
10.49965928982029
 21
0.3999656890232617
 31
0.0
  0
TEXT
  5
57C
330
60
100
AcDbEntity
  8
BORDER
  6
Continuous
 62
    15
100
AcDbText
 10
10.47115978701421
 20
0.0599741912456095
 30
0.0
 40
0.0799862356161777
  1
2
 50
0.09999996
  7
AE
100
AcDbText
  0
TEXT
  5
57D
330
60
100
AcDbEntity
  8
BORDER
  6
Continuous
 62
    15
100
AcDbText
 10
8.671469835590103
 20
0.1199638829551611
 30
0.0
 40
0.0799862356161777
  1
2
 50
0.09999996
  7
AE
100
AcDbText
  0
LINE
  5
57E
330
60
100
AcDbEntity
  8
BORDER
  6
Continuous
 62
    15
100
AcDbLine
 10
8.679970374905344
 20
0.3399759973137096
 30
0.0
 11
8.679970374905344
 21
0.3999656890232617
 31
0.0
  0
LINE
  5
57F
330
60
100
AcDbEntity
  8
BORDER
  6
Continuous
 62
    15
100
AcDbLine
 10
8.65997431091624
 20
0.2999828395124904
 30
0.0
 11
8.65997431091624
 21
0.3999656890232617
 31
0.0
  0
LINE
  5
580
330
60
100
AcDbEntity
  8
BORDER
  6
Continuous
 62
    15
100
AcDbLine
 10
8.639977247098967
 20
0.2999828395124904
 30
0.0
 11
8.639977247098967
 21
0.3999656890232617
 31
0.0
  0
LINE
  5
581
330
60
100
AcDbEntity
  8
BORDER
  6
Continuous
 62
    15
100
AcDbLine
 10
8.619980183281692
 20
0.3399759973137096
 30
0.0
 11
8.619980183281692
 21
0.3999656890232617
 31
0.0
  0
LINE
  5
582
330
60
100
AcDbEntity
  8
BORDER
  6
Continuous
 62
    15
100
AcDbLine
 10
8.699966438894419
 20
0.2599896917095521
 30
0.0
 11
8.699966438894419
 21
0.3999656890232617
 31
0.0
  0
TEXT
  5
583
330
60
100
AcDbEntity
  8
BORDER
  6
Continuous
 62
    15
100
AcDbText
 10
9.071402613396108
 20
0.1199638829551611
 30
0.0
 40
0.0799862356161777
  1
6
 50
0.09999996
  7
AE
100
AcDbText
  0
TEXT
  5
584
330
60
100
AcDbEntity
  8
BORDER
  6
Continuous
 62
    15
100
AcDbText
 10
8.87143617450166
 20
0.1199638829551611
 30
0.0
 40
0.0799862356161777
  1
4
 50
0.09999996
  7
AE
100
AcDbText
  0
LINE
  5
585
330
60
100
AcDbEntity
  8
BORDER
  6
Continuous
 62
    15
100
AcDbLine
 10
8.779953494369733
 20
0.3399759973137096
 30
0.0
 11
8.779953494369733
 21
0.3999656890232617
 31
0.0
  0
LINE
  5
586
330
60
100
AcDbEntity
  8
BORDER
  6
Continuous
 62
    15
100
AcDbLine
 10
8.75995743038063
 20
0.2999828395124904
 30
0.0
 11
8.75995743038063
 21
0.3999656890232617
 31
0.0
  0
LINE
  5
587
330
60
100
AcDbEntity
  8
BORDER
  6
Continuous
 62
    15
100
AcDbLine
 10
8.73996046654619
 20
0.2999828395124904
 30
0.0
 11
8.73996046654619
 21
0.3999656890232617
 31
0.0
  0
LINE
  5
588
330
60
100
AcDbEntity
  8
BORDER
  6
Continuous
 62
    15
100
AcDbLine
 10
8.719963402728886
 20
0.3399759973137096
 30
0.0
 11
8.719963402728886
 21
0.3999656890232617
 31
0.0
  0
LINE
  5
589
330
60
100
AcDbEntity
  8
BORDER
  6
Continuous
 62
    15
100
AcDbLine
 10
9.119896280517695
 20
0.3399759973137096
 30
0.0
 11
9.119896280517695
 21
0.3999656890232617
 31
0.0
  0
LINE
  5
58A
330
60
100
AcDbEntity
  8
BORDER
  6
Continuous
 62
    15
100
AcDbLine
 10
9.079903152711347
 20
0.3399759973137096
 30
0.0
 11
9.079903152711347
 21
0.3999656890232617
 31
0.0
  0
LINE
  5
58B
330
60
100
AcDbEntity
  8
BORDER
  6
Continuous
 62
    15
100
AcDbLine
 10
9.059907088722244
 20
0.2999828395124904
 30
0.0
 11
9.059907088722244
 21
0.3999656890232617
 31
0.0
  0
LINE
  5
58C
330
60
100
AcDbEntity
  8
BORDER
  6
Continuous
 62
    15
100
AcDbLine
 10
9.039910024904969
 20
0.2999828395124904
 30
0.0
 11
9.039910024904969
 21
0.3999656890232617
 31
0.0
  0
LINE
  5
58D
330
60
100
AcDbEntity
  8
BORDER
  6
Continuous
 62
    15
100
AcDbLine
 10
9.0199130610705
 20
0.3399759973137096
 30
0.0
 11
9.0199130610705
 21
0.3999656890232617
 31
0.0
  0
LINE
  5
58E
330
60
100
AcDbEntity
  8
BORDER
  6
Continuous
 62
    15
100
AcDbLine
 10
8.979919933264122
 20
0.3399759973137096
 30
0.0
 11
8.979919933264122
 21
0.3999656890232617
 31
0.0
  0
LINE
  5
58F
330
60
100
AcDbEntity
  8
BORDER
  6
Continuous
 62
    15
100
AcDbLine
 10
8.959923869275048
 20
0.2999828395124904
 30
0.0
 11
8.959923869275048
 21
0.3999656890232617
 31
0.0
  0
LINE
  5
590
330
60
100
AcDbEntity
  8
BORDER
  6
Continuous
 62
    15
100
AcDbLine
 10
8.93992690544058
 20
0.2999828395124904
 30
0.0
 11
8.93992690544058
 21
0.3999656890232617
 31
0.0
  0
LINE
  5
591
330
60
100
AcDbEntity
  8
BORDER
  6
Continuous
 62
    15
100
AcDbLine
 10
8.919929841623305
 20
0.3399759973137096
 30
0.0
 11
8.919929841623305
 21
0.3999656890232617
 31
0.0
  0
LINE
  5
592
330
60
100
AcDbEntity
  8
BORDER
  6
Continuous
 62
    15
100
AcDbLine
 10
8.879936713816928
 20
0.3399759973137096
 30
0.0
 11
8.879936713816928
 21
0.3999656890232617
 31
0.0
  0
LINE
  5
593
330
60
100
AcDbEntity
  8
BORDER
  6
Continuous
 62
    15
100
AcDbLine
 10
8.859940649827825
 20
0.2999828395124904
 30
0.0
 11
8.859940649827825
 21
0.3999656890232617
 31
0.0
  0
LINE
  5
594
330
60
100
AcDbEntity
  8
BORDER
  6
Continuous
 62
    15
100
AcDbLine
 10
8.839943685993384
 20
0.2999828395124904
 30
0.0
 11
8.839943685993384
 21
0.3999656890232617
 31
0.0
  0
LINE
  5
595
330
60
100
AcDbEntity
  8
BORDER
  6
Continuous
 62
    15
100
AcDbLine
 10
8.819946622176082
 20
0.3399759973137096
 30
0.0
 11
8.819946622176082
 21
0.3999656890232617
 31
0.0
  0
LINE
  5
596
330
60
100
AcDbEntity
  8
BORDER
  6
Continuous
 62
    15
100
AcDbLine
 10
9.099899216700421
 20
0.2599896917095521
 30
0.0
 11
9.099899216700421
 21
0.3999656890232617
 31
0.0
  0
LINE
  5
597
330
60
100
AcDbEntity
  8
BORDER
  6
Continuous
 62
    15
100
AcDbLine
 10
8.999915997253197
 20
0.2599896917095521
 30
0.0
 11
8.999915997253197
 21
0.3999656890232617
 31
0.0
  0
LINE
  5
598
330
60
100
AcDbEntity
  8
BORDER
  6
Continuous
 62
    15
100
AcDbLine
 10
8.899932777806002
 20
0.2599896917095521
 30
0.0
 11
8.899932777806002
 21
0.3999656890232617
 31
0.0
  0
LINE
  5
599
330
60
100
AcDbEntity
  8
BORDER
  6
Continuous
 62
    15
100
AcDbLine
 10
8.799949658341613
 20
0.2599896917095521
 30
0.0
 11
8.799949658341613
 21
0.3999656890232617
 31
0.0
  0
LINE
  5
59A
330
60
100
AcDbEntity
  8
BORDER
  6
Continuous
 62
    15
100
AcDbLine
 10
9.259873527616662
 20
0.2999828395124904
 30
0.0
 11
9.259873527616662
 21
0.3999656890232617
 31
0.0
  0
LINE
  5
59B
330
60
100
AcDbEntity
  8
BORDER
  6
Continuous
 62
    15
100
AcDbLine
 10
9.239876463799388
 20
0.2999828395124904
 30
0.0
 11
9.239876463799388
 21
0.3999656890232617
 31
0.0
  0
LINE
  5
59C
330
60
100
AcDbEntity
  8
BORDER
  6
Continuous
 62
    15
100
AcDbLine
 10
9.219879399982085
 20
0.3399759973137096
 30
0.0
 11
9.219879399982085
 21
0.3999656890232617
 31
0.0
  0
LINE
  5
59D
330
60
100
AcDbEntity
  8
BORDER
  6
Continuous
 62
    15
100
AcDbLine
 10
9.179886372158541
 20
0.3399759973137096
 30
0.0
 11
9.179886372158541
 21
0.3999656890232617
 31
0.0
  0
LINE
  5
59E
330
60
100
AcDbEntity
  8
BORDER
  6
Continuous
 62
    15
100
AcDbLine
 10
9.159890308169439
 20
0.2999828395124904
 30
0.0
 11
9.159890308169439
 21
0.3999656890232617
 31
0.0
  0
LINE
  5
59F
330
60
100
AcDbEntity
  8
BORDER
  6
Continuous
 62
    15
100
AcDbLine
 10
9.139893244352192
 20
0.2999828395124904
 30
0.0
 11
9.139893244352192
 21
0.3999656890232617
 31
0.0
  0
LINE
  5
5A0
330
60
100
AcDbEntity
  8
BORDER
  6
Continuous
 62
    15
100
AcDbLine
 10
9.199882436147616
 20
0.2599896917095521
 30
0.0
 11
9.199882436147616
 21
0.3999656890232617
 31
0.0
  0
TEXT
  5
5A1
330
60
100
AcDbEntity
  8
BORDER
  6
Continuous
 62
    15
100
AcDbText
 10
8.702946126881657
 20
0.0329812595588271
 30
0.0
 40
0.0399931278063708
  1
FULL SIZE   50   02
 50
0.09999996
 41
0.7749084200000001
  7
AE
100
AcDbText
  0
TEXT
  5
5A2
330
60
100
AcDbEntity
  8
Title Block
  6
Continuous
 62
     2
100
AcDbText
 10
8.973543078500011
 20
0.4900242034427523
 30
0.0
 40
0.075937067150492
  1
REVISION
 50
0.09999996
  7
AE
100
AcDbText
  0
LINE
  5
5A3
330
60
100
AcDbEntity
  8
BORDER
  6
Continuous
 62
    15
100
AcDbLine
 10
10.69965639031853
 20
0.3999656890232617
 30
0.0
 11
10.69965639031853
 21
2.4
 31
0.0
  0
LINE
  5
5A4
330
60
100
AcDbEntity
  8
Title Block
  6
Continuous
 62
     2
100
AcDbLine
 10
12.17518995515351
 20
1.0
 30
0.0
 11
12.17518995515351
 21
2.4
 31
0.0
  0
TEXT
  5
5A5
330
60
100
AcDbEntity
  8
Title Block
  6
Continuous
 62
     2
100
AcDbText
 10
10.74999999999999
 20
0.8
 30
0.0
 40
0.075937067150492
  1
DRAWING NAME
 50
0.09999996
  7
AE
100
AcDbText
  0
TEXT
  5
5A6
330
60
100
AcDbEntity
  8
Title Block
  6
Continuous
 62
     2
100
AcDbText
 10
12.19999999999999
 20
0.975
 30
0.0
 40
0.075937067150492
  1
BY
 50
0.09999996
  7
AE
100
AcDbText
  0
TEXT
  5
5A7
330
60
100
AcDbEntity
  8
Title Block
  6
Continuous
 62
     2
100
AcDbText
 10
12.21
 20
1.1
 30
0.0
 40
0.075937067150492
  1
APPD
 50
0.09999996
  7
AE
100
AcDbText
  0
TEXT
  5
5A8
330
60
100
AcDbEntity
  8
Title Block
  6
Continuous
 62
     2
100
AcDbText
 10
12.19999999999999
 20
1.349999999999999
 30
0.0
 40
0.075937067150492
  1
CHK
 50
0.09999996
  7
AE
100
AcDbText
  0
TEXT
  5
5A9
330
60
100
AcDbEntity
  8
Title Block
  6
Continuous
 62
     2
100
AcDbText
 10
12.20620037256117
 20
1.224999999999999
 30
0.0
 40
0.075937067150492
  1
BY
 50
0.09999996
  7
AE
100
AcDbText
  0
TEXT
  5
5AA
330
60
100
AcDbEntity
  8
Title Block
  6
Continuous
 62
     2
100
AcDbText
 10
12.19999999999999
 20
1.474999999999999
 30
0.0
 40
0.075937067150492
  1
BY
 50
0.09999996
  7
AE
100
AcDbText
  0
TEXT
  5
5AB
330
60
100
AcDbEntity
  8
Title Block
  6
Continuous
 62
     2
100
AcDbText
 10
12.19999999999999
 20
1.599999999999999
 30
0.0
 40
0.075937067150492
  1
DR
 50
0.09999996
  7
AE
100
AcDbText
  0
LINE
  5
5AC
330
60
100
AcDbEntity
  8
Title Block
  6
Continuous
 62
     2
100
AcDbLine
 10
9.0
 20
0.65
 30
0.0
 11
9.0
 21
2.4
 31
0.0
  0
ATTDEF
  5
5AD
330
60
100
AcDbEntity
  8
Title Block
  6
Continuous
 62
     2
100
AcDbText
 10
14.0
 20
0.5
 30
0.0
 40
0.196816573850279
  1

 41
0.8
100
AcDbAttributeDefinition
  3
Drawing Number
  2
GEN-TITLE-NR{13.37}
 70
     0
1001
GENIUS_GENBLLY_14
1000
BOR5
  0
ATTDEF
  5
5AE
330
60
100
AcDbEntity
  8
Title Block
  6
Continuous
 62
     2
100
AcDbText
 10
15.6
 20
1.024999999999999
 30
0.0
 40
0.11808994431015
  1

 41
0.8
100
AcDbAttributeDefinition
  3
Sheet
  2
GEN-TITLE-SHEET{2.62}
 70
     0
1001
GENIUS_GENBLLY_14
1000
BOR3
  0
ATTDEF
  5
5AF
330
60
100
AcDbEntity
  8
Title Block
  6
Continuous
 62
     2
100
AcDbText
 10
15.525
 20
1.274999999999999
 30
0.0
 40
0.1010611419
  1

100
AcDbAttributeDefinition
  3
Date
  2
GEN-TITLE-PLOT{5}
 70
     0
1001
GENIUS_GENBLLY_14
1000
BOR2
  0
ATTDEF
  5
5B0
330
60
100
AcDbEntity
  8
Title Block
  6
Continuous
 62
     2
100
AcDbText
 10
15.99999999999999
 20
1.024999999999999
 30
0.0
 40
0.11808994431015
  1

 41
0.8
100
AcDbAttributeDefinition
  3
Sheet of
  2
GEN-TITLE-SHEET-OF{2.62}
 70
     0
1001
GENIUS_GENBLLY_14
1000
BOR3
  0
LINE
  5
5B1
330
60
100
AcDbEntity
  8
Title Block
  6
Continuous
 62
     2
100
AcDbLine
 10
15.12625718126357
 20
0.95
 30
0.0
 11
15.12625718126354
 21
1.45
 31
0.0
  0
LINE
  5
5B2
330
60
100
AcDbEntity
  8
BORDER
  6
Continuous
 62
    15
100
AcDbLine
 10
13.64999999999999
 20
0.3999656890232617
 30
0.0
 11
13.64999999999999
 21
2.4
 31
0.0
  0
TEXT
  5
5B3
330
60
100
AcDbEntity
  8
Title Block
  6
Continuous
 62
     2
100
AcDbText
 10
13.7
 20
0.8
 30
0.0
 40
0.075937067150492
  1
DRAWING NUMBER
 50
0.09999996
  7
AE
100
AcDbText
  0
TEXT
  5
5B4
330
60
100
AcDbEntity
  8
Title Block
  6
Continuous
 62
     2
100
AcDbText
 10
13.7
 20
1.599999999999999
 30
0.0
 40
0.075937067150492
  1
REF
 50
0.09999996
  7
AE
100
AcDbText
  0
TEXT
  5
5B5
330
60
100
AcDbEntity
  8
Title Block
  6
Continuous
 62
     2
100
AcDbText
 10
13.7
 20
1.349999999999999
 30
0.0
 40
0.075937067150492
  1
MACH
 50
0.09999996
  7
AE
100
AcDbText
  0
TEXT
  5
5B6
330
60
100
AcDbEntity
  8
Title Block
  6
Continuous
 62
     2
100
AcDbText
 10
13.7
 20
1.1
 30
0.0
 40
0.075937067150492
  1
MATL
 50
0.09999996
  7
AE
100
AcDbText
  0
ATTDEF
  5
5B7
330
60
100
AcDbEntity
  8
Title Block
  6
Continuous
 62
     2
100
AcDbText
 10
14.05
 20
1.524999999999999
 30
0.0
 40
0.1010611419
  1

100
AcDbAttributeDefinition
  3
Ref. No.
  2
GEN-TITLE-REF{5}
 70
     0
1001
GENIUS_GENBLLY_14
1000
BOR2
  0
ATTDEF
  5
5B8
330
60
100
AcDbEntity
  8
Title Block
  6
Continuous
 62
     2
100
AcDbText
 10
14.05
 20
1.274999999999999
 30
0.0
 40
0.1010611419
  1

100
AcDbAttributeDefinition
  3
Machine
  2
GEN-TITLE-MACH{5}
 70
     0
1001
GENIUS_GENBLLY_14
1000
BOR2
  0
ATTDEF
  5
5B9
330
60
100
AcDbEntity
  8
Title Block
  6
Continuous
 62
     2
100
AcDbText
 10
14.05
 20
1.024999999999999
 30
0.0
 40
0.1010611419
  1

 41
0.8
100
AcDbAttributeDefinition
  3
Material
  2
GEN-TITLE-MAT{11.15}
 70
     0
1001
GENIUS_GENBLLY_14
1000
BOR3
  0
TEXT
  5
5BA
330
60
100
AcDbEntity
  8
Title Block
  6
Continuous
 62
     2
100
AcDbText
 10
15.175
 20
1.1
 30
0.0
 40
0.075937067150492
  1
SHEET   OF
 50
0.09999996
  7
AE
100
AcDbText
  0
TEXT
  5
5BB
330
60
100
AcDbEntity
  8
Title Block
  6
Continuous
 62
     2
100
AcDbText
 10
15.175
 20
1.349999999999999
 30
0.0
 40
0.075937067150492
  1
DATE
 50
0.09999996
  7
AE
100
AcDbText
  0
LINE
  5
5BC
330
60
100
AcDbEntity
  8
BORDER
 62
    15
100
AcDbLine
 10
16.6
 20
5.519965979023269
 30
0.0
 11
16.99999962000001
 21
5.519965979023269
 31
0.0
  0
LINE
  5
5BD
330
60
100
AcDbEntity
  8
BORDER
 62
    15
100
AcDbLine
 10
0.400011260000019
 20
10.63996597902324
 30
0.0
 11
16.6
 21
10.63996597902324
 31
0.0
  0
LINE
  5
5BE
330
60
100
AcDbEntity
  8
BORDER
 62
    15
100
AcDbLine
 10
8.50000126000001
 20
10.63996597902324
 30
0.0
 11
8.50000126000001
 21
11.01996597902326
 31
0.0
  0
MTEXT
  5
5BF
330
60
100
AcDbEntity
  8
BORDER
  6
Continuous
100
AcDbMText
 10
15.10308979335871
 20
2.25
 30
0.0
 40
0.125
 41
2.663
 71
     2
 72
     5
  1
{\fArial|b0|i0|c0|p34;\C1;G & L Motion Control Inc.}
 73
     1
 44
1.0
  0
MTEXT
  5
5C0
330
60
100
AcDbEntity
  8
BORDER
  6
Continuous
100
AcDbMText
 10
15.10412857763948
 20
1.928264837305509
 30
0.0
 40
0.07874
 41
2.862
 71
     5
 72
     1
  1
{\Fromans.shx;\C9;672 South Military Road\PFond du Lac, Wisconsin 54936 U.S.A.}
 73
     1
 44
1.0
  0
TEXT
  5
5C1
330
60
100
AcDbEntity
  8
Title Block
  6
Continuous
 62
     2
100
AcDbText
 10
10.71881861560131
 20
2.036049281269597
 30
0.0
 40
0.0645465051491158
  1
of G&L Motion Control, is
 50
0.0999999600000013
 41
0.6799434399999999
  7
AE
100
AcDbText
  0
TEXT
  5
5C2
330
60
100
AcDbEntity
  8
Title Block
  6
Continuous
 62
     2
100
AcDbText
 10
10.71741487412047
 20
2.144627598463487
 30
0.0
 40
0.0645465051491158
  1
contains proprietary information
 50
0.0999999600000013
 41
0.7005041199999999
  7
AE
100
AcDbText
  0
TEXT
  5
5C3
330
60
100
AcDbEntity
  8
Title Block
  6
Continuous
 62
     2
100
AcDbText
 10
10.72248667991201
 20
1.924616885729644
 30
0.0
 40
0.0645465051491158
  1
submitted in confidence on
 50
0.0999999600000013
 41
0.6605569100000001
  7
AE
100
AcDbText
  0
TEXT
  5
5C4
330
60
100
AcDbEntity
  8
Title Block
  6
Continuous
 62
     2
100
AcDbText
 10
10.71679449751522
 20
1.81708586876793
 30
0.0
 40
0.0645465051491158
  1
condition that it will not be
 50
0.0999999600000013
 41
0.72234601
  7
AE
100
AcDbText
  0
TEXT
  5
5C5
330
60
100
AcDbEntity
  8
Title Block
  6
Continuous
 62
     2
100
AcDbText
 10
10.71416899531685
 20
1.597796107226088
 30
0.0
 40
0.0645465051491158
  1
will be used only for your
 50
0.0999999600000013
 41
0.6799434399999999
  7
AE
100
AcDbText
  0
TEXT
  5
5C6
330
60
100
AcDbEntity
  8
Title Block
  6
Continuous
 62
     2
100
AcDbText
 10
10.71948721212293
 20
1.489000640399515
 30
0.0
 40
0.0645465051491158
  1
information, and will not be used
 50
0.0999999600000013
 41
0.6605569100000001
  7
AE
100
AcDbText
  0
TEXT
  5
5C7
330
60
100
AcDbEntity
  8
Title Block
  6
Continuous
 62
     2
100
AcDbText
 10
10.71739723193344
 20
1.378476657741246
 30
0.0
 40
0.0645465051491158
  1
or disclosed to anyone except as
 50
0.0999999600000013
 41
0.6799434399999999
  7
AE
100
AcDbText
  0
TEXT
  5
5C8
330
60
100
AcDbEntity
  8
Title Block
  6
Continuous
 62
     2
100
AcDbText
 10
10.71540499165808
 20
1.267047562975569
 30
0.0
 40
0.0645465051491158
  1
authorized by specific
 50
0.0999999600000013
 41
0.79688752
  7
AE
100
AcDbText
  0
TEXT
  5
5C9
330
60
100
AcDbEntity
  8
Title Block
  6
Continuous
 62
     2
100
AcDbText
 10
10.71777124306261
 20
1.705466828073234
 30
0.0
 40
0.0645465051491158
  1
copied or otherwise reproduced,
 50
0.0999999600000013
 41
0.6799434399999999
  7
AE
100
AcDbText
  0
TEXT
  5
5CA
330
60
100
AcDbEntity
  8
Title Block
  6
Continuous
 62
     2
100
AcDbText
 10
10.72050994356058
 20
2.252555955563673
 30
0.0
 40
0.0645465051491158
  1
NOTICE: This drawing or material
 50
0.0999999600000013
 41
0.7005041199999999
  7
AE
100
AcDbText
  0
TEXT
  5
5CB
330
60
100
AcDbEntity
  8
Title Block
  6
Continuous
 62
     2
100
AcDbText
 10
10.72096632443385
 20
1.159697406318199
 30
0.0
 40
0.0645465051491158
  1
written consent of G&L Motion Control
 50
0.0999999600000013
 41
0.79688752
  7
AE
100
AcDbText
  0
TEXT
  5
5CC
330
60
100
AcDbEntity
  8
Title Block
  6
Continuous
 62
     2
100
AcDbText
 10
10.71875
 20
1.046875
 30
0.0
 40
0.0645465051491158
  1
Automation, LLC
 50
0.0999999600000013
 41
0.79688752
  7
AE
100
AcDbText
  0
ENDBLK
  5
E9
330
60
100
AcDbEntity
  8
0
100
AcDbBlockEnd
  0
BLOCK
  5
BD1
330
BC6
100
AcDbEntity
  8
0
100
AcDbBlockBegin
  2
*D3
 70
     1
 10
0.0
 20
0.0
 30
0.0
  3
*D3
  1

  0
LINE
  5
C47
330
BC6
100
AcDbEntity
  8
0
 62
     7
370
    -2
100
AcDbLine
 10
3.759090514641741
 20
6.740455753166319
 30
0.0
 11
3.759090514641741
 21
5.017955753166319
 31
0.0
  0
LINE
  5
C48
330
BC6
100
AcDbEntity
  8
0
 62
     7
370
    -2
100
AcDbLine
 10
1.049090514641733
 20
6.068246753166324
 30
0.0
 11
1.049090514641733
 21
5.017955753166319
 31
0.0
  0
LINE
  5
C49
330
BC6
100
AcDbEntity
  8
0
 62
     7
370
    -2
100
AcDbLine
 10
3.579090514641741
 20
5.197955753166318
 30
0.0
 11
2.822066705117928
 21
5.197955753166318
 31
0.0
  0
LINE
  5
C4A
330
BC6
100
AcDbEntity
  8
0
 62
     7
370
    -2
100
AcDbLine
 10
1.229090514641733
 20
5.197955753166318
 30
0.0
 11
1.986114324165546
 21
5.197955753166318
 31
0.0
  0
SOLID
  5
C4B
330
BC6
100
AcDbEntity
  8
0
 62
     7
100
AcDbTrace
 10
3.579090514641741
 20
5.227955753166319
 30
0.0
 11
3.579090514641741
 21
5.167955753166318
 31
0.0
 12
3.759090514641741
 22
5.197955753166318
 32
0.0
 13
3.759090514641741
 23
5.197955753166318
 33
0.0
  0
SOLID
  5
C4C
330
BC6
100
AcDbEntity
  8
0
 62
     7
100
AcDbTrace
 10
1.229090514641733
 20
5.227955753166319
 30
0.0
 11
1.229090514641733
 21
5.167955753166318
 31
0.0
 12
1.049090514641733
 22
5.197955753166318
 32
0.0
 13
1.049090514641733
 23
5.197955753166318
 33
0.0
  0
MTEXT
  5
C4D
330
BC6
100
AcDbEntity
  8
0
 62
     7
100
AcDbMText
 10
2.404090514641737
 20
5.197955753166318
 30
0.0
 40
0.095
 41
0.0
 71
     5
 72
     1
  1
\A1;2.05 REF
  7
ROMANS
 73
     1
 44
1.0
  0
POINT
  5
C4E
330
BC6
100
AcDbEntity
  8
Defpoints
 62
     0
100
AcDbPoint
 10
3.759090514641741
 20
6.802955753166319
 30
0.0
  0
POINT
  5
C4F
330
BC6
100
AcDbEntity
  8
Defpoints
 62
     0
100
AcDbPoint
 10
1.049090514641733
 20
6.130746753166324
 30
0.0
  0
POINT
  5
C50
330
BC6
100
AcDbEntity
  8
Defpoints
 62
     0
100
AcDbPoint
 10
1.049090514641733
 20
5.197955753166318
 30
0.0
  0
ENDBLK
  5
BD2
330
BC6
100
AcDbEntity
  8
0
100
AcDbBlockEnd
  0
BLOCK
  5
BDE
330
BD3
100
AcDbEntity
  8
0
100
AcDbBlockBegin
  2
*D4
 70
     1
 10
0.0
 20
0.0
 30
0.0
  3
*D4
  1

  0
LINE
  5
C5B
330
BD3
100
AcDbEntity
  8
0
 62
     7
370
    -2
100
AcDbLine
 10
2.231591514641735
 20
9.412954753166321
 30
0.0
 11
4.648091514641743
 21
9.412954753166319
 31
0.0
  0
LINE
  5
C5C
330
BD3
100
AcDbEntity
  8
0
 62
     7
370
    -2
100
AcDbLine
 10
2.231591514641735
 20
5.982955753166312
 30
0.0
 11
4.648091514641742
 21
5.982955753166312
 31
0.0
  0
LINE
  5
C5D
330
BD3
100
AcDbEntity
  8
0
 62
     7
370
    -2
100
AcDbLine
 10
4.468091514641742
 20
9.232954753166319
 30
0.0
 11
4.468091514641742
 21
7.914621919832982
 31
0.0
  0
LINE
  5
C5E
330
BD3
100
AcDbEntity
  8
0
 62
     7
370
    -2
100
AcDbLine
 10
4.468091514641742
 20
6.162955753166311
 30
0.0
 11
4.468091514641742
 21
7.481288586499649
 31
0.0
  0
SOLID
  5
C5F
330
BD3
100
AcDbEntity
  8
0
 62
     7
100
AcDbTrace
 10
4.438091514641742
 20
9.232954753166319
 30
0.0
 11
4.498091514641743
 21
9.232954753166319
 31
0.0
 12
4.468091514641742
 22
9.412954753166319
 32
0.0
 13
4.468091514641742
 23
9.412954753166319
 33
0.0
  0
SOLID
  5
C60
330
BD3
100
AcDbEntity
  8
0
 62
     7
100
AcDbTrace
 10
4.438091514641742
 20
6.162955753166311
 30
0.0
 11
4.498091514641743
 21
6.162955753166311
 31
0.0
 12
4.468091514641741
 22
5.982955753166312
 32
0.0
 13
4.468091514641741
 23
5.982955753166312
 33
0.0
  0
MTEXT
  5
C61
330
BD3
100
AcDbEntity
  8
0
 62
     7
100
AcDbMText
 10
4.468091514641741
 20
7.697955253166316
 30
0.0
 40
0.095
 41
0.0
 71
     5
 72
     1
  1
\A1;3.35\PREF
  7
ROMANS
 73
     1
 44
1.0
  0
POINT
  5
C62
330
BD3
100
AcDbEntity
  8
Defpoints
 62
     0
100
AcDbPoint
 10
2.169091514641735
 20
9.412954753166321
 30
0.0
  0
POINT
  5
C63
330
BD3
100
AcDbEntity
  8
Defpoints
 62
     0
100
AcDbPoint
 10
2.169091514641735
 20
5.982955753166312
 30
0.0
  0
POINT
  5
C64
330
BD3
100
AcDbEntity
  8
Defpoints
 62
     0
100
AcDbPoint
 10
4.468091514641741
 20
5.982955753166312
 30
0.0
  0
ENDBLK
  5
BDF
330
BD3
100
AcDbEntity
  8
0
100
AcDbBlockEnd
  0
BLOCK
  5
BEB
330
BE0
100
AcDbEntity
  8
0
100
AcDbBlockBegin
  2
*D5
 70
     1
 10
0.0
 20
0.0
 30
0.0
  3
*D5
  1

  0
LINE
  5
C51
330
BE0
100
AcDbEntity
  8
0
 62
     7
370
    -2
100
AcDbLine
 10
8.583090514641732
 20
5.945455753166317
 30
0.0
 11
8.583090514641732
 21
5.021057753166317
 31
0.0
  0
LINE
  5
C52
330
BE0
100
AcDbEntity
  8
0
 62
     7
370
    -2
100
AcDbLine
 10
6.353090514641735
 20
5.945455753166317
 30
0.0
 11
6.353090514641735
 21
5.021057753166317
 31
0.0
  0
LINE
  5
C53
330
BE0
100
AcDbEntity
  8
0
 62
     7
370
    -2
100
AcDbLine
 10
8.403090514641732
 20
5.201057753166317
 30
0.0
 11
7.87928099083221
 21
5.201057753166317
 31
0.0
  0
LINE
  5
C54
330
BE0
100
AcDbEntity
  8
0
 62
     7
370
    -2
100
AcDbLine
 10
6.533090514641735
 20
5.201057753166317
 30
0.0
 11
7.056900038451257
 21
5.201057753166317
 31
0.0
  0
SOLID
  5
C55
330
BE0
100
AcDbEntity
  8
0
 62
     7
100
AcDbTrace
 10
8.403090514641732
 20
5.231057753166317
 30
0.0
 11
8.403090514641732
 21
5.171057753166317
 31
0.0
 12
8.583090514641732
 22
5.201057753166317
 32
0.0
 13
8.583090514641732
 23
5.201057753166317
 33
0.0
  0
SOLID
  5
C56
330
BE0
100
AcDbEntity
  8
0
 62
     7
100
AcDbTrace
 10
6.533090514641735
 20
5.231057753166317
 30
0.0
 11
6.533090514641735
 21
5.171057753166317
 31
0.0
 12
6.353090514641735
 22
5.201057753166317
 32
0.0
 13
6.353090514641735
 23
5.201057753166317
 33
0.0
  0
MTEXT
  5
C57
330
BE0
100
AcDbEntity
  8
0
 62
     7
100
AcDbMText
 10
7.468090514641733
 20
5.201057753166317
 30
0.0
 40
0.095
 41
0.0
 71
     5
 72
     1
  1
\A1;1.94 REF
  7
ROMANS
 73
     1
 44
1.0
  0
POINT
  5
C58
330
BE0
100
AcDbEntity
  8
Defpoints
 62
     0
100
AcDbPoint
 10
8.583090514641732
 20
6.007955753166317
 30
0.0
  0
POINT
  5
C59
330
BE0
100
AcDbEntity
  8
Defpoints
 62
     0
100
AcDbPoint
 10
6.353090514641735
 20
6.007955753166317
 30
0.0
  0
POINT
  5
C5A
330
BE0
100
AcDbEntity
  8
Defpoints
 62
     0
100
AcDbPoint
 10
6.353090514641735
 20
5.201057753166317
 30
0.0
  0
ENDBLK
  5
BEC
330
BE0
100
AcDbEntity
  8
0
100
AcDbBlockEnd
  0
ENDSEC
  0
SECTION
  2
ENTITIES
  0
TEXT
  5
413
330
1F
100
AcDbEntity
  8
0
100
AcDbText
 10
13.0646919963216
 20
3.236064005942075
 30
0.0
 40
0.125
  1
G&L Motion Control
  7
ROMANS
 72
     1
 11
14.16588247251208
 21
3.236064005942075
 31
0.0
100
AcDbText
  0
TEXT
  5
414
330
1F
100
AcDbEntity
  8
0
100
AcDbText
 10
13.21350152013113
 20
3.043546943920389
 30
0.0
 40
0.125
  1
SHORT DESCRIPTION
  7
ROMANS
 72
     1
 11
14.16588247251208
 21
3.043546943920389
 31
0.0
100
AcDbText
  0
TEXT
  5
415
330
1F
100
AcDbEntity
  8
0
100
AcDbText
 10
12.68188550789981
 20
2.781469585296122
 30
0.0
 40
0.125
  1
BKOUT BD,F1/F2,MMC-SD PNL MT
  7
ROMANS
 72
     1
 11
14.36045693647123
 21
2.781469585296122
 31
0.0
100
AcDbText
  0
LINE
  5
416
330
1F
100
AcDbEntity
  8
0
 62
     4
100
AcDbLine
 10
16.097063502585
 20
2.969128726883006
 30
0.0
 11
8.750214777793424
 21
2.969128726883006
 31
0.0
  0
LINE
  5
417
330
1F
100
AcDbEntity
  8
0
 62
     4
100
AcDbLine
 10
16.097063502585
 20
2.719128726883014
 30
0.0
 11
8.750214777793424
 21
2.719128726883013
 31
0.0
  0
LINE
  5
418
330
1F
100
AcDbEntity
  8
0
 62
     4
100
AcDbLine
 10
16.097063502585
 20
3.469128726883
 30
0.0
 11
8.750214777793424
 21
3.469128726883
 31
0.0
  0
TEXT
  5
419
330
1F
100
AcDbEntity
  8
0
100
AcDbText
 10
11.01509573017437
 20
2.781469585296122
 30
0.0
 40
0.125
  1
M.1302.6972
  7
ROMANS
 72
     1
 11
11.62521477779342
 21
2.781469585296122
 31
0.0
100
AcDbText
  0
TEXT
  5
41A
330
1F
100
AcDbEntity
  8
0
100
AcDbText
 10
11.00319096826961
 20
3.043546943920389
 30
0.0
 40
0.125
  1
SAP NUMBER
  7
ROMANS
 72
     1
 11
11.62521477779342
 21
3.043546943920389
 31
0.0
100
AcDbText
  0
TEXT
  5
41B
330
1F
100
AcDbEntity
  8
0
100
AcDbText
 10
11.14307192065056
 20
3.236064005942075
 30
0.0
 40
0.125
  1
G&L Motion Control
  7
ROMANS
 72
     1
 11
11.62521477779342
 21
3.236064005942075
 31
0.0
100
AcDbText
  0
TEXT
  5
41C
330
1F
100
AcDbEntity
  8
0
100
AcDbText
 10
9.015255412248929
 20
3.043546943920389
 30
0.0
 40
0.125
  1
PART NUMBER
  7
ROMANS
 72
     1
 11
9.690850650344167
 21
3.043546943920389
 31
0.0
100
AcDbText
  0
TEXT
  5
41D
330
1F
100
AcDbEntity
  8
0
100
AcDbText
 10
9.15216017415369
 20
3.236064005942075
 30
0.0
 40
0.125
  1
REFERENCE
  7
ROMANS
 72
     1
 11
9.690850650344167
 21
3.236064005942075
 31
0.0
100
AcDbText
  0
TEXT
  5
41E
330
1F
100
AcDbEntity
  8
0
100
AcDbText
 10
9.355582057464792
 20
2.781469585296122
 30
0.0
 40
0.125
  1
Pxxxxx
  7
ROMANS
 72
     1
 11
9.674034438417173
 21
2.781469585296122
 31
0.0
100
AcDbText
  0
LINE
  5
41F
330
1F
100
AcDbEntity
  8
0
 62
     4
100
AcDbLine
 10
8.750214777793424
 20
2.719128726883013
 30
0.0
 11
8.750214777793424
 21
3.469128726882999
 31
0.0
  0
LINE
  5
420
330
1F
100
AcDbEntity
  8
0
 62
     4
100
AcDbLine
 10
10.62521477779342
 20
2.719128726883013
 30
0.0
 11
10.62521477779342
 21
3.469128726882999
 31
0.0
  0
LINE
  5
421
330
1F
100
AcDbEntity
  8
0
 62
     4
100
AcDbLine
 10
12.62521477779342
 20
2.719128726883013
 30
0.0
 11
12.62521477779342
 21
3.469128726882999
 31
0.0
  0
LINE
  5
422
330
1F
100
AcDbEntity
  8
0
 62
     4
100
AcDbLine
 10
16.097063502585
 20
2.719128726883013
 30
0.0
 11
16.097063502585
 21
3.469128726882999
 31
0.0
  0
INSERT
  5
5CE
330
1F
100
AcDbEntity
  8
0
100
AcDbBlockReference
 66
     1
  2
ASSEMBLY_B
 10
0.0
 20
0.0
 30
0.0
  0
ATTRIB
  5
5D0
330
5CE
100
AcDbEntity
  8
Title Block
  6
Continuous
 62
     2
100
AcDbText
 10
10.79999999999999
 20
0.6000000000000001
 30
0.0
 40
0.126326427375
  1
BREAKOUT BD, F1/F2, MMC-SD
 41
0.8
100
AcDbAttribute
  2
GEN-TITLE-DES1{15.54}
 70
     0
  0
ATTRIB
  5
5D1
330
5CE
100
AcDbEntity
  8
Title Block
  6
Continuous
 62
     2
100
AcDbText
 10
12.52499999999999
 20
1.024999999999999
 30
0.0
 40
0.1010611419
  1

100
AcDbAttribute
  2
GEN-TITLE-APPM{5}
 70
     0
  0
ATTRIB
  5
5D2
330
5CE
100
AcDbEntity
  8
Title Block
  6
Continuous
 62
     2
100
AcDbText
 10
12.52499999999999
 20
1.274999999999999
 30
0.0
 40
0.1010611419
  1

100
AcDbAttribute
  2
GEN-TITLE-CHKM{5}
 70
     0
  0
ATTRIB
  5
5D3
330
5CE
100
AcDbEntity
  8
Title Block
  6
Continuous
 62
     2
100
AcDbText
 10
12.52499999999999
 20
1.524999999999999
 30
0.0
 40
0.1010611419
  1
G. MUMM
100
AcDbAttribute
  2
GEN-TITLE-NAME{5}
 70
     0
  0
ATTRIB
  5
5D4
330
5CE
100
AcDbEntity
  8
Title Block
  6
Continuous
 62
     2
100
AcDbText
 10
14.0
 20
0.5
 30
0.0
 40
0.196816573850279
  1
MD.1000.8491
 41
0.8
100
AcDbAttribute
  2
GEN-TITLE-NR{13.37}
 70
     0
  0
ATTRIB
  5
5D5
330
5CE
100
AcDbEntity
  8
Title Block
  6
Continuous
 62
     2
100
AcDbText
 10
15.6
 20
1.024999999999999
 30
0.0
 40
0.11808994431015
  1
1
 41
0.8
100
AcDbAttribute
  2
GEN-TITLE-SHEET{2.62}
 70
     0
  0
ATTRIB
  5
5D6
330
5CE
100
AcDbEntity
  8
Title Block
  6
Continuous
 62
     2
100
AcDbText
 10
15.525
 20
1.274999999999999
 30
0.0
 40
0.1010611419
  1
17.06.03
100
AcDbAttribute
  2
GEN-TITLE-PLOT{5}
 70
     0
  0
ATTRIB
  5
5D7
330
5CE
100
AcDbEntity
  8
Title Block
  6
Continuous
 62
     2
100
AcDbText
 10
15.99999999999999
 20
1.024999999999999
 30
0.0
 40
0.11808994431015
  1
1
 41
0.8
100
AcDbAttribute
  2
GEN-TITLE-SHEET-OF{2.62}
 70
     0
  0
ATTRIB
  5
5D8
330
5CE
100
AcDbEntity
  8
Title Block
  6
Continuous
 62
     2
100
AcDbText
 10
14.05
 20
1.524999999999999
 30
0.0
 40
0.1010611419
  1

100
AcDbAttribute
  2
GEN-TITLE-REF{5}
 70
     0
  0
ATTRIB
  5
5D9
330
5CE
100
AcDbEntity
  8
Title Block
  6
Continuous
 62
     2
100
AcDbText
 10
14.05
 20
1.274999999999999
 30
0.0
 40
0.1010611419
  1

100
AcDbAttribute
  2
GEN-TITLE-MACH{5}
 70
     0
  0
ATTRIB
  5
5DA
330
5CE
100
AcDbEntity
  8
Title Block
  6
Continuous
 62
     2
100
AcDbText
 10
14.05
 20
1.024999999999999
 30
0.0
 40
0.1010611419
  1

 41
0.8
100
AcDbAttribute
  2
GEN-TITLE-MAT{11.15}
 70
     0
  0
SEQEND
  5
5CF
330
5CE
100
AcDbEntity
  8
0
  0
LEADER
  5
8F8
330
1F
100
AcDbEntity
  8
0
100
AcDbLeader
  3
Standard
 73
     0
 40
0.125
 41
0.7083333333333335
 76
     3
 10
2.858999011304808
 20
1.924443711946622
 30
0.0
 10
1.763901807819427
 20
3.080846869754978
 30
0.0
 10
1.474630823271825
 20
3.080846869754978
 30
0.0
340
8F9
213
0.0
223
0.0625
233
0.0
1001
ACAD
1000
DSTYLE
1002
{
1070
   147
1040
0.09
1070
    77
1070
     0
1070
    44
1040
0.125
1070
    78
1070
     4
1070
   140
1040
0.125
1070
   141
1040
-0.125
1070
   271
1070
     2
1070
   272
1070
     2
1070
   288
1070
     1
1070
   289
1070
     1
1002
}
  0
MTEXT
  5
8F9
102
{ACAD_REACTORS
330
8F8
102
}
330
1F
100
AcDbEntity
  8
0
100
AcDbMText
 10
1.384630823271825
 20
3.018346869754978
 30
0.0
 40
0.125
 41
0.0
 71
     9
 72
     1
  1
\A1;MODULE
  7
ROMANS
 73
     1
 44
1.0
  0
LWPOLYLINE
  5
8FA
330
1F
100
AcDbEntity
  8
0
 62
     2
100
AcDbPolyline
 90
        2
 70
     0
 43
0.0
 10
4.892187859521852
 20
1.766955753166321
 10
4.892187859521852
 20
2.42295575316632
  0
LWPOLYLINE
  5
8FB
330
1F
100
AcDbEntity
  8
0
 62
     2
100
AcDbPolyline
 90
        2
 70
     0
 43
0.0
 10
5.09018785952186
 20
2.42295575316632
 10
5.09018785952186
 20
1.766955753166321
  0
LWPOLYLINE
  5
8FC
330
1F
100
AcDbEntity
  8
0
 62
     2
100
AcDbPolyline
 90
        2
 70
     0
 43
0.0
 10
5.047187859521853
 20
2.445955753166323
 10
5.047187859521853
 20
1.743955753166318
  0
LWPOLYLINE
  5
8FD
330
1F
100
AcDbEntity
  8
0
 62
     2
100
AcDbPolyline
 90
        2
 70
     0
 43
0.0
 10
3.05818785952187
 20
2.42295575316632
 10
3.05818785952187
 20
1.781955753166322
  0
LWPOLYLINE
  5
8FE
330
1F
100
AcDbEntity
  8
0
 62
     2
100
AcDbPolyline
 90
        2
 70
     0
 43
0.0
 10
2.903187859521869
 20
1.743955753166318
 10
2.903187859521869
 20
2.445955753166323
  0
LWPOLYLINE
  5
8FF
330
1F
100
AcDbEntity
  8
0
 62
     2
100
AcDbPolyline
 90
        2
 70
     0
 43
0.0
 10
2.860187859521863
 20
1.766955753166321
 10
2.860187859521863
 20
2.42295575316632
  0
LWPOLYLINE
  5
900
330
1F
100
AcDbEntity
  8
0
 62
     2
100
AcDbPolyline
 90
        2
 70
     0
 43
0.0
 10
3.05818785952187
 20
2.107955753166322
 10
4.892187859521852
 20
2.107955753166322
  0
LWPOLYLINE
  5
901
330
1F
100
AcDbEntity
  8
0
 62
     2
100
AcDbPolyline
 90
        2
 70
     0
 43
0.0
 10
3.05818785952187
 20
1.781955753166322
 10
4.892187859521852
 20
1.781955753166322
  0
LWPOLYLINE
  5
902
330
1F
100
AcDbEntity
  8
0
 62
     2
100
AcDbPolyline
 90
        2
 70
     0
 43
0.0
 10
3.376187859521868
 20
1.545955753166317
 10
3.376187859521868
 20
0.9879557531663181
  0
LWPOLYLINE
  5
903
330
1F
100
AcDbEntity
  8
0
 62
     2
100
AcDbPolyline
 90
        2
 70
     0
 43
0.0
 10
3.062187859521861
 20
1.545955753166317
 10
3.062187859521861
 20
0.9879557531663181
  0
LWPOLYLINE
  5
904
330
1F
100
AcDbEntity
  8
0
 62
     2
100
AcDbPolyline
 90
        2
 70
     0
 43
0.0
 10
3.062187859521861
 20
1.220955753166322
 10
3.376187859521868
 20
1.220955753166322
  0
LWPOLYLINE
  5
905
330
1F
100
AcDbEntity
  8
0
 62
     2
100
AcDbPolyline
 90
        2
 70
     0
 43
0.0
 10
3.062187859521861
 20
0.9879557531663181
 10
3.376187859521868
 20
0.9879557531663181
  0
LWPOLYLINE
  5
906
330
1F
100
AcDbEntity
  8
0
 62
     2
100
AcDbPolyline
 90
        2
 70
     0
 43
0.0
 10
3.062187859521861
 20
1.115955753166318
 10
3.376187859521868
 20
1.115955753166318
  0
LWPOLYLINE
  5
907
330
1F
100
AcDbEntity
  8
0
 62
     2
100
AcDbPolyline
 90
        2
 70
     0
 43
0.0
 10
3.03518785952186
 20
1.545955753166317
 10
3.403187859521869
 20
1.545955753166317
  0
LWPOLYLINE
  5
908
330
1F
100
AcDbEntity
  8
0
 62
     2
100
AcDbPolyline
 90
        2
 70
     0
 43
0.0
 10
2.860187859521863
 20
1.766955753166321
 42
0.4142140000000001
 10
2.883187859521873
 20
1.743955753166318
  0
LWPOLYLINE
  5
909
330
1F
100
AcDbEntity
  8
0
 62
     2
100
AcDbPolyline
 90
        2
 70
     0
 43
0.0
 10
3.03518785952186
 20
1.758955753166318
 42
0.4142140000000001
 10
3.05818785952187
 20
1.781955753166322
  0
LWPOLYLINE
  5
90A
330
1F
100
AcDbEntity
  8
0
 62
     2
100
AcDbPolyline
 90
        2
 70
     0
 43
0.0
 10
2.903187859521869
 20
1.743955753166318
 10
2.883187859521873
 20
1.743955753166318
  0
LWPOLYLINE
  5
90B
330
1F
100
AcDbEntity
  8
0
 62
     2
100
AcDbPolyline
 90
        2
 70
     0
 43
0.0
 10
2.903187859521869
 20
1.758955753166318
 10
3.03518785952186
 20
1.758955753166318
  0
LWPOLYLINE
  5
90C
330
1F
100
AcDbEntity
  8
0
 62
     2
100
AcDbPolyline
 90
        2
 70
     0
 43
0.0
 10
3.03518785952186
 20
1.545955753166317
 10
3.03518785952186
 20
1.758955753166318
  0
LWPOLYLINE
  5
90D
330
1F
100
AcDbEntity
  8
0
 62
     2
100
AcDbPolyline
 90
        2
 70
     0
 43
0.0
 10
3.403187859521869
 20
1.545955753166317
 10
3.403187859521869
 20
1.781955753166322
  0
LWPOLYLINE
  5
90E
330
1F
100
AcDbEntity
  8
0
 62
     2
100
AcDbPolyline
 90
        2
 70
     0
 43
0.0
 10
4.574187859521869
 20
1.545955753166317
 10
4.574187859521869
 20
0.9879557531663181
  0
LWPOLYLINE
  5
90F
330
1F
100
AcDbEntity
  8
0
 62
     2
100
AcDbPolyline
 90
        2
 70
     0
 43
0.0
 10
4.888187859521861
 20
1.545955753166317
 10
4.888187859521861
 20
0.9879557531663181
  0
LWPOLYLINE
  5
910
330
1F
100
AcDbEntity
  8
0
 62
     2
100
AcDbPolyline
 90
        2
 70
     0
 43
0.0
 10
4.888187859521861
 20
1.220955753166322
 10
4.574187859521869
 20
1.220955753166322
  0
LWPOLYLINE
  5
911
330
1F
100
AcDbEntity
  8
0
 62
     2
100
AcDbPolyline
 90
        2
 70
     0
 43
0.0
 10
4.888187859521861
 20
0.9879557531663181
 10
4.574187859521869
 20
0.9879557531663181
  0
LWPOLYLINE
  5
912
330
1F
100
AcDbEntity
  8
0
 62
     2
100
AcDbPolyline
 90
        2
 70
     0
 43
0.0
 10
4.888187859521861
 20
1.115955753166318
 10
4.574187859521869
 20
1.115955753166318
  0
LWPOLYLINE
  5
913
330
1F
100
AcDbEntity
  8
0
 62
     2
100
AcDbPolyline
 90
        2
 70
     0
 43
0.0
 10
4.915187859521848
 20
1.545955753166317
 10
4.547187859521853
 20
1.545955753166317
  0
LWPOLYLINE
  5
914
330
1F
100
AcDbEntity
  8
0
 62
     2
100
AcDbPolyline
 90
        2
 70
     0
 43
0.0
 10
4.547187859521853
 20
1.545955753166317
 10
4.547187859521853
 20
1.781955753166322
  0
LWPOLYLINE
  5
915
330
1F
100
AcDbEntity
  8
0
 62
     2
100
AcDbPolyline
 90
        2
 70
     0
 43
0.0
 10
4.893623859521865
 20
1.758955753166318
 10
5.047187859521853
 20
1.758955753166318
  0
LWPOLYLINE
  5
916
330
1F
100
AcDbEntity
  8
0
 62
     2
100
AcDbPolyline
 90
        2
 70
     0
 43
0.0
 10
4.892187859521852
 20
1.766955753166321
 42
0.089048
 10
4.893623859521865
 20
1.758955753166318
  0
LWPOLYLINE
  5
917
330
1F
100
AcDbEntity
  8
0
 62
     2
100
AcDbPolyline
 90
        2
 70
     0
 43
0.0
 10
4.915187859521848
 20
1.545955753166317
 10
4.915187859521848
 20
1.758955753166318
  0
LWPOLYLINE
  5
918
330
1F
100
AcDbEntity
  8
0
 62
     2
100
AcDbPolyline
 90
        2
 70
     0
 43
0.0
 10
5.067187859521864
 20
1.743955753166318
 10
5.047187859521853
 20
1.743955753166318
  0
LWPOLYLINE
  5
919
330
1F
100
AcDbEntity
  8
0
 62
     2
100
AcDbPolyline
 90
        2
 70
     0
 43
0.0
 10
5.067187859521864
 20
1.743955753166318
 10
5.047187859521853
 20
1.743955753166318
  0
LWPOLYLINE
  5
91A
330
1F
100
AcDbEntity
  8
0
 62
     2
100
AcDbPolyline
 90
        2
 70
     0
 43
0.0
 10
5.067187859521864
 20
1.743955753166318
 42
0.4142140000000001
 10
5.09018785952186
 20
1.766955753166321
  0
TEXT
  5
91B
330
1F
100
AcDbEntity
  8
0
100
AcDbText
 10
4.368535115316712
 20
3.355957753166322
 30
0.0
 40
0.06
  1
7
  7
ROMANS
 72
     1
 11
4.39710654388814
 21
3.355957753166322
 31
0.0
100
AcDbText
  0
LWPOLYLINE
  5
91C
330
1F
100
AcDbEntity
  8
0
 62
     4
100
AcDbPolyline
 90
        2
 70
     0
 43
0.0
 10
3.092187859521862
 20
3.697955753166318
 10
4.674968859521866
 20
3.697955753166318
  0
LWPOLYLINE
  5
91D
330
1F
100
AcDbEntity
  8
0
 62
     4
100
AcDbPolyline
 90
        2
 70
     0
 43
0.0
 10
3.092187859521862
 20
3.447955753166318
 10
4.674968859521866
 20
3.447955753166318
  0
LWPOLYLINE
  5
91E
330
1F
100
AcDbEntity
  8
0
 62
     4
100
AcDbPolyline
 90
        2
 70
     0
 43
0.0
 10
3.092187859521862
 20
3.100914753166321
 10
4.774968859521861
 20
3.100922004216577
  0
LWPOLYLINE
  5
91F
330
1F
100
AcDbEntity
  8
0
 62
     4
100
AcDbPolyline
 90
        2
 70
     0
 43
0.0
 10
3.199187859521861
 20
2.850955753166317
 10
4.774968859521861
 20
2.850955753166317
  0
LWPOLYLINE
  5
920
330
1F
100
AcDbEntity
  8
0
 62
     4
100
AcDbPolyline
 90
        2
 70
     0
 43
0.0
 10
4.318983859521877
 20
3.340955753166319
 10
4.450983859521853
 20
3.340955753166319
  0
LWPOLYLINE
  5
921
330
1F
100
AcDbEntity
  8
0
 62
     2
100
AcDbPolyline
 90
        2
 70
     0
 43
0.0
 10
3.05818785952187
 20
2.202955753166321
 10
4.892187859521852
 20
2.202955753166321
  0
LWPOLYLINE
  5
922
330
1F
100
AcDbEntity
  8
0
 62
     2
100
AcDbPolyline
 90
        2
 70
     0
 43
0.0
 10
3.05818785952187
 20
2.348955753166322
 10
4.892187859521852
 20
2.348955753166322
  0
LWPOLYLINE
  5
923
330
1F
100
AcDbEntity
  8
0
 62
     2
100
AcDbPolyline
 90
        2
 70
     0
 43
0.0
 10
3.05818785952187
 20
2.406955753166322
 10
4.892187859521852
 20
2.406955753166322
  0
LWPOLYLINE
  5
924
330
1F
100
AcDbEntity
  8
0
 62
     4
100
AcDbPolyline
 90
        2
 70
     0
 43
0.0
 10
3.69198385952186
 20
3.697955753166318
 10
3.69198385952186
 20
3.100955753166317
  0
LWPOLYLINE
  5
925
330
1F
100
AcDbEntity
  8
0
 62
     4
100
AcDbPolyline
 90
        2
 70
     0
 43
0.0
 10
4.266187859521869
 20
3.697955753166318
 10
4.266187859521869
 20
3.100955753166317
  0
LWPOLYLINE
  5
926
330
1F
100
AcDbEntity
  8
0
 62
     4
100
AcDbPolyline
 90
        2
 70
     0
 43
0.0
 10
3.092187859521862
 20
3.697955753166318
 10
3.092187859521862
 20
2.406955753166322
  0
LWPOLYLINE
  5
927
330
1F
100
AcDbEntity
  8
0
 62
     4
100
AcDbPolyline
 90
        2
 70
     0
 43
0.0
 10
3.43115585952187
 20
2.731055753166323
 10
3.563155859521861
 20
2.731055753166323
  0
LWPOLYLINE
  5
928
330
1F
100
AcDbEntity
  8
0
 62
     4
100
AcDbPolyline
 90
        2
 70
     0
 43
0.0
 10
3.43115585952187
 20
2.731955753166317
 10
3.563155859521861
 20
2.731955753166317
  0
LWPOLYLINE
  5
929
330
1F
100
AcDbEntity
  8
0
 62
     4
100
AcDbPolyline
 90
        2
 70
     0
 43
0.0
 10
3.519983859521863
 20
3.340955753166319
 10
3.651983859521868
 20
3.340955753166319
  0
LWPOLYLINE
  5
92A
330
1F
100
AcDbEntity
  8
0
 62
     4
100
AcDbPolyline
 90
        2
 70
     0
 43
0.0
 10
3.43115585952187
 20
2.491055753166321
 10
3.563155859521861
 20
2.491055753166321
  0
TEXT
  5
92B
330
1F
100
AcDbEntity
  8
0
100
AcDbText
 10
3.406594972459556
 20
2.750366753166318
 30
0.0
 40
0.06
  1
10
  7
ROMANS
 72
     1
 11
3.468023543888127
 21
2.750366753166318
 31
0.0
100
AcDbText
  0
TEXT
  5
92C
330
1F
100
AcDbEntity
  8
0
100
AcDbText
 10
3.25387068674527
 20
2.748990753166317
 30
0.0
 40
0.06
  1
9
  7
ROMANS
 72
     1
 11
3.281013543888127
 21
2.748990753166317
 31
0.0
100
AcDbText
  0
LWPOLYLINE
  5
92D
330
1F
100
AcDbEntity
  8
0
 62
     4
100
AcDbPolyline
 90
        2
 70
     0
 43
0.0
 10
3.199187859521861
 20
3.100955753166317
 10
3.199187859521861
 20
2.406955753166322
  0
LWPOLYLINE
  5
92E
330
1F
100
AcDbEntity
  8
0
 62
     4
100
AcDbPolyline
 90
        2
 70
     0
 43
0.0
 10
3.17418785952187
 20
2.896955753166317
 10
3.17418785952187
 20
2.406955753166322
  0
LWPOLYLINE
  5
92F
330
1F
100
AcDbEntity
  8
0
 62
     4
100
AcDbPolyline
 90
        2
 70
     0
 43
0.0
 10
3.067187859521871
 20
2.896955753166317
 10
3.067187859521871
 20
2.406955753166322
  0
LWPOLYLINE
  5
930
330
1F
100
AcDbEntity
  8
0
 62
     2
100
AcDbPolyline
 90
        2
 70
     0
 43
0.0
 10
2.883187859521873
 20
2.445955753166323
 42
0.4142140000000001
 10
2.860187859521863
 20
2.42295575316632
  0
LWPOLYLINE
  5
931
330
1F
100
AcDbEntity
  8
0
 62
     2
100
AcDbPolyline
 90
        2
 70
     0
 43
0.0
 10
3.05818785952187
 20
2.42295575316632
 42
0.4142140000000001
 10
3.03518785952186
 20
2.445955753166323
  0
LWPOLYLINE
  5
932
330
1F
100
AcDbEntity
  8
0
 62
     2
100
AcDbPolyline
 90
        2
 70
     0
 43
0.0
 10
2.883187859521873
 20
2.445955753166323
 10
3.03518785952186
 20
2.445955753166323
  0
LWPOLYLINE
  5
933
330
1F
100
AcDbEntity
  8
0
 62
     4
100
AcDbPolyline
 90
        2
 70
     0
 43
0.0
 10
3.237257859521866
 20
2.731955753166317
 10
3.369257859521871
 20
2.731955753166317
  0
LWPOLYLINE
  5
934
330
1F
100
AcDbEntity
  8
0
 62
     4
100
AcDbPolyline
 90
        2
 70
     0
 43
0.0
 10
3.237257859521866
 20
2.731055753166323
 10
3.369257859521871
 20
2.731055753166323
  0
LWPOLYLINE
  5
935
330
1F
100
AcDbEntity
  8
0
 62
     4
100
AcDbPolyline
 90
        2
 70
     0
 43
0.0
 10
3.237257859521866
 20
2.491014753166318
 10
3.369257859521871
 20
2.491058753166321
  0
LWPOLYLINE
  5
936
330
1F
100
AcDbEntity
  8
0
 62
     4
100
AcDbPolyline
 90
        2
 70
     0
 43
0.0
 10
3.237257859521866
 20
2.731955753166317
 10
3.237257859521866
 20
2.491014753166318
  0
LWPOLYLINE
  5
937
330
1F
100
AcDbEntity
  8
0
 62
     4
100
AcDbPolyline
 90
        2
 70
     0
 43
0.0
 10
3.245257859521862
 20
2.731955753166317
 10
3.245257859521862
 20
2.491014753166318
  0
LWPOLYLINE
  5
938
330
1F
100
AcDbEntity
  8
0
 62
     4
100
AcDbPolyline
 90
        2
 70
     0
 43
0.0
 10
3.369257859521871
 20
2.731955753166317
 10
3.369257859521871
 20
2.491055753166321
  0
LWPOLYLINE
  5
939
330
1F
100
AcDbEntity
  8
0
 62
     4
100
AcDbPolyline
 90
        2
 70
     0
 43
0.0
 10
3.43115585952187
 20
2.731955753166317
 10
3.43115585952187
 20
2.491055753166321
  0
LWPOLYLINE
  5
93A
330
1F
100
AcDbEntity
  8
0
 62
     4
100
AcDbPolyline
 90
        2
 70
     0
 43
0.0
 10
3.361257859521861
 20
2.731955753166317
 10
3.361257859521861
 20
2.491055753166321
  0
LWPOLYLINE
  5
93B
330
1F
100
AcDbEntity
  8
0
 62
     4
100
AcDbPolyline
 90
        2
 70
     0
 43
0.0
 10
3.439655859521868
 20
2.491055753166321
 10
3.439655859521868
 20
2.731055753166323
  0
LWPOLYLINE
  5
93C
330
1F
100
AcDbEntity
  8
0
 62
     4
100
AcDbPolyline
 90
        2
 70
     0
 43
0.0
 10
3.067187859521871
 20
2.896955753166317
 10
3.092187859521862
 20
2.896955753166317
  0
LWPOLYLINE
  5
93D
330
1F
100
AcDbEntity
  8
0
 62
     4
100
AcDbPolyline
 90
        2
 70
     0
 43
0.0
 10
3.519983859521863
 20
3.340955753166319
 10
3.519983859521863
 20
3.100955753166317
  0
LWPOLYLINE
  5
93E
330
1F
100
AcDbEntity
  8
0
 62
     4
100
AcDbPolyline
 90
        2
 70
     0
 43
0.0
 10
3.458085859521863
 20
3.340955753166319
 10
3.458085859521863
 20
3.100955753166317
  0
LWPOLYLINE
  5
93F
330
1F
100
AcDbEntity
  8
0
 62
     4
100
AcDbPolyline
 90
        2
 70
     0
 43
0.0
 10
3.449585859521866
 20
3.100955753166317
 10
3.449585859521866
 20
3.340955753166319
  0
LWPOLYLINE
  5
940
330
1F
100
AcDbEntity
  8
0
 62
     4
100
AcDbPolyline
 90
        2
 70
     0
 43
0.0
 10
3.264187859521873
 20
3.340955753166319
 10
3.264187859521873
 20
3.100955753166317
  0
LWPOLYLINE
  5
941
330
1F
100
AcDbEntity
  8
0
 62
     4
100
AcDbPolyline
 90
        2
 70
     0
 43
0.0
 10
3.326085859521858
 20
3.340955753166319
 10
3.326085859521858
 20
3.100955753166317
  0
LWPOLYLINE
  5
942
330
1F
100
AcDbEntity
  8
0
 62
     4
100
AcDbPolyline
 90
        2
 70
     0
 43
0.0
 10
3.334585859521871
 20
3.100955753166317
 10
3.334585859521871
 20
3.340955753166319
  0
LWPOLYLINE
  5
943
330
1F
100
AcDbEntity
  8
0
 62
     4
100
AcDbPolyline
 90
        2
 70
     0
 43
0.0
 10
3.256187859521864
 20
3.340955753166319
 10
3.256187859521864
 20
3.100955753166317
  0
LWPOLYLINE
  5
944
330
1F
100
AcDbEntity
  8
0
 62
     4
100
AcDbPolyline
 90
        2
 70
     0
 43
0.0
 10
3.132187859521868
 20
3.340955753166319
 10
3.132187859521868
 20
3.100914753166321
  0
LWPOLYLINE
  5
945
330
1F
100
AcDbEntity
  8
0
 62
     4
100
AcDbPolyline
 90
        2
 70
     0
 43
0.0
 10
3.140187859521864
 20
3.340955753166319
 10
3.140187859521864
 20
3.100914753166321
  0
LWPOLYLINE
  5
946
330
1F
100
AcDbEntity
  8
0
 62
     4
100
AcDbPolyline
 90
        2
 70
     0
 43
0.0
 10
3.17418785952187
 20
2.896955753166317
 10
3.199187859521861
 20
2.896955753166317
  0
TEXT
  5
947
330
1F
100
AcDbEntity
  8
0
100
AcDbText
 10
3.182229829602407
 20
3.354158753166316
 30
0.0
 40
0.06
  1
1
  7
ROMANS
 72
     1
 11
3.206515543888121
 21
3.354158753166316
 31
0.0
100
AcDbText
  0
LWPOLYLINE
  5
948
330
1F
100
AcDbEntity
  8
0
 62
     4
100
AcDbPolyline
 90
        2
 70
     0
 43
0.0
 10
3.132187859521868
 20
3.340955753166319
 10
3.264187859521873
 20
3.340955753166319
  0
TEXT
  5
949
330
1F
100
AcDbEntity
  8
0
100
AcDbText
 10
3.378470115316703
 20
3.355954753166322
 30
0.0
 40
0.06
  1
2
  7
ROMANS
 72
     1
 11
3.407041543888132
 21
3.355954753166322
 31
0.0
100
AcDbText
  0
LWPOLYLINE
  5
94A
330
1F
100
AcDbEntity
  8
0
 62
     4
100
AcDbPolyline
 90
        2
 70
     0
 43
0.0
 10
3.326085859521858
 20
3.340955753166319
 10
3.458085859521863
 20
3.340955753166319
  0
TEXT
  5
94B
330
1F
100
AcDbEntity
  8
0
100
AcDbText
 10
3.79704397245956
 20
2.752540753166321
 30
0.0
 40
0.06
  1
12
  7
ROMANS
 72
     1
 11
3.858472543888131
 21
2.752540753166321
 31
0.0
100
AcDbText
  0
TEXT
  5
94C
330
1F
100
AcDbEntity
  8
0
100
AcDbText
 10
3.608449401030993
 20
2.74874775316632
 30
0.0
 40
0.06
  1
11
  7
ROMANS
 72
     1
 11
3.661306543888136
 21
2.74874775316632
 31
0.0
100
AcDbText
  0
TEXT
  5
94D
330
1F
100
AcDbEntity
  8
0
100
AcDbText
 10
4.172645401030993
 20
2.750926753166318
 30
0.0
 40
0.06
  1
14
  7
ROMANS
 72
     1
 11
4.235502543888136
 21
2.750926753166318
 31
0.0
100
AcDbText
  0
TEXT
  5
94E
330
1F
100
AcDbEntity
  8
0
100
AcDbText
 10
3.991268972459563
 20
2.750926753166318
 30
0.0
 40
0.06
  1
13
  7
ROMANS
 72
     1
 11
4.052697543888134
 21
2.750926753166318
 31
0.0
100
AcDbText
  0
LWPOLYLINE
  5
94F
330
1F
100
AcDbEntity
  8
0
 62
     4
100
AcDbPolyline
 90
        2
 70
     0
 43
0.0
 10
3.793687859521872
 20
3.100955753166317
 10
3.793687859521872
 20
2.406955753166322
  0
LWPOLYLINE
  5
950
330
1F
100
AcDbEntity
  8
0
 62
     4
100
AcDbPolyline
 90
        2
 70
     0
 43
0.0
 10
4.369687859521873
 20
3.100955753166317
 10
4.369687859521873
 20
2.406955753166322
  0
LWPOLYLINE
  5
951
330
1F
100
AcDbEntity
  8
0
 62
     4
100
AcDbPolyline
 90
        2
 70
     0
 43
0.0
 10
3.822507859521868
 20
2.731955753166317
 10
3.954507859521859
 20
2.731955753166317
  0
LWPOLYLINE
  5
952
330
1F
100
AcDbEntity
  8
0
 62
     4
100
AcDbPolyline
 90
        2
 70
     0
 43
0.0
 10
3.822507859521868
 20
2.491014753166318
 10
3.954507859521859
 20
2.491058753166321
  0
LWPOLYLINE
  5
953
330
1F
100
AcDbEntity
  8
0
 62
     4
100
AcDbPolyline
 90
        2
 70
     0
 43
0.0
 10
3.625053859521861
 20
2.731055753166323
 10
3.757053859521866
 20
2.731055753166323
  0
LWPOLYLINE
  5
954
330
1F
100
AcDbEntity
  8
0
 62
     4
100
AcDbPolyline
 90
        2
 70
     0
 43
0.0
 10
3.625053859521861
 20
2.731955753166317
 10
3.757053859521866
 20
2.731955753166317
  0
LWPOLYLINE
  5
955
330
1F
100
AcDbEntity
  8
0
 62
     4
100
AcDbPolyline
 90
        2
 70
     0
 43
0.0
 10
3.625053859521861
 20
2.491055753166321
 10
3.757053859521866
 20
2.491055753166321
  0
LWPOLYLINE
  5
956
330
1F
100
AcDbEntity
  8
0
 62
     4
100
AcDbPolyline
 90
        2
 70
     0
 43
0.0
 10
3.563155859521861
 20
2.731955753166317
 10
3.563155859521861
 20
2.491055753166321
  0
LWPOLYLINE
  5
957
330
1F
100
AcDbEntity
  8
0
 62
     4
100
AcDbPolyline
 90
        2
 70
     0
 43
0.0
 10
3.625053859521861
 20
2.731955753166317
 10
3.625053859521861
 20
2.491055753166321
  0
LWPOLYLINE
  5
958
330
1F
100
AcDbEntity
  8
0
 62
     4
100
AcDbPolyline
 90
        2
 70
     0
 43
0.0
 10
3.554655859521863
 20
2.491055753166321
 10
3.554655859521863
 20
2.731055753166323
  0
LWPOLYLINE
  5
959
330
1F
100
AcDbEntity
  8
0
 62
     4
100
AcDbPolyline
 90
        2
 70
     0
 43
0.0
 10
3.63305385952187
 20
2.731055753166323
 10
3.63305385952187
 20
2.491055753166321
  0
LWPOLYLINE
  5
95A
330
1F
100
AcDbEntity
  8
0
 62
     4
100
AcDbPolyline
 90
        2
 70
     0
 43
0.0
 10
3.757053859521866
 20
2.731955753166317
 10
3.757053859521866
 20
2.491055753166321
  0
LWPOLYLINE
  5
95B
330
1F
100
AcDbEntity
  8
0
 62
     4
100
AcDbPolyline
 90
        2
 70
     0
 43
0.0
 10
3.74905385952187
 20
2.731055753166323
 10
3.74905385952187
 20
2.491055753166321
  0
LWPOLYLINE
  5
95C
330
1F
100
AcDbEntity
  8
0
 62
     4
100
AcDbPolyline
 90
        2
 70
     0
 43
0.0
 10
3.822507859521868
 20
2.731955753166317
 10
3.822507859521868
 20
2.491014753166318
  0
LWPOLYLINE
  5
95D
330
1F
100
AcDbEntity
  8
0
 62
     4
100
AcDbPolyline
 90
        2
 70
     0
 43
0.0
 10
3.830507859521864
 20
2.731055753166323
 10
3.830507859521864
 20
2.491014753166318
  0
LWPOLYLINE
  5
95E
330
1F
100
AcDbEntity
  8
0
 62
     4
100
AcDbPolyline
 90
        2
 70
     0
 43
0.0
 10
3.946507859521863
 20
2.731055753166323
 10
3.946507859521863
 20
2.491055753166321
  0
LWPOLYLINE
  5
95F
330
1F
100
AcDbEntity
  8
0
 62
     4
100
AcDbPolyline
 90
        2
 70
     0
 43
0.0
 10
4.016405859521873
 20
2.731955753166317
 10
4.148405859521863
 20
2.731955753166317
  0
LWPOLYLINE
  5
960
330
1F
100
AcDbEntity
  8
0
 62
     4
100
AcDbPolyline
 90
        2
 70
     0
 43
0.0
 10
4.016405859521873
 20
2.491055753166321
 10
4.148405859521863
 20
2.491055753166321
  0
LWPOLYLINE
  5
961
330
1F
100
AcDbEntity
  8
0
 62
     4
100
AcDbPolyline
 90
        2
 70
     0
 43
0.0
 10
3.954507859521859
 20
2.731955753166317
 10
3.954507859521859
 20
2.491055753166321
  0
LWPOLYLINE
  5
962
330
1F
100
AcDbEntity
  8
0
 62
     4
100
AcDbPolyline
 90
        2
 70
     0
 43
0.0
 10
4.016405859521873
 20
2.731955753166317
 10
4.016405859521873
 20
2.491055753166321
  0
LWPOLYLINE
  5
963
330
1F
100
AcDbEntity
  8
0
 62
     4
100
AcDbPolyline
 90
        2
 70
     0
 43
0.0
 10
4.02490585952187
 20
2.491055753166321
 10
4.02490585952187
 20
2.731055753166323
  0
LWPOLYLINE
  5
964
330
1F
100
AcDbEntity
  8
0
 62
     4
100
AcDbPolyline
 90
        2
 70
     0
 43
0.0
 10
4.139905859521865
 20
2.491055753166321
 10
4.139905859521865
 20
2.731055753166323
  0
LWPOLYLINE
  5
965
330
1F
100
AcDbEntity
  8
0
 62
     4
100
AcDbPolyline
 90
        2
 70
     0
 43
0.0
 10
4.148405859521863
 20
2.731955753166317
 10
4.148405859521863
 20
2.491055753166321
  0
LWPOLYLINE
  5
966
330
1F
100
AcDbEntity
  8
0
 62
     4
100
AcDbPolyline
 90
        2
 70
     0
 43
0.0
 10
4.210303859521863
 20
2.731955753166317
 10
4.342303859521861
 20
2.731955753166317
  0
LWPOLYLINE
  5
967
330
1F
100
AcDbEntity
  8
0
 62
     4
100
AcDbPolyline
 90
        2
 70
     0
 43
0.0
 10
4.210303859521863
 20
2.491055753166321
 10
4.342303859521861
 20
2.491055753166321
  0
LWPOLYLINE
  5
968
330
1F
100
AcDbEntity
  8
0
 62
     4
100
AcDbPolyline
 90
        2
 70
     0
 43
0.0
 10
4.210303859521863
 20
2.731955753166317
 10
4.210303859521863
 20
2.491055753166321
  0
LWPOLYLINE
  5
969
330
1F
100
AcDbEntity
  8
0
 62
     4
100
AcDbPolyline
 90
        2
 70
     0
 43
0.0
 10
4.342303859521861
 20
2.731955753166317
 10
4.342303859521861
 20
2.491055753166321
  0
LWPOLYLINE
  5
96A
330
1F
100
AcDbEntity
  8
0
 62
     4
100
AcDbPolyline
 90
        2
 70
     0
 43
0.0
 10
4.334303859521851
 20
2.731055753166323
 10
4.334303859521851
 20
2.491055753166321
  0
LWPOLYLINE
  5
96B
330
1F
100
AcDbEntity
  8
0
 62
     4
100
AcDbPolyline
 90
        2
 70
     0
 43
0.0
 10
4.218303859521872
 20
2.731055753166323
 10
4.218303859521872
 20
2.491055753166321
  0
LWPOLYLINE
  5
96C
330
1F
100
AcDbEntity
  8
0
 62
     4
100
AcDbPolyline
 90
        2
 70
     0
 43
0.0
 10
3.913085859521862
 20
3.340955753166319
 10
4.045085859521867
 20
3.340955753166319
  0
LWPOLYLINE
  5
96D
330
1F
100
AcDbEntity
  8
0
 62
     4
100
AcDbPolyline
 90
        2
 70
     0
 43
0.0
 10
3.851187859521862
 20
3.340955753166319
 10
3.851187859521862
 20
3.100955753166317
  0
LWPOLYLINE
  5
96E
330
1F
100
AcDbEntity
  8
0
 62
     4
100
AcDbPolyline
 90
        2
 70
     0
 43
0.0
 10
3.843187859521867
 20
3.340955753166319
 10
3.843187859521867
 20
3.100955753166317
  0
LWPOLYLINE
  5
96F
330
1F
100
AcDbEntity
  8
0
 62
     4
100
AcDbPolyline
 90
        2
 70
     0
 43
0.0
 10
3.913085859521862
 20
3.340955753166319
 10
3.913085859521862
 20
3.100955753166317
  0
LWPOLYLINE
  5
970
330
1F
100
AcDbEntity
  8
0
 62
     4
100
AcDbPolyline
 90
        2
 70
     0
 43
0.0
 10
3.92158585952186
 20
3.100955753166317
 10
3.92158585952186
 20
3.340955753166319
  0
LWPOLYLINE
  5
971
330
1F
100
AcDbEntity
  8
0
 62
     4
100
AcDbPolyline
 90
        2
 70
     0
 43
0.0
 10
3.651983859521868
 20
3.340955753166319
 10
3.651983859521868
 20
3.100955753166317
  0
LWPOLYLINE
  5
972
330
1F
100
AcDbEntity
  8
0
 62
     4
100
AcDbPolyline
 90
        2
 70
     0
 43
0.0
 10
3.643983859521872
 20
3.340955753166319
 10
3.643983859521872
 20
3.100955753166317
  0
LWPOLYLINE
  5
973
330
1F
100
AcDbEntity
  8
0
 62
     4
100
AcDbPolyline
 90
        2
 70
     0
 43
0.0
 10
3.719187859521872
 20
3.340955753166319
 10
3.719187859521872
 20
3.100914753166321
  0
LWPOLYLINE
  5
974
330
1F
100
AcDbEntity
  8
0
 62
     4
100
AcDbPolyline
 90
        2
 70
     0
 43
0.0
 10
3.727187859521867
 20
3.340955753166319
 10
3.727187859521867
 20
3.100914753166321
  0
LWPOLYLINE
  5
975
330
1F
100
AcDbEntity
  8
0
 62
     4
100
AcDbPolyline
 90
        2
 70
     0
 43
0.0
 10
3.527983859521858
 20
3.340955753166319
 10
3.527983859521858
 20
3.100955753166317
  0
LWPOLYLINE
  5
976
330
1F
100
AcDbEntity
  8
0
 62
     4
100
AcDbPolyline
 90
        2
 70
     0
 43
0.0
 10
3.719187859521872
 20
3.340955753166319
 10
3.851187859521862
 20
3.340955753166319
  0
TEXT
  5
977
330
1F
100
AcDbEntity
  8
0
100
AcDbText
 10
3.571807115316703
 20
3.354159753166321
 30
0.0
 40
0.06
  1
3
  7
ROMANS
 72
     1
 11
3.600378543888131
 21
3.354159753166321
 31
0.0
100
AcDbText
  0
TEXT
  5
978
330
1F
100
AcDbEntity
  8
0
100
AcDbText
 10
3.767310543888121
 20
3.355957753166322
 30
0.0
 40
0.06
  1
4
  7
ROMANS
 72
     1
 11
3.797310543888121
 21
3.355957753166322
 31
0.0
100
AcDbText
  0
LWPOLYLINE
  5
979
330
1F
100
AcDbEntity
  8
0
 62
     4
100
AcDbPolyline
 90
        2
 70
     0
 43
0.0
 10
4.318983859521877
 20
3.340955753166319
 10
4.318983859521877
 20
3.100914753166321
  0
LWPOLYLINE
  5
97A
330
1F
100
AcDbEntity
  8
0
 62
     4
100
AcDbPolyline
 90
        2
 70
     0
 43
0.0
 10
4.326983859521858
 20
3.340955753166319
 10
4.326983859521858
 20
3.100914753166321
  0
LWPOLYLINE
  5
97B
330
1F
100
AcDbEntity
  8
0
 62
     4
100
AcDbPolyline
 90
        2
 70
     0
 43
0.0
 10
4.238983859521871
 20
3.340955753166319
 10
4.238983859521871
 20
3.100955753166317
  0
LWPOLYLINE
  5
97C
330
1F
100
AcDbEntity
  8
0
 62
     4
100
AcDbPolyline
 90
        2
 70
     0
 43
0.0
 10
4.230983859521861
 20
3.340955753166319
 10
4.230983859521861
 20
3.100955753166317
  0
LWPOLYLINE
  5
97D
330
1F
100
AcDbEntity
  8
0
 62
     4
100
AcDbPolyline
 90
        2
 70
     0
 43
0.0
 10
4.045085859521867
 20
3.340955753166319
 10
4.045085859521867
 20
3.100955753166317
  0
LWPOLYLINE
  5
97E
330
1F
100
AcDbEntity
  8
0
 62
     4
100
AcDbPolyline
 90
        2
 70
     0
 43
0.0
 10
4.036585859521869
 20
3.100955753166317
 10
4.036585859521869
 20
3.340955753166319
  0
LWPOLYLINE
  5
97F
330
1F
100
AcDbEntity
  8
0
 62
     4
100
AcDbPolyline
 90
        2
 70
     0
 43
0.0
 10
4.106983859521866
 20
3.340955753166319
 10
4.106983859521866
 20
3.100955753166317
  0
LWPOLYLINE
  5
980
330
1F
100
AcDbEntity
  8
0
 62
     4
100
AcDbPolyline
 90
        2
 70
     0
 43
0.0
 10
4.114983859521862
 20
3.340955753166319
 10
4.114983859521862
 20
3.100955753166317
  0
LWPOLYLINE
  5
981
330
1F
100
AcDbEntity
  8
0
 62
     4
100
AcDbPolyline
 90
        2
 70
     0
 43
0.0
 10
4.106983859521866
 20
3.340955753166319
 10
4.238983859521871
 20
3.340955753166319
  0
TEXT
  5
982
330
1F
100
AcDbEntity
  8
0
100
AcDbText
 10
3.963878115316704
 20
3.352360753166315
 30
0.0
 40
0.06
  1
5
  7
ROMANS
 72
     1
 11
3.992449543888133
 21
3.352360753166315
 31
0.0
100
AcDbText
  0
TEXT
  5
983
330
1F
100
AcDbEntity
  8
0
100
AcDbText
 10
4.155786543888132
 20
3.354156753166321
 30
0.0
 40
0.06
  1
6
  7
ROMANS
 72
     1
 11
4.185786543888132
 21
3.354156753166321
 31
0.0
100
AcDbText
  0
LWPOLYLINE
  5
984
330
1F
100
AcDbEntity
  8
0
 62
     4
100
AcDbPolyline
 90
        2
 70
     0
 43
0.0
 10
4.674968859521866
 20
3.100955753166317
 10
4.674968859521866
 20
3.697955753166318
  0
TEXT
  5
985
330
1F
100
AcDbEntity
  8
0
100
AcDbText
 10
4.396839972459565
 20
2.752540753166321
 30
0.0
 40
0.06
  1
15
  7
ROMANS
 72
     1
 11
4.458268543888136
 21
2.752540753166321
 31
0.0
100
AcDbText
  0
LINE
  5
986
330
1F
100
AcDbEntity
  8
0
100
AcDbLine
 10
4.680420498136085
 20
2.826436351530482
 30
0.0
 11
4.680420498136085
 21
2.783868134731118
 31
0.0
  0
LWPOLYLINE
  5
987
330
1F
100
AcDbEntity
  8
0
 62
     4
100
AcDbPolyline
 90
        2
 70
     0
 43
0.0
 10
4.774968859521861
 20
3.100955753166317
 10
4.774968859521861
 20
2.406955753166322
  0
LWPOLYLINE
  5
988
330
1F
100
AcDbEntity
  8
0
 62
     4
100
AcDbPolyline
 90
        2
 70
     0
 43
0.0
 10
4.422303859521873
 20
2.731955753166317
 10
4.554303859521878
 20
2.731955753166317
  0
LWPOLYLINE
  5
989
330
1F
100
AcDbEntity
  8
0
 62
     4
100
AcDbPolyline
 90
        2
 70
     0
 43
0.0
 10
4.422303859521873
 20
2.491014753166318
 10
4.554303859521878
 20
2.491058753166321
  0
LWPOLYLINE
  5
98A
330
1F
100
AcDbEntity
  8
0
 62
     4
100
AcDbPolyline
 90
        2
 70
     0
 43
0.0
 10
4.422303859521873
 20
2.731955753166317
 10
4.422303859521873
 20
2.491014753166318
  0
LWPOLYLINE
  5
98B
330
1F
100
AcDbEntity
  8
0
 62
     4
100
AcDbPolyline
 90
        2
 70
     0
 43
0.0
 10
4.430303859521854
 20
2.731055753166323
 10
4.430303859521854
 20
2.491014753166318
  0
LWPOLYLINE
  5
98C
330
1F
100
AcDbEntity
  8
0
 62
     4
100
AcDbPolyline
 90
        2
 70
     0
 43
0.0
 10
4.546303859521868
 20
2.731055753166323
 10
4.546303859521868
 20
2.491055753166321
  0
LWPOLYLINE
  5
98D
330
1F
100
AcDbEntity
  8
0
 62
     4
100
AcDbPolyline
 90
        2
 70
     0
 43
0.0
 10
4.554303859521878
 20
2.731955753166317
 10
4.554303859521878
 20
2.491055753166321
  0
LWPOLYLINE
  5
98E
330
1F
100
AcDbEntity
  8
0
 62
     4
100
AcDbPolyline
 90
        2
 70
     0
 43
0.0
 10
4.616201859521863
 20
2.731955753166317
 10
4.748201859521868
 20
2.731955753166317
  0
LINE
  5
98F
330
1F
100
AcDbEntity
  8
0
100
AcDbLine
 10
4.637827227699686
 20
2.783868134731118
 30
0.0
 11
4.726421276455765
 21
2.783868134731118
 31
0.0
  0
LINE
  5
990
330
1F
100
AcDbEntity
  8
0
100
AcDbLine
 10
4.648242997757021
 20
2.766840858545641
 30
0.0
 11
4.716761348237396
 21
2.766840858545641
 31
0.0
  0
LINE
  5
991
330
1F
100
AcDbEntity
  8
0
100
AcDbLine
 10
4.657544142311037
 20
2.748110849474485
 30
0.0
 11
4.710870622024215
 21
2.748110849474482
 31
0.0
  0
LWPOLYLINE
  5
992
330
1F
100
AcDbEntity
  8
0
 62
     4
100
AcDbPolyline
 90
        2
 70
     0
 43
0.0
 10
4.616201859521863
 20
2.491055753166321
 10
4.748201859521868
 20
2.491055753166321
  0
LWPOLYLINE
  5
993
330
1F
100
AcDbEntity
  8
0
 62
     4
100
AcDbPolyline
 90
        2
 70
     0
 43
0.0
 10
4.616201859521863
 20
2.731955753166317
 10
4.616201859521863
 20
2.491055753166321
  0
LWPOLYLINE
  5
994
330
1F
100
AcDbEntity
  8
0
 62
     4
100
AcDbPolyline
 90
        2
 70
     0
 43
0.0
 10
4.624701859521861
 20
2.491055753166321
 10
4.624701859521861
 20
2.731055753166323
  0
LWPOLYLINE
  5
995
330
1F
100
AcDbEntity
  8
0
 62
     4
100
AcDbPolyline
 90
        2
 70
     0
 43
0.0
 10
4.73970185952187
 20
2.491055753166321
 10
4.73970185952187
 20
2.731055753166323
  0
LWPOLYLINE
  5
996
330
1F
100
AcDbEntity
  8
0
 62
     4
100
AcDbPolyline
 90
        2
 70
     0
 43
0.0
 10
4.748201859521868
 20
2.731955753166317
 10
4.748201859521868
 20
2.491055753166321
  0
LWPOLYLINE
  5
997
330
1F
100
AcDbEntity
  8
0
 62
     2
100
AcDbPolyline
 90
        2
 70
     0
 43
0.0
 10
4.915187859521848
 20
2.445955753166323
 10
5.067187859521864
 20
2.445955753166323
  0
LWPOLYLINE
  5
998
330
1F
100
AcDbEntity
  8
0
 62
     2
100
AcDbPolyline
 90
        2
 70
     0
 43
0.0
 10
4.915187859521848
 20
2.445955753166323
 42
0.4142140000000001
 10
4.892187859521852
 20
2.42295575316632
  0
LWPOLYLINE
  5
999
330
1F
100
AcDbEntity
  8
0
 62
     2
100
AcDbPolyline
 90
        2
 70
     0
 43
0.0
 10
5.09018785952186
 20
2.42295575316632
 42
0.4142140000000001
 10
5.067187859521864
 20
2.445955753166323
  0
LWPOLYLINE
  5
99A
330
1F
100
AcDbEntity
  8
0
 62
     4
100
AcDbPolyline
 90
        2
 70
     0
 43
0.0
 10
4.644881859521872
 20
3.340955753166319
 10
4.644881859521872
 20
3.100955753166317
  0
LWPOLYLINE
  5
99B
330
1F
100
AcDbEntity
  8
0
 62
     4
100
AcDbPolyline
 90
        2
 70
     0
 43
0.0
 10
4.636381859521874
 20
3.100955753166317
 10
4.636381859521874
 20
3.340955753166319
  0
LWPOLYLINE
  5
99C
330
1F
100
AcDbEntity
  8
0
 62
     4
100
AcDbPolyline
 90
        2
 70
     0
 43
0.0
 10
4.450983859521853
 20
3.340955753166319
 10
4.450983859521853
 20
3.100955753166317
  0
LWPOLYLINE
  5
99D
330
1F
100
AcDbEntity
  8
0
 62
     4
100
AcDbPolyline
 90
        2
 70
     0
 43
0.0
 10
4.442983859521872
 20
3.340955753166319
 10
4.442983859521872
 20
3.100955753166317
  0
LWPOLYLINE
  5
99E
330
1F
100
AcDbEntity
  8
0
 62
     4
100
AcDbPolyline
 90
        2
 70
     0
 43
0.0
 10
4.512881859521867
 20
3.340955753166319
 10
4.512881859521867
 20
3.100955753166317
  0
LWPOLYLINE
  5
99F
330
1F
100
AcDbEntity
  8
0
 62
     4
100
AcDbPolyline
 90
        2
 70
     0
 43
0.0
 10
4.521381859521865
 20
3.100955753166317
 10
4.521381859521865
 20
3.340955753166319
  0
LWPOLYLINE
  5
9A0
330
1F
100
AcDbEntity
  8
0
 62
     4
100
AcDbPolyline
 90
        2
 70
     0
 43
0.0
 10
4.512881859521867
 20
3.340955753166319
 10
4.644881859521872
 20
3.340955753166319
  0
TEXT
  5
9A1
330
1F
100
AcDbEntity
  8
0
100
AcDbText
 10
4.563674115316695
 20
3.352360753166315
 30
0.0
 40
0.06
  1
8
  7
ROMANS
 72
     1
 11
4.592245543888124
 21
3.352360753166315
 31
0.0
100
AcDbText
  0
LINE
  5
9A2
330
1F
100
AcDbEntity
  8
0
 62
     4
100
AcDbLine
 10
2.911702391969896
 20
8.795015720229304
 30
0.0
 11
2.468091514641756
 21
8.795015720229304
 31
0.0
  0
LWPOLYLINE
  5
9A3
330
1F
100
AcDbEntity
  8
0
 62
     2
100
AcDbPolyline
 90
        2
 70
     0
 43
0.0
 10
2.663090514641737
 20
8.44312586957422
 10
2.897090514641732
 20
8.44312586957422
  0
LWPOLYLINE
  5
9A4
330
1F
100
AcDbEntity
  8
0
 62
     2
100
AcDbPolyline
 90
        2
 70
     0
 43
0.0
 10
2.824090514641738
 20
8.318736869574227
 10
2.688090514641743
 20
8.318736869574227
  0
LWPOLYLINE
  5
9A5
330
1F
100
AcDbEntity
  8
0
 62
     2
100
AcDbPolyline
 90
        2
 70
     0
 43
0.0
 10
2.824090514641738
 20
8.260973869574218
 10
2.688090514641743
 20
8.260973869574218
  0
LWPOLYLINE
  5
9A6
330
1F
100
AcDbEntity
  8
0
 62
     2
100
AcDbPolyline
 90
        2
 70
     0
 43
0.0
 10
2.824090514641738
 20
8.151453869574229
 10
2.688090514641743
 20
8.15178386957422
  0
LWPOLYLINE
  5
9A7
330
1F
100
AcDbEntity
  8
0
 62
     2
100
AcDbPolyline
 90
        2
 70
     0
 43
0.0
 10
2.823818514641743
 20
8.093690869574221
 10
2.687819514641731
 20
8.094020869574226
  0
LWPOLYLINE
  5
9A8
330
1F
100
AcDbEntity
  8
0
 62
     2
100
AcDbPolyline
 90
        2
 70
     0
 43
0.0
 10
2.663090514641737
 20
7.969125869574146
 10
2.897090514641732
 20
7.969125869574146
  0
LWPOLYLINE
  5
9A9
330
1F
100
AcDbEntity
  8
0
 62
     4
100
AcDbPolyline
 90
        2
 70
     0
 43
0.0
 10
3.405090514641742
 20
7.120955753166317
 10
2.468091514641741
 20
7.120955753166317
  0
LWPOLYLINE
  5
9AA
330
1F
100
AcDbEntity
  8
0
 62
     4
100
AcDbPolyline
 90
        2
 70
     0
 43
0.0
 10
3.162090514641732
 20
6.692955753166319
 10
2.468091514641741
 20
6.692955753166319
  0
LWPOLYLINE
  5
9AB
330
1F
100
AcDbEntity
  8
0
 62
     4
100
AcDbPolyline
 90
        2
 70
     0
 43
0.0
 10
2.958090514641739
 20
6.311955753166319
 10
2.507090514641731
 20
6.311955753166319
  0
LWPOLYLINE
  5
9AC
330
1F
100
AcDbEntity
  8
0
 62
     4
100
AcDbPolyline
 90
        2
 70
     0
 43
0.0
 10
2.958090514641739
 20
6.739955753166317
 10
2.468091514641741
 20
6.739955753166317
  0
LWPOLYLINE
  5
9AD
330
1F
100
AcDbEntity
  8
0
 62
     4
100
AcDbPolyline
 90
        2
 70
     0
 43
0.0
 10
2.958090514641739
 20
6.781955753166318
 10
2.468091514641741
 20
6.781955753166318
  0
LWPOLYLINE
  5
9AE
330
1F
100
AcDbEntity
  8
0
 62
     4
100
AcDbPolyline
 90
        2
 70
     0
 43
0.0
 10
2.958090514641739
 20
6.353955753166321
 10
2.468091514641741
 20
6.353955753166321
  0
LWPOLYLINE
  5
9AF
330
1F
100
AcDbEntity
  8
0
 62
     4
100
AcDbPolyline
 90
        2
 70
     0
 43
0.0
 10
2.912090514641732
 20
6.277955753166313
 10
2.507090514641731
 20
6.277955753166313
  0
DIMENSION
  5
9B0
330
1F
100
AcDbEntity
  8
0
100
AcDbDimension
  2
*D3
 10
1.049090514641733
 20
5.197955753166318
 30
0.0
 11
2.404090514641737
 21
5.197955753166318
 31
0.0
 70
    32
  1
2.05 REF
 71
     5
 42
2.710000000000007
  3
MEDDIM1148
100
AcDbAlignedDimension
 13
3.759090514641741
 23
6.802955753166319
 33
0.0
 14
1.049090514641733
 24
6.130746753166324
 34
0.0
100
AcDbRotatedDimension
1001
ACAD
1000
DSTYLE
1002
{
1070
   340
1005
FB
1070
   140
1040
0.125
1002
}
  0
DIMENSION
  5
9B1
330
1F
100
AcDbEntity
  8
0
100
AcDbDimension
  2
*D4
 10
4.468091514641741
 20
5.982955753166312
 30
0.0
 11
4.468091514641741
 21
7.697955253166316
 31
0.0
 70
    32
  1
3.35\PREF
 71
     5
 42
3.429999000000008
  3
MEDDIM1148
100
AcDbAlignedDimension
 13
2.169091514641735
 23
9.412954753166321
 33
0.0
 14
2.169091514641735
 24
5.982955753166312
 34
0.0
 50
90.0
100
AcDbRotatedDimension
1001
ACAD
1000
DSTYLE
1002
{
1070
   340
1005
FB
1070
   140
1040
0.125
1002
}
  0
LWPOLYLINE
  5
9B2
330
1F
100
AcDbEntity
  8
0
 62
     2
100
AcDbPolyline
 90
        2
 70
     0
 43
0.0
 10
1.473090514641739
 20
7.518830753166316
 10
1.473090514641739
 20
7.077010753166323
  0
LWPOLYLINE
  5
9B3
330
1F
100
AcDbEntity
  8
0
 62
     2
100
AcDbPolyline
 90
        2
 70
     0
 43
0.0
 10
1.427090514641733
 20
7.37383075316632
 42
0.4142140000000001
 10
1.377090514641736
 20
7.423830753166317
  0
LWPOLYLINE
  5
9B4
330
1F
100
AcDbEntity
  8
0
 62
     2
100
AcDbPolyline
 90
        2
 70
     0
 43
0.0
 10
1.355090514641744
 20
7.423830753166317
 10
1.427090514641733
 20
7.518830753166316
  0
LWPOLYLINE
  5
9B5
330
1F
100
AcDbEntity
  8
0
 62
     2
100
AcDbPolyline
 90
        2
 70
     0
 43
0.0
 10
1.339587514641735
 20
7.51076875316632
 10
1.339587514641735
 20
7.42152175316632
  0
LWPOLYLINE
  5
9B6
330
1F
100
AcDbEntity
  8
0
 62
     2
100
AcDbPolyline
 90
        2
 70
     0
 43
0.0
 10
1.086633514641732
 20
7.501270753166313
 42
0.440095
 10
1.157173514641741
 20
7.394983753166318
  0
LWPOLYLINE
  5
9B7
330
1F
100
AcDbEntity
  8
0
 62
     2
100
AcDbPolyline
 90
        2
 70
     0
 43
0.0
 10
1.567091514641731
 20
9.341322753166313
 10
1.567091514641731
 20
7.040339753166325
  0
LWPOLYLINE
  5
9B8
330
1F
100
AcDbEntity
  8
0
 62
     2
100
AcDbPolyline
 90
        2
 70
     0
 43
0.0
 10
1.567091514641731
 20
9.341322753166313
 10
1.567091514641731
 20
7.040339753166325
  0
LWPOLYLINE
  5
9B9
330
1F
100
AcDbEntity
  8
0
 62
     2
100
AcDbPolyline
 90
        2
 70
     0
 43
0.0
 10
1.702091514641736
 20
7.643955753166313
 10
1.702091514641736
 20
6.622955753166312
  0
LWPOLYLINE
  5
9BA
330
1F
100
AcDbEntity
  8
0
 62
     2
100
AcDbPolyline
 90
        2
 70
     0
 43
0.0
 10
1.60709051464174
 20
7.643955753166313
 10
1.60709051464174
 20
6.622955753166312
  0
LWPOLYLINE
  5
9BB
330
1F
100
AcDbEntity
  8
0
 62
     2
100
AcDbPolyline
 90
        2
 70
     0
 43
0.0
 10
1.762090514641741
 20
6.71445675316632
 10
1.762090514641741
 20
7.580650753166313
  0
LWPOLYLINE
  5
9BC
330
1F
100
AcDbEntity
  8
0
 62
     2
100
AcDbPolyline
 90
        2
 70
     0
 43
0.0
 10
1.805090514641733
 20
9.285987753166313
 10
1.805090514641733
 20
6.07995575316632
  0
LWPOLYLINE
  5
9BD
330
1F
100
AcDbEntity
  8
0
 62
     2
100
AcDbPolyline
 90
        2
 70
     0
 43
0.0
 10
2.468091514641741
 20
9.068955753166324
 10
2.468091514641741
 20
6.32695575316632
  0
LWPOLYLINE
  5
9BE
330
1F
100
AcDbEntity
  8
0
 62
     2
100
AcDbPolyline
 90
        2
 70
     0
 43
0.0
 10
2.507090514641731
 20
6.301955753166314
 10
2.507090514641731
 20
6.070219753166316
  0
LWPOLYLINE
  5
9BF
330
1F
100
AcDbEntity
  8
0
 62
     2
100
AcDbPolyline
 90
        2
 70
     0
 43
0.0
 10
1.177090514641733
 20
6.13325875316632
 42
0.384815
 10
1.208547514641736
 20
6.098438753166323
  0
LWPOLYLINE
  5
9C0
330
1F
100
AcDbEntity
  8
0
 62
     2
100
AcDbPolyline
 90
        2
 70
     0
 43
0.0
 10
1.048721514641741
 20
6.139384753166314
 42
0.425424
 10
1.154090514641737
 20
6.037958753166325
  0
LWPOLYLINE
  5
9C1
330
1F
100
AcDbEntity
  8
0
 62
     2
100
AcDbPolyline
 90
        2
 70
     0
 43
0.0
 10
2.169091514641735
 20
5.982955753166312
 10
1.805090514641733
 20
6.07995575316632
  0
LWPOLYLINE
  5
9C2
330
1F
100
AcDbEntity
  8
0
 62
     2
100
AcDbPolyline
 90
        2
 70
     0
 43
0.0
 10
1.154090514641737
 20
6.037241753166316
 10
1.267794514641735
 20
6.049423753166326
  0
LWPOLYLINE
  5
9C3
330
1F
100
AcDbEntity
  8
0
 62
     2
100
AcDbPolyline
 90
        2
 70
     0
 43
0.0
 10
1.267710514641734
 20
6.092418753166317
 10
1.208547514641736
 20
6.098438753166323
  0
LWPOLYLINE
  5
9C4
330
1F
100
AcDbEntity
  8
0
 62
     2
100
AcDbPolyline
 90
        2
 70
     0
 43
0.0
 10
1.282090514641737
 20
6.076500753166317
 10
1.282090514641737
 20
6.06533275316632
  0
LWPOLYLINE
  5
9C5
330
1F
100
AcDbEntity
  8
0
 62
     2
100
AcDbPolyline
 90
        2
 70
     0
 43
0.0
 10
1.282090514641737
 20
6.076500753166317
 42
0.384813
 10
1.267710514641734
 20
6.092418753166317
  0
LWPOLYLINE
  5
9C6
330
1F
100
AcDbEntity
  8
0
 62
     2
100
AcDbPolyline
 90
        2
 70
     0
 43
0.0
 10
1.267795514641733
 20
6.049423753166326
 42
0.383288
 10
1.282090514641737
 20
6.06533275316632
  0
LWPOLYLINE
  5
9C7
330
1F
100
AcDbEntity
  8
0
 62
     2
100
AcDbPolyline
 90
        2
 70
     0
 43
0.0
 10
2.474242514641744
 20
6.031707753166319
 10
2.169091514641735
 20
5.982955753166312
  0
LWPOLYLINE
  5
9C8
330
1F
100
AcDbEntity
  8
0
 62
     2
100
AcDbPolyline
 90
        2
 70
     0
 43
0.0
 10
2.474243514641742
 20
6.031707753166319
 42
0.368539
 10
2.507090514641731
 20
6.070219753166316
  0
LWPOLYLINE
  5
9C9
330
1F
100
AcDbEntity
  8
0
 62
     2
100
AcDbPolyline
 90
        2
 70
     0
 43
0.0
 10
1.094419514641742
 20
6.273890753166316
 10
1.191458514641738
 20
6.898724753166323
  0
LWPOLYLINE
  5
9CA
330
1F
100
AcDbEntity
  8
0
 62
     2
100
AcDbPolyline
 90
        2
 70
     0
 43
0.0
 10
1.048812514641738
 20
6.234362753166326
 10
1.14893351464174
 20
6.879039753166313
  0
LWPOLYLINE
  5
9CB
330
1F
100
AcDbEntity
  8
0
 62
     2
100
AcDbPolyline
 90
        2
 70
     0
 43
0.0
 10
1.567091514641731
 20
6.971830753166319
 10
1.567091514641731
 20
6.139955753166322
  0
LWPOLYLINE
  5
9CC
330
1F
100
AcDbEntity
  8
0
 62
     2
100
AcDbPolyline
 90
        2
 70
     0
 43
0.0
 10
1.535465514641742
 20
6.202830753166313
 10
1.120451514641743
 20
6.240559753166312
  0
LWPOLYLINE
  5
9CD
330
1F
100
AcDbEntity
  8
0
 62
     2
100
AcDbPolyline
 90
        2
 70
     0
 43
0.0
 10
1.60709051464174
 20
6.136322753166314
 10
1.215256514641737
 20
6.171912753166314
  0
LWPOLYLINE
  5
9CE
330
1F
100
AcDbEntity
  8
0
 62
     2
100
AcDbPolyline
 90
        2
 70
     0
 43
0.0
 10
1.215256514641737
 20
6.171912753166314
 42
0.4410000000000001
 10
1.177090514641733
 20
6.137056753166323
  0
LWPOLYLINE
  5
9CF
330
1F
100
AcDbEntity
  8
0
 62
     2
100
AcDbPolyline
 90
        2
 70
     0
 43
0.0
 10
1.177090514641733
 20
6.137056753166323
 10
1.177090514641733
 20
6.13325875316632
  0
LWPOLYLINE
  5
9D0
330
1F
100
AcDbEntity
  8
0
 62
     2
100
AcDbPolyline
 90
        2
 70
     0
 43
0.0
 10
1.049090514641733
 20
6.236147753166324
 10
1.049090514641733
 20
6.130746753166324
  0
LWPOLYLINE
  5
9D1
330
1F
100
AcDbEntity
  8
0
 62
     2
100
AcDbPolyline
 90
        2
 70
     0
 43
0.0
 10
1.094419514641742
 20
6.273890753166316
 42
0.4329130000000001
 10
1.120450514641731
 20
6.240559753166312
  0
LWPOLYLINE
  5
9D2
330
1F
100
AcDbEntity
  8
0
 62
     2
100
AcDbPolyline
 90
        2
 70
     0
 43
0.0
 10
1.60709051464174
 20
6.514955753166322
 10
1.60709051464174
 20
6.365955753166321
  0
LWPOLYLINE
  5
9D3
330
1F
100
AcDbEntity
  8
0
 62
     2
100
AcDbPolyline
 90
        2
 70
     0
 43
0.0
 10
1.805090514641733
 20
6.336955753166325
 10
1.636091514641734
 20
6.336955753166325
  0
LWPOLYLINE
  5
9D4
330
1F
100
AcDbEntity
  8
0
 62
     2
100
AcDbPolyline
 90
        2
 70
     0
 43
0.0
 10
1.632600514641737
 20
6.244047753166316
 10
1.805090514641733
 20
6.264955753166322
  0
LWPOLYLINE
  5
9D5
330
1F
100
AcDbEntity
  8
0
 62
     2
100
AcDbPolyline
 90
        2
 70
     0
 43
0.0
 10
1.60709051464174
 20
6.365955753166321
 42
0.4142140000000001
 10
1.636091514641734
 20
6.336955753166325
  0
LWPOLYLINE
  5
9D6
330
1F
100
AcDbEntity
  8
0
 62
     2
100
AcDbPolyline
 90
        2
 70
     0
 43
0.0
 10
1.60709051464174
 20
6.215258753166313
 10
1.60709051464174
 20
6.136322753166314
  0
LWPOLYLINE
  5
9D7
330
1F
100
AcDbEntity
  8
0
 62
     2
100
AcDbPolyline
 90
        2
 70
     0
 43
0.0
 10
1.535465514641742
 20
6.202830753166313
 42
0.441025
 10
1.567091514641731
 20
6.231711753166312
  0
LWPOLYLINE
  5
9D8
330
1F
100
AcDbEntity
  8
0
 62
     2
100
AcDbPolyline
 90
        2
 70
     0
 43
0.0
 10
1.632601514641734
 20
6.244047753166316
 42
0.379308
 10
1.60709051464174
 20
6.215258753166313
  0
LWPOLYLINE
  5
9D9
330
1F
100
AcDbEntity
  8
0
 62
     2
100
AcDbPolyline
 90
        2
 70
     0
 43
0.0
 10
1.673090514641742
 20
6.593955753166316
 10
1.636091514641734
 20
6.593955753166316
  0
LWPOLYLINE
  5
9DA
330
1F
100
AcDbEntity
  8
0
 62
     2
100
AcDbPolyline
 90
        2
 70
     0
 43
0.0
 10
1.805090514641733
 20
6.514955753166322
 10
1.60709051464174
 20
6.514955753166322
  0
LWPOLYLINE
  5
9DB
330
1F
100
AcDbEntity
  8
0
 62
     2
100
AcDbPolyline
 90
        2
 70
     0
 43
0.0
 10
1.60709051464174
 20
6.622955753166312
 42
0.4142140000000001
 10
1.636091514641734
 20
6.593955753166316
  0
LWPOLYLINE
  5
9DC
330
1F
100
AcDbEntity
  8
0
 62
     2
100
AcDbPolyline
 90
        2
 70
     0
 43
0.0
 10
1.762090514641741
 20
6.71445675316632
 10
1.798908514641738
 20
6.701194753166323
  0
LWPOLYLINE
  5
9DD
330
1F
100
AcDbEntity
  8
0
 62
     2
100
AcDbPolyline
 90
        2
 70
     0
 43
0.0
 10
1.673090514641742
 20
6.593955753166316
 42
0.4142140000000001
 10
1.702091514641736
 20
6.622955753166312
  0
LWPOLYLINE
  5
9DE
330
1F
100
AcDbEntity
  8
0
 62
     2
100
AcDbPolyline
 90
        2
 70
     0
 43
0.0
 10
1.402090514641741
 20
7.275830753166321
 42
0.4142140000000001
 10
1.427090514641733
 20
7.300830753166312
  0
LWPOLYLINE
  5
9DF
330
1F
100
AcDbEntity
  8
0
 62
     2
100
AcDbPolyline
 90
        2
 70
     0
 43
0.0
 10
1.427090514641733
 20
7.171830753166322
 42
0.4142140000000001
 10
1.402090514641741
 20
7.196830753166313
  0
LWPOLYLINE
  5
9E0
330
1F
100
AcDbEntity
  8
0
 62
     2
100
AcDbPolyline
 90
        2
 70
     0
 43
0.0
 10
1.567091514641731
 20
6.971830753166319
 10
1.34823651464174
 20
6.977391753166319
  0
LWPOLYLINE
  5
9E1
330
1F
100
AcDbEntity
  8
0
 62
     2
100
AcDbPolyline
 90
        2
 70
     0
 43
0.0
 10
1.473482514641744
 20
6.900345753166323
 10
1.222742514641737
 20
6.923154753166318
  0
LWPOLYLINE
  5
9E2
330
1F
100
AcDbEntity
  8
0
 62
     2
100
AcDbPolyline
 90
        2
 70
     0
 43
0.0
 10
1.427090514641733
 20
7.080023753166319
 42
0.367287
 10
1.481553514641731
 20
7.015882753166312
  0
LWPOLYLINE
  5
9E3
330
1F
100
AcDbEntity
  8
0
 62
     2
100
AcDbPolyline
 90
        2
 70
     0
 43
0.0
 10
1.262090514641741
 20
7.017749753166317
 10
1.211090514641739
 20
7.017749753166317
  0
LWPOLYLINE
  5
9E4
330
1F
100
AcDbEntity
  8
0
 62
     2
100
AcDbPolyline
 90
        2
 70
     0
 43
0.0
 10
1.222742514641737
 20
6.923154753166318
 42
0.395777
 10
1.191458514641738
 20
6.898723753166326
  0
LWPOLYLINE
  5
9E5
330
1F
100
AcDbEntity
  8
0
 62
     2
100
AcDbPolyline
 90
        2
 70
     0
 43
0.0
 10
1.148934514641737
 20
6.879039753166313
 42
0.4197430000000001
 10
1.124187514641732
 20
6.912225753166314
  0
LWPOLYLINE
  5
9E6
330
1F
100
AcDbEntity
  8
0
 62
     2
100
AcDbPolyline
 90
        2
 70
     0
 43
0.0
 10
1.048666514641737
 20
6.947501753166324
 10
1.05659051464174
 20
6.921423753166326
  0
LWPOLYLINE
  5
9E7
330
1F
100
AcDbEntity
  8
0
 62
     2
100
AcDbPolyline
 90
        2
 70
     0
 43
0.0
 10
1.124187514641732
 20
6.912225753166314
 10
1.05659051464174
 20
6.921423753166326
  0
LWPOLYLINE
  5
9E8
330
1F
100
AcDbEntity
  8
0
 62
     2
100
AcDbPolyline
 90
        2
 70
     0
 43
0.0
 10
1.211090514641739
 20
7.053608753166319
 10
1.211090514641739
 20
7.017749753166317
  0
LWPOLYLINE
  5
9E9
330
1F
100
AcDbEntity
  8
0
 62
     2
100
AcDbPolyline
 90
        2
 70
     0
 43
0.0
 10
1.211090514641739
 20
7.053608753166319
 42
0.229221
 10
1.049090514641733
 20
6.951056753166316
  0
LWPOLYLINE
  5
9EA
330
1F
100
AcDbEntity
  8
0
 62
     2
100
AcDbPolyline
 90
        2
 70
     0
 43
0.0
 10
1.287366514641732
 20
7.064749753166314
 10
1.262090514641741
 20
7.064749753166314
  0
LWPOLYLINE
  5
9EB
330
1F
100
AcDbEntity
  8
0
 62
     2
100
AcDbPolyline
 90
        2
 70
     0
 43
0.0
 10
1.323035514641745
 20
6.993412753166314
 42
0.277225
 10
1.348237514641738
 20
6.977391753166319
  0
LWPOLYLINE
  5
9EC
330
1F
100
AcDbEntity
  8
0
 62
     2
100
AcDbPolyline
 90
        2
 70
     0
 43
0.0
 10
1.323035514641745
 20
6.993412753166314
 10
1.287366514641732
 20
7.064749753166314
  0
LWPOLYLINE
  5
9ED
330
1F
100
AcDbEntity
  8
0
 62
     2
100
AcDbPolyline
 90
        2
 70
     0
 43
0.0
 10
1.262090514641741
 20
7.064749753166314
 10
1.262090514641741
 20
7.017749753166317
  0
LWPOLYLINE
  5
9EE
330
1F
100
AcDbEntity
  8
0
 62
     2
100
AcDbPolyline
 90
        2
 70
     0
 43
0.0
 10
1.26649251464174
 20
7.365519753166314
 10
1.139238514641732
 20
7.39981775316632
  0
LWPOLYLINE
  5
9EF
330
1F
100
AcDbEntity
  8
0
 62
     2
100
AcDbPolyline
 90
        2
 70
     0
 43
0.0
 10
1.402090514641741
 20
7.275830753166321
 10
1.379090514641731
 20
7.275830753166321
  0
LWPOLYLINE
  5
9F0
330
1F
100
AcDbEntity
  8
0
 62
     2
100
AcDbPolyline
 90
        2
 70
     0
 43
0.0
 10
1.377090514641736
 20
7.423830753166317
 10
1.355090514641744
 20
7.423830753166317
  0
LWPOLYLINE
  5
9F1
330
1F
100
AcDbEntity
  8
0
 62
     2
100
AcDbPolyline
 90
        2
 70
     0
 43
0.0
 10
1.266493514641737
 20
7.365519753166314
 42
0.4936010000000001
 10
1.339587514641735
 20
7.42152175316632
  0
LWPOLYLINE
  5
9F2
330
1F
100
AcDbEntity
  8
0
 62
     2
100
AcDbPolyline
 90
        2
 70
     0
 43
0.0
 10
1.402090514641741
 20
7.196830753166313
 10
1.379090514641731
 20
7.196830753166313
  0
LWPOLYLINE
  5
9F3
330
1F
100
AcDbEntity
  8
0
 62
     2
100
AcDbPolyline
 90
        2
 70
     0
 43
0.0
 10
1.379090514641731
 20
7.275830753166321
 10
1.379090514641731
 20
7.196830753166313
  0
LWPOLYLINE
  5
9F4
330
1F
100
AcDbEntity
  8
0
 62
     2
100
AcDbPolyline
 90
        2
 70
     0
 43
0.0
 10
1.427090514641733
 20
7.171830753166322
 10
1.427090514641733
 20
7.080023753166319
  0
LWPOLYLINE
  5
9F5
330
1F
100
AcDbEntity
  8
0
 62
     2
100
AcDbPolyline
 90
        2
 70
     0
 43
0.0
 10
1.567091514641731
 20
7.040339753166325
 10
1.494037514641732
 20
7.05234175316632
  0
LWPOLYLINE
  5
9F6
330
1F
100
AcDbEntity
  8
0
 62
     2
100
AcDbPolyline
 90
        2
 70
     0
 43
0.0
 10
1.473090514641739
 20
7.077010753166323
 42
0.367286
 10
1.494038514641744
 20
7.052340753166323
  0
LWPOLYLINE
  5
9F7
330
1F
100
AcDbEntity
  8
0
 62
     2
100
AcDbPolyline
 90
        2
 70
     0
 43
0.0
 10
1.567091514641731
 20
7.00183075316632
 10
1.481552514641734
 20
7.015883753166324
  0
LWPOLYLINE
  5
9F8
330
1F
100
AcDbEntity
  8
0
 62
     2
100
AcDbPolyline
 90
        2
 70
     0
 43
0.0
 10
1.567091514641731
 20
7.00183075316632
 10
1.481552514641734
 20
7.015883753166324
  0
LWPOLYLINE
  5
9F9
330
1F
100
AcDbEntity
  8
0
 62
     2
100
AcDbPolyline
 90
        2
 70
     0
 43
0.0
 10
1.567091514641731
 20
6.89183075316632
 10
1.513172514641738
 20
6.896735753166314
  0
LWPOLYLINE
  5
9FA
330
1F
100
AcDbEntity
  8
0
 62
     2
100
AcDbPolyline
 90
        2
 70
     0
 43
0.0
 10
1.473482514641744
 20
6.900345753166323
 42
0.9862680000000001
 10
1.513173514641735
 20
6.896735753166314
  0
LWPOLYLINE
  5
9FB
330
1F
100
AcDbEntity
  8
0
 62
     2
100
AcDbPolyline
 90
        2
 70
     0
 43
0.0
 10
1.567091514641731
 20
7.00183075316632
 10
1.567091514641731
 20
6.971830753166319
  0
LWPOLYLINE
  5
9FC
330
1F
100
AcDbEntity
  8
0
 62
     2
100
AcDbPolyline
 90
        2
 70
     0
 43
0.0
 10
1.556665514641736
 20
7.003542753166318
 42
0.095593
 10
1.550656514641744
 20
7.004529753166313
  0
LWPOLYLINE
  5
9FD
330
1F
100
AcDbEntity
  8
0
 62
     2
100
AcDbPolyline
 90
        2
 70
     0
 43
0.0
 10
1.551348514641745
 20
6.972040753166314
 42
0.9455670000000001
 10
1.552235514641736
 20
7.004528753166315
  0
LWPOLYLINE
  5
9FE
330
1F
100
AcDbEntity
  8
0
 62
     2
100
AcDbPolyline
 90
        2
 70
     0
 43
0.0
 10
1.567091514641731
 20
7.00183075316632
 10
1.567091514641731
 20
7.040339753166325
  0
LWPOLYLINE
  5
9FF
330
1F
100
AcDbEntity
  8
0
 62
     2
100
AcDbPolyline
 90
        2
 70
     0
 43
0.0
 10
1.427090514641733
 20
7.37383075316632
 10
1.427090514641733
 20
7.300830753166312
  0
LWPOLYLINE
  5
A00
330
1F
100
AcDbEntity
  8
0
 62
     2
100
AcDbPolyline
 90
        2
 70
     0
 43
0.0
 10
2.507090514641731
 20
6.301955753166314
 42
0.4142140000000001
 10
2.48209051464174
 20
6.32695575316632
  0
LWPOLYLINE
  5
A01
330
1F
100
AcDbEntity
  8
0
 62
     2
100
AcDbPolyline
 90
        2
 70
     0
 43
0.0
 10
2.468091514641741
 20
6.32695575316632
 10
2.48209051464174
 20
6.32695575316632
  0
LINE
  5
A02
330
1F
100
AcDbEntity
  8
0
 62
     4
100
AcDbLine
 10
2.510600731281343
 20
8.795015720229304
 30
0.0
 11
2.697107701055799
 21
8.648462056324593
 31
0.0
  0
LINE
  5
A03
330
1F
100
AcDbEntity
  8
0
 62
     4
100
AcDbLine
 10
2.469702391969903
 20
8.795015720229304
 30
0.0
 11
2.677916848362954
 21
8.629271203631748
 31
0.0
  0
LWPOLYLINE
  5
A04
330
1F
100
AcDbEntity
  8
0
 62
     2
100
AcDbPolyline
 90
        2
 70
     0
 43
0.0
 10
1.702091514641736
 20
8.742987753166321
 42
0.4142140000000001
 10
1.673090514641742
 20
8.771987753166317
  0
LWPOLYLINE
  5
A05
330
1F
100
AcDbEntity
  8
0
 62
     2
100
AcDbPolyline
 90
        2
 70
     0
 43
0.0
 10
1.636091514641734
 20
8.771987753166317
 42
0.4142140000000001
 10
1.60709051464174
 20
8.742987753166321
  0
LWPOLYLINE
  5
A06
330
1F
100
AcDbEntity
  8
0
 62
     2
100
AcDbPolyline
 90
        2
 70
     0
 43
0.0
 10
1.48609051464173
 20
9.341322753166313
 10
1.197090514641743
 20
8.591322753166313
  0
LWPOLYLINE
  5
A07
330
1F
100
AcDbEntity
  8
0
 62
     2
100
AcDbPolyline
 90
        2
 70
     0
 43
0.0
 10
1.518348514641743
 20
9.294322753166316
 10
1.255759514641738
 20
8.612862753166314
  0
LWPOLYLINE
  5
A08
330
1F
100
AcDbEntity
  8
0
 62
     2
100
AcDbPolyline
 90
        2
 70
     0
 43
0.0
 10
1.252855514641737
 20
8.062500753166322
 10
1.251493514641737
 20
8.117894753166314
  0
LWPOLYLINE
  5
A09
330
1F
100
AcDbEntity
  8
0
 62
     2
100
AcDbPolyline
 90
        2
 70
     0
 43
0.0
 10
1.702091514641736
 20
8.742987753166321
 10
1.702091514641736
 20
7.72198775316632
  0
LWPOLYLINE
  5
A0A
330
1F
100
AcDbEntity
  8
0
 62
     2
100
AcDbPolyline
 90
        2
 70
     0
 43
0.0
 10
1.762090514641741
 20
8.646561753166313
 10
1.762090514641741
 20
7.780628753166315
  0
LWPOLYLINE
  5
A0B
330
1F
100
AcDbEntity
  8
0
 62
     2
100
AcDbPolyline
 90
        2
 70
     0
 43
0.0
 10
1.60709051464174
 20
8.742987753166321
 10
1.60709051464174
 20
7.72198775316632
  0
LWPOLYLINE
  5
A0C
330
1F
100
AcDbEntity
  8
0
 62
     2
100
AcDbPolyline
 90
        2
 70
     0
 43
0.0
 10
1.567091514641731
 20
8.087631753166323
 10
1.401973514641738
 20
8.087631753166323
  0
LWPOLYLINE
  5
A0D
330
1F
100
AcDbEntity
  8
0
 62
     2
100
AcDbPolyline
 90
        2
 70
     0
 43
0.0
 10
1.285090514641737
 20
8.003909753166315
 10
1.567091514641731
 20
7.919909753166326
  0
LWPOLYLINE
  5
A0E
330
1F
100
AcDbEntity
  8
0
 62
     2
100
AcDbPolyline
 90
        2
 70
     0
 43
0.0
 10
1.487090514641735
 20
7.810464753166318
 10
1.306927514641742
 20
7.810464753166318
  0
LWPOLYLINE
  5
A0F
330
1F
100
AcDbEntity
  8
0
 62
     2
100
AcDbPolyline
 90
        2
 70
     0
 43
0.0
 10
1.235091514641737
 20
7.966631753166314
 10
1.495654514641742
 20
7.889017753166317
  0
LWPOLYLINE
  5
A10
330
1F
100
AcDbEntity
  8
0
 62
     2
100
AcDbPolyline
 90
        2
 70
     0
 43
0.0
 10
1.567091514641731
 20
7.710464753166323
 10
1.339587514641735
 20
7.51076875316632
  0
LWPOLYLINE
  5
A11
330
1F
100
AcDbEntity
  8
0
 62
     2
100
AcDbPolyline
 90
        2
 70
     0
 43
0.0
 10
1.41678751464174
 20
7.686991753166314
 42
0.650798
 10
1.397533514641736
 20
7.730464753166319
  0
LWPOLYLINE
  5
A12
330
1F
100
AcDbEntity
  8
0
 62
     2
100
AcDbPolyline
 90
        2
 70
     0
 43
0.0
 10
1.477090514641744
 20
7.581830753166318
 42
0.4142140000000001
 10
1.427090514641733
 20
7.531830753166321
  0
LWPOLYLINE
  5
A13
330
1F
100
AcDbEntity
  8
0
 62
     2
100
AcDbPolyline
 90
        2
 70
     0
 43
0.0
 10
1.08623651464174
 20
7.500604753166317
 10
1.251921514641736
 20
7.779180753166318
  0
LWPOLYLINE
  5
A14
330
1F
100
AcDbEntity
  8
0
 62
     2
100
AcDbPolyline
 90
        2
 70
     0
 43
0.0
 10
1.19036551464174
 20
7.458535753166319
 42
0.28137
 10
1.216385514641743
 20
7.466166753166323
  0
LWPOLYLINE
  5
A15
330
1F
100
AcDbEntity
  8
0
 62
     2
100
AcDbPolyline
 90
        2
 70
     0
 43
0.0
 10
1.326964514641744
 20
7.721937753166319
 10
1.146793514641743
 20
7.523404753166321
  0
LWPOLYLINE
  5
A16
330
1F
100
AcDbEntity
  8
0
 62
     2
100
AcDbPolyline
 90
        2
 70
     0
 43
0.0
 10
1.138749514641745
 20
7.496198753166314
 10
1.138749514641745
 20
7.502571753166325
  0
LWPOLYLINE
  5
A17
330
1F
100
AcDbEntity
  8
0
 62
     2
100
AcDbPolyline
 90
        2
 70
     0
 43
0.0
 10
1.19036551464174
 20
7.458535753166319
 10
1.161681514641742
 20
7.466266753166312
  0
LWPOLYLINE
  5
A18
330
1F
100
AcDbEntity
  8
0
 62
     2
100
AcDbPolyline
 90
        2
 70
     0
 43
0.0
 10
1.146793514641743
 20
7.523404753166321
 42
0.186351
 10
1.138749514641745
 20
7.502571753166325
  0
LWPOLYLINE
  5
A19
330
1F
100
AcDbEntity
  8
0
 62
     2
100
AcDbPolyline
 90
        2
 70
     0
 43
0.0
 10
1.138749514641745
 20
7.496198753166314
 42
0.339044
 10
1.161682514641739
 20
7.466266753166312
  0
LWPOLYLINE
  5
A1A
330
1F
100
AcDbEntity
  8
0
 62
     2
100
AcDbPolyline
 90
        2
 70
     0
 43
0.0
 10
1.397533514641736
 20
7.730464753166319
 10
1.346218514641734
 20
7.730464753166319
  0
LWPOLYLINE
  5
A1B
330
1F
100
AcDbEntity
  8
0
 62
     2
100
AcDbPolyline
 90
        2
 70
     0
 43
0.0
 10
1.346218514641734
 20
7.730464753166319
 42
0.211535
 10
1.326965514641742
 20
7.721937753166319
  0
LWPOLYLINE
  5
A1C
330
1F
100
AcDbEntity
  8
0
 62
     2
100
AcDbPolyline
 90
        2
 70
     0
 43
0.0
 10
1.416786514641742
 20
7.686991753166314
 10
1.216384514641731
 20
7.466166753166323
  0
LWPOLYLINE
  5
A1D
330
1F
100
AcDbEntity
  8
0
 62
     2
100
AcDbPolyline
 90
        2
 70
     0
 43
0.0
 10
1.401973514641738
 20
8.087631753166323
 10
1.285090514641737
 20
8.023118753166318
  0
LWPOLYLINE
  5
A1E
330
1F
100
AcDbEntity
  8
0
 62
     2
100
AcDbPolyline
 90
        2
 70
     0
 43
0.0
 10
1.285090514641737
 20
8.023118753166318
 10
1.285090514641737
 20
8.003909753166315
  0
LWPOLYLINE
  5
A1F
330
1F
100
AcDbEntity
  8
0
 62
     2
100
AcDbPolyline
 90
        2
 70
     0
 43
0.0
 10
1.235091514641737
 20
8.052631753166313
 10
1.235091514641737
 20
7.966631753166314
  0
LWPOLYLINE
  5
A20
330
1F
100
AcDbEntity
  8
0
 62
     2
100
AcDbPolyline
 90
        2
 70
     0
 43
0.0
 10
1.25288251464174
 20
8.062452753166315
 10
1.235091514641737
 20
8.052631753166313
  0
LWPOLYLINE
  5
A21
330
1F
100
AcDbEntity
  8
0
 62
     2
100
AcDbPolyline
 90
        2
 70
     0
 43
0.0
 10
1.306927514641742
 20
7.810464753166318
 42
0.264479
 10
1.251921514641736
 20
7.779180753166318
  0
LWPOLYLINE
  5
A22
330
1F
100
AcDbEntity
  8
0
 62
     2
100
AcDbPolyline
 90
        2
 70
     0
 43
0.0
 10
1.673090514641742
 20
7.672955753166323
 10
1.636091514641734
 20
7.672955753166323
  0
LWPOLYLINE
  5
A23
330
1F
100
AcDbEntity
  8
0
 62
     2
100
AcDbPolyline
 90
        2
 70
     0
 43
0.0
 10
1.673090514641742
 20
7.692987753166324
 10
1.636091514641734
 20
7.692987753166324
  0
LWPOLYLINE
  5
A24
330
1F
100
AcDbEntity
  8
0
 62
     2
100
AcDbPolyline
 90
        2
 70
     0
 43
0.0
 10
1.477090514641744
 20
7.581830753166318
 10
1.567091514641731
 20
7.581830753166318
  0
LWPOLYLINE
  5
A25
330
1F
100
AcDbEntity
  8
0
 62
     2
100
AcDbPolyline
 90
        2
 70
     0
 43
0.0
 10
1.498091514641743
 20
7.543830753166322
 10
1.567091514641731
 20
7.543830753166322
  0
LWPOLYLINE
  5
A26
330
1F
100
AcDbEntity
  8
0
 62
     2
100
AcDbPolyline
 90
        2
 70
     0
 43
0.0
 10
1.498091514641743
 20
7.543830753166322
 42
0.4142140000000001
 10
1.473090514641739
 20
7.518830753166316
  0
LWPOLYLINE
  5
A27
330
1F
100
AcDbEntity
  8
0
 62
     2
100
AcDbPolyline
 90
        2
 70
     0
 43
0.0
 10
1.427090514641733
 20
7.531830753166321
 10
1.427090514641733
 20
7.518830753166316
  0
LWPOLYLINE
  5
A28
330
1F
100
AcDbEntity
  8
0
 62
     2
100
AcDbPolyline
 90
        2
 70
     0
 43
0.0
 10
1.60709051464174
 20
7.72198775316632
 42
0.4142140000000001
 10
1.636091514641734
 20
7.692987753166324
  0
LWPOLYLINE
  5
A29
330
1F
100
AcDbEntity
  8
0
 62
     2
100
AcDbPolyline
 90
        2
 70
     0
 43
0.0
 10
1.636091514641734
 20
7.672955753166323
 42
0.4142140000000001
 10
1.60709051464174
 20
7.643955753166313
  0
LWPOLYLINE
  5
A2A
330
1F
100
AcDbEntity
  8
0
 62
     2
100
AcDbPolyline
 90
        2
 70
     0
 43
0.0
 10
1.673090514641742
 20
7.692987753166324
 42
0.4142140000000001
 10
1.702091514641736
 20
7.72198775316632
  0
LWPOLYLINE
  5
A2B
330
1F
100
AcDbEntity
  8
0
 62
     2
100
AcDbPolyline
 90
        2
 70
     0
 43
0.0
 10
1.702091514641736
 20
7.643955753166313
 42
0.4142140000000001
 10
1.673090514641742
 20
7.672955753166323
  0
LWPOLYLINE
  5
A2C
330
1F
100
AcDbEntity
  8
0
 62
     2
100
AcDbPolyline
 90
        2
 70
     0
 43
0.0
 10
1.762090514641741
 20
7.580650753166313
 10
1.799315514641733
 20
7.594501753166316
  0
LWPOLYLINE
  5
A2D
330
1F
100
AcDbEntity
  8
0
 62
     2
100
AcDbPolyline
 90
        2
 70
     0
 43
0.0
 10
1.517090514641736
 20
7.86026575316632
 10
1.517090514641736
 20
7.840464753166319
  0
LWPOLYLINE
  5
A2E
330
1F
100
AcDbEntity
  8
0
 62
     2
100
AcDbPolyline
 90
        2
 70
     0
 43
0.0
 10
1.517090514641736
 20
7.86026575316632
 42
0.331747
 10
1.49565551464174
 20
7.889017753166317
  0
LWPOLYLINE
  5
A2F
330
1F
100
AcDbEntity
  8
0
 62
     2
100
AcDbPolyline
 90
        2
 70
     0
 43
0.0
 10
1.487090514641735
 20
7.810464753166318
 42
0.4142140000000001
 10
1.517090514641736
 20
7.840464753166319
  0
LWPOLYLINE
  5
A30
330
1F
100
AcDbEntity
  8
0
 62
     2
100
AcDbPolyline
 90
        2
 70
     0
 43
0.0
 10
1.762090514641741
 20
7.780628753166315
 10
1.798409514641733
 20
7.76754575316632
  0
LWPOLYLINE
  5
A31
330
1F
100
AcDbEntity
  8
0
 62
     2
100
AcDbPolyline
 90
        2
 70
     0
 43
0.0
 10
1.567091514641731
 20
8.137631753166321
 10
1.389090514641736
 20
8.137631753166321
  0
LWPOLYLINE
  5
A32
330
1F
100
AcDbEntity
  8
0
 62
     2
100
AcDbPolyline
 90
        2
 70
     0
 43
0.0
 10
1.488904514641731
 20
8.197631753166323
 10
1.277090514641741
 20
8.216233753166324
  0
LWPOLYLINE
  5
A33
330
1F
100
AcDbEntity
  8
0
 62
     2
100
AcDbPolyline
 90
        2
 70
     0
 43
0.0
 10
1.567091514641731
 20
8.364322753166323
 10
1.384702514641745
 20
8.447646753166313
  0
LWPOLYLINE
  5
A34
330
1F
100
AcDbEntity
  8
0
 62
     2
100
AcDbPolyline
 90
        2
 70
     0
 43
0.0
 10
1.45247851464174
 20
8.363910753166312
 10
1.405478514641743
 20
8.385382753166314
  0
LWPOLYLINE
  5
A35
330
1F
100
AcDbEntity
  8
0
 62
     2
100
AcDbPolyline
 90
        2
 70
     0
 43
0.0
 10
1.49109051464174
 20
8.25566375316632
 10
1.41701251464174
 20
8.262168753166324
  0
LWPOLYLINE
  5
A36
330
1F
100
AcDbEntity
  8
0
 62
     2
100
AcDbPolyline
 90
        2
 70
     0
 43
0.0
 10
1.317091514641731
 20
8.485266753166317
 10
1.317091514641731
 20
8.356530753166314
  0
LWPOLYLINE
  5
A37
330
1F
100
AcDbEntity
  8
0
 62
     2
100
AcDbPolyline
 90
        2
 70
     0
 43
0.0
 10
1.219641514641736
 20
8.234618753166319
 42
0.21203
 10
1.175561514641742
 20
8.172233753166313
  0
LWPOLYLINE
  5
A38
330
1F
100
AcDbEntity
  8
0
 62
     2
100
AcDbPolyline
 90
        2
 70
     0
 43
0.0
 10
1.219641514641736
 20
8.236790753166321
 10
1.211296514641745
 20
8.261824753166312
  0
LWPOLYLINE
  5
A39
330
1F
100
AcDbEntity
  8
0
 62
     2
100
AcDbPolyline
 90
        2
 70
     0
 43
0.0
 10
1.220784514641735
 20
8.280797753166314
 42
0.4142050000000001
 10
1.211297514641742
 20
8.261824753166312
  0
LWPOLYLINE
  5
A3A
330
1F
100
AcDbEntity
  8
0
 62
     2
100
AcDbPolyline
 90
        2
 70
     0
 43
0.0
 10
1.238238514641736
 20
8.394691753166316
 42
0.366769
 10
1.211166514641732
 20
8.377022753166318
  0
LWPOLYLINE
  5
A3B
330
1F
100
AcDbEntity
  8
0
 62
     2
100
AcDbPolyline
 90
        2
 70
     0
 43
0.0
 10
1.123163514641731
 20
8.40568875316632
 10
1.140165514641736
 20
8.387363753166315
  0
LWPOLYLINE
  5
A3C
330
1F
100
AcDbEntity
  8
0
 62
     2
100
AcDbPolyline
 90
        2
 70
     0
 43
0.0
 10
1.117060514641735
 20
8.335813753166323
 10
1.157869514641731
 20
8.291829753166314
  0
LWPOLYLINE
  5
A3D
330
1F
100
AcDbEntity
  8
0
 62
     2
100
AcDbPolyline
 90
        2
 70
     0
 43
0.0
 10
1.117060514641735
 20
8.335813753166323
 10
1.140165514641736
 20
8.387363753166315
  0
LWPOLYLINE
  5
A3E
330
1F
100
AcDbEntity
  8
0
 62
     2
100
AcDbPolyline
 90
        2
 70
     0
 43
0.0
 10
1.211165514641734
 20
8.377022753166318
 10
1.205110514641731
 20
8.356695753166324
  0
LWPOLYLINE
  5
A3F
330
1F
100
AcDbEntity
  8
0
 62
     2
100
AcDbPolyline
 90
        2
 70
     0
 43
0.0
 10
1.205110514641731
 20
8.356695753166324
 10
1.157869514641731
 20
8.291829753166314
  0
LWPOLYLINE
  5
A40
330
1F
100
AcDbEntity
  8
0
 62
     2
100
AcDbPolyline
 90
        2
 70
     0
 43
0.0
 10
1.054368514641737
 20
8.349986753166323
 42
0.450623
 10
1.051831514641733
 20
8.291609753166316
  0
LWPOLYLINE
  5
A41
330
1F
100
AcDbEntity
  8
0
 62
     2
100
AcDbPolyline
 90
        2
 70
     0
 43
0.0
 10
1.175561514641742
 20
8.172233753166313
 10
1.051831514641733
 20
8.291610753166313
  0
LWPOLYLINE
  5
A42
330
1F
100
AcDbEntity
  8
0
 62
     2
100
AcDbPolyline
 90
        2
 70
     0
 43
0.0
 10
1.054367514641739
 20
8.349986753166323
 10
1.123163514641731
 20
8.40568875316632
  0
LWPOLYLINE
  5
A43
330
1F
100
AcDbEntity
  8
0
 62
     2
100
AcDbPolyline
 90
        2
 70
     0
 43
0.0
 10
1.277090514641741
 20
8.216233753166324
 10
1.256833514641741
 20
8.277003753166315
  0
LWPOLYLINE
  5
A44
330
1F
100
AcDbEntity
  8
0
 62
     2
100
AcDbPolyline
 90
        2
 70
     0
 43
0.0
 10
1.389090514641736
 20
8.137631753166321
 10
1.327091514641736
 20
8.103411753166316
  0
LWPOLYLINE
  5
A45
330
1F
100
AcDbEntity
  8
0
 62
     2
100
AcDbPolyline
 90
        2
 70
     0
 43
0.0
 10
1.327091514641736
 20
8.103411753166316
 10
1.291531514641732
 20
8.164363753166316
  0
LWPOLYLINE
  5
A46
330
1F
100
AcDbEntity
  8
0
 62
     2
100
AcDbPolyline
 90
        2
 70
     0
 43
0.0
 10
1.291531514641732
 20
8.164363753166316
 42
0.407264
 10
1.260550514641735
 20
8.172909753166326
  0
LWPOLYLINE
  5
A47
330
1F
100
AcDbEntity
  8
0
 62
     2
100
AcDbPolyline
 90
        2
 70
     0
 43
0.0
 10
1.251493514641737
 20
8.117894753166314
 10
1.241289514641735
 20
8.135383753166312
  0
LWPOLYLINE
  5
A48
330
1F
100
AcDbEntity
  8
0
 62
     2
100
AcDbPolyline
 90
        2
 70
     0
 43
0.0
 10
1.250041514641736
 20
8.167109753166318
 42
0.4211960000000001
 10
1.241289514641735
 20
8.135383753166312
  0
LWPOLYLINE
  5
A49
330
1F
100
AcDbEntity
  8
0
 62
     2
100
AcDbPolyline
 90
        2
 70
     0
 43
0.0
 10
1.260551514641733
 20
8.172910753166323
 10
1.250041514641736
 20
8.167109753166318
  0
LWPOLYLINE
  5
A4A
330
1F
100
AcDbEntity
  8
0
 62
     2
100
AcDbPolyline
 90
        2
 70
     0
 43
0.0
 10
1.343051514641743
 20
8.344669753166318
 10
1.317091514641731
 20
8.356530753166314
  0
LWPOLYLINE
  5
A4B
330
1F
100
AcDbEntity
  8
0
 62
     2
100
AcDbPolyline
 90
        2
 70
     0
 43
0.0
 10
1.40547951464174
 20
8.385382753166314
 42
0.546087
 10
1.370090514641731
 20
8.362643753166313
  0
LWPOLYLINE
  5
A4C
330
1F
100
AcDbEntity
  8
0
 62
     2
100
AcDbPolyline
 90
        2
 70
     0
 43
0.0
 10
1.34304151464174
 20
8.344648753166314
 42
0.5567260000000001
 10
1.370065514641737
 20
8.362642753166316
  0
LWPOLYLINE
  5
A4D
330
1F
100
AcDbEntity
  8
0
 62
     2
100
AcDbPolyline
 90
        2
 70
     0
 43
0.0
 10
1.285056514641738
 20
8.374035753166314
 10
1.312112514641739
 20
8.286962753166324
  0
LWPOLYLINE
  5
A4E
330
1F
100
AcDbEntity
  8
0
 62
     2
100
AcDbPolyline
 90
        2
 70
     0
 43
0.0
 10
1.408639514641734
 20
8.315104753166313
 10
1.401378514641734
 20
8.315741753166324
  0
LWPOLYLINE
  5
A4F
330
1F
100
AcDbEntity
  8
0
 62
     2
100
AcDbPolyline
 90
        2
 70
     0
 43
0.0
 10
1.370090514641731
 20
8.266289753166322
 10
1.374486514641731
 20
8.294664753166319
  0
LWPOLYLINE
  5
A50
330
1F
100
AcDbEntity
  8
0
 62
     2
100
AcDbPolyline
 90
        2
 70
     0
 43
0.0
 10
1.41701251464174
 20
8.262168753166324
 10
1.408639514641734
 20
8.315104753166313
  0
LWPOLYLINE
  5
A51
330
1F
100
AcDbEntity
  8
0
 62
     2
100
AcDbPolyline
 90
        2
 70
     0
 43
0.0
 10
1.370090514641731
 20
8.266289753166322
 10
1.333799514641739
 20
8.269476753166319
  0
LWPOLYLINE
  5
A52
330
1F
100
AcDbEntity
  8
0
 62
     2
100
AcDbPolyline
 90
        2
 70
     0
 43
0.0
 10
1.285056514641738
 20
8.374034753166316
 42
0.294249
 10
1.264295514641744
 20
8.391421753166316
  0
LWPOLYLINE
  5
A53
330
1F
100
AcDbEntity
  8
0
 62
     2
100
AcDbPolyline
 90
        2
 70
     0
 43
0.0
 10
1.312112514641739
 20
8.286962753166324
 42
0.304396
 10
1.333799514641739
 20
8.269476753166319
  0
LWPOLYLINE
  5
A54
330
1F
100
AcDbEntity
  8
0
 62
     2
100
AcDbPolyline
 90
        2
 70
     0
 43
0.0
 10
1.401378514641734
 20
8.315741753166324
 42
0.394979
 10
1.374486514641731
 20
8.294664753166319
  0
LWPOLYLINE
  5
A55
330
1F
100
AcDbEntity
  8
0
 62
     2
100
AcDbPolyline
 90
        2
 70
     0
 43
0.0
 10
1.237860514641738
 20
8.286489753166325
 10
1.220783514641738
 20
8.280797753166314
  0
LWPOLYLINE
  5
A56
330
1F
100
AcDbEntity
  8
0
 62
     2
100
AcDbPolyline
 90
        2
 70
     0
 43
0.0
 10
1.238237514641738
 20
8.394691753166316
 10
1.264294514641733
 20
8.391422753166313
  0
LWPOLYLINE
  5
A57
330
1F
100
AcDbEntity
  8
0
 62
     2
100
AcDbPolyline
 90
        2
 70
     0
 43
0.0
 10
1.256834514641738
 20
8.277002753166318
 42
0.414209
 10
1.237860514641738
 20
8.286489753166325
  0
LWPOLYLINE
  5
A58
330
1F
100
AcDbEntity
  8
0
 62
     2
100
AcDbPolyline
 90
        2
 70
     0
 43
0.0
 10
1.224624514641732
 20
8.462890753166323
 10
1.197090514641743
 20
8.46823375316632
  0
LWPOLYLINE
  5
A59
330
1F
100
AcDbEntity
  8
0
 62
     2
100
AcDbPolyline
 90
        2
 70
     0
 43
0.0
 10
1.197090514641743
 20
8.591322753166313
 10
1.197090514641743
 20
8.46823375316632
  0
LWPOLYLINE
  5
A5A
330
1F
100
AcDbEntity
  8
0
 62
     2
100
AcDbPolyline
 90
        2
 70
     0
 43
0.0
 10
1.255759514641738
 20
8.612862753166314
 42
0.396535
 10
1.276462514641735
 20
8.562096753166319
  0
LWPOLYLINE
  5
A5B
330
1F
100
AcDbEntity
  8
0
 62
     2
100
AcDbPolyline
 90
        2
 70
     0
 43
0.0
 10
1.355479514641743
 20
8.525997753166311
 10
1.276462514641735
 20
8.562096753166319
  0
LWPOLYLINE
  5
A5C
330
1F
100
AcDbEntity
  8
0
 62
     2
100
AcDbPolyline
 90
        2
 70
     0
 43
0.0
 10
1.370090514641731
 20
8.503258753166324
 10
1.370090514641731
 20
8.470386753166312
  0
LWPOLYLINE
  5
A5D
330
1F
100
AcDbEntity
  8
0
 62
     2
100
AcDbPolyline
 90
        2
 70
     0
 43
0.0
 10
1.317091514641731
 20
8.485266753166317
 10
1.266227514641741
 20
8.508503753166312
  0
LWPOLYLINE
  5
A5E
330
1F
100
AcDbEntity
  8
0
 62
     2
100
AcDbPolyline
 90
        2
 70
     0
 43
0.0
 10
1.370090514641731
 20
8.470386753166312
 42
0.293591
 10
1.384702514641745
 20
8.447647753166325
  0
LWPOLYLINE
  5
A5F
330
1F
100
AcDbEntity
  8
0
 62
     2
100
AcDbPolyline
 90
        2
 70
     0
 43
0.0
 10
1.224624514641732
 20
8.462890753166323
 42
0.348422
 10
1.252200514641742
 20
8.477207753166315
  0
LWPOLYLINE
  5
A60
330
1F
100
AcDbEntity
  8
0
 62
     2
100
AcDbPolyline
 90
        2
 70
     0
 43
0.0
 10
1.252200514641742
 20
8.477207753166315
 10
1.266227514641741
 20
8.508503753166312
  0
LWPOLYLINE
  5
A61
330
1F
100
AcDbEntity
  8
0
 62
     2
100
AcDbPolyline
 90
        2
 70
     0
 43
0.0
 10
1.370090514641731
 20
8.503258753166324
 42
0.293588
 10
1.355479514641743
 20
8.525997753166311
  0
LWPOLYLINE
  5
A62
330
1F
100
AcDbEntity
  8
0
 62
     2
100
AcDbPolyline
 90
        2
 70
     0
 43
0.0
 10
1.516090514641732
 20
8.279322753166315
 10
1.516090514641732
 20
8.222536753166313
  0
LWPOLYLINE
  5
A63
330
1F
100
AcDbEntity
  8
0
 62
     2
100
AcDbPolyline
 90
        2
 70
     0
 43
0.0
 10
1.488903514641734
 20
8.19763275316632
 42
0.4401080000000001
 10
1.516090514641732
 20
8.222536753166313
  0
LWPOLYLINE
  5
A64
330
1F
100
AcDbEntity
  8
0
 62
     2
100
AcDbPolyline
 90
        2
 70
     0
 43
0.0
 10
1.567091514641731
 20
8.279322753166315
 10
1.516090514641732
 20
8.279322753166315
  0
LWPOLYLINE
  5
A65
330
1F
100
AcDbEntity
  8
0
 62
     2
100
AcDbPolyline
 90
        2
 70
     0
 43
0.0
 10
1.467090514641739
 20
8.298322753166321
 10
1.467090514641739
 20
8.341171753166324
  0
LWPOLYLINE
  5
A66
330
1F
100
AcDbEntity
  8
0
 62
     2
100
AcDbPolyline
 90
        2
 70
     0
 43
0.0
 10
1.467090514641739
 20
8.298322753166321
 42
0.4142140000000001
 10
1.48609051464173
 20
8.279322753166315
  0
LWPOLYLINE
  5
A67
330
1F
100
AcDbEntity
  8
0
 62
     2
100
AcDbPolyline
 90
        2
 70
     0
 43
0.0
 10
1.49109051464174
 20
8.279322753166315
 10
1.49109051464174
 20
8.25566375316632
  0
LWPOLYLINE
  5
A68
330
1F
100
AcDbEntity
  8
0
 62
     2
100
AcDbPolyline
 90
        2
 70
     0
 43
0.0
 10
1.49109051464174
 20
8.279322753166315
 10
1.48609051464173
 20
8.279322753166315
  0
LWPOLYLINE
  5
A69
330
1F
100
AcDbEntity
  8
0
 62
     2
100
AcDbPolyline
 90
        2
 70
     0
 43
0.0
 10
1.467090514641739
 20
8.341171753166324
 42
0.293591
 10
1.452479514641737
 20
8.363910753166312
  0
LWPOLYLINE
  5
A6A
330
1F
100
AcDbEntity
  8
0
 62
     2
100
AcDbPolyline
 90
        2
 70
     0
 43
0.0
 10
1.761768514641744
 20
8.646441753166318
 10
1.798993514641736
 20
8.660293753166317
  0
LWPOLYLINE
  5
A6B
330
1F
100
AcDbEntity
  8
0
 62
     2
100
AcDbPolyline
 90
        2
 70
     0
 43
0.0
 10
2.688090514641743
 20
8.315822869574223
 10
2.688090514641743
 20
8.09693486957423
  0
LWPOLYLINE
  5
A6C
330
1F
100
AcDbEntity
  8
0
 62
     2
100
AcDbPolyline
 90
        2
 70
     0
 43
0.0
 10
2.688090514641743
 20
8.093337869574217
 10
2.663090514641737
 20
8.107771869574225
  0
LWPOLYLINE
  5
A6D
330
1F
100
AcDbEntity
  8
0
 62
     2
100
AcDbPolyline
 90
        2
 70
     0
 43
0.0
 10
2.68809151464174
 20
8.151782869574223
 42
0.565172
 10
2.68809151464174
 20
8.09693486957423
  0
LWPOLYLINE
  5
A6E
330
1F
100
AcDbEntity
  8
0
 62
     2
100
AcDbPolyline
 90
        2
 70
     0
 43
0.0
 10
2.663090514641737
 20
8.533249869574223
 10
2.663090514641737
 20
7.879000869574145
  0
LWPOLYLINE
  5
A6F
330
1F
100
AcDbEntity
  8
0
 62
     2
100
AcDbPolyline
 90
        2
 70
     0
 43
0.0
 10
2.628090514641741
 20
8.533249869574223
 10
2.628090514641741
 20
7.879000869574145
  0
LWPOLYLINE
  5
A70
330
1F
100
AcDbEntity
  8
0
 62
     2
100
AcDbPolyline
 90
        2
 70
     0
 43
0.0
 10
2.488091514641737
 20
8.063125869574225
 42
0.2869871933168745
 10
2.556090514641738
 20
7.942125869574145
  0
LWPOLYLINE
  5
A71
330
1F
100
AcDbEntity
  8
0
 62
     2
100
AcDbPolyline
 90
        2
 70
     0
 43
0.0
 10
2.628090514641741
 20
8.081125869574226
 10
2.468091514641741
 20
8.081125869574226
  0
LWPOLYLINE
  5
A72
330
1F
100
AcDbEntity
  8
0
 62
     2
100
AcDbPolyline
 90
        2
 70
     0
 43
0.0
 10
2.488091514641737
 20
8.081125869574226
 10
2.488091514641737
 20
8.063125869574225
  0
LWPOLYLINE
  5
A73
330
1F
100
AcDbEntity
  8
0
 62
     2
100
AcDbPolyline
 90
        2
 70
     0
 43
0.0
 10
2.663090514641737
 20
7.879000869574145
 10
2.628090514641741
 20
7.879000869574145
  0
LWPOLYLINE
  5
A74
330
1F
100
AcDbEntity
  8
0
 62
     2
100
AcDbPolyline
 90
        2
 70
     0
 43
0.0
 10
2.628090514641741
 20
7.942125869574145
 10
2.556090514641738
 20
7.942125869574145
  0
LWPOLYLINE
  5
A75
330
1F
100
AcDbEntity
  8
0
 62
     2
100
AcDbPolyline
 90
        2
 70
     0
 43
0.0
 10
2.556090514641738
 20
8.470125869574221
 42
0.4142140000000001
 10
2.488091514641737
 20
8.402125869574224
  0
LWPOLYLINE
  5
A76
330
1F
100
AcDbEntity
  8
0
 62
     2
100
AcDbPolyline
 90
        2
 70
     0
 43
0.0
 10
2.628090514641741
 20
8.331125869574226
 10
2.468091514641741
 20
8.331125869574226
  0
LWPOLYLINE
  5
A77
330
1F
100
AcDbEntity
  8
0
 62
     2
100
AcDbPolyline
 90
        2
 70
     0
 43
0.0
 10
2.488091514641737
 20
8.402125869574224
 10
2.488091514641737
 20
8.331125869574226
  0
LWPOLYLINE
  5
A78
330
1F
100
AcDbEntity
  8
0
 62
     2
100
AcDbPolyline
 90
        2
 70
     0
 43
0.0
 10
2.688090514641743
 20
8.26097486957423
 42
0.266352
 10
2.688090514641743
 20
8.151782869574223
  0
LWPOLYLINE
  5
A79
330
1F
100
AcDbEntity
  8
0
 62
     2
100
AcDbPolyline
 90
        2
 70
     0
 43
0.0
 10
2.688090514641743
 20
8.318736869574227
 10
2.663090514641737
 20
8.30430386957423
  0
LWPOLYLINE
  5
A7A
330
1F
100
AcDbEntity
  8
0
 62
     2
100
AcDbPolyline
 90
        2
 70
     0
 43
0.0
 10
2.688090514641743
 20
8.318737869574224
 42
0.636775
 10
2.688090514641743
 20
8.260973869574218
  0
LINE
  5
A7B
330
1F
100
AcDbEntity
  8
0
 62
     4
100
AcDbLine
 10
2.697107701055799
 20
8.648462056324593
 30
0.0
 11
2.677916848362954
 21
8.629271203631748
 31
0.0
  0
LWPOLYLINE
  5
A7C
330
1F
100
AcDbEntity
  8
0
 62
     2
100
AcDbPolyline
 90
        2
 70
     0
 43
0.0
 10
2.663090514641737
 20
8.533249869574223
 10
2.628090514641741
 20
8.533249869574223
  0
LWPOLYLINE
  5
A7D
330
1F
100
AcDbEntity
  8
0
 62
     2
100
AcDbPolyline
 90
        2
 70
     0
 43
0.0
 10
2.628090514641741
 20
8.470125869574221
 10
2.556090514641738
 20
8.470125869574221
  0
LWPOLYLINE
  5
A7E
330
1F
100
AcDbEntity
  8
0
 62
     2
100
AcDbPolyline
 90
        2
 70
     0
 43
0.0
 10
2.169091514641735
 20
9.412955753166318
 10
1.834047514641738
 20
9.323672753166324
  0
LWPOLYLINE
  5
A7F
330
1F
100
AcDbEntity
  8
0
 62
     2
100
AcDbPolyline
 90
        2
 70
     0
 43
0.0
 10
1.805090514641733
 20
9.028987753166322
 10
1.636091514641734
 20
9.028987753166322
  0
LWPOLYLINE
  5
A80
330
1F
100
AcDbEntity
  8
0
 62
     2
100
AcDbPolyline
 90
        2
 70
     0
 43
0.0
 10
1.673090514641742
 20
8.771987753166317
 10
1.636091514641734
 20
8.771987753166317
  0
LWPOLYLINE
  5
A81
330
1F
100
AcDbEntity
  8
0
 62
     2
100
AcDbPolyline
 90
        2
 70
     0
 43
0.0
 10
1.805090514641733
 20
8.850987753166325
 10
1.60709051464174
 20
8.850987753166325
  0
LWPOLYLINE
  5
A82
330
1F
100
AcDbEntity
  8
0
 62
     2
100
AcDbPolyline
 90
        2
 70
     0
 43
0.0
 10
1.636091514641734
 20
9.028987753166322
 42
0.4142140000000001
 10
1.60709051464174
 20
8.999987753166326
  0
LWPOLYLINE
  5
A83
330
1F
100
AcDbEntity
  8
0
 62
     2
100
AcDbPolyline
 90
        2
 70
     0
 43
0.0
 10
1.60709051464174
 20
8.999987753166326
 10
1.60709051464174
 20
8.850987753166325
  0
LWPOLYLINE
  5
A84
330
1F
100
AcDbEntity
  8
0
 62
     2
100
AcDbPolyline
 90
        2
 70
     0
 43
0.0
 10
1.632600514641737
 20
9.121895753166317
 10
1.805090514641733
 20
9.100987753166325
  0
LWPOLYLINE
  5
A85
330
1F
100
AcDbEntity
  8
0
 62
     2
100
AcDbPolyline
 90
        2
 70
     0
 43
0.0
 10
1.48609051464173
 20
9.341322753166313
 10
1.578090514641743
 20
9.341322753166313
  0
LWPOLYLINE
  5
A86
330
1F
100
AcDbEntity
  8
0
 62
     2
100
AcDbPolyline
 90
        2
 70
     0
 43
0.0
 10
1.518348514641743
 20
9.294322753166316
 10
1.567091514641731
 20
9.294322753166316
  0
LWPOLYLINE
  5
A87
330
1F
100
AcDbEntity
  8
0
 62
     2
100
AcDbPolyline
 90
        2
 70
     0
 43
0.0
 10
1.60709051464174
 20
9.312322753166316
 42
0.4142140000000001
 10
1.578090514641743
 20
9.341322753166313
  0
LWPOLYLINE
  5
A88
330
1F
100
AcDbEntity
  8
0
 62
     2
100
AcDbPolyline
 90
        2
 70
     0
 43
0.0
 10
1.60709051464174
 20
9.15068475316632
 42
0.379308
 10
1.632601514641734
 20
9.121895753166317
  0
LWPOLYLINE
  5
A89
330
1F
100
AcDbEntity
  8
0
 62
     2
100
AcDbPolyline
 90
        2
 70
     0
 43
0.0
 10
1.60709051464174
 20
9.312322753166316
 10
1.60709051464174
 20
9.15068475316632
  0
LWPOLYLINE
  5
A8A
330
1F
100
AcDbEntity
  8
0
 62
     2
100
AcDbPolyline
 90
        2
 70
     0
 43
0.0
 10
1.834048514641736
 20
9.323672753166324
 42
0.339836
 10
1.805090514641733
 20
9.285987753166313
  0
LWPOLYLINE
  5
A8B
330
1F
100
AcDbEntity
  8
0
 62
     2
100
AcDbPolyline
 90
        2
 70
     0
 43
0.0
 10
2.474242514641744
 20
9.364203753166311
 10
2.169091514641735
 20
9.412955753166318
  0
LWPOLYLINE
  5
A8C
330
1F
100
AcDbEntity
  8
0
 62
     2
100
AcDbPolyline
 90
        2
 70
     0
 43
0.0
 10
2.507090514641731
 20
9.325691753166314
 10
2.507090514641731
 20
9.093955753166316
  0
LWPOLYLINE
  5
A8D
330
1F
100
AcDbEntity
  8
0
 62
     2
100
AcDbPolyline
 90
        2
 70
     0
 43
0.0
 10
2.48209051464174
 20
9.068955753166324
 42
0.4142140000000001
 10
2.507090514641731
 20
9.093955753166316
  0
LWPOLYLINE
  5
A8E
330
1F
100
AcDbEntity
  8
0
 62
     2
100
AcDbPolyline
 90
        2
 70
     0
 43
0.0
 10
2.468091514641741
 20
9.068955753166324
 10
2.48209051464174
 20
9.068955753166324
  0
LWPOLYLINE
  5
A8F
330
1F
100
AcDbEntity
  8
0
 62
     2
100
AcDbPolyline
 90
        2
 70
     0
 43
0.0
 10
2.507090514641731
 20
9.325691753166314
 42
0.368539
 10
2.474243514641742
 20
9.364202753166313
  0
LWPOLYLINE
  5
A90
330
1F
100
AcDbEntity
  8
0
 62
     4
100
AcDbPolyline
 90
        2
 70
     0
 43
0.0
 10
3.759090514641741
 20
7.039955753166314
 10
3.463090514641734
 20
7.055955753166319
  0
LWPOLYLINE
  5
A91
330
1F
100
AcDbEntity
  8
0
 62
     4
100
AcDbPolyline
 90
        2
 70
     0
 43
0.0
 10
3.509090514641741
 20
6.712955753166315
 10
3.759090514641741
 20
6.802955753166319
  0
LWPOLYLINE
  5
A92
330
1F
100
AcDbEntity
  8
0
 62
     4
100
AcDbPolyline
 90
        2
 70
     0
 43
0.0
 10
2.958090514641739
 20
6.781955753166318
 10
2.958090514641739
 20
6.739955753166317
  0
LWPOLYLINE
  5
A93
330
1F
100
AcDbEntity
  8
0
 62
     4
100
AcDbPolyline
 90
        2
 70
     0
 43
0.0
 10
2.912090514641732
 20
6.277955753166313
 10
3.162090514641732
 20
6.375955753166312
  0
LWPOLYLINE
  5
A94
330
1F
100
AcDbEntity
  8
0
 62
     4
100
AcDbPolyline
 90
        2
 70
     0
 43
0.0
 10
2.958090514641739
 20
6.353955753166321
 10
2.958090514641739
 20
6.311955753166319
  0
LWPOLYLINE
  5
A95
330
1F
100
AcDbEntity
  8
0
 62
     4
100
AcDbPolyline
 90
        2
 70
     0
 43
0.0
 10
3.162090514641732
 20
6.712955753166315
 10
3.162090514641732
 20
6.375955753166312
  0
LWPOLYLINE
  5
A96
330
1F
100
AcDbEntity
  8
0
 62
     4
100
AcDbPolyline
 90
        2
 70
     0
 43
0.0
 10
3.509090514641741
 20
6.712955753166315
 10
3.162090514641732
 20
6.712955753166315
  0
LWPOLYLINE
  5
A97
330
1F
100
AcDbEntity
  8
0
 62
     4
100
AcDbPolyline
 90
        2
 70
     0
 43
0.0
 10
3.405090514641742
 20
7.120955753166317
 10
3.463090514641734
 20
7.055955753166319
  0
LWPOLYLINE
  5
A98
330
1F
100
AcDbEntity
  8
0
 62
     4
100
AcDbPolyline
 90
        2
 70
     0
 43
0.0
 10
3.759090514641741
 20
7.039955753166314
 10
3.759090514641741
 20
6.802955753166319
  0
LINE
  5
A99
330
1F
100
AcDbEntity
  8
0
 62
     4
100
AcDbLine
 10
2.911702391969896
 20
8.795015720229304
 30
0.0
 11
2.961702391969893
 21
8.745015720229307
 31
0.0
  0
LWPOLYLINE
  5
A9A
330
1F
100
AcDbEntity
  8
0
 62
     2
100
AcDbPolyline
 90
        2
 70
     0
 43
0.0
 10
2.824090514641738
 20
8.315822869574223
 10
2.824090514641738
 20
8.096605869574222
  0
LWPOLYLINE
  5
A9B
330
1F
100
AcDbEntity
  8
0
 62
     2
100
AcDbPolyline
 90
        2
 70
     0
 43
0.0
 10
2.897090514641732
 20
8.44312586957422
 10
2.897090514641732
 20
7.969125869574146
  0
LWPOLYLINE
  5
A9C
330
1F
100
AcDbEntity
  8
0
 62
     2
100
AcDbPolyline
 90
        2
 70
     0
 43
0.0
 10
2.824090514641738
 20
8.093514869574224
 10
2.849090514641744
 20
8.107947869574221
  0
LWPOLYLINE
  5
A9D
330
1F
100
AcDbEntity
  8
0
 62
     2
100
AcDbPolyline
 90
        2
 70
     0
 43
0.0
 10
2.824090514641738
 20
8.096604869574225
 42
0.917145
 10
2.824090514641738
 20
8.151453869574229
  0
LWPOLYLINE
  5
A9E
330
1F
100
AcDbEntity
  8
0
 62
     2
100
AcDbPolyline
 90
        2
 70
     0
 43
0.0
 10
2.849090514641744
 20
8.30430386957423
 10
2.849090514641744
 20
8.107947869574221
  0
LWPOLYLINE
  5
A9F
330
1F
100
AcDbEntity
  8
0
 62
     2
100
AcDbPolyline
 90
        2
 70
     0
 43
0.0
 10
2.824090514641738
 20
8.151453869574229
 42
0.4565390000000001
 10
2.824090514641738
 20
8.260973869574218
  0
LWPOLYLINE
  5
AA0
330
1F
100
AcDbEntity
  8
0
 62
     2
100
AcDbPolyline
 90
        2
 70
     0
 43
0.0
 10
2.824090514641738
 20
8.318736869574227
 10
2.849090514641744
 20
8.30430386957423
  0
LWPOLYLINE
  5
AA1
330
1F
100
AcDbEntity
  8
0
 62
     2
100
AcDbPolyline
 90
        2
 70
     0
 43
0.0
 10
2.824090514641738
 20
8.260972869574221
 42
0.879479
 10
2.824090514641738
 20
8.315821869574225
  0
LINE
  5
AA2
330
1F
100
AcDbEntity
  8
0
 62
     4
100
AcDbLine
 10
2.961702391969893
 20
8.559015720229314
 30
0.0
 11
2.845812541314799
 21
8.44312586957422
 31
0.0
  0
LINE
  5
AA3
330
1F
100
AcDbEntity
  8
0
 62
     4
100
AcDbLine
 10
2.961702391969893
 20
8.745015720229307
 30
0.0
 11
2.961702391969893
 21
8.559015720229314
 31
0.0
  0
LWPOLYLINE
  5
AA5
330
1F
100
AcDbEntity
  8
0
  6
L0
 62
     2
100
AcDbPolyline
 90
        2
 70
     0
 43
0.0
 10
6.421090514641733
 20
9.117955753166317
 10
6.421090514641733
 20
6.277955753166313
  0
LWPOLYLINE
  5
AA6
330
1F
100
AcDbEntity
  8
0
  6
L0
 62
     2
100
AcDbPolyline
 90
        2
 70
     0
 43
0.0
 10
8.51509051464172
 20
9.117955753166317
 10
8.51509051464172
 20
6.277955753166313
  0
LWPOLYLINE
  5
AA7
330
1F
100
AcDbEntity
  8
0
  6
L5
 62
     2
100
AcDbPolyline
 90
        2
 70
     0
 43
0.0
 10
8.583090514641732
 20
6.007955753166317
 10
8.583090514641732
 20
9.387955753166327
  0
LWPOLYLINE
  5
AA8
330
1F
100
AcDbEntity
  8
0
  6
L5
 62
     2
100
AcDbPolyline
 90
        2
 70
     0
 43
0.0
 10
6.353090514641735
 20
9.377955753166322
 10
6.353090514641735
 20
6.007955753166317
  0
LWPOLYLINE
  5
AA9
330
1F
100
AcDbEntity
  8
0
  6
L5
 62
     4
100
AcDbPolyline
 90
        2
 70
     0
 43
0.0
 10
6.585090514641734
 20
7.120955753166317
 10
8.165090514641725
 20
7.120955753166317
  0
LWPOLYLINE
  5
AAA
330
1F
100
AcDbEntity
  8
0
  6
L0
 62
     4
100
AcDbPolyline
 90
        2
 70
     0
 43
0.0
 10
6.585090514641734
 20
7.039955753166314
 10
8.165090514641725
 20
7.039955753166314
  0
LWPOLYLINE
  5
AAB
330
1F
100
AcDbEntity
  8
0
  6
L5
 62
     4
100
AcDbPolyline
 90
        2
 70
     0
 43
0.0
 10
6.585090514641734
 20
6.712955753166315
 10
8.265090514641748
 20
6.712955753166315
  0
LWPOLYLINE
  5
AAC
330
1F
100
AcDbEntity
  8
0
  6
L0
 62
     4
100
AcDbPolyline
 90
        2
 70
     0
 43
0.0
 10
6.692090514641733
 20
6.375955753166312
 10
8.265090514641748
 20
6.375955753166312
  0
LWPOLYLINE
  5
AAD
330
1F
100
AcDbEntity
  8
0
  6
L0
 62
     4
100
AcDbPolyline
 90
        2
 70
     0
 43
0.0
 10
6.585090514641734
 20
6.802955753166319
 10
8.165090514641725
 20
6.802955753166319
  0
LWPOLYLINE
  5
AAE
330
1F
100
AcDbEntity
  8
0
  6
L5
 62
     2
100
AcDbPolyline
 90
        2
 70
     0
 43
0.0
 10
6.551090514641728
 20
6.027955753166313
 10
8.385090514641753
 20
6.027955753166313
  0
LWPOLYLINE
  5
AAF
330
1F
100
AcDbEntity
  8
0
  6
L0
 62
     4
100
AcDbPolyline
 90
        2
 70
     0
 43
0.0
 10
7.792864514641713
 20
6.860529753166321
 10
7.896571514641728
 20
6.964235753166324
  0
LWPOLYLINE
  5
AB0
330
1F
100
AcDbEntity
  8
0
  6
L0
 62
     4
100
AcDbPolyline
 90
        2
 70
     0
 43
0.0
 10
7.81266351464172
 20
6.840730753166315
 10
7.916370514641734
 20
6.944436753166318
  0
CIRCLE
  5
AB1
330
1F
100
AcDbEntity
  8
0
  6
L0
 62
     4
100
AcDbCircle
 10
7.855090514641723
 20
6.902955753166313
 30
0.0
 40
0.074
  0
LWPOLYLINE
  5
AB2
330
1F
100
AcDbEntity
  8
0
  6
L5
 62
     2
100
AcDbPolyline
 90
        2
 70
     0
 43
0.0
 10
8.583090514641732
 20
6.277955753166313
 10
6.353090514641735
 20
6.277955753166313
  0
DIMENSION
  5
AB3
330
1F
100
AcDbEntity
  8
0
100
AcDbDimension
  2
*D5
 10
6.353090514641735
 20
5.201057753166317
 30
0.0
 11
7.468090514641733
 21
5.201057753166317
 31
0.0
 70
    32
  1
1.94 REF
 71
     5
 42
2.229999999999996
  3
MEDDIM1148
100
AcDbAlignedDimension
 13
8.583090514641732
 23
6.007955753166317
 33
0.0
 14
6.353090514641735
 24
6.007955753166317
 34
0.0
100
AcDbRotatedDimension
1001
ACAD
1000
DSTYLE
1002
{
1070
   340
1005
FB
1070
   140
1040
0.125
1002
}
  0
LWPOLYLINE
  5
AB4
330
1F
100
AcDbEntity
  8
0
  6
L5
 62
     2
100
AcDbPolyline
 90
        2
 70
     0
 43
0.0
 10
6.551090514641728
 20
6.277955753166313
 10
6.551090514641728
 20
6.007955753166317
  0
LWPOLYLINE
  5
AB5
330
1F
100
AcDbEntity
  8
0
  6
L5
 62
     2
100
AcDbPolyline
 90
        2
 70
     0
 43
0.0
 10
6.353090514641735
 20
6.007955753166317
 42
0.4142140000000001
 10
6.378090514641726
 20
5.982955753166312
  0
LWPOLYLINE
  5
AB6
330
1F
100
AcDbEntity
  8
0
  6
L5
 62
     2
100
AcDbPolyline
 90
        2
 70
     0
 43
0.0
 10
6.378090514641726
 20
5.982955753166312
 10
6.526090514641737
 20
5.982955753166312
  0
LWPOLYLINE
  5
AB7
330
1F
100
AcDbEntity
  8
0
  6
L5
 62
     2
100
AcDbPolyline
 90
        2
 70
     0
 43
0.0
 10
6.526090514641737
 20
5.982955753166312
 42
0.4142140000000001
 10
6.551090514641728
 20
6.007955753166317
  0
CIRCLE
  5
AB8
330
1F
100
AcDbEntity
  8
0
  6
L0
 62
     4
100
AcDbCircle
 10
6.998590514641719
 20
6.495455753166314
 30
0.0
 40
0.074
  0
LWPOLYLINE
  5
AB9
330
1F
100
AcDbEntity
  8
0
  6
L0
 62
     4
100
AcDbPolyline
 90
        2
 70
     0
 43
0.0
 10
6.748590514641733
 20
6.607955753166312
 10
7.248590514641733
 20
6.607955753166312
  0
LWPOLYLINE
  5
ABA
330
1F
100
AcDbEntity
  8
0
  6
L0
 62
     4
100
AcDbPolyline
 90
        2
 70
     0
 43
0.0
 10
6.748590514641733
 20
6.647955753166318
 10
7.248590514641733
 20
6.647955753166318
  0
CIRCLE
  5
ABB
330
1F
100
AcDbEntity
  8
0
  6
L0
 62
     4
100
AcDbCircle
 10
7.08709051464173
 20
6.902955753166313
 30
0.0
 40
0.074
  0
LWPOLYLINE
  5
ABC
330
1F
100
AcDbEntity
  8
0
  6
L0
 62
     4
100
AcDbPolyline
 90
        2
 70
     0
 43
0.0
 10
6.560090514641728
 20
6.781955753166318
 10
6.560090514641728
 20
6.739955753166317
  0
LWPOLYLINE
  5
ABD
330
1F
100
AcDbEntity
  8
0
  6
L5
 62
     4
100
AcDbPolyline
 90
        2
 70
     0
 43
0.0
 10
6.585090514641734
 20
7.120955753166317
 10
6.585090514641734
 20
6.712955753166315
  0
LWPOLYLINE
  5
ABE
330
1F
100
AcDbEntity
  8
0
  6
L0
 62
     4
100
AcDbPolyline
 90
        2
 70
     0
 43
0.0
 10
6.585090514641734
 20
6.739955753166317
 10
6.560090514641728
 20
6.739955753166317
  0
CIRCLE
  5
ABF
330
1F
100
AcDbEntity
  8
0
  6
L0
 62
     4
100
AcDbCircle
 10
6.80659051464174
 20
6.495455753166314
 30
0.0
 40
0.074
  0
LWPOLYLINE
  5
AC0
330
1F
100
AcDbEntity
  8
0
  6
L0
 62
     4
100
AcDbPolyline
 90
        2
 70
     0
 43
0.0
 10
6.792590514641744
 20
6.421455753166316
 10
6.792590514641744
 20
6.568119753166318
  0
LWPOLYLINE
  5
AC1
330
1F
100
AcDbEntity
  8
0
  6
L0
 62
     4
100
AcDbPolyline
 90
        2
 70
     0
 43
0.0
 10
6.820590514641722
 20
6.421455753166316
 10
6.820590514641722
 20
6.568119753166318
  0
LWPOLYLINE
  5
AC2
330
1F
100
AcDbEntity
  8
0
  6
L0
 62
     4
100
AcDbPolyline
 90
        2
 70
     0
 43
0.0
 10
6.984590514641737
 20
6.421455753166316
 10
6.984590514641737
 20
6.568119753166318
  0
LWPOLYLINE
  5
AC3
330
1F
100
AcDbEntity
  8
0
  6
L0
 62
     4
100
AcDbPolyline
 90
        2
 70
     0
 43
0.0
 10
7.012590514641715
 20
6.421455753166316
 10
7.012590514641715
 20
6.568119753166318
  0
LWPOLYLINE
  5
AC4
330
1F
100
AcDbEntity
  8
0
  6
L5
 62
     4
100
AcDbPolyline
 90
        2
 70
     0
 43
0.0
 10
6.692090514641733
 20
6.277955753166313
 10
6.692090514641733
 20
6.712955753166315
  0
LWPOLYLINE
  5
AC5
330
1F
100
AcDbEntity
  8
0
  6
L0
 62
     4
100
AcDbPolyline
 90
        2
 70
     0
 43
0.0
 10
6.692090514641733
 20
6.395953753166313
 10
6.667090514641728
 20
6.395953753166313
  0
LWPOLYLINE
  5
AC6
330
1F
100
AcDbEntity
  8
0
  6
L0
 62
     4
100
AcDbPolyline
 90
        2
 70
     0
 43
0.0
 10
6.667090514641728
 20
6.353953753166312
 10
6.692090514641733
 20
6.353953753166312
  0
LWPOLYLINE
  5
AC7
330
1F
100
AcDbEntity
  8
0
  6
L0
 62
     4
100
AcDbPolyline
 90
        2
 70
     0
 43
0.0
 10
6.667090514641728
 20
6.395953753166313
 10
6.667090514641728
 20
6.353953753166312
  0
LWPOLYLINE
  5
AC8
330
1F
100
AcDbEntity
  8
0
  6
L0
 62
     4
100
AcDbPolyline
 90
        2
 70
     0
 43
0.0
 10
6.748590514641733
 20
6.607955753166312
 10
6.748590514641733
 20
6.647955753166318
  0
LWPOLYLINE
  5
AC9
330
1F
100
AcDbEntity
  8
0
  6
L0
 62
     4
100
AcDbPolyline
 90
        2
 70
     0
 43
0.0
 10
6.560090514641728
 20
6.781955753166318
 10
6.585090514641734
 20
6.781955753166318
  0
LWPOLYLINE
  5
ACA
330
1F
100
AcDbEntity
  8
0
  6
L0
 62
     4
100
AcDbPolyline
 90
        2
 70
     0
 43
0.0
 10
6.640864514641748
 20
6.860529753166321
 10
6.744571514641734
 20
6.964235753166324
  0
LWPOLYLINE
  5
ACB
330
1F
100
AcDbEntity
  8
0
  6
L0
 62
     4
100
AcDbPolyline
 90
        2
 70
     0
 43
0.0
 10
6.660663514641726
 20
6.840730753166315
 10
6.76437051464174
 20
6.944436753166318
  0
CIRCLE
  5
ACC
330
1F
100
AcDbEntity
  8
0
  6
L0
 62
     4
100
AcDbCircle
 10
6.703090514641715
 20
6.902955753166313
 30
0.0
 40
0.074
  0
LWPOLYLINE
  5
ACD
330
1F
100
AcDbEntity
  8
0
  6
L0
 62
     4
100
AcDbPolyline
 90
        2
 70
     0
 43
0.0
 10
6.832864514641727
 20
6.860529753166321
 10
6.936571514641727
 20
6.964235753166324
  0
CIRCLE
  5
ACE
330
1F
100
AcDbEntity
  8
0
  6
L0
 62
     4
100
AcDbCircle
 10
6.895090514641722
 20
6.902955753166313
 30
0.0
 40
0.074
  0
LWPOLYLINE
  5
ACF
330
1F
100
AcDbEntity
  8
0
  6
L0
 62
     4
100
AcDbPolyline
 90
        2
 70
     0
 43
0.0
 10
6.852663514641733
 20
6.840730753166315
 10
6.956370514641733
 20
6.944436753166318
  0
LWPOLYLINE
  5
AD0
330
1F
100
AcDbEntity
  8
0
  6
L0
 62
     4
100
AcDbPolyline
 90
        2
 70
     0
 43
0.0
 10
7.184886514641732
 20
6.712955753166315
 10
7.184886514641732
 20
7.120955753166317
  0
LWPOLYLINE
  5
AD1
330
1F
100
AcDbEntity
  8
0
  6
L0
 62
     4
100
AcDbPolyline
 90
        2
 70
     0
 43
0.0
 10
7.759090514641741
 20
6.712955753166315
 10
7.759090514641741
 20
7.120955753166317
  0
CIRCLE
  5
AD2
330
1F
100
AcDbEntity
  8
0
  6
L0
 62
     4
100
AcDbCircle
 10
7.382590514641734
 20
6.495455753166314
 30
0.0
 40
0.074
  0
LWPOLYLINE
  5
AD3
330
1F
100
AcDbEntity
  8
0
  6
L0
 62
     4
100
AcDbPolyline
 90
        2
 70
     0
 43
0.0
 10
7.324590514641741
 20
6.647955753166318
 10
7.824590514641734
 20
6.647955753166318
  0
LWPOLYLINE
  5
AD4
330
1F
100
AcDbEntity
  8
0
  6
L0
 62
     4
100
AcDbPolyline
 90
        2
 70
     0
 43
0.0
 10
7.324590514641741
 20
6.607955753166312
 10
7.824590514641734
 20
6.607955753166312
  0
CIRCLE
  5
AD5
330
1F
100
AcDbEntity
  8
0
  6
L0
 62
     4
100
AcDbCircle
 10
7.190590514641726
 20
6.495455753166314
 30
0.0
 40
0.074
  0
LWPOLYLINE
  5
AD6
330
1F
100
AcDbEntity
  8
0
  6
L0
 62
     4
100
AcDbPolyline
 90
        2
 70
     0
 43
0.0
 10
7.176590514641731
 20
6.421455753166316
 10
7.176590514641731
 20
6.568119753166318
  0
LWPOLYLINE
  5
AD7
330
1F
100
AcDbEntity
  8
0
  6
L0
 62
     4
100
AcDbPolyline
 90
        2
 70
     0
 43
0.0
 10
7.204590514641736
 20
6.421455753166316
 10
7.204590514641736
 20
6.568119753166318
  0
LWPOLYLINE
  5
AD8
330
1F
100
AcDbEntity
  8
0
  6
L0
 62
     4
100
AcDbPolyline
 90
        2
 70
     0
 43
0.0
 10
7.368590514641724
 20
6.421455753166316
 10
7.368590514641724
 20
6.568119753166318
  0
LWPOLYLINE
  5
AD9
330
1F
100
AcDbEntity
  8
0
  6
L0
 62
     4
100
AcDbPolyline
 90
        2
 70
     0
 43
0.0
 10
7.396590514641715
 20
6.421455753166316
 10
7.396590514641715
 20
6.568119753166318
  0
LWPOLYLINE
  5
ADA
330
1F
100
AcDbEntity
  8
0
  6
L0
 62
     4
100
AcDbPolyline
 90
        2
 70
     0
 43
0.0
 10
7.286590514641716
 20
6.277955753166313
 10
7.286590514641716
 20
6.712955753166315
  0
LWPOLYLINE
  5
ADB
330
1F
100
AcDbEntity
  8
0
  6
L0
 62
     4
100
AcDbPolyline
 90
        2
 70
     0
 43
0.0
 10
7.248590514641733
 20
6.607955753166312
 10
7.248590514641733
 20
6.647955753166318
  0
LWPOLYLINE
  5
ADC
330
1F
100
AcDbEntity
  8
0
  6
L0
 62
     4
100
AcDbPolyline
 90
        2
 70
     0
 43
0.0
 10
7.324590514641741
 20
6.607955753166312
 10
7.324590514641741
 20
6.647955753166318
  0
LWPOLYLINE
  5
ADD
330
1F
100
AcDbEntity
  8
0
  6
L0
 62
     4
100
AcDbPolyline
 90
        2
 70
     0
 43
0.0
 10
7.560590514641717
 20
6.421455753166316
 10
7.560590514641717
 20
6.568119753166318
  0
LWPOLYLINE
  5
ADE
330
1F
100
AcDbEntity
  8
0
  6
L0
 62
     4
100
AcDbPolyline
 90
        2
 70
     0
 43
0.0
 10
7.588590514641737
 20
6.421455753166316
 10
7.588590514641737
 20
6.568119753166318
  0
CIRCLE
  5
ADF
330
1F
100
AcDbEntity
  8
0
  6
L0
 62
     4
100
AcDbCircle
 10
7.574590514641727
 20
6.495455753166314
 30
0.0
 40
0.074
  0
LWPOLYLINE
  5
AE0
330
1F
100
AcDbEntity
  8
0
  6
L0
 62
     4
100
AcDbPolyline
 90
        2
 70
     0
 43
0.0
 10
7.752590514641738
 20
6.421455753166316
 10
7.752590514641738
 20
6.568119753166318
  0
LWPOLYLINE
  5
AE1
330
1F
100
AcDbEntity
  8
0
  6
L0
 62
     4
100
AcDbPolyline
 90
        2
 70
     0
 43
0.0
 10
7.78059051464173
 20
6.421455753166316
 10
7.78059051464173
 20
6.568119753166318
  0
CIRCLE
  5
AE2
330
1F
100
AcDbEntity
  8
0
  6
L0
 62
     4
100
AcDbCircle
 10
7.766590514641734
 20
6.495455753166314
 30
0.0
 40
0.074
  0
LWPOLYLINE
  5
AE3
330
1F
100
AcDbEntity
  8
0
  6
L0
 62
     4
100
AcDbPolyline
 90
        2
 70
     0
 43
0.0
 10
7.862590514641745
 20
6.277955753166313
 10
7.862590514641745
 20
6.712955753166315
  0
LWPOLYLINE
  5
AE4
330
1F
100
AcDbEntity
  8
0
  6
L0
 62
     4
100
AcDbPolyline
 90
        2
 70
     0
 43
0.0
 10
7.824590514641734
 20
6.607955753166312
 10
7.824590514641734
 20
6.647955753166318
  0
LWPOLYLINE
  5
AE5
330
1F
100
AcDbEntity
  8
0
  6
L0
 62
     4
100
AcDbPolyline
 90
        2
 70
     0
 43
0.0
 10
7.40886451464172
 20
6.860529753166321
 10
7.51257151464172
 20
6.964235753166324
  0
LWPOLYLINE
  5
AE6
330
1F
100
AcDbEntity
  8
0
  6
L0
 62
     4
100
AcDbPolyline
 90
        2
 70
     0
 43
0.0
 10
7.428663514641726
 20
6.840730753166315
 10
7.532370514641726
 20
6.944436753166318
  0
CIRCLE
  5
AE7
330
1F
100
AcDbEntity
  8
0
  6
L0
 62
     4
100
AcDbCircle
 10
7.47109051464173
 20
6.902955753166313
 30
0.0
 40
0.074
  0
LWPOLYLINE
  5
AE8
330
1F
100
AcDbEntity
  8
0
  6
L0
 62
     4
100
AcDbPolyline
 90
        2
 70
     0
 43
0.0
 10
7.216864514641713
 20
6.860529753166321
 10
7.320571514641727
 20
6.964235753166324
  0
CIRCLE
  5
AE9
330
1F
100
AcDbEntity
  8
0
  6
L0
 62
     4
100
AcDbCircle
 10
7.279090514641723
 20
6.902955753166313
 30
0.0
 40
0.074
  0
LWPOLYLINE
  5
AEA
330
1F
100
AcDbEntity
  8
0
  6
L0
 62
     4
100
AcDbPolyline
 90
        2
 70
     0
 43
0.0
 10
7.024864514641734
 20
6.860529753166321
 10
7.12857151464172
 20
6.964235753166324
  0
LWPOLYLINE
  5
AEB
330
1F
100
AcDbEntity
  8
0
  6
L0
 62
     4
100
AcDbPolyline
 90
        2
 70
     0
 43
0.0
 10
7.04466351464174
 20
6.840730753166315
 10
7.148370514641726
 20
6.944436753166318
  0
LWPOLYLINE
  5
AEC
330
1F
100
AcDbEntity
  8
0
  6
L0
 62
     4
100
AcDbPolyline
 90
        2
 70
     0
 43
0.0
 10
7.236663514641733
 20
6.840730753166315
 10
7.340370514641733
 20
6.944436753166318
  0
LWPOLYLINE
  5
AED
330
1F
100
AcDbEntity
  8
0
  6
L0
 62
     4
100
AcDbPolyline
 90
        2
 70
     0
 43
0.0
 10
7.600864514641727
 20
6.860529753166321
 10
7.704571514641742
 20
6.964235753166324
  0
LWPOLYLINE
  5
AEE
330
1F
100
AcDbEntity
  8
0
  6
L0
 62
     4
100
AcDbPolyline
 90
        2
 70
     0
 43
0.0
 10
7.620663514641734
 20
6.840730753166315
 10
7.724370514641719
 20
6.944436753166318
  0
CIRCLE
  5
AEF
330
1F
100
AcDbEntity
  8
0
  6
L0
 62
     4
100
AcDbCircle
 10
7.663090514641709
 20
6.902955753166313
 30
0.0
 40
0.074
  0
LWPOLYLINE
  5
AF0
330
1F
100
AcDbEntity
  8
0
  6
L5
 62
     2
100
AcDbPolyline
 90
        2
 70
     0
 43
0.0
 10
8.385090514641753
 20
6.277955753166313
 10
8.385090514641753
 20
6.007955753166317
  0
LWPOLYLINE
  5
AF1
330
1F
100
AcDbEntity
  8
0
  6
L5
 62
     2
100
AcDbPolyline
 90
        2
 70
     0
 43
0.0
 10
8.41009051464173
 20
5.982955753166312
 10
8.558090514641726
 20
5.982955753166312
  0
LWPOLYLINE
  5
AF2
330
1F
100
AcDbEntity
  8
0
  6
L5
 62
     2
100
AcDbPolyline
 90
        2
 70
     0
 43
0.0
 10
8.385090514641753
 20
6.007955753166317
 42
0.4142140000000001
 10
8.41009051464173
 20
5.982955753166312
  0
LWPOLYLINE
  5
AF3
330
1F
100
AcDbEntity
  8
0
  6
L5
 62
     2
100
AcDbPolyline
 90
        2
 70
     0
 43
0.0
 10
8.558090514641726
 20
5.982955753166312
 42
0.4142140000000001
 10
8.583090514641732
 20
6.007955753166317
  0
LWPOLYLINE
  5
AF4
330
1F
100
AcDbEntity
  8
0
  6
L5
 62
     4
100
AcDbPolyline
 90
        2
 70
     0
 43
0.0
 10
8.165090514641725
 20
7.120955753166317
 10
8.165090514641725
 20
6.712955753166315
  0
LWPOLYLINE
  5
AF5
330
1F
100
AcDbEntity
  8
0
  6
L0
 62
     4
100
AcDbPolyline
 90
        2
 70
     0
 43
0.0
 10
7.94459051464171
 20
6.421455753166316
 10
7.94459051464171
 20
6.568119753166318
  0
LWPOLYLINE
  5
AF6
330
1F
100
AcDbEntity
  8
0
  6
L0
 62
     4
100
AcDbPolyline
 90
        2
 70
     0
 43
0.0
 10
7.97259051464173
 20
6.421455753166316
 10
7.97259051464173
 20
6.568119753166318
  0
CIRCLE
  5
AF7
330
1F
100
AcDbEntity
  8
0
  6
L0
 62
     4
100
AcDbCircle
 10
7.95859051464172
 20
6.495455753166314
 30
0.0
 40
0.074
  0
LWPOLYLINE
  5
AF8
330
1F
100
AcDbEntity
  8
0
  6
L0
 62
     4
100
AcDbPolyline
 90
        2
 70
     0
 43
0.0
 10
8.136590514641746
 20
6.421455753166316
 10
8.136590514641746
 20
6.568119753166318
  0
LWPOLYLINE
  5
AF9
330
1F
100
AcDbEntity
  8
0
  6
L0
 62
     4
100
AcDbPolyline
 90
        2
 70
     0
 43
0.0
 10
8.164590514641737
 20
6.421455753166316
 10
8.164590514641737
 20
6.568119753166318
  0
CIRCLE
  5
AFA
330
1F
100
AcDbEntity
  8
0
  6
L0
 62
     4
100
AcDbCircle
 10
8.150590514641727
 20
6.495455753166314
 30
0.0
 40
0.074
  0
LWPOLYLINE
  5
AFB
330
1F
100
AcDbEntity
  8
0
  6
L5
 62
     4
100
AcDbPolyline
 90
        2
 70
     0
 43
0.0
 10
8.265090514641748
 20
6.712955753166315
 10
8.265090514641748
 20
6.277955753166313
  0
LWPOLYLINE
  5
AFC
330
1F
100
AcDbEntity
  8
0
  6
L0
 62
     4
100
AcDbPolyline
 90
        2
 70
     0
 43
0.0
 10
7.899590514641722
 20
6.647955753166318
 10
8.209590514641753
 20
6.647955753166318
  0
LWPOLYLINE
  5
AFD
330
1F
100
AcDbEntity
  8
0
  6
L0
 62
     4
100
AcDbPolyline
 90
        2
 70
     0
 43
0.0
 10
7.899590514641722
 20
6.607955753166312
 10
8.209590514641753
 20
6.607955753166312
  0
LWPOLYLINE
  5
AFE
330
1F
100
AcDbEntity
  8
0
  6
L0
 62
     4
100
AcDbPolyline
 90
        2
 70
     0
 43
0.0
 10
7.899590514641722
 20
6.607955753166312
 10
7.899590514641722
 20
6.647955753166318
  0
LWPOLYLINE
  5
AFF
330
1F
100
AcDbEntity
  8
0
  6
L0
 62
     4
100
AcDbPolyline
 90
        2
 70
     0
 43
0.0
 10
8.209590514641753
 20
6.607955753166312
 10
8.209590514641753
 20
6.647955753166318
  0
LWPOLYLINE
  5
B00
330
1F
100
AcDbEntity
  8
0
  6
L0
 62
     4
100
AcDbPolyline
 90
        2
 70
     0
 43
0.0
 10
7.984864514641749
 20
6.860529753166321
 10
8.088571514641735
 20
6.964235753166324
  0
LWPOLYLINE
  5
B01
330
1F
100
AcDbEntity
  8
0
  6
L0
 62
     4
100
AcDbPolyline
 90
        2
 70
     0
 43
0.0
 10
8.004663514641727
 20
6.840730753166315
 10
8.108370514641741
 20
6.944436753166318
  0
CIRCLE
  5
B02
330
1F
100
AcDbEntity
  8
0
  6
L0
 62
     4
100
AcDbCircle
 10
8.04709051464173
 20
6.902955753166313
 30
0.0
 40
0.074
  0
LWPOLYLINE
  5
B03
330
1F
100
AcDbEntity
  8
0
  6
L5
 62
     2
100
AcDbPolyline
 90
        2
 70
     0
 43
0.0
 10
6.739090514641731
 20
8.957955753166306
 10
8.193589514641736
 20
8.957955753166306
  0
LWPOLYLINE
  5
B04
330
1F
100
AcDbEntity
  8
0
  6
L5
 62
     2
100
AcDbPolyline
 90
        2
 70
     0
 43
0.0
 10
8.385090514641753
 20
9.367955753166317
 10
6.551090514641728
 20
9.367955753166317
  0
LWPOLYLINE
  5
B05
330
1F
100
AcDbEntity
  8
0
  6
L0
 62
     2
100
AcDbPolyline
 90
        2
 70
     0
 43
0.0
 10
7.831243514641734
 20
8.540955753166318
 42
0.362643
 10
7.913898514641722
 20
8.609981753166312
  0
LWPOLYLINE
  5
B06
330
1F
100
AcDbEntity
  8
0
  6
L0
 62
     2
100
AcDbPolyline
 90
        2
 70
     0
 43
0.0
 10
7.943972514641735
 20
8.775980753166312
 42
0.467737
 10
7.861317514641747
 20
8.874955753166322
  0
LWPOLYLINE
  5
B07
330
1F
100
AcDbEntity
  8
0
  6
L0
 62
     2
100
AcDbPolyline
 90
        2
 70
     0
 43
0.0
 10
7.960699514641738
 20
8.772950753166316
 42
0.467738
 10
7.861317514641747
 20
8.891955753166318
  0
LWPOLYLINE
  5
B08
330
1F
100
AcDbEntity
  8
0
  6
L5
 62
     2
100
AcDbPolyline
 90
        2
 70
     0
 43
0.0
 10
6.739090514641731
 20
8.45795575316632
 10
8.193589514641736
 20
8.45795575316632
  0
LWPOLYLINE
  5
B09
330
1F
100
AcDbEntity
  8
0
  6
L0
 62
     2
100
AcDbPolyline
 90
        2
 70
     0
 43
0.0
 10
7.831243514641734
 20
8.523955753166323
 42
0.362643
 10
7.930625514641725
 20
8.606950753166319
  0
LWPOLYLINE
  5
B0A
330
1F
100
AcDbEntity
  8
0
  6
L5
 62
     2
100
AcDbPolyline
 90
        2
 70
     0
 43
0.0
 10
8.583090514641732
 20
9.117955753166317
 10
6.353090514641735
 20
9.117955753166317
  0
CIRCLE
  5
B0B
330
1F
100
AcDbEntity
  8
0
  6
L0
 62
     2
100
AcDbCircle
 10
7.195590514641722
 20
8.770455753166313
 30
0.0
 40
0.0195
  0
CIRCLE
  5
B0C
330
1F
100
AcDbEntity
  8
0
  6
L0
 62
     2
100
AcDbCircle
 10
7.41218951464171
 20
8.770455753166313
 30
0.0
 40
0.0195
  0
CIRCLE
  5
B0D
330
1F
100
AcDbEntity
  8
0
  6
L0
 62
     2
100
AcDbCircle
 10
7.303890514641722
 20
8.770455753166313
 30
0.0
 40
0.0195
  0
CIRCLE
  5
B0E
330
1F
100
AcDbEntity
  8
0
  6
L0
 62
     2
100
AcDbCircle
 10
7.628789514641724
 20
8.770455753166313
 30
0.0
 40
0.0195
  0
CIRCLE
  5
B0F
330
1F
100
AcDbEntity
  8
0
  6
L0
 62
     2
100
AcDbCircle
 10
7.520490514641736
 20
8.770455753166313
 30
0.0
 40
0.0195
  0
CIRCLE
  5
B10
330
1F
100
AcDbEntity
  8
0
  6
L0
 62
     2
100
AcDbCircle
 10
7.737090514641721
 20
8.770455753166313
 30
0.0
 40
0.0195
  0
CIRCLE
  5
B11
330
1F
100
AcDbEntity
  8
0
  6
L0
 62
     2
100
AcDbCircle
 10
6.815090514641738
 20
8.70795575316632
 30
0.0
 40
0.095
  0
LWPOLYLINE
  5
B12
330
1F
100
AcDbEntity
  8
0
  6
L0
 62
     2
100
AcDbPolyline
 90
        2
 70
     0
 43
0.0
 10
6.720089514641728
 20
8.762803753166313
 10
6.720089514641728
 20
8.653107753166327
  0
LWPOLYLINE
  5
B13
330
1F
100
AcDbEntity
  8
0
  6
L0
 62
     2
100
AcDbPolyline
 90
        2
 70
     0
 43
0.0
 10
6.910090514641723
 20
8.653107753166327
 10
6.910090514641723
 20
8.762803753166313
  0
LWPOLYLINE
  5
B14
330
1F
100
AcDbEntity
  8
0
  6
L0
 62
     2
100
AcDbPolyline
 90
        2
 70
     0
 43
0.0
 10
6.992986514641728
 20
8.777438753166325
 10
7.020051514641721
 20
8.611438753166314
  0
LWPOLYLINE
  5
B15
330
1F
100
AcDbEntity
  8
0
  6
L0
 62
     2
100
AcDbPolyline
 90
        2
 70
     0
 43
0.0
 10
6.976207514641743
 20
8.774702753166327
 10
7.003272514641722
 20
8.608702753166316
  0
CIRCLE
  5
B16
330
1F
100
AcDbEntity
  8
0
  6
L0
 62
     2
100
AcDbCircle
 10
7.087290514641736
 20
8.770455753166313
 30
0.0
 40
0.0195
  0
CIRCLE
  5
B17
330
1F
100
AcDbEntity
  8
0
  6
L0
 62
     2
100
AcDbCircle
 10
7.845390514641742
 20
8.770455753166313
 30
0.0
 40
0.0195
  0
LWPOLYLINE
  5
B18
330
1F
100
AcDbEntity
  8
0
  6
L5
 62
     2
100
AcDbPolyline
 90
        2
 70
     0
 43
0.0
 10
6.691090514641729
 20
8.505955753166322
 10
6.691090514641729
 20
8.909955753166318
  0
LWPOLYLINE
  5
B19
330
1F
100
AcDbEntity
  8
0
  6
L0
 62
     2
100
AcDbPolyline
 90
        2
 70
     0
 43
0.0
 10
7.020051514641721
 20
8.611438753166314
 42
0.367631
 10
7.102956514641732
 20
8.540955753166318
  0
LWPOLYLINE
  5
B1A
330
1F
100
AcDbEntity
  8
0
  6
L0
 62
     2
100
AcDbPolyline
 90
        2
 70
     0
 43
0.0
 10
7.003272514641722
 20
8.608702753166316
 42
0.367631
 10
7.102956514641732
 20
8.523955753166323
  0
LWPOLYLINE
  5
B1B
330
1F
100
AcDbEntity
  8
0
  6
L0
 62
     2
100
AcDbPolyline
 90
        2
 70
     0
 43
0.0
 10
6.496090514641736
 20
7.853955753166321
 10
6.496090514641736
 20
7.541955753166323
  0
LWPOLYLINE
  5
B1C
330
1F
100
AcDbEntity
  8
0
  6
L0
 62
     2
100
AcDbPolyline
 90
        2
 70
     0
 43
0.0
 10
6.457090514641734
 20
7.502955753166322
 10
6.421090514641733
 20
7.502955753166322
  0
LWPOLYLINE
  5
B1D
330
1F
100
AcDbEntity
  8
0
  6
L0
 62
     2
100
AcDbPolyline
 90
        2
 70
     0
 43
0.0
 10
6.457090514641734
 20
7.502955753166322
 42
0.4142140000000001
 10
6.496090514641736
 20
7.541955753166323
  0
LWPOLYLINE
  5
B1E
330
1F
100
AcDbEntity
  8
0
  6
L0
 62
     2
100
AcDbPolyline
 90
        2
 70
     0
 43
0.0
 10
6.457090514641734
 20
7.892955753166322
 10
6.421090514641733
 20
7.892955753166322
  0
LWPOLYLINE
  5
B1F
330
1F
100
AcDbEntity
  8
0
  6
L0
 62
     2
100
AcDbPolyline
 90
        2
 70
     0
 43
0.0
 10
6.496090514641736
 20
7.853955753166321
 42
0.4142140000000001
 10
6.457090514641734
 20
7.892955753166322
  0
CIRCLE
  5
B20
330
1F
100
AcDbEntity
  8
0
  6
L0
 62
     2
100
AcDbCircle
 10
6.815090514641738
 20
8.70795575316632
 30
0.0
 40
0.039
  0
LWPOLYLINE
  5
B21
330
1F
100
AcDbEntity
  8
0
  6
L0
 62
     2
100
AcDbPolyline
 90
        2
 70
     0
 43
0.0
 10
6.720089514641728
 20
8.653107753166327
 10
6.815090514641738
 20
8.598258753166309
  0
CIRCLE
  5
B22
330
1F
100
AcDbEntity
  8
0
  6
HIDDEN
100
AcDbCircle
 10
6.815090514641738
 20
8.70795575316632
 30
0.0
 40
0.054
  0
LWPOLYLINE
  5
B23
330
1F
100
AcDbEntity
  8
0
  6
L5
 62
     2
100
AcDbPolyline
 90
        2
 70
     0
 43
0.0
 10
6.691090514641729
 20
8.505955753166322
 42
0.4142140000000001
 10
6.739090514641731
 20
8.45795575316632
  0
LWPOLYLINE
  5
B24
330
1F
100
AcDbEntity
  8
0
  6
L0
 62
     2
100
AcDbPolyline
 90
        2
 70
     0
 43
0.0
 10
6.815090514641738
 20
8.598258753166309
 10
6.910090514641723
 20
8.653107753166327
  0
LWPOLYLINE
  5
B25
330
1F
100
AcDbEntity
  8
0
  6
L0
 62
     2
100
AcDbPolyline
 90
        2
 70
     0
 43
0.0
 10
7.102956514641732
 20
8.540955753166318
 10
7.831243514641734
 20
8.540955753166318
  0
LWPOLYLINE
  5
B26
330
1F
100
AcDbEntity
  8
0
  6
L0
 62
     2
100
AcDbPolyline
 90
        2
 70
     0
 43
0.0
 10
7.102956514641732
 20
8.523955753166323
 10
7.831243514641734
 20
8.523955753166323
  0
CIRCLE
  5
B27
330
1F
100
AcDbEntity
  8
0
  6
L0
 62
     2
100
AcDbCircle
 10
7.141439514641717
 20
8.642301753166325
 30
0.0
 40
0.0195
  0
CIRCLE
  5
B28
330
1F
100
AcDbEntity
  8
0
  6
L0
 62
     2
100
AcDbCircle
 10
7.249740514641715
 20
8.642301753166325
 30
0.0
 40
0.0195
  0
CIRCLE
  5
B29
330
1F
100
AcDbEntity
  8
0
  6
L0
 62
     2
100
AcDbCircle
 10
7.358039514641717
 20
8.642301753166325
 30
0.0
 40
0.0195
  0
CIRCLE
  5
B2A
330
1F
100
AcDbEntity
  8
0
  6
L0
 62
     2
100
AcDbCircle
 10
7.466340514641714
 20
8.642301753166325
 30
0.0
 40
0.0195
  0
CIRCLE
  5
B2B
330
1F
100
AcDbEntity
  8
0
  6
L0
 62
     2
100
AcDbCircle
 10
7.574640514641728
 20
8.642301753166325
 30
0.0
 40
0.0195
  0
CIRCLE
  5
B2C
330
1F
100
AcDbEntity
  8
0
  6
L0
 62
     2
100
AcDbCircle
 10
7.791240514641721
 20
8.642301753166325
 30
0.0
 40
0.0195
  0
CIRCLE
  5
B2D
330
1F
100
AcDbEntity
  8
0
  6
L0
 62
     2
100
AcDbCircle
 10
7.682940514641728
 20
8.642301753166325
 30
0.0
 40
0.0195
  0
LWPOLYLINE
  5
B2E
330
1F
100
AcDbEntity
  8
0
  6
L0
 62
     2
100
AcDbPolyline
 90
        2
 70
     0
 43
0.0
 10
7.075891514641739
 20
8.874955753166322
 42
0.4623850000000001
 10
6.992985514641731
 20
8.777438753166325
  0
LWPOLYLINE
  5
B2F
330
1F
100
AcDbEntity
  8
0
  6
L0
 62
     2
100
AcDbPolyline
 90
        2
 70
     0
 43
0.0
 10
7.075891514641739
 20
8.891955753166318
 42
0.4623840000000001
 10
6.976207514641743
 20
8.774702753166327
  0
LWPOLYLINE
  5
B30
330
1F
100
AcDbEntity
  8
0
  6
L5
 62
     2
100
AcDbPolyline
 90
        2
 70
     0
 43
0.0
 10
6.388090514641731
 20
9.412955753166304
 42
0.4142140000000001
 10
6.353090514641735
 20
9.377955753166322
  0
LWPOLYLINE
  5
B31
330
1F
100
AcDbEntity
  8
0
  6
L5
 62
     2
100
AcDbPolyline
 90
        2
 70
     0
 43
0.0
 10
6.526090514641737
 20
9.412955753166304
 10
6.388090514641731
 20
9.412955753166304
  0
LWPOLYLINE
  5
B32
330
1F
100
AcDbEntity
  8
0
  6
L5
 62
     2
100
AcDbPolyline
 90
        2
 70
     0
 43
0.0
 10
6.551090514641728
 20
9.387955753166327
 42
0.4142140000000001
 10
6.526090514641737
 20
9.412955753166304
  0
LWPOLYLINE
  5
B33
330
1F
100
AcDbEntity
  8
0
  6
L5
 62
     2
100
AcDbPolyline
 90
        2
 70
     0
 43
0.0
 10
6.551090514641728
 20
9.387955753166327
 10
6.551090514641728
 20
9.117955753166317
  0
LWPOLYLINE
  5
B34
330
1F
100
AcDbEntity
  8
0
  6
L0
 62
     2
100
AcDbPolyline
 90
        2
 70
     0
 43
0.0
 10
6.815090514641738
 20
8.817652753166317
 10
6.720089514641728
 20
8.762803753166313
  0
LWPOLYLINE
  5
B35
330
1F
100
AcDbEntity
  8
0
  6
L5
 62
     2
100
AcDbPolyline
 90
        2
 70
     0
 43
0.0
 10
6.739090514641731
 20
8.957955753166306
 42
0.4142140000000001
 10
6.691090514641729
 20
8.909955753166318
  0
LWPOLYLINE
  5
B36
330
1F
100
AcDbEntity
  8
0
  6
L0
 62
     2
100
AcDbPolyline
 90
        2
 70
     0
 43
0.0
 10
6.910090514641723
 20
8.762803753166313
 10
6.815090514641738
 20
8.817652753166317
  0
LWPOLYLINE
  5
B37
330
1F
100
AcDbEntity
  8
0
  6
L0
 62
     2
100
AcDbPolyline
 90
        2
 70
     0
 43
0.0
 10
7.075891514641739
 20
8.874955753166322
 10
7.861317514641747
 20
8.87495475316631
  0
LWPOLYLINE
  5
B38
330
1F
100
AcDbEntity
  8
0
  6
L0
 62
     2
100
AcDbPolyline
 90
        2
 70
     0
 43
0.0
 10
7.075891514641739
 20
8.891955753166318
 10
7.861317514641747
 20
8.891955753166318
  0
CIRCLE
  5
B39
330
1F
100
AcDbEntity
  8
0
  6
L0
 62
     2
100
AcDbCircle
 10
8.117589514641714
 20
8.70795575316632
 30
0.0
 40
0.095
  0
LWPOLYLINE
  5
B3A
330
1F
100
AcDbEntity
  8
0
  6
L0
 62
     2
100
AcDbPolyline
 90
        2
 70
     0
 43
0.0
 10
8.022589514641744
 20
8.762803753166313
 10
8.022589514641744
 20
8.653107753166327
  0
LWPOLYLINE
  5
B3B
330
1F
100
AcDbEntity
  8
0
  6
L0
 62
     2
100
AcDbPolyline
 90
        2
 70
     0
 43
0.0
 10
7.943972514641735
 20
8.775980753166312
 10
7.913897514641725
 20
8.609980753166315
  0
LWPOLYLINE
  5
B3C
330
1F
100
AcDbEntity
  8
0
  6
L0
 62
     2
100
AcDbPolyline
 90
        2
 70
     0
 43
0.0
 10
7.960699514641738
 20
8.772950753166316
 10
7.930625514641725
 20
8.606950753166319
  0
LWPOLYLINE
  5
B3D
330
1F
100
AcDbEntity
  8
0
  6
L0
 62
     2
100
AcDbPolyline
 90
        2
 70
     0
 43
0.0
 10
8.212589514641713
 20
8.653107753166327
 10
8.212589514641713
 20
8.762803753166313
  0
LWPOLYLINE
  5
B3E
330
1F
100
AcDbEntity
  8
0
  6
L5
 62
     2
100
AcDbPolyline
 90
        2
 70
     0
 43
0.0
 10
8.241589514641738
 20
8.505955753166322
 10
8.241589514641738
 20
8.909955753166318
  0
LWPOLYLINE
  5
B3F
330
1F
100
AcDbEntity
  8
0
  6
L0
 62
     2
100
AcDbPolyline
 90
        2
 70
     0
 43
0.0
 10
8.440090514641731
 20
7.853955753166321
 10
8.440090514641731
 20
7.541955753166323
  0
LWPOLYLINE
  5
B40
330
1F
100
AcDbEntity
  8
0
  6
L0
 62
     2
100
AcDbPolyline
 90
        2
 70
     0
 43
0.0
 10
8.440090514641731
 20
7.541955753166323
 42
0.4142140000000001
 10
8.479090514641747
 20
7.502955753166322
  0
LWPOLYLINE
  5
B41
330
1F
100
AcDbEntity
  8
0
  6
L0
 62
     2
100
AcDbPolyline
 90
        2
 70
     0
 43
0.0
 10
8.479090514641747
 20
7.502955753166322
 10
8.51509051464172
 20
7.502955753166322
  0
LWPOLYLINE
  5
B42
330
1F
100
AcDbEntity
  8
0
  6
L0
 62
     2
100
AcDbPolyline
 90
        2
 70
     0
 43
0.0
 10
8.479090514641747
 20
7.892955753166322
 42
0.4142140000000001
 10
8.440090514641731
 20
7.853955753166321
  0
LWPOLYLINE
  5
B43
330
1F
100
AcDbEntity
  8
0
  6
L0
 62
     2
100
AcDbPolyline
 90
        2
 70
     0
 43
0.0
 10
8.479090514641747
 20
7.892955753166322
 10
8.51509051464172
 20
7.892955753166322
  0
LWPOLYLINE
  5
B44
330
1F
100
AcDbEntity
  8
0
  6
L0
 62
     2
100
AcDbPolyline
 90
        2
 70
     0
 43
0.0
 10
8.022589514641744
 20
8.653107753166327
 10
8.117589514641743
 20
8.598258753166309
  0
CIRCLE
  5
B45
330
1F
100
AcDbEntity
  8
0
  6
L0
 62
     2
100
AcDbCircle
 10
8.117589514641714
 20
8.70795575316632
 30
0.0
 40
0.039
  0
CIRCLE
  5
B46
330
1F
100
AcDbEntity
  8
0
  6
HIDDEN
100
AcDbCircle
 10
8.117589514641714
 20
8.70795575316632
 30
0.0
 40
0.054
  0
LWPOLYLINE
  5
B47
330
1F
100
AcDbEntity
  8
0
  6
L0
 62
     2
100
AcDbPolyline
 90
        2
 70
     0
 43
0.0
 10
8.117589514641743
 20
8.598258753166309
 10
8.212589514641713
 20
8.653107753166327
  0
LWPOLYLINE
  5
B48
330
1F
100
AcDbEntity
  8
0
  6
L5
 62
     2
100
AcDbPolyline
 90
        2
 70
     0
 43
0.0
 10
8.193589514641736
 20
8.45795575316632
 42
0.4142140000000001
 10
8.241589514641738
 20
8.505955753166322
  0
LWPOLYLINE
  5
B49
330
1F
100
AcDbEntity
  8
0
  6
L0
 62
     2
100
AcDbPolyline
 90
        2
 70
     0
 43
0.0
 10
8.117589514641743
 20
8.817652753166317
 10
8.022589514641744
 20
8.762803753166313
  0
LWPOLYLINE
  5
B4A
330
1F
100
AcDbEntity
  8
0
  6
L0
 62
     2
100
AcDbPolyline
 90
        2
 70
     0
 43
0.0
 10
8.212589514641713
 20
8.762803753166313
 10
8.117589514641743
 20
8.817652753166317
  0
LWPOLYLINE
  5
B4B
330
1F
100
AcDbEntity
  8
0
  6
L5
 62
     2
100
AcDbPolyline
 90
        2
 70
     0
 43
0.0
 10
8.241589514641738
 20
8.909955753166318
 42
0.4142140000000001
 10
8.193589514641736
 20
8.957955753166306
  0
LWPOLYLINE
  5
B4C
330
1F
100
AcDbEntity
  8
0
  6
L5
 62
     2
100
AcDbPolyline
 90
        2
 70
     0
 43
0.0
 10
8.41009051464173
 20
9.412955753166304
 10
8.558090514641726
 20
9.412955753166304
  0
LWPOLYLINE
  5
B4D
330
1F
100
AcDbEntity
  8
0
  6
L5
 62
     2
100
AcDbPolyline
 90
        2
 70
     0
 43
0.0
 10
8.41009051464173
 20
9.412955753166304
 42
0.4142140000000001
 10
8.385090514641753
 20
9.387955753166327
  0
LWPOLYLINE
  5
B4E
330
1F
100
AcDbEntity
  8
0
  6
L5
 62
     2
100
AcDbPolyline
 90
        2
 70
     0
 43
0.0
 10
8.385090514641753
 20
9.387955753166327
 10
8.385090514641753
 20
9.117955753166317
  0
LWPOLYLINE
  5
B4F
330
1F
100
AcDbEntity
  8
0
  6
L5
 62
     2
100
AcDbPolyline
 90
        2
 70
     0
 43
0.0
 10
8.583090514641732
 20
9.387955753166327
 42
0.4142140000000001
 10
8.558090514641726
 20
9.412955753166304
  0
LINE
  5
B50
330
1F
100
AcDbEntity
  8
0
100
AcDbLine
 10
11.17044349670283
 20
7.574794356823876
 30
0.0
 11
14.83141099561314
 21
7.574794356823876
 31
0.0
  0
LINE
  5
B51
330
1F
100
AcDbEntity
  8
0
100
AcDbLine
 10
11.17044349670283
 20
7.732471295227259
 30
0.0
 11
14.83141099561314
 21
7.732471295227259
 31
0.0
  0
LINE
  5
B52
330
1F
100
AcDbEntity
  8
0
100
AcDbLine
 10
11.17044349670283
 20
7.868399658270195
 30
0.0
 11
14.83141099561314
 21
7.868399658270195
 31
0.0
  0
LINE
  5
B53
330
1F
100
AcDbEntity
  8
0
100
AcDbLine
 10
11.17044349670283
 20
8.015202215809402
 30
0.0
 11
14.83141099561314
 21
8.015202215809402
 31
0.0
  0
LINE
  5
B54
330
1F
100
AcDbEntity
  8
0
100
AcDbLine
 10
11.17044349670283
 20
8.16744196378071
 30
0.0
 11
14.83141099561314
 21
8.16744196378071
 31
0.0
  0
LINE
  5
B55
330
1F
100
AcDbEntity
  8
0
100
AcDbLine
 10
11.17044349670283
 20
8.297933229575498
 30
0.0
 11
14.83141099561314
 21
8.297933229575498
 31
0.0
  0
LINE
  5
B56
330
1F
100
AcDbEntity
  8
0
100
AcDbLine
 10
11.17044349670283
 20
8.45561007479494
 30
0.0
 11
14.83141099561314
 21
8.45561007479494
 31
0.0
  0
LINE
  5
B57
330
1F
100
AcDbEntity
  8
0
100
AcDbLine
 10
11.17044349670283
 20
8.591538437837876
 30
0.0
 11
14.83141099561314
 21
8.591538437837876
 31
0.0
  0
LINE
  5
B58
330
1F
100
AcDbEntity
  8
0
100
AcDbLine
 10
11.17044349670283
 20
8.749215376241259
 30
0.0
 11
14.83141099561314
 21
8.749215376241259
 31
0.0
  0
LINE
  5
B59
330
1F
100
AcDbEntity
  8
0
100
AcDbLine
 10
11.17044349670283
 20
6.708262258936262
 30
0.0
 11
14.83141099561314
 21
6.708262258936262
 31
0.0
  0
LINE
  5
B5A
330
1F
100
AcDbEntity
  8
0
100
AcDbLine
 10
11.17044349670283
 20
6.849627719227331
 30
0.0
 11
14.83141099561314
 21
6.849627719227331
 31
0.0
  0
LINE
  5
B5B
330
1F
100
AcDbEntity
  8
0
100
AcDbLine
 10
11.17044349670283
 20
6.998458227979359
 30
0.0
 11
14.83141099561314
 21
6.998458227979359
 31
0.0
  0
LINE
  5
B5C
330
1F
100
AcDbEntity
  8
0
100
AcDbLine
 10
11.17044349670283
 20
7.139823688270428
 30
0.0
 11
14.83141099561314
 21
7.139823688270485
 31
0.0
  0
LINE
  5
B5D
330
1F
100
AcDbEntity
  8
0
100
AcDbLine
 10
11.17044349670283
 20
7.286626245809632
 30
0.0
 11
14.83141099561314
 21
7.286626245809674
 31
0.0
  0
LINE
  5
B5E
330
1F
100
AcDbEntity
  8
0
100
AcDbLine
 10
11.17044349670283
 20
7.433428896532806
 30
0.0
 11
14.83141099561314
 21
7.433428896532792
 31
0.0
  0
LINE
  5
B5F
330
1F
100
AcDbEntity
  8
0
100
AcDbLine
 10
11.17044349670283
 20
6.566896798645178
 30
0.0
 11
14.83141099561314
 21
6.566896798645249
 31
0.0
  0
LINE
  5
B60
330
1F
100
AcDbEntity
  8
0
 62
     2
100
AcDbLine
 10
11.17044349670283
 20
8.909768437332026
 30
0.0
 11
10.89211990621786
 21
8.909768437332026
 31
0.0
  0
LINE
  5
B61
330
1F
100
AcDbEntity
  8
0
 62
     2
100
AcDbLine
 10
10.89211990621786
 20
6.364525775997169
 30
0.0
 11
11.17044349670283
 21
6.364525775997169
 31
0.0
  0
LINE
  5
B62
330
1F
100
AcDbEntity
  8
0
 62
     2
100
AcDbLine
 10
10.89211990621786
 20
8.909768437332026
 30
0.0
 11
10.89211990621786
 21
6.364525775997169
 31
0.0
  0
LWPOLYLINE
  5
B63
330
1F
100
AcDbEntity
  8
0
  6
L0
 62
     2
100
AcDbPolyline
 90
        2
 70
     0
 43
0.0
 10
9.321798281544552
 20
7.843084105245125
 42
0.4623840000000001
 10
9.222114281544556
 20
7.725831105245134
  0
LWPOLYLINE
  5
B64
330
1F
100
AcDbEntity
  8
0
  6
L0
 62
     2
100
AcDbPolyline
 90
        2
 70
     0
 43
0.0
 10
9.321798281544552
 20
7.826084105245129
 42
0.4623850000000001
 10
9.238892281544544
 20
7.728567105245133
  0
LWPOLYLINE
  5
B65
330
1F
100
AcDbEntity
  8
0
  6
L0
 62
     2
100
AcDbPolyline
 90
        2
 70
     0
 43
0.0
 10
9.222114281544556
 20
7.725831105245134
 10
9.249179281544549
 20
7.559831105245123
  0
LWPOLYLINE
  5
B66
330
1F
100
AcDbEntity
  8
0
  6
L5
 62
     2
100
AcDbPolyline
 90
        2
 70
     0
 43
0.0
 10
8.984997281544544
 20
7.409084105245128
 10
10.43949628154455
 20
7.409084105245128
  0
LWPOLYLINE
  5
B67
330
1F
100
AcDbEntity
  8
0
  6
L5
 62
     2
100
AcDbPolyline
 90
        2
 70
     0
 43
0.0
 10
8.984997281544544
 20
7.909084105245113
 10
10.43949628154455
 20
7.909084105245113
  0
CIRCLE
  5
B68
330
1F
100
AcDbEntity
  8
0
  6
L0
 62
     2
100
AcDbCircle
 10
9.060997281544565
 20
7.659084105245128
 30
0.0
 40
0.095
  0
LWPOLYLINE
  5
B69
330
1F
100
AcDbEntity
  8
0
  6
L0
 62
     2
100
AcDbPolyline
 90
        2
 70
     0
 43
0.0
 10
9.155997281544536
 20
7.604236105245135
 10
9.155997281544536
 20
7.71393210524512
  0
LWPOLYLINE
  5
B6A
330
1F
100
AcDbEntity
  8
0
  6
L5
 62
     2
100
AcDbPolyline
 90
        2
 70
     0
 43
0.0
 10
8.936997281544542
 20
7.457084105245129
 10
8.936997281544542
 20
7.861084105245126
  0
CIRCLE
  5
B6B
330
1F
100
AcDbEntity
  8
0
  6
HIDDEN
100
AcDbCircle
 10
9.060997281544565
 20
7.659084105245128
 30
0.0
 40
0.054
  0
LWPOLYLINE
  5
B6C
330
1F
100
AcDbEntity
  8
0
  6
L0
 62
     2
100
AcDbPolyline
 90
        2
 70
     0
 43
0.0
 10
8.965996281544541
 20
7.71393210524512
 10
8.965996281544541
 20
7.604236105245135
  0
CIRCLE
  5
B6D
330
1F
100
AcDbEntity
  8
0
  6
L0
 62
     2
100
AcDbCircle
 10
9.060997281544565
 20
7.659084105245128
 30
0.0
 40
0.039
  0
LWPOLYLINE
  5
B6E
330
1F
100
AcDbEntity
  8
0
  6
L0
 62
     2
100
AcDbPolyline
 90
        2
 70
     0
 43
0.0
 10
8.965996281544541
 20
7.604236105245135
 10
9.060997281544565
 20
7.549387105245116
  0
LWPOLYLINE
  5
B6F
330
1F
100
AcDbEntity
  8
0
  6
L5
 62
     2
100
AcDbPolyline
 90
        2
 70
     0
 43
0.0
 10
8.936997281544542
 20
7.457084105245129
 42
0.4142140000000001
 10
8.984997281544544
 20
7.409084105245128
  0
LWPOLYLINE
  5
B70
330
1F
100
AcDbEntity
  8
0
  6
L0
 62
     2
100
AcDbPolyline
 90
        2
 70
     0
 43
0.0
 10
9.060997281544565
 20
7.549387105245116
 10
9.155997281544536
 20
7.604236105245135
  0
LWPOLYLINE
  5
B71
330
1F
100
AcDbEntity
  8
0
  6
L0
 62
     2
100
AcDbPolyline
 90
        2
 70
     0
 43
0.0
 10
9.060997281544565
 20
7.768781105245125
 10
8.965996281544541
 20
7.71393210524512
  0
LWPOLYLINE
  5
B72
330
1F
100
AcDbEntity
  8
0
  6
L5
 62
     2
100
AcDbPolyline
 90
        2
 70
     0
 43
0.0
 10
8.984997281544544
 20
7.909084105245113
 42
0.4142140000000001
 10
8.936997281544542
 20
7.861084105245126
  0
LWPOLYLINE
  5
B73
330
1F
100
AcDbEntity
  8
0
  6
L0
 62
     2
100
AcDbPolyline
 90
        2
 70
     0
 43
0.0
 10
9.155997281544536
 20
7.71393210524512
 10
9.060997281544565
 20
7.768781105245125
  0
CIRCLE
  5
B74
330
1F
100
AcDbEntity
  8
0
  6
L0
 62
     2
100
AcDbCircle
 10
10.09129728154456
 20
7.721584105245121
 30
0.0
 40
0.0195
  0
LWPOLYLINE
  5
B75
330
1F
100
AcDbEntity
  8
0
  6
L0
 62
     2
100
AcDbPolyline
 90
        2
 70
     0
 43
0.0
 10
10.07715028154455
 20
7.47508410524513
 42
0.362643
 10
10.17653228154454
 20
7.558079105245127
  0
LWPOLYLINE
  5
B76
330
1F
100
AcDbEntity
  8
0
  6
L0
 62
     2
100
AcDbPolyline
 90
        2
 70
     0
 43
0.0
 10
10.07715028154455
 20
7.492084105245126
 42
0.362643
 10
10.15980528154454
 20
7.56111010524512
  0
LWPOLYLINE
  5
B77
330
1F
100
AcDbEntity
  8
0
  6
L0
 62
     2
100
AcDbPolyline
 90
        2
 70
     0
 43
0.0
 10
9.321798281544552
 20
7.843084105245125
 10
10.10722428154456
 20
7.843084105245125
  0
LWPOLYLINE
  5
B78
330
1F
100
AcDbEntity
  8
0
  6
L0
 62
     2
100
AcDbPolyline
 90
        2
 70
     0
 43
0.0
 10
9.321798281544552
 20
7.826084105245129
 10
10.10722428154456
 20
7.826083105245118
  0
CIRCLE
  5
B79
330
1F
100
AcDbEntity
  8
0
  6
L0
 62
     2
100
AcDbCircle
 10
9.658096281544523
 20
7.721584105245121
 30
0.0
 40
0.0195
  0
LWPOLYLINE
  5
B7A
330
1F
100
AcDbEntity
  8
0
  6
L0
 62
     2
100
AcDbPolyline
 90
        2
 70
     0
 43
0.0
 10
9.348863281544545
 20
7.47508410524513
 10
10.07715028154455
 20
7.47508410524513
  0
LWPOLYLINE
  5
B7B
330
1F
100
AcDbEntity
  8
0
  6
L0
 62
     2
100
AcDbPolyline
 90
        2
 70
     0
 43
0.0
 10
9.348863281544545
 20
7.492084105245126
 10
10.07715028154455
 20
7.492084105245126
  0
LWPOLYLINE
  5
B7C
330
1F
100
AcDbEntity
  8
0
  6
L0
 62
     2
100
AcDbPolyline
 90
        2
 70
     0
 43
0.0
 10
9.238893281544541
 20
7.728567105245133
 10
9.265958281544534
 20
7.562567105245122
  0
CIRCLE
  5
B7D
330
1F
100
AcDbEntity
  8
0
  6
L0
 62
     2
100
AcDbCircle
 10
9.38734628154453
 20
7.593430105245133
 30
0.0
 40
0.0195
  0
LWPOLYLINE
  5
B7E
330
1F
100
AcDbEntity
  8
0
  6
L0
 62
     2
100
AcDbPolyline
 90
        2
 70
     0
 43
0.0
 10
9.249179281544549
 20
7.559831105245123
 42
0.367631
 10
9.348863281544545
 20
7.47508410524513
  0
LWPOLYLINE
  5
B7F
330
1F
100
AcDbEntity
  8
0
  6
L0
 62
     2
100
AcDbPolyline
 90
        2
 70
     0
 43
0.0
 10
9.265958281544534
 20
7.562567105245122
 42
0.367631
 10
9.348863281544545
 20
7.492084105245126
  0
CIRCLE
  5
B80
330
1F
100
AcDbEntity
  8
0
  6
L0
 62
     2
100
AcDbCircle
 10
9.60394628154453
 20
7.593430105245133
 30
0.0
 40
0.0195
  0
CIRCLE
  5
B81
330
1F
100
AcDbEntity
  8
0
  6
L0
 62
     2
100
AcDbCircle
 10
9.495647281544542
 20
7.593430105245133
 30
0.0
 40
0.0195
  0
CIRCLE
  5
B82
330
1F
100
AcDbEntity
  8
0
  6
L0
 62
     2
100
AcDbCircle
 10
9.441497281544549
 20
7.721584105245121
 30
0.0
 40
0.0195
  0
CIRCLE
  5
B83
330
1F
100
AcDbEntity
  8
0
  6
L0
 62
     2
100
AcDbCircle
 10
9.333197281544563
 20
7.721584105245121
 30
0.0
 40
0.0195
  0
CIRCLE
  5
B84
330
1F
100
AcDbEntity
  8
0
  6
L0
 62
     2
100
AcDbCircle
 10
9.549797281544535
 20
7.721584105245121
 30
0.0
 40
0.0195
  0
CIRCLE
  5
B85
330
1F
100
AcDbEntity
  8
0
  6
L0
 62
     2
100
AcDbCircle
 10
9.820547281544556
 20
7.593430105245133
 30
0.0
 40
0.0195
  0
CIRCLE
  5
B86
330
1F
100
AcDbEntity
  8
0
  6
L0
 62
     2
100
AcDbCircle
 10
9.712247281544541
 20
7.593430105245133
 30
0.0
 40
0.0195
  0
CIRCLE
  5
B87
330
1F
100
AcDbEntity
  8
0
  6
L0
 62
     2
100
AcDbCircle
 10
9.928847281544541
 20
7.593430105245133
 30
0.0
 40
0.0195
  0
CIRCLE
  5
B88
330
1F
100
AcDbEntity
  8
0
  6
L0
 62
     2
100
AcDbCircle
 10
10.03714728154454
 20
7.593430105245133
 30
0.0
 40
0.0195
  0
CIRCLE
  5
B89
330
1F
100
AcDbEntity
  8
0
  6
L0
 62
     2
100
AcDbCircle
 10
9.874696281544551
 20
7.721584105245121
 30
0.0
 40
0.0195
  0
CIRCLE
  5
B8A
330
1F
100
AcDbEntity
  8
0
  6
L0
 62
     2
100
AcDbCircle
 10
9.766397281544563
 20
7.721584105245121
 30
0.0
 40
0.0195
  0
CIRCLE
  5
B8B
330
1F
100
AcDbEntity
  8
0
  6
L0
 62
     2
100
AcDbCircle
 10
9.982997281544534
 20
7.721584105245121
 30
0.0
 40
0.0195
  0
LWPOLYLINE
  5
B8C
330
1F
100
AcDbEntity
  8
0
  6
L5
 62
     2
100
AcDbPolyline
 90
        2
 70
     0
 43
0.0
 10
10.48749628154455
 20
7.457084105245129
 10
10.48749628154455
 20
7.861084105245126
  0
CIRCLE
  5
B8D
330
1F
100
AcDbEntity
  8
0
  6
L0
 62
     2
100
AcDbCircle
 10
10.36349628154453
 20
7.659084105245128
 30
0.0
 40
0.039
  0
LWPOLYLINE
  5
B8E
330
1F
100
AcDbEntity
  8
0
  6
L0
 62
     2
100
AcDbPolyline
 90
        2
 70
     0
 43
0.0
 10
10.45849628154453
 20
7.604236105245135
 10
10.45849628154453
 20
7.71393210524512
  0
LWPOLYLINE
  5
B8F
330
1F
100
AcDbEntity
  8
0
  6
L0
 62
     2
100
AcDbPolyline
 90
        2
 70
     0
 43
0.0
 10
10.20660628154455
 20
7.724079105245124
 10
10.17653228154454
 20
7.558079105245127
  0
LWPOLYLINE
  5
B90
330
1F
100
AcDbEntity
  8
0
  6
L0
 62
     2
100
AcDbPolyline
 90
        2
 70
     0
 43
0.0
 10
10.18987928154455
 20
7.727109105245119
 10
10.15980428154454
 20
7.561109105245122
  0
LWPOLYLINE
  5
B91
330
1F
100
AcDbEntity
  8
0
  6
L0
 62
     2
100
AcDbPolyline
 90
        2
 70
     0
 43
0.0
 10
10.26849628154456
 20
7.71393210524512
 10
10.26849628154456
 20
7.604236105245135
  0
CIRCLE
  5
B92
330
1F
100
AcDbEntity
  8
0
  6
L0
 62
     2
100
AcDbCircle
 10
10.36349628154453
 20
7.659084105245128
 30
0.0
 40
0.095
  0
CIRCLE
  5
B93
330
1F
100
AcDbEntity
  8
0
  6
HIDDEN
100
AcDbCircle
 10
10.36349628154453
 20
7.659084105245128
 30
0.0
 40
0.054
  0
LWPOLYLINE
  5
B94
330
1F
100
AcDbEntity
  8
0
  6
L0
 62
     2
100
AcDbPolyline
 90
        2
 70
     0
 43
0.0
 10
10.26849628154456
 20
7.604236105245135
 10
10.36349628154456
 20
7.549387105245116
  0
LWPOLYLINE
  5
B95
330
1F
100
AcDbEntity
  8
0
  6
L5
 62
     2
100
AcDbPolyline
 90
        2
 70
     0
 43
0.0
 10
10.43949628154455
 20
7.409084105245128
 42
0.4142140000000001
 10
10.48749628154455
 20
7.457084105245129
  0
LWPOLYLINE
  5
B96
330
1F
100
AcDbEntity
  8
0
  6
L0
 62
     2
100
AcDbPolyline
 90
        2
 70
     0
 43
0.0
 10
10.36349628154456
 20
7.549387105245116
 10
10.45849628154453
 20
7.604236105245135
  0
LWPOLYLINE
  5
B97
330
1F
100
AcDbEntity
  8
0
  6
L0
 62
     2
100
AcDbPolyline
 90
        2
 70
     0
 43
0.0
 10
10.36349628154456
 20
7.768781105245125
 10
10.26849628154456
 20
7.71393210524512
  0
LWPOLYLINE
  5
B98
330
1F
100
AcDbEntity
  8
0
  6
L0
 62
     2
100
AcDbPolyline
 90
        2
 70
     0
 43
0.0
 10
10.20660628154455
 20
7.724079105245124
 42
0.467738
 10
10.10722428154456
 20
7.843084105245125
  0
LWPOLYLINE
  5
B99
330
1F
100
AcDbEntity
  8
0
  6
L0
 62
     2
100
AcDbPolyline
 90
        2
 70
     0
 43
0.0
 10
10.18987928154455
 20
7.727109105245119
 42
0.467737
 10
10.10722428154456
 20
7.826084105245129
  0
LWPOLYLINE
  5
B9A
330
1F
100
AcDbEntity
  8
0
  6
L0
 62
     2
100
AcDbPolyline
 90
        2
 70
     0
 43
0.0
 10
10.45849628154453
 20
7.71393210524512
 10
10.36349628154456
 20
7.768781105245125
  0
LWPOLYLINE
  5
B9B
330
1F
100
AcDbEntity
  8
0
  6
L5
 62
     2
100
AcDbPolyline
 90
        2
 70
     0
 43
0.0
 10
10.48749628154455
 20
7.861084105245126
 42
0.4142140000000001
 10
10.43949628154455
 20
7.909084105245113
  0
LINE
  5
B9C
330
1F
100
AcDbEntity
  8
0
 62
     2
100
AcDbLine
 10
11.17044349670283
 20
6.364525775997169
 30
0.0
 11
11.17044349670283
 21
8.909768437332026
 31
0.0
  0
LWPOLYLINE
  5
B9D
330
1F
100
AcDbEntity
  8
0
100
AcDbPolyline
 90
        2
 70
     1
 43
0.04
 10
11.15044349670284
 20
6.566896798645178
 42
1.0
 10
11.19044349670283
 20
6.566896798645178
 42
1.0
  0
TEXT
  5
B9E
330
1F
100
AcDbEntity
  8
0
100
AcDbText
 10
10.98111796440411
 20
7.246338394464679
 30
0.0
 40
0.0848648979362779
  1
11
  7
SIMPLEX
 72
     4
 11
11.02355041337225
 21
7.288770843432818
 31
0.0
100
AcDbText
  0
TEXT
  5
B9F
330
1F
100
AcDbEntity
  8
0
100
AcDbText
 10
10.96293262913205
 20
6.955373030111722
 30
0.0
 40
0.0848648979362779
  1
13
  7
SIMPLEX
 72
     4
 11
11.02355041337225
 21
6.997805479079861
 31
0.0
100
AcDbText
  0
TEXT
  5
BA0
330
1F
100
AcDbEntity
  8
0
100
AcDbText
 10
10.96918778346078
 20
6.668424094762919
 30
0.0
 40
0.0848648979362779
  1
15
  7
SIMPLEX
 72
     4
 11
11.02980556770098
 21
6.710856543731058
 31
0.0
100
AcDbText
  0
TEXT
  5
BA1
330
1F
100
AcDbEntity
  8
0
100
AcDbText
 10
10.96716719065277
 20
6.813906776939397
 30
0.0
 40
0.0848648979362779
  1
14
  7
SIMPLEX
 72
     4
 11
11.02980556770098
 21
6.856339225907536
 31
0.0
100
AcDbText
  0
TEXT
  5
BA2
330
1F
100
AcDbEntity
  8
0
100
AcDbText
 10
10.96293262913205
 20
7.100855712288201
 30
0.0
 40
0.0848648979362779
  1
12
  7
SIMPLEX
 72
     4
 11
11.02355041337225
 21
7.143288161256339
 31
0.0
100
AcDbText
  0
TEXT
  5
BA3
330
1F
100
AcDbEntity
  8
0
100
AcDbText
 10
10.99728270686816
 20
7.537303758817635
 30
0.0
 40
0.0848648979362779
  1
9
  7
SIMPLEX
 72
     4
 11
11.02355041337225
 21
7.579736207785774
 31
0.0
100
AcDbText
  0
TEXT
  5
BA4
330
1F
100
AcDbEntity
  8
0
100
AcDbText
 10
10.96293262913205
 20
7.391821076641157
 30
0.0
 40
0.0848648979362779
  1
10
  7
SIMPLEX
 72
     4
 11
11.02355041337225
 21
7.434253525609296
 31
0.0
100
AcDbText
  0
TEXT
  5
BA5
330
1F
100
AcDbEntity
  8
0
100
AcDbText
 10
10.99526211406016
 20
7.682786440994114
 30
0.0
 40
0.0848648979362779
  1
8
  7
SIMPLEX
 72
     4
 11
11.02355041337225
 21
7.725218889962253
 31
0.0
100
AcDbText
  0
TEXT
  5
BA6
330
1F
100
AcDbEntity
  8
0
100
AcDbText
 10
10.99526211406016
 20
7.828269123170592
 30
0.0
 40
0.0848648979362779
  1
7
  7
SIMPLEX
 72
     4
 11
11.02355041337225
 21
7.870701572138731
 31
0.0
100
AcDbText
  0
TEXT
  5
BA7
330
1F
100
AcDbEntity
  8
0
 62
     2
100
AcDbText
 10
12.25835151550174
 20
9.129646533231236
 30
0.0
 40
0.1131531972483705
  1
WIRING DIAGRAM
  7
SIMPLEX
 72
     4
 11
12.94265894647998
 21
9.18622313185542
 31
0.0
100
AcDbText
  0
TEXT
  5
BA8
330
1F
100
AcDbEntity
  8
0
100
AcDbText
 10
10.99526211406016
 20
8.555682534052987
 30
0.0
 40
0.0848648979362779
  1
2
  7
SIMPLEX
 72
     4
 11
11.02355041337225
 21
8.598114983021126
 31
0.0
100
AcDbText
  0
TEXT
  5
BA9
330
1F
100
AcDbEntity
  8
0
100
AcDbText
 10
10.99324152125215
 20
8.264717169700031
 30
0.0
 40
0.0848648979362779
  1
4
  7
SIMPLEX
 72
     4
 11
11.02355041337225
 21
8.307149618668169
 31
0.0
100
AcDbText
  0
TEXT
  5
BAA
330
1F
100
AcDbEntity
  8
0
100
AcDbText
 10
10.99526211406016
 20
8.119234487523552
 30
0.0
 40
0.0848648979362779
  1
5
  7
SIMPLEX
 72
     4
 11
11.02355041337225
 21
8.161666936491691
 31
0.0
100
AcDbText
  0
TEXT
  5
BAB
330
1F
100
AcDbEntity
  8
0
100
AcDbText
 10
10.99728270686816
 20
7.973751805347074
 30
0.0
 40
0.0848648979362779
  1
6
  7
SIMPLEX
 72
     4
 11
11.02355041337225
 21
8.016184254315213
 31
0.0
100
AcDbText
  0
TEXT
  5
BAC
330
1F
100
AcDbEntity
  8
0
100
AcDbText
 10
10.99526211406016
 20
8.410199851876509
 30
0.0
 40
0.0848648979362779
  1
3
  7
SIMPLEX
 72
     4
 11
11.02355041337225
 21
8.452632300844648
 31
0.0
100
AcDbText
  0
TEXT
  5
BAD
330
1F
100
AcDbEntity
  8
0
100
AcDbText
 10
11.01344744933222
 20
8.701165216229465
 30
0.0
 40
0.0848648979362779
  1
1
  7
SIMPLEX
 72
     4
 11
11.02355041337225
 21
8.743597665197604
 31
0.0
100
AcDbText
  0
LINE
  5
BAE
330
1F
100
AcDbEntity
  8
0
 62
     2
100
AcDbLine
 10
15.1097345860981
 20
6.364525775997169
 30
0.0
 11
15.10973458609812
 21
8.909768437332026
 31
0.0
  0
LINE
  5
BAF
330
1F
100
AcDbEntity
  8
0
 62
     2
100
AcDbLine
 10
14.83141099561314
 20
8.909768437332026
 30
0.0
 11
14.83141099561314
 21
6.364525775997169
 31
0.0
  0
TEXT
  5
BB0
330
1F
100
AcDbEntity
  8
0
 62
     2
100
AcDbText
 10
15.47257600855433
 20
7.57367901929545
 30
0.0
 40
0.125
  1
TERMINALS
  7
SIMPLEX
100
AcDbText
  0
LINE
  5
BB1
330
1F
100
AcDbEntity
  8
0
 62
     2
100
AcDbLine
 10
14.83141099561314
 20
6.364525775997169
 30
0.0
 11
15.1097345860981
 21
6.364525775997169
 31
0.0
  0
LINE
  5
BB2
330
1F
100
AcDbEntity
  8
0
100
AcDbLine
 10
14.94867623005328
 20
6.530995783891402
 30
0.0
 11
15.00200270976646
 21
6.530995783891398
 31
0.0
  0
LINE
  5
BB3
330
1F
100
AcDbEntity
  8
0
100
AcDbLine
 10
14.93937508549927
 20
6.549725792962558
 30
0.0
 11
15.00789343597964
 21
6.549725792962558
 31
0.0
  0
LINE
  5
BB4
330
1F
100
AcDbEntity
  8
0
100
AcDbLine
 10
14.92895931544193
 20
6.566753069148035
 30
0.0
 11
15.01755336419801
 21
6.566753069148035
 31
0.0
  0
LINE
  5
BB5
330
1F
100
AcDbEntity
  8
0
100
AcDbLine
 10
14.97155258587833
 20
6.609321285947398
 30
0.0
 11
14.97155258587833
 21
6.566753069148035
 31
0.0
  0
TEXT
  5
BB6
330
1F
100
AcDbEntity
  8
0
100
AcDbText
 10
14.9204090537994
 20
7.246338394464679
 30
0.0
 40
0.0848648979362779
  1
11
  7
SIMPLEX
 72
     4
 11
14.96284150276753
 21
7.288770843432818
 31
0.0
100
AcDbText
  0
TEXT
  5
BB7
330
1F
100
AcDbEntity
  8
0
100
AcDbText
 10
14.90222371852734
 20
6.955373030111722
 30
0.0
 40
0.0848648979362779
  1
13
  7
SIMPLEX
 72
     4
 11
14.96284150276753
 21
6.997805479079861
 31
0.0
100
AcDbText
  0
TEXT
  5
BB8
330
1F
100
AcDbEntity
  8
0
100
AcDbText
 10
14.90492945290701
 20
6.668424094762933
 30
0.0
 40
0.0848648979362779
  1
15
  7
SIMPLEX
 72
     4
 11
14.96554723714721
 21
6.710856543731072
 31
0.0
100
AcDbText
  0
TEXT
  5
BB9
330
1F
100
AcDbEntity
  8
0
100
AcDbText
 10
14.902908860099
 20
6.813906776939411
 30
0.0
 40
0.0848648979362779
  1
14
  7
SIMPLEX
 72
     4
 11
14.96554723714721
 21
6.85633922590755
 31
0.0
100
AcDbText
  0
TEXT
  5
BBA
330
1F
100
AcDbEntity
  8
0
100
AcDbText
 10
14.90222371852734
 20
7.100855712288201
 30
0.0
 40
0.0848648979362779
  1
12
  7
SIMPLEX
 72
     4
 11
14.96284150276753
 21
7.143288161256339
 31
0.0
100
AcDbText
  0
TEXT
  5
BBB
330
1F
100
AcDbEntity
  8
0
100
AcDbText
 10
14.90222371852734
 20
7.391821076641157
 30
0.0
 40
0.0848648979362779
  1
10
  7
SIMPLEX
 72
     4
 11
14.96284150276753
 21
7.434253525609296
 31
0.0
100
AcDbText
  0
TEXT
  5
BBC
330
1F
100
AcDbEntity
  8
0
100
AcDbText
 10
14.93657379626345
 20
7.537303758817635
 30
0.0
 40
0.0848648979362779
  1
9
  7
SIMPLEX
 72
     4
 11
14.96284150276753
 21
7.579736207785774
 31
0.0
100
AcDbText
  0
TEXT
  5
BBD
330
1F
100
AcDbEntity
  8
0
100
AcDbText
 10
14.93455320345544
 20
7.682786440994114
 30
0.0
 40
0.0848648979362779
  1
8
  7
SIMPLEX
 72
     4
 11
14.96284150276753
 21
7.725218889962253
 31
0.0
100
AcDbText
  0
TEXT
  5
BBE
330
1F
100
AcDbEntity
  8
0
100
AcDbText
 10
14.93455320345544
 20
7.828269123170592
 30
0.0
 40
0.0848648979362779
  1
7
  7
SIMPLEX
 72
     4
 11
14.96284150276753
 21
7.870701572138731
 31
0.0
100
AcDbText
  0
TEXT
  5
BBF
330
1F
100
AcDbEntity
  8
0
100
AcDbText
 10
14.93455320345544
 20
8.555682534052987
 30
0.0
 40
0.0848648979362779
  1
2
  7
SIMPLEX
 72
     4
 11
14.96284150276753
 21
8.598114983021126
 31
0.0
100
AcDbText
  0
TEXT
  5
BC0
330
1F
100
AcDbEntity
  8
0
100
AcDbText
 10
14.93253261064744
 20
8.264717169700031
 30
0.0
 40
0.0848648979362779
  1
4
  7
SIMPLEX
 72
     4
 11
14.96284150276753
 21
8.307149618668169
 31
0.0
100
AcDbText
  0
TEXT
  5
BC1
330
1F
100
AcDbEntity
  8
0
100
AcDbText
 10
14.93455320345544
 20
8.119234487523552
 30
0.0
 40
0.0848648979362779
  1
5
  7
SIMPLEX
 72
     4
 11
14.96284150276753
 21
8.161666936491691
 31
0.0
100
AcDbText
  0
TEXT
  5
BC2
330
1F
100
AcDbEntity
  8
0
100
AcDbText
 10
14.93657379626345
 20
7.973751805347074
 30
0.0
 40
0.0848648979362779
  1
6
  7
SIMPLEX
 72
     4
 11
14.96284150276753
 21
8.016184254315213
 31
0.0
100
AcDbText
  0
TEXT
  5
BC3
330
1F
100
AcDbEntity
  8
0
100
AcDbText
 10
14.93455320345544
 20
8.410199851876509
 30
0.0
 40
0.0848648979362779
  1
3
  7
SIMPLEX
 72
     4
 11
14.96284150276753
 21
8.452632300844648
 31
0.0
100
AcDbText
  0
LINE
  5
BC4
330
1F
100
AcDbEntity
  8
0
 62
     2
100
AcDbLine
 10
15.10973458609812
 20
8.909768437332026
 30
0.0
 11
14.83141099561314
 21
8.909768437332026
 31
0.0
  0
TEXT
  5
BC5
330
1F
100
AcDbEntity
  8
0
100
AcDbText
 10
14.9527385387275
 20
8.701165216229465
 30
0.0
 40
0.0848648979362779
  1
1
  7
SIMPLEX
 72
     4
 11
14.96284150276753
 21
8.743597665197604
 31
0.0
100
AcDbText
  0
ENDSEC
  0
SECTION
  2
OBJECTS
  0
DICTIONARY
  5
C
330
0
100
AcDbDictionary
281
     1
  3
ACAD_GROUP
350
D
  3
ACAD_LAYOUT
350
1A
  3
ACAD_MLINESTYLE
350
17
  3
ACAD_PLOTSETTINGS
350
19
  3
ACAD_PLOTSTYLENAME
350
E
  3
AcadDim
350
4C0
  3
ACDBHEADERROUNDTRIPXREC
350
CA7
  3
AcDbVariableDictionary
350
4DB
  3
AcmDictionary
350
4ED
  3
AMG
350
4D4
  3
AMGSNAPSETTINGS
350
504
  3
DWGPROPS
350
CA4
  0
DICTIONARY
  5
50B
330
1F
100
AcDbDictionary
280
     1
281
     1
  3
ACAD_INDEX
360
50C
  0
DICTIONARY
  5
D
102
{ACAD_REACTORS
330
C
102
}
330
C
100
AcDbDictionary
281
     1
  0
DICTIONARY
  5
1A
102
{ACAD_REACTORS
330
C
102
}
330
C
100
AcDbDictionary
281
     1
  3
Layout1
350
1E
  3
Layout2
350
26
  3
Model
350
22
  0
DICTIONARY
  5
17
102
{ACAD_REACTORS
330
C
102
}
330
C
100
AcDbDictionary
281
     1
  3
Standard
350
18
  0
DICTIONARY
  5
19
102
{ACAD_REACTORS
330
C
102
}
330
C
100
AcDbDictionary
281
     1
  0
ACDBDICTIONARYWDFLT
  5
E
102
{ACAD_REACTORS
330
C
102
}
330
C
100
AcDbDictionary
281
     1
  3
Normal
350
F
100
AcDbDictionaryWithDefault
340
F
  0
XRECORD
  5
4C0
102
{ACAD_REACTORS
330
C
102
}
330
C
100
AcDbXrecord
280
     1
 90
   990106
  3

 60
     0
 61
     0
 62
     1
 63
     3
 64
     0
 65
     0
 66
     0
 67
     3
 68
     1
 69
     0
 70
     0
 71
     0
 72
     0
 40
0.0
170
     0
340
0
  0
DICTIONARY
  5
CA7
102
{ACAD_REACTORS
330
C
102
}
330
C
100
AcDbDictionary
281
     1
  3
CEPSNTYPE
350
CB1
  3
FINGERPRINTGUID
350
CB2
  3
HYPERLINKBASE
350
CAA
  3
INSUNITS
350
CB0
  3
LAYOUTDICT
350
CAC
  3
LWETCUNION
350
CAF
  3
PLOTSETDICT
350
CAD
  3
PLOTSTYLNAMDICT
350
CAE
  3
PSVPSCALE
350
CB4
  3
PUCSBASE
350
CB7
  3
PUCSORGBACK
350
CBD
  3
PUCSORGBOTTOM
350
CB9
  3
PUCSORGFRONT
350
CBC
  3
PUCSORGLEFT
350
CBA
  3
PUCSORGRIGHT
350
CBB
  3
PUCSORGTOP
350
CB8
  3
PUCSORTHOREF
350
CB5
  3
PUCSORTHOVIEW
350
CB6
  3
STYLESHEET
350
CAB
  3
TSTACKALIGN
350
CA8
  3
TSTACKSIZE
350
CA9
  3
UCSBASE
350
CC0
  3
UCSORGBACK
350
CC6
  3
UCSORGBOTTOM
350
CC2
  3
UCSORGFRONT
350
CC5
  3
UCSORGLEFT
350
CC3
  3
UCSORGRIGHT
350
CC4
  3
UCSORGTOP
350
CC1
  3
UCSORTHOREF
350
CBE
  3
UCSORTHOVIEW
350
CBF
  3
VERSIONGUID
350
CB3
  0
DICTIONARY
  5
4DB
102
{ACAD_REACTORS
330
C
102
}
330
C
100
AcDbDictionary
281
     1
  3
DIMASSOC
350
C92
  3
INDEXCTL
350
4DC
  0
DICTIONARY
  5
4ED
102
{ACAD_REACTORS
330
C
102
}
330
C
100
AcDbDictionary
281
     1
  3
AcmStdDictionary
350
4F3
  0
DICTIONARY
  5
4D4
102
{ACAD_REACTORS
330
C
102
}
330
C
100
AcDbDictionary
281
     1
  3
AcMgSettings
350
4D5
  0
DICTIONARY
  5
504
102
{ACAD_REACTORS
330
C
102
}
330
C
100
AcDbDictionary
281
     1
  3
DIMENSION
350
509
  3
FEA
350
508
  3
HATCH (1)
350
505
  3
HATCH (2)
350
506
  3
SIMPLE WELD
350
50A
  3
SYMBOLS
350
507
  0
XRECORD
  5
CA4
102
{ACAD_REACTORS
330
C
102
}
330
C
100
AcDbXrecord
280
     1
  1
DWGPROPS COOKIE
  2

  3

  4

  6

  7

  8

  9

300
AmdtFileType=84
301
=
302
=
303
=
304
=
305
=
306
=
307
=
308
=
309
=
 40
0.074684849537037
 41
2452544.62141133
 42
2452808.467179421
  1

 90
        1
  0
DICTIONARY
  5
50C
102
{ACAD_REACTORS
330
50B
102
}
330
50B
100
AcDbDictionary
281
     1
  3
*A1
350
50D
  0
LAYOUT
  5
1E
102
{ACAD_REACTORS
330
1A
102
}
330
1A
100
AcDbPlotSettings
  1

  2
HP PhotoSmart P1000 Series
  4

  6

 40
0.0
 41
0.0
 42
0.0
 43
0.0
 44
0.0
 45
0.0
 46
0.0
 47
0.0
 48
0.0
 49
0.0
140
0.0
141
0.0
142
1.0
143
1.0
 70
   688
 72
     0
 73
     0
 74
     5
  7
monochrome.ctb
 75
    16
147
1.0
148
0.0
149
0.0
100
AcDbLayout
  1
Layout1
 70
     1
 71
     1
 10
0.0
 20
0.0
 11
12.0
 21
9.0
 12
0.0
 22
0.0
 32
0.0
 14
1.000000000000000E+20
 24
1.000000000000000E+20
 34
1.000000000000000E+20
 15
-1.000000000000000E+20
 25
-1.000000000000000E+20
 35
-1.000000000000000E+20
146
0.0
 13
0.0
 23
0.0
 33
0.0
 16
1.0
 26
0.0
 36
0.0
 17
0.0
 27
1.0
 37
0.0
 76
     0
330
1B
  0
LAYOUT
  5
26
102
{ACAD_REACTORS
330
1A
102
}
330
1A
100
AcDbPlotSettings
  1

  2
HP PhotoSmart P1000 Series
  4

  6

 40
0.0
 41
0.0
 42
0.0
 43
0.0
 44
0.0
 45
0.0
 46
0.0
 47
0.0
 48
0.0
 49
0.0
140
0.0
141
0.0
142
1.0
143
1.0
 70
   688
 72
     0
 73
     0
 74
     5
  7
monochrome.ctb
 75
    16
147
1.0
148
0.0
149
0.0
100
AcDbLayout
  1
Layout2
 70
     1
 71
     2
 10
0.0
 20
0.0
 11
12.0
 21
9.0
 12
0.0
 22
0.0
 32
0.0
 14
0.0
 24
0.0
 34
0.0
 15
0.0
 25
0.0
 35
0.0
146
0.0
 13
0.0
 23
0.0
 33
0.0
 16
1.0
 26
0.0
 36
0.0
 17
0.0
 27
1.0
 37
0.0
 76
     0
330
23
  0
LAYOUT
  5
22
102
{ACAD_REACTORS
330
1A
102
}
330
1A
100
AcDbPlotSettings
  1

  2
\\Fdlfs06\Engineering - HP LaserJet 5Si MX
  4
Letter
  6

 40
7.143749713897705
 41
6.974400997161865
 42
7.14373779296875
 43
6.297088623046875
 44
215.8999938964843
 45
279.3999938964843
 46
14.73199999999999
 47
0.0
 48
0.0
 49
0.0
140
0.0
141
0.0
142
1.0
143
1.622722470492295
 70
 11956
 72
     0
 73
     1
 74
     1
  7
monochrome.ctb
 75
     0
147
0.6162483223003771
148
0.0263537735364508
149
-0.8243372983701938
100
AcDbLayout
  1
Model
 70
     1
 71
     0
 10
0.0
 20
0.0
 11
12.0
 21
9.0
 12
0.0
 22
0.0
 32
0.0
 14
0.0
 24
0.0
 34
0.0
 15
0.0
 25
0.0
 35
0.0
146
0.0
 13
0.0
 23
0.0
 33
0.0
 16
1.0
 26
0.0
 36
0.0
 17
0.0
 27
1.0
 37
0.0
 76
     0
330
1F
  0
MLINESTYLE
  5
18
102
{ACAD_REACTORS
330
17
102
}
330
17
100
AcDbMlineStyle
  2
STANDARD
 70
     0
  3

 62
   256
 51
90.0
 52
90.0
 71
     2
 49
0.5
 62
   256
  6
BYLAYER
 49
-0.5
 62
   256
  6
BYLAYER
  0
ACDBPLACEHOLDER
  5
F
102
{ACAD_REACTORS
330
E
102
}
330
E
  0
XRECORD
  5
CB1
102
{ACAD_REACTORS
330
CA7
102
}
330
CA7
100
AcDbXrecord
280
     1
 90
        0
  0
XRECORD
  5
CB2
102
{ACAD_REACTORS
330
CA7
102
}
330
CA7
100
AcDbXrecord
280
     1
  1
{B826B720-D14A-11D6-843B-00B0D02CC2F3}
  0
XRECORD
  5
CAA
102
{ACAD_REACTORS
330
CA7
102
}
330
CA7
100
AcDbXrecord
280
     1
  1

  0
XRECORD
  5
CB0
102
{ACAD_REACTORS
330
CA7
102
}
330
CA7
100
AcDbXrecord
280
     1
 90
        1
  0
XRECORD
  5
CAC
102
{ACAD_REACTORS
330
CA7
102
}
330
CA7
100
AcDbXrecord
280
     1
340
1A
  0
XRECORD
  5
CAF
102
{ACAD_REACTORS
330
CA7
102
}
330
CA7
100
AcDbXrecord
280
     1
 90
    10781
  0
XRECORD
  5
CAD
102
{ACAD_REACTORS
330
CA7
102
}
330
CA7
100
AcDbXrecord
280
     1
340
19
  0
XRECORD
  5
CAE
102
{ACAD_REACTORS
330
CA7
102
}
330
CA7
100
AcDbXrecord
280
     1
340
E
  0
XRECORD
  5
CB4
102
{ACAD_REACTORS
330
CA7
102
}
330
CA7
100
AcDbXrecord
280
     1
 40
0.0
  0
XRECORD
  5
CB7
102
{ACAD_REACTORS
330
CA7
102
}
330
CA7
100
AcDbXrecord
280
     1
340
0
  0
XRECORD
  5
CBD
102
{ACAD_REACTORS
330
CA7
102
}
330
CA7
100
AcDbXrecord
280
     1
 10
0.0
 20
0.0
 30
0.0
  0
XRECORD
  5
CB9
102
{ACAD_REACTORS
330
CA7
102
}
330
CA7
100
AcDbXrecord
280
     1
 10
0.0
 20
0.0
 30
0.0
  0
XRECORD
  5
CBC
102
{ACAD_REACTORS
330
CA7
102
}
330
CA7
100
AcDbXrecord
280
     1
 10
0.0
 20
0.0
 30
0.0
  0
XRECORD
  5
CBA
102
{ACAD_REACTORS
330
CA7
102
}
330
CA7
100
AcDbXrecord
280
     1
 10
0.0
 20
0.0
 30
0.0
  0
XRECORD
  5
CBB
102
{ACAD_REACTORS
330
CA7
102
}
330
CA7
100
AcDbXrecord
280
     1
 10
0.0
 20
0.0
 30
0.0
  0
XRECORD
  5
CB8
102
{ACAD_REACTORS
330
CA7
102
}
330
CA7
100
AcDbXrecord
280
     1
 10
0.0
 20
0.0
 30
0.0
  0
XRECORD
  5
CB5
102
{ACAD_REACTORS
330
CA7
102
}
330
CA7
100
AcDbXrecord
280
     1
340
0
  0
XRECORD
  5
CB6
102
{ACAD_REACTORS
330
CA7
102
}
330
CA7
100
AcDbXrecord
280
     1
 70
     0
  0
XRECORD
  5
CAB
102
{ACAD_REACTORS
330
CA7
102
}
330
CA7
100
AcDbXrecord
280
     1
  1
monochrome.ctb
  0
XRECORD
  5
CA8
102
{ACAD_REACTORS
330
CA7
102
}
330
CA7
100
AcDbXrecord
280
     1
 90
        1
  0
XRECORD
  5
CA9
102
{ACAD_REACTORS
330
CA7
102
}
330
CA7
100
AcDbXrecord
280
     1
 90
       70
  0
XRECORD
  5
CC0
102
{ACAD_REACTORS
330
CA7
102
}
330
CA7
100
AcDbXrecord
280
     1
340
0
  0
XRECORD
  5
CC6
102
{ACAD_REACTORS
330
CA7
102
}
330
CA7
100
AcDbXrecord
280
     1
 10
0.0
 20
0.0
 30
0.0
  0
XRECORD
  5
CC2
102
{ACAD_REACTORS
330
CA7
102
}
330
CA7
100
AcDbXrecord
280
     1
 10
0.0
 20
0.0
 30
0.0
  0
XRECORD
  5
CC5
102
{ACAD_REACTORS
330
CA7
102
}
330
CA7
100
AcDbXrecord
280
     1
 10
0.0
 20
0.0
 30
0.0
  0
XRECORD
  5
CC3
102
{ACAD_REACTORS
330
CA7
102
}
330
CA7
100
AcDbXrecord
280
     1
 10
0.0
 20
0.0
 30
0.0
  0
XRECORD
  5
CC4
102
{ACAD_REACTORS
330
CA7
102
}
330
CA7
100
AcDbXrecord
280
     1
 10
0.0
 20
0.0
 30
0.0
  0
XRECORD
  5
CC1
102
{ACAD_REACTORS
330
CA7
102
}
330
CA7
100
AcDbXrecord
280
     1
 10
0.0
 20
0.0
 30
0.0
  0
XRECORD
  5
CBE
102
{ACAD_REACTORS
330
CA7
102
}
330
CA7
100
AcDbXrecord
280
     1
340
0
  0
XRECORD
  5
CBF
102
{ACAD_REACTORS
330
CA7
102
}
330
CA7
100
AcDbXrecord
280
     1
 70
     0
  0
XRECORD
  5
CB3
102
{ACAD_REACTORS
330
CA7
102
}
330
CA7
100
AcDbXrecord
280
     1
  1
{1B3CF3DF-304D-45CD-976F-5C69BF11B954}
  0
DICTIONARYVAR
  5
C92
102
{ACAD_REACTORS
330
4DB
102
}
330
4DB
100
DictionaryVariables
280
     0
  1
1
  0
DICTIONARYVAR
  5
4DC
102
{ACAD_REACTORS
330
4DB
102
}
330
4DB
100
DictionaryVariables
280
     0
  1
1
  0
DICTIONARY
  5
4F3
102
{ACAD_REACTORS
330
4ED
102
}
330
4ED
100
AcDbDictionary
281
     1
  0
DICTIONARY
  5
4D5
102
{ACAD_REACTORS
330
4D4
102
}
330
4D4
100
AcDbDictionary
281
     1
  3
DWGSETTINGS
350
4D6
  3
TRANSSETTINGS
350
4D7
  0
ACAMGFILTERDAT
  5
509
102
{ACAD_REACTORS
330
504
102
}
330
504
100
AcAmgFilterDat
 70
    15
  1
DIMENSION,AMDT_*_DIM
  2
*
  3
*
  4
*
  5
*
290
     1
  0
ACAMGFILTERDAT
  5
508
102
{ACAD_REACTORS
330
504
102
}
330
504
100
AcAmgFilterDat
 70
    15
  1
*
  2
AM_FEA-AM_*
  3
*
  4
*
  5
*
290
     1
  0
ACAMGFILTERDAT
  5
505
102
{ACAD_REACTORS
330
504
102
}
330
504
100
AcAmgFilterDat
 70
    15
  1
HATCH
  2
*
  3
*
  4
*
  5
*
290
     1
  0
ACAMGFILTERDAT
  5
506
102
{ACAD_REACTORS
330
504
102
}
330
504
100
AcAmgFilterDat
 70
    15
  1
LINE
  2
8,8N,*-8,*-8N,AM_8,AM_8N,*-AM_8,*-AM_8N
  3
*
  4
*
  5
INSERT,STDPART2D
290
     1
  0
ACAMGFILTERDAT
  5
50A
102
{ACAD_REACTORS
330
504
102
}
330
504
100
AcAmgFilterDat
 70
    15
  1
ARC
  2
AM_5
  3
*
  4
2
  5
INSERT
290
     0
  0
ACAMGFILTERDAT
  5
507
102
{ACAD_REACTORS
330
504
102
}
330
504
100
AcAmgFilterDat
 70
    15
  1
ACMFCFRAME,ACMDATUMTARGET,ACMDATUMID,ACMWELDSYM,ACMSURFSYM,ACMFEATID,ACMPARTREF,ACMBALLOON,AMDTEDGESYM
  2
*
  3
*
  4
*
  5
*
290
     1
  0
LAYER_INDEX
  5
50D
102
{ACAD_REACTORS
330
50C
102
}
330
50C
100
AcDbIndex
 40
2452893.357524641
100
AcDbLayerIndex
  8
0
360
50E
 90
      734
  8
BORDER
360
50F
 90
        0
  8
Title Block
360
510
 90
        0
  8
L0
360
511
 90
        0
  8
Defpoints
360
C65
 90
        0
  0
IDBUFFER
  5
50E
330
0
100
AcDbIdBuffer
330
413
330
414
330
415
330
416
330
417
330
418
330
419
330
41A
330
41B
330
41C
330
41D
330
41E
330
41F
330
420
330
421
330
422
330
5CE
330
8F8
330
8F9
330
8FA
330
8FB
330
8FC
330
8FD
330
8FE
330
8FF
330
900
330
901
330
902
330
903
330
904
330
905
330
906
330
907
330
908
330
909
330
90A
330
90B
330
90C
330
90D
330
90E
330
90F
330
910
330
911
330
912
330
913
330
914
330
915
330
916
330
917
330
918
330
919
330
91A
330
91B
330
91C
330
91D
330
91E
330
91F
330
920
330
921
330
922
330
923
330
924
330
925
330
926
330
927
330
928
330
929
330
92A
330
92B
330
92C
330
92D
330
92E
330
92F
330
930
330
931
330
932
330
933
330
934
330
935
330
936
330
937
330
938
330
939
330
93A
330
93B
330
93C
330
93D
330
93E
330
93F
330
940
330
941
330
942
330
943
330
944
330
945
330
946
330
947
330
948
330
949
330
94A
330
94B
330
94C
330
94D
330
94E
330
94F
330
950
330
951
330
952
330
953
330
954
330
955
330
956
330
957
330
958
330
959
330
95A
330
95B
330
95C
330
95D
330
95E
330
95F
330
960
330
961
330
962
330
963
330
964
330
965
330
966
330
967
330
968
330
969
330
96A
330
96B
330
96C
330
96D
330
96E
330
96F
330
970
330
971
330
972
330
973
330
974
330
975
330
976
330
977
330
978
330
979
330
97A
330
97B
330
97C
330
97D
330
97E
330
97F
330
980
330
981
330
982
330
983
330
984
330
985
330
986
330
987
330
988
330
989
330
98A
330
98B
330
98C
330
98D
330
98E
330
98F
330
990
330
991
330
992
330
993
330
994
330
995
330
996
330
997
330
998
330
999
330
99A
330
99B
330
99C
330
99D
330
99E
330
99F
330
9A0
330
9A1
330
9A2
330
9A3
330
9A4
330
9A5
330
9A6
330
9A7
330
9A8
330
9A9
330
9AA
330
9AB
330
9AC
330
9AD
330
9AE
330
9AF
330
9B0
330
9B1
330
9B2
330
9B3
330
9B4
330
9B5
330
9B6
330
9B7
330
9B8
330
9B9
330
9BA
330
9BB
330
9BC
330
9BD
330
9BE
330
9BF
330
9C0
330
9C1
330
9C2
330
9C3
330
9C4
330
9C5
330
9C6
330
9C7
330
9C8
330
9C9
330
9CA
330
9CB
330
9CC
330
9CD
330
9CE
330
9CF
330
9D0
330
9D1
330
9D2
330
9D3
330
9D4
330
9D5
330
9D6
330
9D7
330
9D8
330
9D9
330
9DA
330
9DB
330
9DC
330
9DD
330
9DE
330
9DF
330
9E0
330
9E1
330
9E2
330
9E3
330
9E4
330
9E5
330
9E6
330
9E7
330
9E8
330
9E9
330
9EA
330
9EB
330
9EC
330
9ED
330
9EE
330
9EF
330
9F0
330
9F1
330
9F2
330
9F3
330
9F4
330
9F5
330
9F6
330
9F7
330
9F8
330
9F9
330
9FA
330
9FB
330
9FC
330
9FD
330
9FE
330
9FF
330
A00
330
A01
330
A02
330
A03
330
A04
330
A05
330
A06
330
A07
330
A08
330
A09
330
A0A
330
A0B
330
A0C
330
A0D
330
A0E
330
A0F
330
A10
330
A11
330
A12
330
A13
330
A14
330
A15
330
A16
330
A17
330
A18
330
A19
330
A1A
330
A1B
330
A1C
330
A1D
330
A1E
330
A1F
330
A20
330
A21
330
A22
330
A23
330
A24
330
A25
330
A26
330
A27
330
A28
330
A29
330
A2A
330
A2B
330
A2C
330
A2D
330
A2E
330
A2F
330
A30
330
A31
330
A32
330
A33
330
A34
330
A35
330
A36
330
A37
330
A38
330
A39
330
A3A
330
A3B
330
A3C
330
A3D
330
A3E
330
A3F
330
A40
330
A41
330
A42
330
A43
330
A44
330
A45
330
A46
330
A47
330
A48
330
A49
330
A4A
330
A4B
330
A4C
330
A4D
330
A4E
330
A4F
330
A50
330
A51
330
A52
330
A53
330
A54
330
A55
330
A56
330
A57
330
A58
330
A59
330
A5A
330
A5B
330
A5C
330
A5D
330
A5E
330
A5F
330
A60
330
A61
330
A62
330
A63
330
A64
330
A65
330
A66
330
A67
330
A68
330
A69
330
A6A
330
A6B
330
A6C
330
A6D
330
A6E
330
A6F
330
A70
330
A71
330
A72
330
A73
330
A74
330
A75
330
A76
330
A77
330
A78
330
A79
330
A7A
330
A7B
330
A7C
330
A7D
330
A7E
330
A7F
330
A80
330
A81
330
A82
330
A83
330
A84
330
A85
330
A86
330
A87
330
A88
330
A89
330
A8A
330
A8B
330
A8C
330
A8D
330
A8E
330
A8F
330
A90
330
A91
330
A92
330
A93
330
A94
330
A95
330
A96
330
A97
330
A98
330
A99
330
A9A
330
A9B
330
A9C
330
A9D
330
A9E
330
A9F
330
AA0
330
AA1
330
AA2
330
AA3
330
AA5
330
AA6
330
AA7
330
AA8
330
AA9
330
AAA
330
AAB
330
AAC
330
AAD
330
AAE
330
AAF
330
AB0
330
AB1
330
AB2
330
AB3
330
AB4
330
AB5
330
AB6
330
AB7
330
AB8
330
AB9
330
ABA
330
ABB
330
ABC
330
ABD
330
ABE
330
ABF
330
AC0
330
AC1
330
AC2
330
AC3
330
AC4
330
AC5
330
AC6
330
AC7
330
AC8
330
AC9
330
ACA
330
ACB
330
ACC
330
ACD
330
ACE
330
ACF
330
AD0
330
AD1
330
AD2
330
AD3
330
AD4
330
AD5
330
AD6
330
AD7
330
AD8
330
AD9
330
ADA
330
ADB
330
ADC
330
ADD
330
ADE
330
ADF
330
AE0
330
AE1
330
AE2
330
AE3
330
AE4
330
AE5
330
AE6
330
AE7
330
AE8
330
AE9
330
AEA
330
AEB
330
AEC
330
AED
330
AEE
330
AEF
330
AF0
330
AF1
330
AF2
330
AF3
330
AF4
330
AF5
330
AF6
330
AF7
330
AF8
330
AF9
330
AFA
330
AFB
330
AFC
330
AFD
330
AFE
330
AFF
330
B00
330
B01
330
B02
330
B03
330
B04
330
B05
330
B06
330
B07
330
B08
330
B09
330
B0A
330
B0B
330
B0C
330
B0D
330
B0E
330
B0F
330
B10
330
B11
330
B12
330
B13
330
B14
330
B15
330
B16
330
B17
330
B18
330
B19
330
B1A
330
B1B
330
B1C
330
B1D
330
B1E
330
B1F
330
B20
330
B21
330
B22
330
B23
330
B24
330
B25
330
B26
330
B27
330
B28
330
B29
330
B2A
330
B2B
330
B2C
330
B2D
330
B2E
330
B2F
330
B30
330
B31
330
B32
330
B33
330
B34
330
B35
330
B36
330
B37
330
B38
330
B39
330
B3A
330
B3B
330
B3C
330
B3D
330
B3E
330
B3F
330
B40
330
B41
330
B42
330
B43
330
B44
330
B45
330
B46
330
B47
330
B48
330
B49
330
B4A
330
B4B
330
B4C
330
B4D
330
B4E
330
B4F
330
B50
330
B51
330
B52
330
B53
330
B54
330
B55
330
B56
330
B57
330
B58
330
B59
330
B5A
330
B5B
330
B5C
330
B5D
330
B5E
330
B5F
330
B60
330
B61
330
B62
330
B63
330
B64
330
B65
330
B66
330
B67
330
B68
330
B69
330
B6A
330
B6B
330
B6C
330
B6D
330
B6E
330
B6F
330
B70
330
B71
330
B72
330
B73
330
B74
330
B75
330
B76
330
B77
330
B78
330
B79
330
B7A
330
B7B
330
B7C
330
B7D
330
B7E
330
B7F
330
B80
330
B81
330
B82
330
B83
330
B84
330
B85
330
B86
330
B87
330
B88
330
B89
330
B8A
330
B8B
330
B8C
330
B8D
330
B8E
330
B8F
330
B90
330
B91
330
B92
330
B93
330
B94
330
B95
330
B96
330
B97
330
B98
330
B99
330
B9A
330
B9B
330
B9C
330
B9D
330
B9E
330
B9F
330
BA0
330
BA1
330
BA2
330
BA3
330
BA4
330
BA5
330
BA6
330
BA7
330
BA8
330
BA9
330
BAA
330
BAB
330
BAC
330
BAD
330
BAE
330
BAF
330
BB0
330
BB1
330
BB2
330
BB3
330
BB4
330
BB5
330
BB6
330
BB7
330
BB8
330
BB9
330
BBA
330
BBB
330
BBC
330
BBD
330
BBE
330
BBF
330
BC0
330
BC1
330
BC2
330
BC3
330
BC4
330
BC5
  0
IDBUFFER
  5
50F
330
0
100
AcDbIdBuffer
  0
IDBUFFER
  5
510
330
0
100
AcDbIdBuffer
  0
IDBUFFER
  5
511
330
0
100
AcDbIdBuffer
  0
IDBUFFER
  5
C65
330
0
100
AcDbIdBuffer
  0
ENDSEC
  0
EOF
