  0
SECTION
  2
HEADER
  9
$ACADVER
  1
AC1015
  9
$ACADMAINTVER
 70
    11
  9
$DWGCODEPAGE
  3
ANSI_1252
  9
$INSBASE
 10
0.0
 20
0.0
 30
0.0
  9
$EXTMIN
 10
80.80177725679863
 20
37.82235209639932
 30
-0.0000000000000058
  9
$EXTMAX
 10
97.80741497694117
 20
48.8116359240567
 30
0.0000000000000104
  9
$LIMMIN
 10
0.0
 20
0.0
  9
$LIMMAX
 10
12.0
 20
9.0
  9
$ORTHOMODE
 70
     0
  9
$REGENMODE
 70
     1
  9
$FILLMODE
 70
     1
  9
$QTEXTMODE
 70
     0
  9
$MIRRTEXT
 70
     0
  9
$LTSCALE
 40
0.25
  9
$ATTMODE
 70
     1
  9
$TEXTSIZE
 40
0.0938
  9
$TRACEWID
 40
0.05
  9
$TEXTSTYLE
  7
SIMPLEX
  9
$CLAYER
  8
0
  9
$CELTYPE
  6
BYLAYER
  9
$CECOLOR
 62
   256
  9
$CELTSCALE
 40
1.0
  9
$DISPSILH
 70
     0
  9
$DIMSCALE
 40
1.0
  9
$DIMASZ
 40
0.18
  9
$DIMEXO
 40
0.0625
  9
$DIMDLI
 40
0.38
  9
$DIMRND
 40
0.0
  9
$DIMDLE
 40
0.0
  9
$DIMEXE
 40
0.18
  9
$DIMTP
 40
0.0
  9
$DIMTM
 40
0.0
  9
$DIMTXT
 40
0.0938
  9
$DIMCEN
 40
0.09
  9
$DIMTSZ
 40
0.0
  9
$DIMTOL
 70
     0
  9
$DIMLIM
 70
     0
  9
$DIMTIH
 70
     1
  9
$DIMTOH
 70
     1
  9
$DIMSE1
 70
     0
  9
$DIMSE2
 70
     0
  9
$DIMTAD
 70
     0
  9
$DIMZIN
 70
     0
  9
$DIMBLK
  1

  9
$DIMASO
 70
     0
  9
$DIMSHO
 70
     1
  9
$DIMPOST
  1

  9
$DIMAPOST
  1

  9
$DIMALT
 70
     0
  9
$DIMALTD
 70
     2
  9
$DIMALTF
 40
25.4
  9
$DIMLFAC
 40
1.0
  9
$DIMTOFL
 70
     0
  9
$DIMTVP
 40
0.0
  9
$DIMTIX
 70
     0
  9
$DIMSOXD
 70
     0
  9
$DIMSAH
 70
     0
  9
$DIMBLK1
  1

  9
$DIMBLK2
  1

  9
$DIMSTYLE
  2
STANDARD
  9
$DIMCLRD
 70
     0
  9
$DIMCLRE
 70
     0
  9
$DIMCLRT
 70
     0
  9
$DIMTFAC
 40
1.0
  9
$DIMGAP
 40
0.09
  9
$DIMJUST
 70
     0
  9
$DIMSD1
 70
     0
  9
$DIMSD2
 70
     0
  9
$DIMTOLJ
 70
     1
  9
$DIMTZIN
 70
     0
  9
$DIMALTZ
 70
     0
  9
$DIMALTTZ
 70
     0
  9
$DIMUPT
 70
     0
  9
$DIMDEC
 70
     4
  9
$DIMTDEC
 70
     4
  9
$DIMALTU
 70
     2
  9
$DIMALTTD
 70
     2
  9
$DIMTXSTY
  7
SIMPLEX
  9
$DIMAUNIT
 70
     0
  9
$DIMADEC
 70
     0
  9
$DIMALTRND
 40
0.0
  9
$DIMAZIN
 70
     0
  9
$DIMDSEP
 70
    46
  9
$DIMATFIT
 70
     3
  9
$DIMFRAC
 70
     0
  9
$DIMLDRBLK
  1

  9
$DIMLUNIT
 70
     2
  9
$DIMLWD
 70
    -2
  9
$DIMLWE
 70
    -2
  9
$DIMTMOVE
 70
     2
  9
$LUNITS
 70
     2
  9
$LUPREC
 70
     4
  9
$SKETCHINC
 40
0.1
  9
$FILLETRAD
 40
0.0
  9
$AUNITS
 70
     0
  9
$AUPREC
 70
     0
  9
$MENU
  1
acad
  9
$ELEVATION
 40
0.0
  9
$PELEVATION
 40
0.0
  9
$THICKNESS
 40
0.0
  9
$LIMCHECK
 70
     0
  9
$CHAMFERA
 40
0.0
  9
$CHAMFERB
 40
0.0
  9
$CHAMFERC
 40
0.0
  9
$CHAMFERD
 40
0.0
  9
$SKPOLY
 70
     0
  9
$TDCREATE
 40
2450133.605137500
  9
$TDUCREATE
 40
2450133.855137500
  9
$TDUPDATE
 40
2452941.413991180
  9
$TDUUPDATE
 40
2452941.663991180
  9
$TDINDWG
 40
1.7093369329
  9
$TDUSRTIMER
 40
1.7093369329
  9
$USRTIMER
 70
     1
  9
$ANGBASE
 50
0.0
  9
$ANGDIR
 70
     0
  9
$PDMODE
 70
     0
  9
$PDSIZE
 40
0.0
  9
$PLINEWID
 40
0.0
  9
$SPLFRAME
 70
     0
  9
$SPLINETYPE
 70
     6
  9
$SPLINESEGS
 70
     8
  9
$HANDSEED
  5
BE25
  9
$SURFTAB1
 70
     6
  9
$SURFTAB2
 70
     6
  9
$SURFTYPE
 70
     6
  9
$SURFU
 70
     6
  9
$SURFV
 70
     6
  9
$UCSBASE
  2

  9
$UCSNAME
  2

  9
$UCSORG
 10
0.0
 20
0.0
 30
0.0
  9
$UCSXDIR
 10
1.0
 20
0.0
 30
0.0
  9
$UCSYDIR
 10
0.0
 20
1.0
 30
0.0
  9
$UCSORTHOREF
  2

  9
$UCSORTHOVIEW
 70
     0
  9
$UCSORGTOP
 10
0.0
 20
0.0
 30
0.0
  9
$UCSORGBOTTOM
 10
0.0
 20
0.0
 30
0.0
  9
$UCSORGLEFT
 10
0.0
 20
0.0
 30
0.0
  9
$UCSORGRIGHT
 10
0.0
 20
0.0
 30
0.0
  9
$UCSORGFRONT
 10
0.0
 20
0.0
 30
0.0
  9
$UCSORGBACK
 10
0.0
 20
0.0
 30
0.0
  9
$PUCSBASE
  2

  9
$PUCSNAME
  2

  9
$PUCSORG
 10
0.0
 20
0.0
 30
0.0
  9
$PUCSXDIR
 10
1.0
 20
0.0
 30
0.0
  9
$PUCSYDIR
 10
0.0
 20
1.0
 30
0.0
  9
$PUCSORTHOREF
  2

  9
$PUCSORTHOVIEW
 70
     0
  9
$PUCSORGTOP
 10
0.0
 20
0.0
 30
0.0
  9
$PUCSORGBOTTOM
 10
0.0
 20
0.0
 30
0.0
  9
$PUCSORGLEFT
 10
0.0
 20
0.0
 30
0.0
  9
$PUCSORGRIGHT
 10
0.0
 20
0.0
 30
0.0
  9
$PUCSORGFRONT
 10
0.0
 20
0.0
 30
0.0
  9
$PUCSORGBACK
 10
0.0
 20
0.0
 30
0.0
  9
$USERI1
 70
     0
  9
$USERI2
 70
     0
  9
$USERI3
 70
     0
  9
$USERI4
 70
     0
  9
$USERI5
 70
     0
  9
$USERR1
 40
0.0
  9
$USERR2
 40
0.0
  9
$USERR3
 40
0.0
  9
$USERR4
 40
0.0
  9
$USERR5
 40
0.0
  9
$WORLDVIEW
 70
     1
  9
$SHADEDGE
 70
     3
  9
$SHADEDIF
 70
    70
  9
$TILEMODE
 70
     1
  9
$MAXACTVP
 70
    16
  9
$PINSBASE
 10
0.0
 20
0.0
 30
0.0
  9
$PLIMCHECK
 70
     0
  9
$PEXTMIN
 10
1.000000000000000E+20
 20
1.000000000000000E+20
 30
1.000000000000000E+20
  9
$PEXTMAX
 10
-1.000000000000000E+20
 20
-1.000000000000000E+20
 30
-1.000000000000000E+20
  9
$PLIMMIN
 10
0.0
 20
0.0
  9
$PLIMMAX
 10
12.0
 20
9.0
  9
$UNITMODE
 70
     0
  9
$VISRETAIN
 70
     0
  9
$PLINEGEN
 70
     0
  9
$PSLTSCALE
 70
     1
  9
$TREEDEPTH
 70
  3020
  9
$CMLSTYLE
  2
STANDARD
  9
$CMLJUST
 70
     0
  9
$CMLSCALE
 40
1.0
  9
$PROXYGRAPHICS
 70
     1
  9
$MEASUREMENT
 70
     0
  9
$CELWEIGHT
370
    -1
  9
$ENDCAPS
280
     0
  9
$JOINSTYLE
280
     0
  9
$LWDISPLAY
290
     0
  9
$INSUNITS
 70
     0
  9
$HYPERLINKBASE
  1

  9
$STYLESHEET
  1
monochrome.ctb
  9
$XEDIT
290
     1
  9
$CEPSNTYPE
380
     0
  9
$PSTYLEMODE
290
     1
  9
$FINGERPRINTGUID
  2
{56F8B3CC-9D8F-11D3-8C34-00C04F3577A6}
  9
$VERSIONGUID
  2
{883028AC-B259-47D2-8797-DBD2377773BA}
  9
$EXTNAMES
290
     1
  9
$PSVPSCALE
 40
0.0
  9
$OLESTARTUP
290
     0
  0
ENDSEC
  0
SECTION
  2
CLASSES
  0
CLASS
  1
DICTIONARYVAR
  2
AcDbDictionaryVar
  3
AutoCAD 2000
 90
        0
280
     0
281
     0
  0
CLASS
  1
LWPOLYLINE
  2
AcDbPolyline
  3
AutoCAD 2000
 90
    32768
280
     0
281
     1
  0
CLASS
  1
XRECORD
  2
AcDbXrecord
  3
AutoCAD 2000
 90
    32768
280
     0
281
     0
  0
CLASS
  1
ACDBDICTIONARYWDFLT
  2
AcDbDictionaryWithDefault
  3
AutoCAD 2000
 90
        0
280
     0
281
     0
  0
CLASS
  1
ACDBPLACEHOLDER
  2
AcDbPlaceHolder
  3
AutoCAD 2000
 90
        0
280
     0
281
     0
  0
CLASS
  1
LAYOUT
  2
AcDbLayout
  3
AutoCAD 2000
 90
        0
280
     0
281
     0
  0
CLASS
  1
ACME_DOCUMENT
  2
AcMeDbDoc
  3
AcMeServices
 90
        0
280
     0
281
     0
  0
CLASS
  1
AMGSETTINGSOBJ
  2
AmgSettingsObj
  3
"AcadM|Product Description: AutoCAD Mechanical 2000|Company: Autodesk"
 90
        0
280
     0
281
     0
  0
CLASS
  1
ACMESCOPE
  2
AcMeScope
  3
AcMeServices
 90
        0
280
     0
281
     0
  0
CLASS
  1
ACMECOMMANDHISTORY
  2
AcMeCommandHistory
  3
AcMeServices
 90
        0
280
     0
281
     0
  0
CLASS
  1
ACIMSYSVARMAN
  2
AcImSysVarManager
  3
AcMeServices
 90
        0
280
     0
281
     0
  0
CLASS
  1
ACIMREALSYSVAR
  2
AcImRealSysVar
  3
AcMeServices
 90
        0
280
     0
281
     0
  0
CLASS
  1
ACIMINTSYSVAR
  2
AcImIntSysVar
  3
AcMeServices
 90
        0
280
     0
281
     0
  0
CLASS
  1
ACMEDRAWINGMAN
  2
AcMeDrawingMan
  3
AcMeServices
 90
        0
280
     0
281
     0
  0
CLASS
  1
ACMEVIEW
  2
AcMeView
  3
AcMeServices
 90
        0
280
     0
281
     0
  0
CLASS
  1
ACDBENTITYCACHE
  2
AcMeEntityCache
  3
AcMeServices
 90
        0
280
     0
281
     0
  0
CLASS
  1
GSMANAGER
  2
AcMeGSManager
  3
AcMeServices
 90
        0
280
     0
281
     0
  0
CLASS
  1
AMDTINTERNALREACTOR
  2
AmdtInternalReactor
  3
AcMeServices
 90
        0
280
     0
281
     0
  0
CLASS
  1
ACMESTATEMGR
  2
AcMeStateMgr
  3
AcMeServices
 90
        0
280
     0
281
     0
  0
CLASS
  1
ACGREFMASTER
  2
AcGrefMaster
  3
AcAttribServices
 90
        0
280
     0
281
     0
  0
CLASS
  1
ACME_DATABASE
  2
AcMeDbDatabase
  3
AcMeServices
 90
        0
280
     0
281
     0
  0
CLASS
  1
ACRFINSADJUSTERMGR
  2
AcRfInsAdjusterMgr
  3
AcMeServices
 90
        0
280
     0
281
     0
  0
CLASS
  1
ACGREFMASTER
  2
AcGrefacadMaster
  3
AcGrefServices
 90
        0
280
     0
281
     0
  0
CLASS
  1
AMIMASTER
  2
AmiMaster
  3
AmiServices
 90
        0
280
     0
281
     0
  0
CLASS
  1
ACMDATADICTIONARY
  2
AcmDataDictionary
  3
"AcmSymBB|Product Description: AutoCAD Mechanical 2000|Company: Autodesk"
 90
        0
280
     0
281
     0
  0
CLASS
  1
ACMDATAENTRYBLOCK
  2
AcmDataEntryBlock
  3
"AcmSymBB|Product Description: AutoCAD Mechanical 2000|Company: Autodesk"
 90
        0
280
     0
281
     0
  0
CLASS
  1
ACIMSTRSYSVAR
  2
AcImStrSysVar
  3
AcMeServices
 90
        0
280
     0
281
     0
  0
CLASS
  1
ACMSTANDARDANSI
  2
AcmStandardANSI
  3
"Amdt_StdImp|Product Description: AutoCAD Mechanical 2000|Company: Autodesk"
 90
        0
280
     0
281
     0
  0
CLASS
  1
AMGOBJPROPCFG
  2
AmgObjPropCfg
  3
"AmgLay|Product Description: AutoCAD Mechanical 2000|Company: Autodesk"
 90
        1
280
     0
281
     0
  0
CLASS
  1
ACMSURFSTANDARDANSI
  2
AcmSurfTextStdANSI
  3
"Amdt_StdImp|Product Description: AutoCAD Mechanical 2000|Company: Autodesk"
 90
        0
280
     0
281
     0
  0
CLASS
  1
ACMFCFSTANDARDANSI
  2
AcmFCFStdANSI
  3
"Amdt_StdImp|Product Description: AutoCAD Mechanical 2000|Company: Autodesk"
 90
        0
280
     0
281
     0
  0
CLASS
  1
ACMWELDSTANDARDANSI
  2
AcmWeldingStdANSI
  3
"Amdt_StdImp|Product Description: AutoCAD Mechanical 2000|Company: Autodesk"
 90
        0
280
     0
281
     0
  0
CLASS
  1
ACMIDSTANDARDANSI
  2
AcmIdStdANSI
  3
"Amdt_StdImp|Product Description: AutoCAD Mechanical 2000|Company: Autodesk"
 90
        0
280
     0
281
     0
  0
CLASS
  1
ACMDATUMSTANDARDANSI
  2
AcmDatumStdANSI
  3
"Amdt_StdImp|Product Description: AutoCAD Mechanical 2000|Company: Autodesk"
 90
        0
280
     0
281
     0
  0
CLASS
  1
ACMBOMSTANDARDANSI
  2
AcmBOMStdANSI
  3
"Amdt_StdImp|Product Description: AutoCAD Mechanical 2000|Company: Autodesk"
 90
        0
280
     0
281
     0
  0
CLASS
  1
ACMDETAILSTANDARDANSI
  2
AmdtDetailSymStdANSI
  3
"Amdt_StdImp|Product Description: AutoCAD Mechanical 2000|Company: Autodesk"
 90
        0
280
     0
281
     0
  0
CLASS
  1
ACMSECTIONSTANDARDANSI
  2
AmdtSectionSymStdANSI
  3
"Amdt_StdImp|Product Description: AutoCAD Mechanical 2000|Company: Autodesk"
 90
        0
280
     0
281
     0
  0
CLASS
  1
ACMCENTERLINESTANDARDANSI
  2
AmdtCenterLineStdANSI
  3
"Amdt_StdImp|Product Description: AutoCAD Mechanical 2000|Company: Autodesk"
 90
        0
280
     0
281
     0
  0
CLASS
  1
"AcAmgLayStd"
  2
AcAmgLayStd
  3
"AcAmgLayStd|Product Description: AutoCAD Mechanical 2000|Company: Autodesk"
 90
        0
280
     0
281
     0
  0
CLASS
  1
"AcAmgDimStd"
  2
AcAmgDimStd
  3
"AcAmgDimStd|Product Description: AutoCAD Mechanical 2000|Company: Autodesk"
 90
        0
280
     0
281
     0
  0
CLASS
  1
AcAmgTitleStd
  2
AcAmgTitleStd
  3
"TITLEAPP"
 90
        0
280
     0
281
     0
  0
CLASS
  1
ACAMGFILTERDAT
  2
AcAmgFilterDat
  3
"AcadM|Product Description: AutoCAD Mechanical 2000|Company: Autodesk"
 90
        0
280
     0
281
     0
  0
CLASS
  1
LAYER_INDEX
  2
AcDbLayerIndex
  3
AutoCAD 2000
 90
        0
280
     0
281
     0
  0
CLASS
  1
IDBUFFER
  2
AcDbIdBuffer
  3
AutoCAD 2000
 90
        0
280
     0
281
     0
  0
CLASS
  1
AMDTFORMULAUPDATEDISPATCHER
  2
AmdtFormulaUpdateDispatcher
  3
AcMeServices
 90
        0
280
     0
281
     0
  0
ENDSEC
  0
SECTION
  2
TABLES
  0
TABLE
  2
VPORT
  5
8
330
0
100
AcDbSymbolTable
 70
     4
  0
VPORT
  5
BE03
330
8
100
AcDbSymbolTableRecord
100
AcDbViewportTableRecord
  2
*Active
 70
     0
 10
0.0
 20
0.0
 11
1.0
 21
1.0
 12
89.29749079492726
 22
43.3152528056639
 13
0.0
 23
0.0
 14
0.25
 24
0.25
 15
0.0
 25
0.0
 16
0.0
 26
0.0
 36
1.0
 17
0.0
 27
0.0
 37
0.0
 40
11.11011300825303
 41
1.659963436928701
 42
50.0
 43
0.0
 44
0.0
 50
0.0
 51
0.0
 71
     0
 72
 15000
 73
     1
 74
     0
 75
     0
 76
     0
 77
     0
 78
     0
281
     0
 65
     1
110
0.0
120
0.0
130
0.0
111
1.0
121
0.0
131
0.0
112
0.0
122
1.0
132
0.0
 79
     0
146
0.0
  0
ENDTAB
  0
TABLE
  2
LTYPE
  5
5
330
0
100
AcDbSymbolTable
 70
    18
  0
LTYPE
  5
11
330
5
100
AcDbSymbolTableRecord
100
AcDbLinetypeTableRecord
  2
BYBLOCK
 70
     0
  3

 72
    65
 73
     0
 40
0.0
  0
LTYPE
  5
12
330
5
100
AcDbSymbolTableRecord
100
AcDbLinetypeTableRecord
  2
BYLAYER
 70
     0
  3

 72
    65
 73
     0
 40
0.0
  0
LTYPE
  5
13
330
5
100
AcDbSymbolTableRecord
100
AcDbLinetypeTableRecord
  2
CONTINUOUS
 70
     0
  3
Solid line
 72
    65
 73
     0
 40
0.0
  0
LTYPE
  5
A970
330
5
100
AcDbSymbolTableRecord
100
AcDbLinetypeTableRecord
  2
HIDDEN
 70
     0
  3
__ __ __ __ __ __ __ __ __ __ __ __ __ __ __ __
 72
    65
 73
     2
 40
0.375
 49
0.25
 74
     0
 49
-0.125
 74
     0
  0
LTYPE
  5
AE77
330
5
100
AcDbSymbolTableRecord
100
AcDbLinetypeTableRecord
  2
L5
 70
     0
  3
L5
 72
    65
 73
     0
 40
0.0
  0
LTYPE
  5
AE78
330
5
100
AcDbSymbolTableRecord
100
AcDbLinetypeTableRecord
  2
L0
 70
     0
  3
L0
 72
    65
 73
     0
 40
0.0
  0
LTYPE
  5
BACF
330
5
100
AcDbSymbolTableRecord
100
AcDbLinetypeTableRecord
  2
AM_ISO02W050
 70
     0
  3
__ __ __ __ __ __ __ __ __ __ __ __ __ __ __
 72
    65
 73
     2
 40
7.5
 49
6.0
 74
     0
 49
-1.5
 74
     0
  0
LTYPE
  5
BAD0
330
5
100
AcDbSymbolTableRecord
100
AcDbLinetypeTableRecord
  2
AM_ISO08W050
 70
     0
  3
____ . ____ . ____ . ____ . ____ . ____ . ____
 72
    65
 73
     4
 40
18.0
 49
12.0
 74
     0
 49
-1.5
 74
     0
 49
3.0
 74
     0
 49
-1.5
 74
     0
  0
LTYPE
  5
BAD1
330
5
100
AcDbSymbolTableRecord
100
AcDbLinetypeTableRecord
  2
AM_ISO09W050
 70
     0
  3
_____ . . _____ . . _____ . . ____ .. ____
 72
    65
 73
     6
 40
22.5
 49
12.0
 74
     0
 49
-1.5
 74
     0
 49
3.0
 74
     0
 49
-1.5
 74
     0
 49
3.0
 74
     0
 49
-1.5
 74
     0
  0
LTYPE
  5
BAD2
330
5
100
AcDbSymbolTableRecord
100
AcDbLinetypeTableRecord
  2
Amconstr
 70
     0
  3
_______________________
 72
    65
 73
     2
 40
9999.0
 49
9999.0
 74
     0
 49
0.0
 74
     0
  0
LTYPE
  5
BAD3
330
5
100
AcDbSymbolTableRecord
100
AcDbLinetypeTableRecord
  2
AM_ISO08W050x2
 70
     0
  3
__ . __ . __ . __ . __ . __
 72
    65
 73
     4
 40
9.0
 49
6.0
 74
     0
 49
-0.75
 74
     0
 49
1.5
 74
     0
 49
-0.75
 74
     0
  0
LTYPE
  5
BAD4
330
5
100
AcDbSymbolTableRecord
100
AcDbLinetypeTableRecord
  2
AM_ISO02W050x2
 70
     0
  3
 _ _ _ _ _ _ _ _ _ _ _ _
 72
    65
 73
     2
 40
3.75
 49
3.0
 74
     0
 49
-0.75
 74
     0
  0
LTYPE
  5
BAD7
330
5
100
AcDbSymbolTableRecord
100
AcDbLinetypeTableRecord
  2
Amzigzag
 70
     0
  3
/\/-/\/-/\/-/\/-/\/-/\/
 72
    65
 73
     2
 40
11.00009999999999
 49
0.0001
 74
     4
 75
   135
340
BAD6
 46
0.04
 50
0.0
 44
0.0
 45
0.0
 49
-11.0
 74
     0
  0
LTYPE
  5
BAD8
330
5
100
AcDbSymbolTableRecord
100
AcDbLinetypeTableRecord
  2
CENTER
 70
     0
  3
Center ____ _ ____ _ ____ _ ____ _ ____ _ ____
 72
    65
 73
     4
 40
2.0
 49
1.25
 74
     0
 49
-0.25
 74
     0
 49
0.25
 74
     0
 49
-0.25
 74
     0
  0
LTYPE
  5
BAD9
330
5
100
AcDbSymbolTableRecord
100
AcDbLinetypeTableRecord
  2
PHANTOM2
 70
     0
  3
Phantom (.5x) ___ _ _ ___ _ _ ___ _ _ ___ _ _
 72
    65
 73
     6
 40
1.25
 49
0.625
 74
     0
 49
-0.125
 74
     0
 49
0.125
 74
     0
 49
-0.125
 74
     0
 49
0.125
 74
     0
 49
-0.125
 74
     0
  0
LTYPE
  5
BADA
330
5
100
AcDbSymbolTableRecord
100
AcDbLinetypeTableRecord
  2
CENTER2
 70
     0
  3
Center (.5x) ___ _ ___ _ ___ _ ___ _ ___ _ ___
 72
    65
 73
     4
 40
1.125
 49
0.75
 74
     0
 49
-0.125
 74
     0
 49
0.125
 74
     0
 49
-0.125
 74
     0
  0
LTYPE
  5
BADB
330
5
100
AcDbSymbolTableRecord
100
AcDbLinetypeTableRecord
  2
HIDDEN2
 70
     0
  3
Hidden (.5x) _ _ _ _ _ _ _ _ _ _ _ _ _ _ _ _ _
 72
    65
 73
     2
 40
0.1875
 49
0.125
 74
     0
 49
-0.0625
 74
     0
  0
LTYPE
  5
BADC
330
5
100
AcDbSymbolTableRecord
100
AcDbLinetypeTableRecord
  2
Amzigzag2
 70
     0
  3
/\/-/\/-/\/-/\/-/\/-/\/
 72
    65
 73
     2
 40
0.4401
 49
0.0001
 74
     4
 75
   135
340
BAD6
 46
0.0016
 50
0.0
 44
0.0
 45
0.0
 49
-0.4400000000000001
 74
     0
  0
LTYPE
  5
BAE8
330
5
100
AcDbSymbolTableRecord
100
AcDbLinetypeTableRecord
  2
ACANSTGB
 70
     0
  3
__ . . __ . .
 72
    65
 73
     6
 40
0.35433070866
 49
0.15748031496
 74
     0
 49
-0.03937007874
 74
     0
 49
0.03937007874
 74
     0
 49
-0.03937007874
 74
     0
 49
0.03937007874
 74
     0
 49
-0.03937007874
 74
     0
  0
LTYPE
  5
BAE9
330
5
100
AcDbSymbolTableRecord
100
AcDbLinetypeTableRecord
  2
ACANSTGL
 70
     0
  3
_ _ _ _ _
 72
    65
 73
     2
 40
0.11811023622
 49
0.07874015748
 74
     0
 49
-0.03937007874
 74
     0
  0
ENDTAB
  0
TABLE
  2
LAYER
  5
2
330
0
100
AcDbSymbolTable
 70
     5
  0
LAYER
  5
E
330
2
100
AcDbSymbolTableRecord
100
AcDbLayerTableRecord
  2
0
 70
     0
 62
     7
  6
CONTINUOUS
370
    -3
390
15DE
  0
LAYER
  5
1A4F
330
2
100
AcDbSymbolTableRecord
100
AcDbLayerTableRecord
  2
ASHADE
 70
     0
 62
     7
  6
CONTINUOUS
370
    -3
390
15DE
  0
LAYER
  5
B740
330
2
100
AcDbSymbolTableRecord
100
AcDbLayerTableRecord
  2
BORDER
 70
     0
 62
    15
  6
CONTINUOUS
370
    -3
390
15DE
  0
LAYER
  5
B741
330
2
100
AcDbSymbolTableRecord
100
AcDbLayerTableRecord
  2
Title Block
 70
     0
 62
     2
  6
CONTINUOUS
370
    -3
390
15DE
  0
LAYER
  5
BB9D
330
2
100
AcDbSymbolTableRecord
100
AcDbLayerTableRecord
  2
Defpoints
 70
     0
 62
     7
  6
CONTINUOUS
290
     0
370
    -3
390
15DE
  0
ENDTAB
  0
TABLE
  2
STYLE
  5
3
330
0
100
AcDbSymbolTable
 70
     7
  0
STYLE
  5
F
330
3
100
AcDbSymbolTableRecord
100
AcDbTextStyleTableRecord
  2
STANDARD
 70
     0
 40
0.0
 41
1.0
 50
0.0
 71
     0
 42
0.2
  3
txt
  4

  0
STYLE
  5
21
330
3
100
AcDbSymbolTableRecord
100
AcDbTextStyleTableRecord
  2
SIMPLEX
 70
     0
 40
0.0938
 41
1.0
 50
0.0
 71
     0
 42
0.0938
  3
C:\ACADWIN\FONTS\SIMPLEX.SHX
  4

  0
STYLE
  5
22
330
3
100
AcDbSymbolTableRecord
100
AcDbTextStyleTableRecord
  2
ROMANS
 70
     0
 40
0.095
 41
1.0
 50
0.0
 71
     0
 42
0.095
  3
romans
  4

  0
STYLE
  5
B742
330
3
100
AcDbSymbolTableRecord
100
AcDbTextStyleTableRecord
  2
AE
 70
     0
 40
0.0
 41
1.0
 50
0.0
 71
     0
 42
0.16408998
  3
MIGRATOR
  4

  0
STYLE
  5
BAD6
330
3
100
AcDbSymbolTableRecord
100
AcDbTextStyleTableRecord
  2

 70
     1
 40
0.0
 41
1.0
 50
0.0
 71
     0
 42
0.0938
  3
ltypeshp.shx
  4

  0
STYLE
  5
BADD
330
3
100
AcDbSymbolTableRecord
100
AcDbTextStyleTableRecord
  2
ACANSTS
 70
     0
 40
1.0
 41
1.0
 50
0.0
 71
     0
 42
0.0938
  3
romans.shx
  4

  0
STYLE
  5
BAE7
330
3
100
AcDbSymbolTableRecord
100
AcDbTextStyleTableRecord
  2
ACANSGDT
 70
     0
 40
0.0
 41
1.0
 50
0.0
 71
     0
 42
0.0938
  3
amgdtans.shx
  4

  0
ENDTAB
  0
TABLE
  2
VIEW
  5
6
330
0
100
AcDbSymbolTable
 70
     0
  0
ENDTAB
  0
TABLE
  2
UCS
  5
7
330
0
100
AcDbSymbolTable
 70
     0
  0
ENDTAB
  0
TABLE
  2
APPID
  5
9
330
0
100
AcDbSymbolTable
 70
    13
  0
APPID
  5
10
330
9
100
AcDbSymbolTableRecord
100
AcDbRegAppTableRecord
  2
ACAD
 70
     0
  0
APPID
  5
145B
330
9
100
AcDbSymbolTableRecord
100
AcDbRegAppTableRecord
  2
ABNSLEADERTOOLS
 70
     0
  0
APPID
  5
1A54
330
9
100
AcDbSymbolTableRecord
100
AcDbRegAppTableRecord
  2
AVE_RENDER
 70
     0
  0
APPID
  5
1A55
330
9
100
AcDbSymbolTableRecord
100
AcDbRegAppTableRecord
  2
AVE_ENTITY_MATERIAL
 70
     0
  0
APPID
  5
1A56
330
9
100
AcDbSymbolTableRecord
100
AcDbRegAppTableRecord
  2
AVE_FINISH
 70
     0
  0
APPID
  5
1A57
330
9
100
AcDbSymbolTableRecord
100
AcDbRegAppTableRecord
  2
AVE_MATERIAL
 70
     0
  0
APPID
  5
1A58
330
9
100
AcDbSymbolTableRecord
100
AcDbRegAppTableRecord
  2
AVE_GLOBAL
 70
     0
  0
APPID
  5
ADF8
330
9
100
AcDbSymbolTableRecord
100
AcDbRegAppTableRecord
  2
DCO15
 70
     0
  0
APPID
  5
B743
330
9
100
AcDbSymbolTableRecord
100
AcDbRegAppTableRecord
  2
GENIUS_GENBLLY_14
 70
     0
  0
APPID
  5
B744
330
9
100
AcDbSymbolTableRecord
100
AcDbRegAppTableRecord
  2
GENIUS_GENTRA_14
 70
     0
  0
APPID
  5
BAB1
330
9
100
AcDbSymbolTableRecord
100
AcDbRegAppTableRecord
  2
MCAD_NO_VIS
 70
     0
  0
APPID
  5
BAB2
330
9
100
AcDbSymbolTableRecord
100
AcDbRegAppTableRecord
  2
ACAD_TEMP_GRAPHIC
 70
     0
  0
APPID
  5
BAC3
330
9
100
AcDbSymbolTableRecord
100
AcDbRegAppTableRecord
  2
ACATTRIBSERVICES
 70
     0
  0
ENDTAB
  0
TABLE
  2
DIMSTYLE
  5
A
330
0
100
AcDbSymbolTable
 70
     8
100
AcDbDimStyleTable
 71
     1
340
141F
  0
DIMSTYLE
105
141F
330
A
100
AcDbSymbolTableRecord
100
AcDbDimStyleTableRecord
  2
STANDARD
 70
     0
340
F
  0
DIMSTYLE
105
BAEC
330
A
100
AcDbSymbolTableRecord
100
AcDbDimStyleTableRecord
  2
AM_ANSI
 70
     0
  4
mm
 41
0.1
 42
0.05
 43
0.5
 44
0.1
 47
0.1
 48
0.1
 78
     7
 79
     2
140
0.12
141
0.0
146
0.71
147
0.06
176
   256
177
   256
178
     2
274
     4
284
     7
340
F
371
    -1
372
    -1
  0
DIMSTYLE
105
BAED
330
A
100
AcDbSymbolTableRecord
100
AcDbDimStyleTableRecord
  2
AM_ANSI$3
 70
     0
  4
mm
 41
0.1
 42
0.05
 43
0.5
 44
0.1
 47
0.1
 48
0.1
 78
     7
 79
     2
140
0.12
141
0.0
146
0.71
147
0.06
176
   256
177
   256
178
     2
274
     4
284
     7
288
     1
289
     0
340
F
371
    -1
372
    -1
  0
DIMSTYLE
105
BAEE
330
A
100
AcDbSymbolTableRecord
100
AcDbDimStyleTableRecord
  2
AM_ANSI$4
 70
     0
  4
mm
 41
0.1
 42
0.05
 43
0.5
 44
0.1
 47
0.1
 48
0.1
 78
     7
 79
     2
140
0.12
141
0.0
146
0.71
147
0.06
176
   256
177
   256
178
     2
274
     4
284
     7
288
     1
289
     0
340
F
371
    -1
372
    -1
  0
DIMSTYLE
105
BAEF
330
A
100
AcDbSymbolTableRecord
100
AcDbDimStyleTableRecord
  2
AM_ANSI$7
 70
     0
  4
mm
 41
0.1
 42
0.05
 43
0.5
 44
0.1
 47
0.1
 48
0.1
 78
     7
 79
     2
140
0.24
141
0.0
146
0.71
147
0.06
176
   256
177
   256
178
     2
274
     4
284
     7
340
F
371
    -1
372
    -1
  0
DIMSTYLE
105
BAF0
330
A
100
AcDbSymbolTableRecord
100
AcDbDimStyleTableRecord
  2
AM_ANSI$SF
 70
     0
  4
mm
 41
0.1
 42
0.05
 43
0.5
 44
0.1
 47
0.1
 48
0.1
 75
     1
 76
     1
 78
     7
 79
     2
140
0.12
141
0.0
146
0.71
147
0.06
176
   256
177
   256
178
     2
274
     4
284
     7
340
F
371
    -1
372
    -1
  0
DIMSTYLE
105
BAF5
330
A
100
AcDbSymbolTableRecord
100
AcDbDimStyleTableRecord
  2
AM_ANSI$SH
 70
     0
  4
mm
 41
0.1
 42
0.05
 43
0.5
 44
0.1
 47
0.1
 48
0.1
 75
     1
 76
     1
 78
     7
 79
     2
140
0.12
141
0.0
146
0.71
147
0.06
173
     1
176
   256
177
   256
178
     2
274
     4
284
     7
340
F
343
BAF1
371
    -1
372
    -1
  0
DIMSTYLE
105
BB9E
102
{ACAD_REACTORS
330
BCA6
102
}
330
A
100
AcDbSymbolTableRecord
100
AcDbDimStyleTableRecord
  2
MEDDIM1148
 70
     0
 45
0.01
 78
    12
146
0.7
172
     1
176
     7
177
     7
178
     7
273
     4
277
     4
279
     2
340
F
  0
ENDTAB
  0
TABLE
  2
BLOCK_RECORD
  5
1
330
0
100
AcDbSymbolTable
 70
     8
  0
BLOCK_RECORD
  5
17
102
{ACAD_XDICTIONARY
360
BAFB
102
}
330
1
100
AcDbSymbolTableRecord
100
AcDbBlockTableRecord
  2
*MODEL_SPACE
340
15E1
  0
BLOCK_RECORD
  5
14
330
1
100
AcDbSymbolTableRecord
100
AcDbBlockTableRecord
  2
*PAPER_SPACE
340
15E2
  0
BLOCK_RECORD
  5
1A48
330
1
100
AcDbSymbolTableRecord
100
AcDbBlockTableRecord
  2
AVE_RENDER
340
0
102
{BLKREFS
331
60EB
331
60EC
331
60ED
331
60EE
331
60EF
331
60F0
331
60F1
331
60F2
331
60F6
331
60F7
331
60F8
331
60F9
331
60FA
331
60FB
331
60FC
331
60FD
331
6698
331
6699
331
669A
331
669B
331
669C
331
669D
331
669E
331
669F
331
66A3
331
66A4
331
66A5
331
66A6
331
66A7
331
66A8
331
66A9
331
66AA
331
71DF
331
71E0
331
71E1
331
71E2
331
71E3
331
71E4
331
71E5
331
71E6
331
71EA
331
71EB
331
71EC
331
71ED
331
71EE
331
71EF
331
71F0
331
71F1
331
778C
331
778D
331
778E
331
778F
331
7790
331
7791
331
7792
331
7793
331
7797
331
7798
331
7799
331
779A
331
779B
331
779C
331
779D
331
779E
331
82D1
331
82D2
331
82D3
331
82D4
331
82D5
331
82D6
331
82D7
331
82D8
331
82DC
331
82DD
331
82DE
331
82DF
331
82E0
331
82E1
331
82E2
331
82E3
331
887E
331
887F
331
8880
331
8881
331
8882
331
8883
331
8884
331
8885
331
8889
331
888A
331
888B
331
888C
331
888D
331
888E
331
888F
331
8890
102
}
  0
BLOCK_RECORD
  5
1A4B
330
1
100
AcDbSymbolTableRecord
100
AcDbBlockTableRecord
  2
AVE_GLOBAL
340
0
102
{BLKREFS
331
60F3
331
60FE
331
66A0
331
66AB
331
71E7
331
71F2
331
7794
331
779F
331
82D9
331
82E4
331
8886
331
8891
102
}
  0
BLOCK_RECORD
  5
B6B4
330
1
100
AcDbSymbolTableRecord
100
AcDbBlockTableRecord
  2
ASSEMBLY_B
340
0
102
{BLKREFS
331
B768
102
}
  0
BLOCK_RECORD
  5
BAF1
330
1
100
AcDbSymbolTableRecord
100
AcDbBlockTableRecord
  2
GENAXEH
340
0
  0
BLOCK_RECORD
  5
BDA8
330
1
100
AcDbSymbolTableRecord
100
AcDbBlockTableRecord
  2
*D6
340
0
  0
ENDTAB
  0
ENDSEC
  0
SECTION
  2
BLOCKS
  0
BLOCK
  5
2C
330
17
100
AcDbEntity
  8
0
100
AcDbBlockBegin
  2
*MODEL_SPACE
 70
     0
 10
0.0
 20
0.0
 30
0.0
  3
*MODEL_SPACE
  1

  0
ENDBLK
  5
2D
330
17
100
AcDbEntity
  8
0
100
AcDbBlockEnd
  0
BLOCK
  5
2A
330
14
100
AcDbEntity
 67
     1
  8
0
100
AcDbBlockBegin
  2
*PAPER_SPACE
 70
     0
 10
0.0
 20
0.0
 30
0.0
  3
*PAPER_SPACE
  1

  0
ENDBLK
  5
2B
330
14
100
AcDbEntity
 67
     1
  8
0
100
AcDbBlockEnd
  0
BLOCK
  5
1A49
330
1A48
100
AcDbEntity
  8
ASHADE
100
AcDbBlockBegin
  2
AVE_RENDER
 70
     0
 10
0.0
 20
0.0
 30
0.0
  3
AVE_RENDER
  1
AVE_RENDER
  0
ENDBLK
  5
1A4A
330
1A48
100
AcDbEntity
  8
0
100
AcDbBlockEnd
  0
BLOCK
  5
1A4C
330
1A4B
100
AcDbEntity
  8
ASHADE
100
AcDbBlockBegin
  2
AVE_GLOBAL
 70
     0
 10
0.0
 20
0.0
 30
0.0
  3
AVE_GLOBAL
  1
AVE_GLOBAL
  0
ENDBLK
  5
1A4D
330
1A4B
100
AcDbEntity
  8
0
100
AcDbBlockEnd
  0
BLOCK
  5
B73E
330
B6B4
100
AcDbEntity
  8
0
100
AcDbBlockBegin
  2
ASSEMBLY_B
 70
     2
 10
0.0
 20
0.0
 30
0.0
  3
ASSEMBLY_B
  1

  0
LINE
  5
B6B5
330
B6B4
100
AcDbEntity
  8
BORDER
 62
    15
100
AcDbLine
 10
16.6
 20
0.3999656890232617
 30
0.0
 11
16.6
 21
10.63996597902324
 31
0.0
  0
LINE
  5
B6B6
330
B6B4
100
AcDbEntity
  8
BORDER
 62
    15
100
AcDbLine
 10
0.400011260000019
 20
0.3999656890232617
 30
0.0
 11
0.400011260000019
 21
10.63996597902324
 31
0.0
  0
LINE
  5
B6B7
330
B6B4
100
AcDbEntity
  8
BORDER
 62
    15
100
AcDbLine
 10
0.400011260000019
 20
0.3999656890232617
 30
0.0
 11
16.6
 21
0.3999656890232617
 31
0.0
  0
LINE
  5
B6B8
330
B6B4
100
AcDbEntity
  8
BORDER
 62
    15
100
AcDbLine
 10
0.0000022600000076
 20
5.519965834023253
 30
0.0
 11
0.400011260000019
 21
5.519965834023253
 31
0.0
  0
TEXT
  5
B6B9
330
B6B4
100
AcDbEntity
  8
Title Block
  6
Continuous
 62
     2
100
AcDbText
 10
12.30669482722675
 20
2.205546537751305
 30
0.0
 40
0.1010611419
  1
DO NOT SCALE
 50
0.09999996
  7
AE
100
AcDbText
  0
TEXT
  5
B6BA
330
B6B4
100
AcDbEntity
  8
Title Block
  6
Continuous
 62
     2
100
AcDbText
 10
12.30669482722675
 20
1.996163262564665
 30
0.0
 40
0.1010611419
  1
  DRAWING
 50
0.09999996
  7
AE
100
AcDbText
  0
ATTDEF
  5
B6BB
330
B6B4
100
AcDbEntity
  8
Title Block
  6
Continuous
 62
     2
100
AcDbText
 10
10.79999999999999
 20
0.6000000000000001
 30
0.0
 40
0.126326427375
  1

 41
0.8
100
AcDbAttributeDefinition
  3
Drawing Name
  2
GEN-TITLE-DES1{15.54}
 70
     0
1001
GENIUS_GENBLLY_14
1000
BOR5
  0
LINE
  5
B6BC
330
B6B4
100
AcDbEntity
  8
Title Block
  6
Continuous
 62
     2
100
AcDbLine
 10
7.849999999999999
 20
2.4
 30
0.0
 11
16.6
 21
2.4
 31
0.0
  0
LINE
  5
B6BD
330
B6B4
100
AcDbEntity
  8
Title Block
  6
Continuous
 62
     2
100
AcDbLine
 10
12.17518995515351
 20
1.7
 30
0.0
 11
16.6
 21
1.7
 31
0.0
  0
LINE
  5
B6BE
330
B6B4
100
AcDbEntity
  8
Title Block
  6
Continuous
 62
     2
100
AcDbLine
 10
12.17518995515351
 20
1.45
 30
0.0
 11
16.6
 21
1.45
 31
0.0
  0
LINE
  5
B6BF
330
B6B4
100
AcDbEntity
  8
Title Block
  6
Continuous
 62
     2
100
AcDbLine
 10
12.17518995515351
 20
1.199999999999999
 30
0.0
 11
16.6
 21
1.199999999999999
 31
0.0
  0
LINE
  5
B6C0
330
B6B4
100
AcDbEntity
  8
Title Block
  6
Continuous
 62
     2
100
AcDbLine
 10
10.69965639031853
 20
0.95
 30
0.0
 11
16.6
 21
0.95
 31
0.0
  0
ATTDEF
  5
B6C1
330
B6B4
100
AcDbEntity
  8
Title Block
  6
Continuous
 62
     2
100
AcDbText
 10
12.52499999999999
 20
1.024999999999999
 30
0.0
 40
0.1010611419
  1

100
AcDbAttributeDefinition
  3
Approved by
  2
GEN-TITLE-APPM{5}
 70
     0
1001
GENIUS_GENBLLY_14
1000
BOR2
1001
GENIUS_GENTRA_14
1002
{
1070
     3
1000
GENTRAPR,%s,(GENMSG gentitus 73)
1000
Approved by
1000
gb
1070
     0
1002
}
  0
ATTDEF
  5
B6C2
330
B6B4
100
AcDbEntity
  8
Title Block
  6
Continuous
 62
     2
100
AcDbText
 10
12.52499999999999
 20
1.274999999999999
 30
0.0
 40
0.1010611419
  1

100
AcDbAttributeDefinition
  3
Check by
  2
GEN-TITLE-CHKM{5}
 70
     0
1001
GENIUS_GENBLLY_14
1000
BOR2
  0
ATTDEF
  5
B6C3
330
B6B4
100
AcDbEntity
  8
Title Block
  6
Continuous
 62
     2
100
AcDbText
 10
12.52499999999999
 20
1.524999999999999
 30
0.0
 40
0.1010611419
  1

100
AcDbAttributeDefinition
  3
Drawn by
  2
GEN-TITLE-NAME{5}
 70
     0
1001
GENIUS_GENBLLY_14
1000
BOR2
  0
LINE
  5
B6C4
330
B6B4
100
AcDbEntity
  8
Title Block
  6
Continuous
 62
     2
100
AcDbLine
 10
7.849999999999999
 20
0.9
 30
0.0
 11
10.69965639031853
 21
0.9
 31
0.0
  0
LINE
  5
B6C5
330
B6B4
100
AcDbEntity
  8
Title Block
  6
Continuous
 62
     2
100
AcDbLine
 10
7.849999999999999
 20
1.149999999999999
 30
0.0
 11
10.69965639031853
 21
1.149999999999999
 31
0.0
  0
LINE
  5
B6C6
330
B6B4
100
AcDbEntity
  8
Title Block
  6
Continuous
 62
     2
100
AcDbLine
 10
7.849999999999999
 20
2.149999999999999
 30
0.0
 11
10.69965639031853
 21
2.149999999999999
 31
0.0
  0
LINE
  5
B6C7
330
B6B4
100
AcDbEntity
  8
Title Block
  6
Continuous
 62
     2
100
AcDbLine
 10
7.849999999999999
 20
1.9
 30
0.0
 11
10.69965639031853
 21
1.9
 31
0.0
  0
LINE
  5
B6C8
330
B6B4
100
AcDbEntity
  8
Title Block
  6
Continuous
 62
     2
100
AcDbLine
 10
7.849999999999999
 20
1.649999999999999
 30
0.0
 11
10.69965639031853
 21
1.649999999999999
 31
0.0
  0
LINE
  5
B6C9
330
B6B4
100
AcDbEntity
  8
Title Block
  6
Continuous
 62
     2
100
AcDbLine
 10
7.849999999999999
 20
1.399999999999999
 30
0.0
 11
10.69965639031853
 21
1.399999999999999
 31
0.0
  0
LINE
  5
B6CA
330
B6B4
100
AcDbEntity
  8
Title Block
  6
Continuous
 62
     2
100
AcDbLine
 10
7.849999999999999
 20
0.65
 30
0.0
 11
10.69965639031853
 21
0.65
 31
0.0
  0
TEXT
  5
B6CB
330
B6B4
100
AcDbEntity
  8
Title Block
  6
Continuous
 62
     2
100
AcDbText
 10
8.501374022347393
 20
0.7409580908741999
 30
0.0
 40
0.075937067150492
  1
DATE
 50
0.09999996
  7
AE
100
AcDbText
  0
LINE
  5
B6CC
330
B6B4
100
AcDbEntity
  8
BORDER
 62
    15
100
AcDbLine
 10
8.50000126000001
 20
0.2
 30
0.0
 11
8.50000126000001
 21
0.3999656890232617
 31
0.0
  0
TEXT
  5
B6CD
330
B6B4
100
AcDbEntity
  8
BORDER
  6
Continuous
 62
    15
100
AcDbText
 10
8.471503396695657
 20
0.0599741912456094
 30
0.0
 40
0.0799862356161777
  1
0
 50
0.09999996
  7
AE
100
AcDbText
  0
LINE
  5
B6CE
330
B6B4
100
AcDbEntity
  8
BORDER
  6
Continuous
 62
    15
100
AcDbLine
 10
8.57998715545812
 20
0.3399759973137096
 30
0.0
 11
8.57998715545812
 21
0.3999656890232617
 31
0.0
  0
LINE
  5
B6CF
330
B6B4
100
AcDbEntity
  8
BORDER
  6
Continuous
 62
    15
100
AcDbLine
 10
8.559991091469045
 20
0.2999828395124904
 30
0.0
 11
8.559991091469045
 21
0.3999656890232617
 31
0.0
  0
LINE
  5
B6D0
330
B6B4
100
AcDbEntity
  8
BORDER
  6
Continuous
 62
    15
100
AcDbLine
 10
8.539994027651742
 20
0.2999828395124904
 30
0.0
 11
8.539994027651742
 21
0.3999656890232617
 31
0.0
  0
LINE
  5
B6D1
330
B6B4
100
AcDbEntity
  8
BORDER
  6
Continuous
 62
    15
100
AcDbLine
 10
8.519997063817303
 20
0.3399759973137096
 30
0.0
 11
8.519997063817303
 21
0.3999656890232617
 31
0.0
  0
LINE
  5
B6D2
330
B6B4
100
AcDbEntity
  8
BORDER
  6
Continuous
 62
    15
100
AcDbLine
 10
8.599983219447194
 20
0.2599896917095521
 30
0.0
 11
8.599983219447194
 21
0.3999656890232617
 31
0.0
  0
LINE
  5
B6D3
330
B6B4
100
AcDbEntity
  8
Title Block
  6
Continuous
 62
     2
100
AcDbLine
 10
8.199999999999999
 20
0.65
 30
0.0
 11
8.199999999999999
 21
2.4
 31
0.0
  0
LINE
  5
B6D4
330
B6B4
100
AcDbEntity
  8
Title Block
  6
Continuous
 62
     2
100
AcDbLine
 10
7.849999999999999
 20
0.3999656890232617
 30
0.0
 11
7.849999999999999
 21
2.4
 31
0.0
  0
TEXT
  5
B6D5
330
B6B4
100
AcDbEntity
  8
Title Block
  6
Continuous
 62
     2
100
AcDbText
 10
7.938242132245035
 20
0.7403498140978244
 30
0.0
 40
0.0771520776612738
  1
NO.
 50
0.09999996
  7
AE
100
AcDbText
  0
LINE
  5
B6D6
330
B6B4
100
AcDbEntity
  8
BORDER
  6
Continuous
 62
    15
100
AcDbLine
 10
9.499828195159265
 20
0.2
 30
0.0
 11
9.499828195159265
 21
0.3999656890232617
 31
0.0
  0
TEXT
  5
B6D7
330
B6B4
100
AcDbEntity
  8
BORDER
  6
Continuous
 62
    15
100
AcDbText
 10
9.271369052290525
 20
0.1199638829551611
 30
0.0
 40
0.0799862356161777
  1
8
 50
0.09999996
  7
AE
100
AcDbText
  0
TEXT
  5
B6D8
330
B6B4
100
AcDbEntity
  8
BORDER
  6
Continuous
 62
    15
100
AcDbText
 10
10.0712336080743
 20
0.1199638829551611
 30
0.0
 40
0.0799862356161777
  1
6
 50
0.09999996
  7
AE
100
AcDbText
  0
TEXT
  5
B6D9
330
B6B4
100
AcDbEntity
  8
BORDER
  6
Continuous
 62
    15
100
AcDbText
 10
9.671301830096499
 20
0.1199638829551611
 30
0.0
 40
0.0799862356161777
  1
2
 50
0.09999996
  7
AE
100
AcDbText
  0
TEXT
  5
B6DA
330
B6B4
100
AcDbEntity
  8
BORDER
  6
Continuous
 62
    15
100
AcDbText
 10
9.471331591854921
 20
0.0599741912456094
 30
0.0
 40
0.0799862356161777
  1
1
 50
0.09999996
  7
AE
100
AcDbText
  0
TEXT
  5
B6DB
330
B6B4
100
AcDbEntity
  8
BORDER
  6
Continuous
 62
    15
100
AcDbText
 10
9.871267269162689
 20
0.1199638829551611
 30
0.0
 40
0.0799862356161777
  1
4
 50
0.09999996
  7
AE
100
AcDbText
  0
TEXT
  5
B6DC
330
B6B4
100
AcDbEntity
  8
BORDER
  6
Continuous
 62
    15
100
AcDbText
 10
10.27120004696869
 20
0.1199638829551611
 30
0.0
 40
0.0799862356161777
  1
8
 50
0.09999996
  7
AE
100
AcDbText
  0
LINE
  5
B6DD
330
B6B4
100
AcDbEntity
  8
BORDER
  6
Continuous
 62
    15
100
AcDbLine
 10
9.379852711070126
 20
0.3399759973137096
 30
0.0
 11
9.379852711070126
 21
0.3999656890232617
 31
0.0
  0
LINE
  5
B6DE
330
B6B4
100
AcDbEntity
  8
BORDER
  6
Continuous
 62
    15
100
AcDbLine
 10
9.359856647081052
 20
0.2999828395124904
 30
0.0
 11
9.359856647081052
 21
0.3999656890232617
 31
0.0
  0
LINE
  5
B6DF
330
B6B4
100
AcDbEntity
  8
BORDER
  6
Continuous
 62
    15
100
AcDbLine
 10
9.339859683246583
 20
0.2999828395124904
 30
0.0
 11
9.339859683246583
 21
0.3999656890232617
 31
0.0
  0
LINE
  5
B6E0
330
B6B4
100
AcDbEntity
  8
BORDER
  6
Continuous
 62
    15
100
AcDbLine
 10
9.319862619429308
 20
0.3399759973137096
 30
0.0
 11
9.319862619429308
 21
0.3999656890232617
 31
0.0
  0
LINE
  5
B6E1
330
B6B4
100
AcDbEntity
  8
BORDER
  6
Continuous
 62
    15
100
AcDbLine
 10
9.279869591605736
 20
0.3399759973137096
 30
0.0
 11
9.279869591605736
 21
0.3999656890232617
 31
0.0
  0
LINE
  5
B6E2
330
B6B4
100
AcDbEntity
  8
BORDER
  6
Continuous
 62
    15
100
AcDbLine
 10
9.459839866528247
 20
0.2999828395124904
 30
0.0
 11
9.459839866528247
 21
0.3999656890232617
 31
0.0
  0
LINE
  5
B6E3
330
B6B4
100
AcDbEntity
  8
BORDER
  6
Continuous
 62
    15
100
AcDbLine
 10
9.439842902693806
 20
0.2999828395124904
 30
0.0
 11
9.439842902693806
 21
0.3999656890232617
 31
0.0
  0
LINE
  5
B6E4
330
B6B4
100
AcDbEntity
  8
BORDER
  6
Continuous
 62
    15
100
AcDbLine
 10
9.419845838876504
 20
0.3399759973137096
 30
0.0
 11
9.419845838876504
 21
0.3999656890232617
 31
0.0
  0
LINE
  5
B6E5
330
B6B4
100
AcDbEntity
  8
BORDER
  6
Continuous
 62
    15
100
AcDbLine
 10
9.399848775059201
 20
0.2599896917095521
 30
0.0
 11
9.399848775059201
 21
0.3999656890232617
 31
0.0
  0
LINE
  5
B6E6
330
B6B4
100
AcDbEntity
  8
BORDER
  6
Continuous
 62
    15
100
AcDbLine
 10
9.29986565559481
 20
0.2599896917095521
 30
0.0
 11
9.29986565559481
 21
0.3999656890232617
 31
0.0
  0
LINE
  5
B6E7
330
B6B4
100
AcDbEntity
  8
BORDER
  6
Continuous
 62
    15
100
AcDbLine
 10
9.479835930517349
 20
0.3399759973137096
 30
0.0
 11
9.479835930517349
 21
0.3999656890232617
 31
0.0
  0
LINE
  5
B6E8
330
B6B4
100
AcDbEntity
  8
BORDER
  6
Continuous
 62
    15
100
AcDbLine
 10
9.699798433400815
 20
0.2599896917095521
 30
0.0
 11
9.699798433400815
 21
0.3999656890232617
 31
0.0
  0
LINE
  5
B6E9
330
B6B4
100
AcDbEntity
  8
BORDER
  6
Continuous
 62
    15
100
AcDbLine
 10
9.899763872467033
 20
0.2599896917095521
 30
0.0
 11
9.899763872467033
 21
0.3999656890232617
 31
0.0
  0
LINE
  5
B6EA
330
B6B4
100
AcDbEntity
  8
BORDER
  6
Continuous
 62
    15
100
AcDbLine
 10
10.09973031136145
 20
0.2599896917095521
 30
0.0
 11
10.09973031136145
 21
0.3999656890232617
 31
0.0
  0
LINE
  5
B6EB
330
B6B4
100
AcDbEntity
  8
BORDER
  6
Continuous
 62
    15
100
AcDbLine
 10
10.29969665027303
 20
0.2599896917095521
 30
0.0
 11
10.29969665027303
 21
0.3999656890232617
 31
0.0
  0
LINE
  5
B6EC
330
B6B4
100
AcDbEntity
  8
BORDER
  6
Continuous
 62
    15
100
AcDbLine
 10
10.49965928982029
 20
0.2
 30
0.0
 11
10.49965928982029
 21
0.3999656890232617
 31
0.0
  0
TEXT
  5
B6ED
330
B6B4
100
AcDbEntity
  8
BORDER
  6
Continuous
 62
    15
100
AcDbText
 10
10.47115978701421
 20
0.0599741912456095
 30
0.0
 40
0.0799862356161777
  1
2
 50
0.09999996
  7
AE
100
AcDbText
  0
TEXT
  5
B6EE
330
B6B4
100
AcDbEntity
  8
BORDER
  6
Continuous
 62
    15
100
AcDbText
 10
8.671469835590103
 20
0.1199638829551611
 30
0.0
 40
0.0799862356161777
  1
2
 50
0.09999996
  7
AE
100
AcDbText
  0
LINE
  5
B6EF
330
B6B4
100
AcDbEntity
  8
BORDER
  6
Continuous
 62
    15
100
AcDbLine
 10
8.679970374905344
 20
0.3399759973137096
 30
0.0
 11
8.679970374905344
 21
0.3999656890232617
 31
0.0
  0
LINE
  5
B6F0
330
B6B4
100
AcDbEntity
  8
BORDER
  6
Continuous
 62
    15
100
AcDbLine
 10
8.65997431091624
 20
0.2999828395124904
 30
0.0
 11
8.65997431091624
 21
0.3999656890232617
 31
0.0
  0
LINE
  5
B6F1
330
B6B4
100
AcDbEntity
  8
BORDER
  6
Continuous
 62
    15
100
AcDbLine
 10
8.639977247098967
 20
0.2999828395124904
 30
0.0
 11
8.639977247098967
 21
0.3999656890232617
 31
0.0
  0
LINE
  5
B6F2
330
B6B4
100
AcDbEntity
  8
BORDER
  6
Continuous
 62
    15
100
AcDbLine
 10
8.619980183281692
 20
0.3399759973137096
 30
0.0
 11
8.619980183281692
 21
0.3999656890232617
 31
0.0
  0
LINE
  5
B6F3
330
B6B4
100
AcDbEntity
  8
BORDER
  6
Continuous
 62
    15
100
AcDbLine
 10
8.699966438894419
 20
0.2599896917095521
 30
0.0
 11
8.699966438894419
 21
0.3999656890232617
 31
0.0
  0
TEXT
  5
B6F4
330
B6B4
100
AcDbEntity
  8
BORDER
  6
Continuous
 62
    15
100
AcDbText
 10
9.071402613396108
 20
0.1199638829551611
 30
0.0
 40
0.0799862356161777
  1
6
 50
0.09999996
  7
AE
100
AcDbText
  0
TEXT
  5
B6F5
330
B6B4
100
AcDbEntity
  8
BORDER
  6
Continuous
 62
    15
100
AcDbText
 10
8.87143617450166
 20
0.1199638829551611
 30
0.0
 40
0.0799862356161777
  1
4
 50
0.09999996
  7
AE
100
AcDbText
  0
LINE
  5
B6F6
330
B6B4
100
AcDbEntity
  8
BORDER
  6
Continuous
 62
    15
100
AcDbLine
 10
8.779953494369733
 20
0.3399759973137096
 30
0.0
 11
8.779953494369733
 21
0.3999656890232617
 31
0.0
  0
LINE
  5
B6F7
330
B6B4
100
AcDbEntity
  8
BORDER
  6
Continuous
 62
    15
100
AcDbLine
 10
8.75995743038063
 20
0.2999828395124904
 30
0.0
 11
8.75995743038063
 21
0.3999656890232617
 31
0.0
  0
LINE
  5
B6F8
330
B6B4
100
AcDbEntity
  8
BORDER
  6
Continuous
 62
    15
100
AcDbLine
 10
8.73996046654619
 20
0.2999828395124904
 30
0.0
 11
8.73996046654619
 21
0.3999656890232617
 31
0.0
  0
LINE
  5
B6F9
330
B6B4
100
AcDbEntity
  8
BORDER
  6
Continuous
 62
    15
100
AcDbLine
 10
8.719963402728886
 20
0.3399759973137096
 30
0.0
 11
8.719963402728886
 21
0.3999656890232617
 31
0.0
  0
LINE
  5
B6FA
330
B6B4
100
AcDbEntity
  8
BORDER
  6
Continuous
 62
    15
100
AcDbLine
 10
9.119896280517695
 20
0.3399759973137096
 30
0.0
 11
9.119896280517695
 21
0.3999656890232617
 31
0.0
  0
LINE
  5
B6FB
330
B6B4
100
AcDbEntity
  8
BORDER
  6
Continuous
 62
    15
100
AcDbLine
 10
9.079903152711347
 20
0.3399759973137096
 30
0.0
 11
9.079903152711347
 21
0.3999656890232617
 31
0.0
  0
LINE
  5
B6FC
330
B6B4
100
AcDbEntity
  8
BORDER
  6
Continuous
 62
    15
100
AcDbLine
 10
9.059907088722244
 20
0.2999828395124904
 30
0.0
 11
9.059907088722244
 21
0.3999656890232617
 31
0.0
  0
LINE
  5
B6FD
330
B6B4
100
AcDbEntity
  8
BORDER
  6
Continuous
 62
    15
100
AcDbLine
 10
9.039910024904969
 20
0.2999828395124904
 30
0.0
 11
9.039910024904969
 21
0.3999656890232617
 31
0.0
  0
LINE
  5
B6FE
330
B6B4
100
AcDbEntity
  8
BORDER
  6
Continuous
 62
    15
100
AcDbLine
 10
9.0199130610705
 20
0.3399759973137096
 30
0.0
 11
9.0199130610705
 21
0.3999656890232617
 31
0.0
  0
LINE
  5
B6FF
330
B6B4
100
AcDbEntity
  8
BORDER
  6
Continuous
 62
    15
100
AcDbLine
 10
8.979919933264122
 20
0.3399759973137096
 30
0.0
 11
8.979919933264122
 21
0.3999656890232617
 31
0.0
  0
LINE
  5
B700
330
B6B4
100
AcDbEntity
  8
BORDER
  6
Continuous
 62
    15
100
AcDbLine
 10
8.959923869275048
 20
0.2999828395124904
 30
0.0
 11
8.959923869275048
 21
0.3999656890232617
 31
0.0
  0
LINE
  5
B701
330
B6B4
100
AcDbEntity
  8
BORDER
  6
Continuous
 62
    15
100
AcDbLine
 10
8.93992690544058
 20
0.2999828395124904
 30
0.0
 11
8.93992690544058
 21
0.3999656890232617
 31
0.0
  0
LINE
  5
B702
330
B6B4
100
AcDbEntity
  8
BORDER
  6
Continuous
 62
    15
100
AcDbLine
 10
8.919929841623305
 20
0.3399759973137096
 30
0.0
 11
8.919929841623305
 21
0.3999656890232617
 31
0.0
  0
LINE
  5
B703
330
B6B4
100
AcDbEntity
  8
BORDER
  6
Continuous
 62
    15
100
AcDbLine
 10
8.879936713816928
 20
0.3399759973137096
 30
0.0
 11
8.879936713816928
 21
0.3999656890232617
 31
0.0
  0
LINE
  5
B704
330
B6B4
100
AcDbEntity
  8
BORDER
  6
Continuous
 62
    15
100
AcDbLine
 10
8.859940649827825
 20
0.2999828395124904
 30
0.0
 11
8.859940649827825
 21
0.3999656890232617
 31
0.0
  0
LINE
  5
B705
330
B6B4
100
AcDbEntity
  8
BORDER
  6
Continuous
 62
    15
100
AcDbLine
 10
8.839943685993384
 20
0.2999828395124904
 30
0.0
 11
8.839943685993384
 21
0.3999656890232617
 31
0.0
  0
LINE
  5
B706
330
B6B4
100
AcDbEntity
  8
BORDER
  6
Continuous
 62
    15
100
AcDbLine
 10
8.819946622176082
 20
0.3399759973137096
 30
0.0
 11
8.819946622176082
 21
0.3999656890232617
 31
0.0
  0
LINE
  5
B707
330
B6B4
100
AcDbEntity
  8
BORDER
  6
Continuous
 62
    15
100
AcDbLine
 10
9.099899216700421
 20
0.2599896917095521
 30
0.0
 11
9.099899216700421
 21
0.3999656890232617
 31
0.0
  0
LINE
  5
B708
330
B6B4
100
AcDbEntity
  8
BORDER
  6
Continuous
 62
    15
100
AcDbLine
 10
8.999915997253197
 20
0.2599896917095521
 30
0.0
 11
8.999915997253197
 21
0.3999656890232617
 31
0.0
  0
LINE
  5
B709
330
B6B4
100
AcDbEntity
  8
BORDER
  6
Continuous
 62
    15
100
AcDbLine
 10
8.899932777806002
 20
0.2599896917095521
 30
0.0
 11
8.899932777806002
 21
0.3999656890232617
 31
0.0
  0
LINE
  5
B70A
330
B6B4
100
AcDbEntity
  8
BORDER
  6
Continuous
 62
    15
100
AcDbLine
 10
8.799949658341613
 20
0.2599896917095521
 30
0.0
 11
8.799949658341613
 21
0.3999656890232617
 31
0.0
  0
LINE
  5
B70B
330
B6B4
100
AcDbEntity
  8
BORDER
  6
Continuous
 62
    15
100
AcDbLine
 10
9.259873527616662
 20
0.2999828395124904
 30
0.0
 11
9.259873527616662
 21
0.3999656890232617
 31
0.0
  0
LINE
  5
B70C
330
B6B4
100
AcDbEntity
  8
BORDER
  6
Continuous
 62
    15
100
AcDbLine
 10
9.239876463799388
 20
0.2999828395124904
 30
0.0
 11
9.239876463799388
 21
0.3999656890232617
 31
0.0
  0
LINE
  5
B70D
330
B6B4
100
AcDbEntity
  8
BORDER
  6
Continuous
 62
    15
100
AcDbLine
 10
9.219879399982085
 20
0.3399759973137096
 30
0.0
 11
9.219879399982085
 21
0.3999656890232617
 31
0.0
  0
LINE
  5
B70E
330
B6B4
100
AcDbEntity
  8
BORDER
  6
Continuous
 62
    15
100
AcDbLine
 10
9.179886372158541
 20
0.3399759973137096
 30
0.0
 11
9.179886372158541
 21
0.3999656890232617
 31
0.0
  0
LINE
  5
B70F
330
B6B4
100
AcDbEntity
  8
BORDER
  6
Continuous
 62
    15
100
AcDbLine
 10
9.159890308169439
 20
0.2999828395124904
 30
0.0
 11
9.159890308169439
 21
0.3999656890232617
 31
0.0
  0
LINE
  5
B710
330
B6B4
100
AcDbEntity
  8
BORDER
  6
Continuous
 62
    15
100
AcDbLine
 10
9.139893244352192
 20
0.2999828395124904
 30
0.0
 11
9.139893244352192
 21
0.3999656890232617
 31
0.0
  0
LINE
  5
B711
330
B6B4
100
AcDbEntity
  8
BORDER
  6
Continuous
 62
    15
100
AcDbLine
 10
9.199882436147616
 20
0.2599896917095521
 30
0.0
 11
9.199882436147616
 21
0.3999656890232617
 31
0.0
  0
TEXT
  5
B712
330
B6B4
100
AcDbEntity
  8
BORDER
  6
Continuous
 62
    15
100
AcDbText
 10
8.702946126881657
 20
0.0329812595588271
 30
0.0
 40
0.0399931278063708
  1
FULL SIZE   50   02
 50
0.09999996
 41
0.7749084200000001
  7
AE
100
AcDbText
  0
TEXT
  5
B713
330
B6B4
100
AcDbEntity
  8
Title Block
  6
Continuous
 62
     2
100
AcDbText
 10
8.973543078500011
 20
0.4900242034427523
 30
0.0
 40
0.075937067150492
  1
REVISION
 50
0.09999996
  7
AE
100
AcDbText
  0
LINE
  5
B714
330
B6B4
100
AcDbEntity
  8
BORDER
  6
Continuous
 62
    15
100
AcDbLine
 10
10.69965639031853
 20
0.3999656890232617
 30
0.0
 11
10.69965639031853
 21
2.4
 31
0.0
  0
LINE
  5
B715
330
B6B4
100
AcDbEntity
  8
Title Block
  6
Continuous
 62
     2
100
AcDbLine
 10
12.17518995515351
 20
1.0
 30
0.0
 11
12.17518995515351
 21
2.4
 31
0.0
  0
TEXT
  5
B716
330
B6B4
100
AcDbEntity
  8
Title Block
  6
Continuous
 62
     2
100
AcDbText
 10
10.74999999999999
 20
0.8
 30
0.0
 40
0.075937067150492
  1
DRAWING NAME
 50
0.09999996
  7
AE
100
AcDbText
  0
TEXT
  5
B717
330
B6B4
100
AcDbEntity
  8
Title Block
  6
Continuous
 62
     2
100
AcDbText
 10
12.19999999999999
 20
0.975
 30
0.0
 40
0.075937067150492
  1
BY
 50
0.09999996
  7
AE
100
AcDbText
  0
TEXT
  5
B718
330
B6B4
100
AcDbEntity
  8
Title Block
  6
Continuous
 62
     2
100
AcDbText
 10
12.21
 20
1.1
 30
0.0
 40
0.075937067150492
  1
APPD
 50
0.09999996
  7
AE
100
AcDbText
  0
TEXT
  5
B719
330
B6B4
100
AcDbEntity
  8
Title Block
  6
Continuous
 62
     2
100
AcDbText
 10
12.19999999999999
 20
1.349999999999999
 30
0.0
 40
0.075937067150492
  1
CHK
 50
0.09999996
  7
AE
100
AcDbText
  0
TEXT
  5
B71A
330
B6B4
100
AcDbEntity
  8
Title Block
  6
Continuous
 62
     2
100
AcDbText
 10
12.20620037256117
 20
1.224999999999999
 30
0.0
 40
0.075937067150492
  1
BY
 50
0.09999996
  7
AE
100
AcDbText
  0
TEXT
  5
B71B
330
B6B4
100
AcDbEntity
  8
Title Block
  6
Continuous
 62
     2
100
AcDbText
 10
12.19999999999999
 20
1.474999999999999
 30
0.0
 40
0.075937067150492
  1
BY
 50
0.09999996
  7
AE
100
AcDbText
  0
TEXT
  5
B71C
330
B6B4
100
AcDbEntity
  8
Title Block
  6
Continuous
 62
     2
100
AcDbText
 10
12.19999999999999
 20
1.599999999999999
 30
0.0
 40
0.075937067150492
  1
DR
 50
0.09999996
  7
AE
100
AcDbText
  0
LINE
  5
B71D
330
B6B4
100
AcDbEntity
  8
Title Block
  6
Continuous
 62
     2
100
AcDbLine
 10
9.0
 20
0.65
 30
0.0
 11
9.0
 21
2.4
 31
0.0
  0
ATTDEF
  5
B71E
330
B6B4
100
AcDbEntity
  8
Title Block
  6
Continuous
 62
     2
100
AcDbText
 10
14.0
 20
0.5
 30
0.0
 40
0.196816573850279
  1

 41
0.8
100
AcDbAttributeDefinition
  3
Drawing Number
  2
GEN-TITLE-NR{13.37}
 70
     0
1001
GENIUS_GENBLLY_14
1000
BOR5
  0
ATTDEF
  5
B71F
330
B6B4
100
AcDbEntity
  8
Title Block
  6
Continuous
 62
     2
100
AcDbText
 10
15.6
 20
1.024999999999999
 30
0.0
 40
0.11808994431015
  1

 41
0.8
100
AcDbAttributeDefinition
  3
Sheet
  2
GEN-TITLE-SHEET{2.62}
 70
     0
1001
GENIUS_GENBLLY_14
1000
BOR3
  0
ATTDEF
  5
B720
330
B6B4
100
AcDbEntity
  8
Title Block
  6
Continuous
 62
     2
100
AcDbText
 10
15.525
 20
1.274999999999999
 30
0.0
 40
0.1010611419
  1

100
AcDbAttributeDefinition
  3
Date
  2
GEN-TITLE-PLOT{5}
 70
     0
1001
GENIUS_GENBLLY_14
1000
BOR2
  0
ATTDEF
  5
B721
330
B6B4
100
AcDbEntity
  8
Title Block
  6
Continuous
 62
     2
100
AcDbText
 10
15.99999999999999
 20
1.024999999999999
 30
0.0
 40
0.11808994431015
  1

 41
0.8
100
AcDbAttributeDefinition
  3
Sheet of
  2
GEN-TITLE-SHEET-OF{2.62}
 70
     0
1001
GENIUS_GENBLLY_14
1000
BOR3
  0
LINE
  5
B722
330
B6B4
100
AcDbEntity
  8
Title Block
  6
Continuous
 62
     2
100
AcDbLine
 10
15.12625718126357
 20
0.95
 30
0.0
 11
15.12625718126354
 21
1.45
 31
0.0
  0
LINE
  5
B723
330
B6B4
100
AcDbEntity
  8
BORDER
  6
Continuous
 62
    15
100
AcDbLine
 10
13.64999999999999
 20
0.3999656890232617
 30
0.0
 11
13.64999999999999
 21
2.4
 31
0.0
  0
TEXT
  5
B724
330
B6B4
100
AcDbEntity
  8
Title Block
  6
Continuous
 62
     2
100
AcDbText
 10
13.7
 20
0.8
 30
0.0
 40
0.075937067150492
  1
DRAWING NUMBER
 50
0.09999996
  7
AE
100
AcDbText
  0
TEXT
  5
B725
330
B6B4
100
AcDbEntity
  8
Title Block
  6
Continuous
 62
     2
100
AcDbText
 10
13.7
 20
1.599999999999999
 30
0.0
 40
0.075937067150492
  1
REF
 50
0.09999996
  7
AE
100
AcDbText
  0
TEXT
  5
B726
330
B6B4
100
AcDbEntity
  8
Title Block
  6
Continuous
 62
     2
100
AcDbText
 10
13.7
 20
1.349999999999999
 30
0.0
 40
0.075937067150492
  1
MACH
 50
0.09999996
  7
AE
100
AcDbText
  0
TEXT
  5
B727
330
B6B4
100
AcDbEntity
  8
Title Block
  6
Continuous
 62
     2
100
AcDbText
 10
13.7
 20
1.1
 30
0.0
 40
0.075937067150492
  1
MATL
 50
0.09999996
  7
AE
100
AcDbText
  0
ATTDEF
  5
B728
330
B6B4
100
AcDbEntity
  8
Title Block
  6
Continuous
 62
     2
100
AcDbText
 10
14.05
 20
1.524999999999999
 30
0.0
 40
0.1010611419
  1

100
AcDbAttributeDefinition
  3
Ref. No.
  2
GEN-TITLE-REF{5}
 70
     0
1001
GENIUS_GENBLLY_14
1000
BOR2
  0
ATTDEF
  5
B729
330
B6B4
100
AcDbEntity
  8
Title Block
  6
Continuous
 62
     2
100
AcDbText
 10
14.05
 20
1.274999999999999
 30
0.0
 40
0.1010611419
  1

100
AcDbAttributeDefinition
  3
Machine
  2
GEN-TITLE-MACH{5}
 70
     0
1001
GENIUS_GENBLLY_14
1000
BOR2
  0
ATTDEF
  5
B72A
330
B6B4
100
AcDbEntity
  8
Title Block
  6
Continuous
 62
     2
100
AcDbText
 10
14.05
 20
1.024999999999999
 30
0.0
 40
0.1010611419
  1

 41
0.8
100
AcDbAttributeDefinition
  3
Material
  2
GEN-TITLE-MAT{11.15}
 70
     0
1001
GENIUS_GENBLLY_14
1000
BOR3
  0
TEXT
  5
B72B
330
B6B4
100
AcDbEntity
  8
Title Block
  6
Continuous
 62
     2
100
AcDbText
 10
15.175
 20
1.1
 30
0.0
 40
0.075937067150492
  1
SHEET   OF
 50
0.09999996
  7
AE
100
AcDbText
  0
TEXT
  5
B72C
330
B6B4
100
AcDbEntity
  8
Title Block
  6
Continuous
 62
     2
100
AcDbText
 10
15.175
 20
1.349999999999999
 30
0.0
 40
0.075937067150492
  1
DATE
 50
0.09999996
  7
AE
100
AcDbText
  0
LINE
  5
B72D
330
B6B4
100
AcDbEntity
  8
BORDER
 62
    15
100
AcDbLine
 10
16.6
 20
5.519965979023269
 30
0.0
 11
16.99999962000001
 21
5.519965979023269
 31
0.0
  0
LINE
  5
B72E
330
B6B4
100
AcDbEntity
  8
BORDER
 62
    15
100
AcDbLine
 10
0.400011260000019
 20
10.63996597902324
 30
0.0
 11
16.6
 21
10.63996597902324
 31
0.0
  0
LINE
  5
B72F
330
B6B4
100
AcDbEntity
  8
BORDER
 62
    15
100
AcDbLine
 10
8.50000126000001
 20
10.63996597902324
 30
0.0
 11
8.50000126000001
 21
11.01996597902326
 31
0.0
  0
MTEXT
  5
B730
330
B6B4
100
AcDbEntity
  8
BORDER
  6
Continuous
100
AcDbMText
 10
15.10308979335871
 20
2.25
 30
0.0
 40
0.125
 41
2.663
 71
     2
 72
     5
  1
{\fArial|b0|i0|c0|p34;\C1;G & L Motion Control Inc.}
 73
     1
 44
1.0
  0
MTEXT
  5
B731
330
B6B4
100
AcDbEntity
  8
BORDER
  6
Continuous
100
AcDbMText
 10
15.10412857763948
 20
1.928264837305509
 30
0.0
 40
0.07874
 41
2.862
 71
     5
 72
     1
  1
{\Fromans.shx;\C9;672 South Military Road\PFond du Lac, Wisconsin 54936 U.S.A.}
 73
     1
 44
1.0
  0
TEXT
  5
B732
330
B6B4
100
AcDbEntity
  8
Title Block
  6
Continuous
 62
     2
100
AcDbText
 10
10.71881861560131
 20
2.036049281269597
 30
0.0
 40
0.0645465051491158
  1
of G&L Motion Control, is
 50
0.0999999600000013
 41
0.6799434399999999
  7
AE
100
AcDbText
  0
TEXT
  5
B733
330
B6B4
100
AcDbEntity
  8
Title Block
  6
Continuous
 62
     2
100
AcDbText
 10
10.71741487412047
 20
2.144627598463487
 30
0.0
 40
0.0645465051491158
  1
contains proprietary information
 50
0.0999999600000013
 41
0.7005041199999999
  7
AE
100
AcDbText
  0
TEXT
  5
B734
330
B6B4
100
AcDbEntity
  8
Title Block
  6
Continuous
 62
     2
100
AcDbText
 10
10.72248667991201
 20
1.924616885729644
 30
0.0
 40
0.0645465051491158
  1
submitted in confidence on
 50
0.0999999600000013
 41
0.6605569100000001
  7
AE
100
AcDbText
  0
TEXT
  5
B735
330
B6B4
100
AcDbEntity
  8
Title Block
  6
Continuous
 62
     2
100
AcDbText
 10
10.71679449751522
 20
1.81708586876793
 30
0.0
 40
0.0645465051491158
  1
condition that it will not be
 50
0.0999999600000013
 41
0.72234601
  7
AE
100
AcDbText
  0
TEXT
  5
B736
330
B6B4
100
AcDbEntity
  8
Title Block
  6
Continuous
 62
     2
100
AcDbText
 10
10.71416899531685
 20
1.597796107226088
 30
0.0
 40
0.0645465051491158
  1
will be used only for your
 50
0.0999999600000013
 41
0.6799434399999999
  7
AE
100
AcDbText
  0
TEXT
  5
B737
330
B6B4
100
AcDbEntity
  8
Title Block
  6
Continuous
 62
     2
100
AcDbText
 10
10.71948721212293
 20
1.489000640399515
 30
0.0
 40
0.0645465051491158
  1
information, and will not be used
 50
0.0999999600000013
 41
0.6605569100000001
  7
AE
100
AcDbText
  0
TEXT
  5
B738
330
B6B4
100
AcDbEntity
  8
Title Block
  6
Continuous
 62
     2
100
AcDbText
 10
10.71739723193344
 20
1.378476657741246
 30
0.0
 40
0.0645465051491158
  1
or disclosed to anyone except as
 50
0.0999999600000013
 41
0.6799434399999999
  7
AE
100
AcDbText
  0
TEXT
  5
B739
330
B6B4
100
AcDbEntity
  8
Title Block
  6
Continuous
 62
     2
100
AcDbText
 10
10.71540499165808
 20
1.267047562975569
 30
0.0
 40
0.0645465051491158
  1
authorized by specific
 50
0.0999999600000013
 41
0.79688752
  7
AE
100
AcDbText
  0
TEXT
  5
B73A
330
B6B4
100
AcDbEntity
  8
Title Block
  6
Continuous
 62
     2
100
AcDbText
 10
10.71777124306261
 20
1.705466828073234
 30
0.0
 40
0.0645465051491158
  1
copied or otherwise reproduced,
 50
0.0999999600000013
 41
0.6799434399999999
  7
AE
100
AcDbText
  0
TEXT
  5
B73B
330
B6B4
100
AcDbEntity
  8
Title Block
  6
Continuous
 62
     2
100
AcDbText
 10
10.72050994356058
 20
2.252555955563673
 30
0.0
 40
0.0645465051491158
  1
NOTICE: This drawing or material
 50
0.0999999600000013
 41
0.7005041199999999
  7
AE
100
AcDbText
  0
TEXT
  5
B73C
330
B6B4
100
AcDbEntity
  8
Title Block
  6
Continuous
 62
     2
100
AcDbText
 10
10.72096632443385
 20
1.159697406318199
 30
0.0
 40
0.0645465051491158
  1
written consent of G&L Motion Control
 50
0.0999999600000013
 41
0.79688752
  7
AE
100
AcDbText
  0
TEXT
  5
B73D
330
B6B4
100
AcDbEntity
  8
Title Block
  6
Continuous
 62
     2
100
AcDbText
 10
10.71875
 20
1.046875
 30
0.0
 40
0.0645465051491158
  1
Automation, LLC
 50
0.0999999600000013
 41
0.79688752
  7
AE
100
AcDbText
  0
ENDBLK
  5
B73F
330
B6B4
100
AcDbEntity
  8
0
100
AcDbBlockEnd
  0
BLOCK
  5
BAF3
330
BAF1
100
AcDbEntity
  8
0
100
AcDbBlockBegin
  2
GENAXEH
 70
     0
 10
0.0
 20
0.0
 30
0.0
  3
GENAXEH
  1

  0
LINE
  5
BAF2
330
BAF1
100
AcDbEntity
  8
0
100
AcDbLine
 10
-1.0
 20
0.0
 30
0.0
 11
1.0
 21
0.0
 31
0.0
  0
ENDBLK
  5
BAF4
330
BAF1
100
AcDbEntity
  8
0
100
AcDbBlockEnd
  0
BLOCK
  5
BDB3
330
BDA8
100
AcDbEntity
  8
0
100
AcDbBlockBegin
  2
*D6
 70
     1
 10
0.0
 20
0.0
 30
0.0
  3
*D6
  1

  0
LINE
  5
BDDA
330
BDA8
100
AcDbEntity
  8
0
 62
     7
370
    -2
100
AcDbLine
 10
84.61666340204127
 20
43.67370616845116
 30
0.0
 11
84.61666340204127
 21
41.95120616845115
 31
0.0
  0
LINE
  5
BDDB
330
BDA8
100
AcDbEntity
  8
0
 62
     7
370
    -2
100
AcDbLine
 10
81.90666340204126
 20
43.00149716845116
 30
0.0
 11
81.90666340204126
 21
41.95120616845115
 31
0.0
  0
LINE
  5
BDDC
330
BDA8
100
AcDbEntity
  8
0
 62
     7
370
    -2
100
AcDbLine
 10
84.43666340204126
 20
42.13120616845116
 30
0.0
 11
83.67963959251746
 21
42.13120616845116
 31
0.0
  0
LINE
  5
BDDD
330
BDA8
100
AcDbEntity
  8
0
 62
     7
370
    -2
100
AcDbLine
 10
82.08666340204127
 20
42.13120616845116
 30
0.0
 11
82.84368721156507
 21
42.13120616845116
 31
0.0
  0
SOLID
  5
BDDE
330
BDA8
100
AcDbEntity
  8
0
 62
     7
100
AcDbTrace
 10
84.43666340204126
 20
42.16120616845116
 30
0.0
 11
84.43666340204126
 21
42.10120616845116
 31
0.0
 12
84.61666340204127
 22
42.13120616845116
 32
0.0
 13
84.61666340204127
 23
42.13120616845116
 33
0.0
  0
SOLID
  5
BDDF
330
BDA8
100
AcDbEntity
  8
0
 62
     7
100
AcDbTrace
 10
82.08666340204127
 20
42.16120616845116
 30
0.0
 11
82.08666340204127
 21
42.10120616845116
 31
0.0
 12
81.90666340204126
 22
42.13120616845116
 32
0.0
 13
81.90666340204126
 23
42.13120616845116
 33
0.0
  0
MTEXT
  5
BDE0
330
BDA8
100
AcDbEntity
  8
0
 62
     7
100
AcDbMText
 10
83.26166340204126
 20
42.13120616845116
 30
0.0
 40
0.095
 41
0.0
 71
     5
 72
     1
  1
\A1;2.05 REF
  7
ROMANS
 73
     1
 44
1.0
  0
POINT
  5
BDE1
330
BDA8
100
AcDbEntity
  8
Defpoints
 62
     0
100
AcDbPoint
 10
84.61666340204127
 20
43.73620616845116
 30
0.0
  0
POINT
  5
BDE2
330
BDA8
100
AcDbEntity
  8
Defpoints
 62
     0
100
AcDbPoint
 10
81.90666340204126
 20
43.06399716845116
 30
0.0
  0
POINT
  5
BDE3
330
BDA8
100
AcDbEntity
  8
Defpoints
 62
     0
100
AcDbPoint
 10
81.90666340204126
 20
42.13120616845116
 30
0.0
  0
ENDBLK
  5
BDB4
330
BDA8
100
AcDbEntity
  8
0
100
AcDbBlockEnd
  0
ENDSEC
  0
SECTION
  2
ENTITIES
  0
INSERT
  5
60EB
330
17
100
AcDbEntity
  8
ASHADE
 62
     1
100
AcDbBlockReference
  2
AVE_RENDER
 10
-50.6380168074905
 20
-1.942723495473948
 30
0.0
1001
AVE_RENDER
1002
{
1070
     7
1000
Pref
1070
    30
1070
    20
1070
     1
1070
     0
1000

1070
    10
1070
     1
1070
    10
1040
1.0
1070
     1
1040
0.3
1040
0.7
1040
0.0
1040
10.0
1010
-1.0
1020
-1.0
1030
-1.0
1040
0.3
1070
    49
1070
     0
1070
     0
1010
1.0
1020
1.0
1030
1.0
1040
45.0
1070
     1
1070
     0
1000
WCS
1040
0.0
1070
     0
1040
10.0
1002
}
  0
INSERT
  5
60EC
330
17
100
AcDbEntity
  8
ASHADE
 62
     3
100
AcDbBlockReference
  2
AVE_RENDER
 10
-50.6380168074905
 20
-1.942723495473948
 30
0.0
1001
AVE_RENDER
1002
{
1070
     0
1000
Full Opt
1070
     0
1070
     1
1070
     1
1070
     1
1070
     0
1070
     0
1070
     0
1070
     1
1070
     1
1040
0.0001
1040
0.0001
1002
}
  0
INSERT
  5
60ED
330
17
100
AcDbEntity
  8
ASHADE
 62
     4
100
AcDbBlockReference
  2
AVE_RENDER
 10
-50.6380168074905
 20
-1.942723495473948
 30
0.0
1001
AVE_RENDER
1002
{
1070
     0
1000
Quick Opt
1070
     0
1070
     1
1070
     1
1070
     1
1070
     0
1070
     0
1070
     1
1002
}
  0
INSERT
  5
60EE
330
17
100
AcDbEntity
  8
ASHADE
 62
     5
100
AcDbBlockReference
  2
AVE_RENDER
 10
-50.6380168074905
 20
-1.942723495473948
 30
0.0
1001
AVE_RENDER
1002
{
1070
     1
1000
Scanl Opt
1070
     2
1070
     0
1070
     2
1040
2.0
1040
4.0
1070
     0
1070
     1
1070
     0
1040
0.03
1002
}
  0
INSERT
  5
60EF
330
17
100
AcDbEntity
  8
ASHADE
 62
     6
100
AcDbBlockReference
  2
AVE_RENDER
 10
-50.6380168074905
 20
-1.942723495473948
 30
0.0
1001
AVE_RENDER
1002
{
1070
     2
1000
Raytr Opt
1070
     2
1070
     0
1070
     2
1040
2.0
1040
4.0
1070
     0
1070
     1
1070
     1
1040
0.03
1070
     3
1040
0.03
1002
}
  0
INSERT
  5
60F0
330
17
100
AcDbEntity
  8
ASHADE
 62
     7
100
AcDbBlockReference
  2
AVE_RENDER
 10
-50.6380168074905
 20
-1.942723495473948
 30
0.0
1001
AVE_RENDER
1002
{
1070
     0
1000
RFile Opt
1070
     1
1070
   640
1070
   480
1070
 10000
1070
     1
1070
     8
1070
     8
1070
     0
1070
     0
1070
     0
1070
     0
1070
     0
1070
     0
1070
     0
1002
}
  0
INSERT
  5
60F1
330
17
100
AcDbEntity
  8
ASHADE
 62
     8
100
AcDbBlockReference
  2
AVE_RENDER
 10
-50.6380168074905
 20
-1.942723495473948
 30
0.0
1001
AVE_RENDER
1002
{
1070
     0
1000
Fog Opt
1070
     0
1070
     0
1040
0.0
1040
1.0
1040
0.0
1040
1.0
1010
0.5
1020
0.5
1030
0.5
1002
}
  0
INSERT
  5
60F2
330
17
100
AcDbEntity
  8
ASHADE
 62
     9
100
AcDbBlockReference
  2
AVE_RENDER
 10
-50.6380168074905
 20
-1.942723495473948
 30
0.0
1001
AVE_RENDER
1002
{
1070
     0
1000
BG Opt
1070
     0
1070
     1
1010
0.0
1020
0.0
1030
0.0
1010
1.0
1020
0.0
1030
0.0
1010
0.0
1020
1.0
1030
0.0
1010
0.0
1020
0.0
1030
1.0
1040
0.5
1040
0.33
1040
0.0
1000

1070
     1
1000

1070
     1
1070
     1
1040
1.0
1040
1.0
1040
0.0
1040
0.0
1070
     0
1002
}
  0
INSERT
  5
60F3
330
17
100
AcDbEntity
  8
ASHADE
 62
     1
100
AcDbBlockReference
  2
AVE_GLOBAL
 10
-50.6380168074905
 20
-1.942723495473948
 30
0.0
1001
AVE_MATERIAL
1002
{
1000
*GLOBAL*
1000
1
1000
Global finish.
1002
{
1002
}
1002
{
1070
    63
1002
{
1002
{
1010
-1.0
1020
-1.0
1030
-1.0
1002
}
1040
0.1000000014901161
1000

1040
0.0
1002
{
1002
}
1040
0.0
1002
{
1002
}
1040
0.0
1002
}
1002
{
1002
{
1010
-1.0
1020
-1.0
1030
-1.0
1002
}
1040
0.6999999880790711
1000

1040
0.0
1002
{
1002
}
1040
0.0
1002
{
1002
}
1040
0.0
1002
}
1002
{
1002
{
1010
-1.0
1020
-1.0
1030
-1.0
1002
}
1040
0.2000000029802322
1000

1040
0.0
1002
{
1002
}
1040
0.0
1002
{
1002
}
1040
0.0
1002
}
1002
{
1070
     0
1002
{
1070
     1
1002
{
1040
1.0
1040
1.0
1000

1040
0.0
1002
{
1002
}
1040
0.0
1002
{
1002
}
1040
0.0
1002
}
1002
}
1040
1.0
1040
0.0
1040
0.0
1002
}
1002
{
1040
1.0
1040
1.0
1000

1040
0.0
1002
{
1002
}
1040
0.0
1002
{
1002
}
1040
0.0
1002
}
1002
{
1040
0.5
1040
1.0
1000

1040
0.0
1002
{
1002
}
1040
0.0
1002
{
1002
}
1040
0.0
1002
}
1002
{
1070
     0
1040
0.0
1002
{
1002
}
1040
1.0
1002
{
1002
}
1040
0.0
1002
}
1002
{
1040
0.0
1002
{
1002
{
1010
0.0
1020
0.0
1030
0.0
1002
}
1040
1.0
1000

1040
0.0
1002
{
1002
}
1040
0.0
1002
{
1002
}
1040
0.0
1002
}
1002
}
1002
{
1002
{
1070
     1
1002
{
1040
0.0
1040
1.0
1000

1040
0.0
1002
{
1002
}
1040
0.0
1002
{
1002
}
1040
0.0
1002
}
1002
}
1040
0.0
1002
{
1002
}
1010
1.0
1020
0.0
1030
0.0
1010
0.0
1020
1.0
1030
0.0
1010
0.0
1020
0.0
1030
1.0
1070
     0
1002
}
1002
{
1002
{
1040
1.0
1040
1.0
1002
{
1070
     1
1002
{
1040
1.0
1040
1.0
1000

1040
0.0
1002
{
1002
}
1040
0.0
1002
{
1002
}
1040
0.0
1002
}
1002
}
1002
}
1070
     0
1040
0.0
1002
{
1002
}
1002
}
1002
{
1002
}
1002
}
1002
{
1071
        3
1070
     3
1070
     0
1002
{
1070
     2
1070
     0
1070
     0
1040
0.0
1002
}
1070
     0
1070
     2
1002
{
1002
}
1002
}
1002
{
1040
8030.0
1040
190.3000030517578
1040
0.3050000071525574
1040
228.0
1040
545.0
1040
14.0
1040
17.39999961853027
1040
0.4560000002384186
1002
}
1002
}
  0
TEXT
  5
60F4
330
17
100
AcDbEntity
  8
0
100
AcDbText
 10
-8.200179280506617
 20
13.70362867904792
 30
0.0
 40
0.07
  1

  7
ROMANS
 72
     4
 11
-8.200179280506617
 21
13.70362867904792
 31
0.0
100
AcDbText
  0
TEXT
  5
60F5
330
17
100
AcDbEntity
  8
0
100
AcDbText
 10
-7.575179280506617
 20
13.70362867904792
 30
0.0
 40
0.07
  1

  7
ROMANS
 72
     4
 11
-7.575179280506617
 21
13.70362867904792
 31
0.0
100
AcDbText
  0
INSERT
  5
60F6
330
17
100
AcDbEntity
  8
ASHADE
 62
     1
100
AcDbBlockReference
  2
AVE_RENDER
 10
18.52904997715229
 20
-1.409592581455449
 30
0.0
1001
AVE_RENDER
1002
{
1070
     7
1000
Pref
1070
    30
1070
    20
1070
     1
1070
     0
1000

1070
    10
1070
     1
1070
    10
1040
1.0
1070
     1
1040
0.3
1040
0.7
1040
0.0
1040
10.0
1010
-1.0
1020
-1.0
1030
-1.0
1040
0.3
1070
    49
1070
     0
1070
     0
1010
1.0
1020
1.0
1030
1.0
1040
45.0
1070
     1
1070
     0
1000
WCS
1040
0.0
1070
     0
1040
10.0
1002
}
  0
INSERT
  5
60F7
330
17
100
AcDbEntity
  8
ASHADE
 62
     3
100
AcDbBlockReference
  2
AVE_RENDER
 10
18.52904997715229
 20
-1.409592581455449
 30
0.0
1001
AVE_RENDER
1002
{
1070
     0
1000
Full Opt
1070
     0
1070
     1
1070
     1
1070
     1
1070
     0
1070
     0
1070
     0
1070
     1
1070
     1
1040
0.0001
1040
0.0001
1002
}
  0
INSERT
  5
60F8
330
17
100
AcDbEntity
  8
ASHADE
 62
     4
100
AcDbBlockReference
  2
AVE_RENDER
 10
18.52904997715229
 20
-1.409592581455449
 30
0.0
1001
AVE_RENDER
1002
{
1070
     0
1000
Quick Opt
1070
     0
1070
     1
1070
     1
1070
     1
1070
     0
1070
     0
1070
     1
1002
}
  0
INSERT
  5
60F9
330
17
100
AcDbEntity
  8
ASHADE
 62
     5
100
AcDbBlockReference
  2
AVE_RENDER
 10
18.52904997715229
 20
-1.409592581455449
 30
0.0
1001
AVE_RENDER
1002
{
1070
     1
1000
Scanl Opt
1070
     2
1070
     0
1070
     2
1040
2.0
1040
4.0
1070
     0
1070
     1
1070
     0
1040
0.03
1002
}
  0
INSERT
  5
60FA
330
17
100
AcDbEntity
  8
ASHADE
 62
     6
100
AcDbBlockReference
  2
AVE_RENDER
 10
18.52904997715229
 20
-1.409592581455449
 30
0.0
1001
AVE_RENDER
1002
{
1070
     2
1000
Raytr Opt
1070
     2
1070
     0
1070
     2
1040
2.0
1040
4.0
1070
     0
1070
     1
1070
     1
1040
0.03
1070
     3
1040
0.03
1002
}
  0
INSERT
  5
60FB
330
17
100
AcDbEntity
  8
ASHADE
 62
     7
100
AcDbBlockReference
  2
AVE_RENDER
 10
18.52904997715229
 20
-1.409592581455449
 30
0.0
1001
AVE_RENDER
1002
{
1070
     0
1000
RFile Opt
1070
     1
1070
   640
1070
   480
1070
 10000
1070
     1
1070
     8
1070
     8
1070
     0
1070
     0
1070
     0
1070
     0
1070
     0
1070
     0
1070
     0
1002
}
  0
INSERT
  5
60FC
330
17
100
AcDbEntity
  8
ASHADE
 62
     8
100
AcDbBlockReference
  2
AVE_RENDER
 10
18.52904997715229
 20
-1.409592581455449
 30
0.0
1001
AVE_RENDER
1002
{
1070
     0
1000
Fog Opt
1070
     0
1070
     0
1040
0.0
1040
1.0
1040
0.0
1040
1.0
1010
0.5
1020
0.5
1030
0.5
1002
}
  0
INSERT
  5
60FD
330
17
100
AcDbEntity
  8
ASHADE
 62
     9
100
AcDbBlockReference
  2
AVE_RENDER
 10
18.52904997715229
 20
-1.409592581455449
 30
0.0
1001
AVE_RENDER
1002
{
1070
     0
1000
BG Opt
1070
     0
1070
     1
1010
0.0
1020
0.0
1030
0.0
1010
1.0
1020
0.0
1030
0.0
1010
0.0
1020
1.0
1030
0.0
1010
0.0
1020
0.0
1030
1.0
1040
0.5
1040
0.33
1040
0.0
1000

1070
     1
1000

1070
     1
1070
     1
1040
1.0
1040
1.0
1040
0.0
1040
0.0
1070
     0
1002
}
  0
INSERT
  5
60FE
330
17
100
AcDbEntity
  8
ASHADE
 62
     1
100
AcDbBlockReference
  2
AVE_GLOBAL
 10
18.52904997715229
 20
-1.409592581455449
 30
0.0
1001
AVE_MATERIAL
1002
{
1000
*GLOBAL*
1000
1
1000
Global finish.
1002
{
1002
}
1002
{
1070
    63
1002
{
1002
{
1010
-1.0
1020
-1.0
1030
-1.0
1002
}
1040
0.1000000014901161
1000

1040
0.0
1002
{
1002
}
1040
0.0
1002
{
1002
}
1040
0.0
1002
}
1002
{
1002
{
1010
-1.0
1020
-1.0
1030
-1.0
1002
}
1040
0.6999999880790711
1000

1040
0.0
1002
{
1002
}
1040
0.0
1002
{
1002
}
1040
0.0
1002
}
1002
{
1002
{
1010
-1.0
1020
-1.0
1030
-1.0
1002
}
1040
0.2000000029802322
1000

1040
0.0
1002
{
1002
}
1040
0.0
1002
{
1002
}
1040
0.0
1002
}
1002
{
1070
     0
1002
{
1070
     1
1002
{
1040
1.0
1040
1.0
1000

1040
0.0
1002
{
1002
}
1040
0.0
1002
{
1002
}
1040
0.0
1002
}
1002
}
1040
1.0
1040
0.0
1040
0.0
1002
}
1002
{
1040
1.0
1040
1.0
1000

1040
0.0
1002
{
1002
}
1040
0.0
1002
{
1002
}
1040
0.0
1002
}
1002
{
1040
0.5
1040
1.0
1000

1040
0.0
1002
{
1002
}
1040
0.0
1002
{
1002
}
1040
0.0
1002
}
1002
{
1070
     0
1040
0.0
1002
{
1002
}
1040
1.0
1002
{
1002
}
1040
0.0
1002
}
1002
{
1040
0.0
1002
{
1002
{
1010
0.0
1020
0.0
1030
0.0
1002
}
1040
1.0
1000

1040
0.0
1002
{
1002
}
1040
0.0
1002
{
1002
}
1040
0.0
1002
}
1002
}
1002
{
1002
{
1070
     1
1002
{
1040
0.0
1040
1.0
1000

1040
0.0
1002
{
1002
}
1040
0.0
1002
{
1002
}
1040
0.0
1002
}
1002
}
1040
0.0
1002
{
1002
}
1010
1.0
1020
0.0
1030
0.0
1010
0.0
1020
1.0
1030
0.0
1010
0.0
1020
0.0
1030
1.0
1070
     0
1002
}
1002
{
1002
{
1040
1.0
1040
1.0
1002
{
1070
     1
1002
{
1040
1.0
1040
1.0
1000

1040
0.0
1002
{
1002
}
1040
0.0
1002
{
1002
}
1040
0.0
1002
}
1002
}
1002
}
1070
     0
1040
0.0
1002
{
1002
}
1002
}
1002
{
1002
}
1002
}
1002
{
1071
        3
1070
     3
1070
     0
1002
{
1070
     2
1070
     0
1070
     0
1040
0.0
1002
}
1070
     0
1070
     2
1002
{
1002
}
1002
}
1002
{
1040
8030.0
1040
190.3000030517578
1040
0.3050000071525574
1040
228.0
1040
545.0
1040
14.0
1040
17.39999961853027
1040
0.4560000002384186
1002
}
1002
}
  0
TEXT
  5
60FF
330
17
100
AcDbEntity
  8
0
100
AcDbText
 10
-5.324185011201905
 20
17.89180658841635
 30
0.0
 40
0.125
  1

  7
ROMANS
 72
     4
 11
-5.324185011201905
 21
17.89180658841635
 31
0.0
100
AcDbText
  0
INSERT
  5
6698
330
17
100
AcDbEntity
  8
ASHADE
 62
     1
100
AcDbBlockReference
  2
AVE_RENDER
 10
-26.73631017465
 20
-1.934721544905052
 30
0.0
1001
AVE_RENDER
1002
{
1070
     7
1000
Pref
1070
    30
1070
    20
1070
     1
1070
     0
1000

1070
    10
1070
     1
1070
    10
1040
1.0
1070
     1
1040
0.3
1040
0.7
1040
0.0
1040
10.0
1010
-1.0
1020
-1.0
1030
-1.0
1040
0.3
1070
    49
1070
     0
1070
     0
1010
1.0
1020
1.0
1030
1.0
1040
45.0
1070
     1
1070
     0
1000
WCS
1040
0.0
1070
     0
1040
10.0
1002
}
  0
INSERT
  5
6699
330
17
100
AcDbEntity
  8
ASHADE
 62
     3
100
AcDbBlockReference
  2
AVE_RENDER
 10
-26.73631017465
 20
-1.934721544905052
 30
0.0
1001
AVE_RENDER
1002
{
1070
     0
1000
Full Opt
1070
     0
1070
     1
1070
     1
1070
     1
1070
     0
1070
     0
1070
     0
1070
     1
1070
     1
1040
0.0001
1040
0.0001
1002
}
  0
INSERT
  5
669A
330
17
100
AcDbEntity
  8
ASHADE
 62
     4
100
AcDbBlockReference
  2
AVE_RENDER
 10
-26.73631017465
 20
-1.934721544905052
 30
0.0
1001
AVE_RENDER
1002
{
1070
     0
1000
Quick Opt
1070
     0
1070
     1
1070
     1
1070
     1
1070
     0
1070
     0
1070
     1
1002
}
  0
INSERT
  5
669B
330
17
100
AcDbEntity
  8
ASHADE
 62
     5
100
AcDbBlockReference
  2
AVE_RENDER
 10
-26.73631017465
 20
-1.934721544905052
 30
0.0
1001
AVE_RENDER
1002
{
1070
     1
1000
Scanl Opt
1070
     2
1070
     0
1070
     2
1040
2.0
1040
4.0
1070
     0
1070
     1
1070
     0
1040
0.03
1002
}
  0
INSERT
  5
669C
330
17
100
AcDbEntity
  8
ASHADE
 62
     6
100
AcDbBlockReference
  2
AVE_RENDER
 10
-26.73631017465
 20
-1.934721544905052
 30
0.0
1001
AVE_RENDER
1002
{
1070
     2
1000
Raytr Opt
1070
     2
1070
     0
1070
     2
1040
2.0
1040
4.0
1070
     0
1070
     1
1070
     1
1040
0.03
1070
     3
1040
0.03
1002
}
  0
INSERT
  5
669D
330
17
100
AcDbEntity
  8
ASHADE
 62
     7
100
AcDbBlockReference
  2
AVE_RENDER
 10
-26.73631017465
 20
-1.934721544905052
 30
0.0
1001
AVE_RENDER
1002
{
1070
     0
1000
RFile Opt
1070
     1
1070
   640
1070
   480
1070
 10000
1070
     1
1070
     8
1070
     8
1070
     0
1070
     0
1070
     0
1070
     0
1070
     0
1070
     0
1070
     0
1002
}
  0
INSERT
  5
669E
330
17
100
AcDbEntity
  8
ASHADE
 62
     8
100
AcDbBlockReference
  2
AVE_RENDER
 10
-26.73631017465
 20
-1.934721544905052
 30
0.0
1001
AVE_RENDER
1002
{
1070
     0
1000
Fog Opt
1070
     0
1070
     0
1040
0.0
1040
1.0
1040
0.0
1040
1.0
1010
0.5
1020
0.5
1030
0.5
1002
}
  0
INSERT
  5
669F
330
17
100
AcDbEntity
  8
ASHADE
 62
     9
100
AcDbBlockReference
  2
AVE_RENDER
 10
-26.73631017465
 20
-1.934721544905052
 30
0.0
1001
AVE_RENDER
1002
{
1070
     0
1000
BG Opt
1070
     0
1070
     1
1010
0.0
1020
0.0
1030
0.0
1010
1.0
1020
0.0
1030
0.0
1010
0.0
1020
1.0
1030
0.0
1010
0.0
1020
0.0
1030
1.0
1040
0.5
1040
0.33
1040
0.0
1000

1070
     1
1000

1070
     1
1070
     1
1040
1.0
1040
1.0
1040
0.0
1040
0.0
1070
     0
1002
}
  0
INSERT
  5
66A0
330
17
100
AcDbEntity
  8
ASHADE
 62
     1
100
AcDbBlockReference
  2
AVE_GLOBAL
 10
-26.73631017465
 20
-1.934721544905052
 30
0.0
1001
AVE_MATERIAL
1002
{
1000
*GLOBAL*
1000
1
1000
Global finish.
1002
{
1002
}
1002
{
1070
    63
1002
{
1002
{
1010
-1.0
1020
-1.0
1030
-1.0
1002
}
1040
0.1000000014901161
1000

1040
0.0
1002
{
1002
}
1040
0.0
1002
{
1002
}
1040
0.0
1002
}
1002
{
1002
{
1010
-1.0
1020
-1.0
1030
-1.0
1002
}
1040
0.6999999880790711
1000

1040
0.0
1002
{
1002
}
1040
0.0
1002
{
1002
}
1040
0.0
1002
}
1002
{
1002
{
1010
-1.0
1020
-1.0
1030
-1.0
1002
}
1040
0.2000000029802322
1000

1040
0.0
1002
{
1002
}
1040
0.0
1002
{
1002
}
1040
0.0
1002
}
1002
{
1070
     0
1002
{
1070
     1
1002
{
1040
1.0
1040
1.0
1000

1040
0.0
1002
{
1002
}
1040
0.0
1002
{
1002
}
1040
0.0
1002
}
1002
}
1040
1.0
1040
0.0
1040
0.0
1002
}
1002
{
1040
1.0
1040
1.0
1000

1040
0.0
1002
{
1002
}
1040
0.0
1002
{
1002
}
1040
0.0
1002
}
1002
{
1040
0.5
1040
1.0
1000

1040
0.0
1002
{
1002
}
1040
0.0
1002
{
1002
}
1040
0.0
1002
}
1002
{
1070
     0
1040
0.0
1002
{
1002
}
1040
1.0
1002
{
1002
}
1040
0.0
1002
}
1002
{
1040
0.0
1002
{
1002
{
1010
0.0
1020
0.0
1030
0.0
1002
}
1040
1.0
1000

1040
0.0
1002
{
1002
}
1040
0.0
1002
{
1002
}
1040
0.0
1002
}
1002
}
1002
{
1002
{
1070
     1
1002
{
1040
0.0
1040
1.0
1000

1040
0.0
1002
{
1002
}
1040
0.0
1002
{
1002
}
1040
0.0
1002
}
1002
}
1040
0.0
1002
{
1002
}
1010
1.0
1020
0.0
1030
0.0
1010
0.0
1020
1.0
1030
0.0
1010
0.0
1020
0.0
1030
1.0
1070
     0
1002
}
1002
{
1002
{
1040
1.0
1040
1.0
1002
{
1070
     1
1002
{
1040
1.0
1040
1.0
1000

1040
0.0
1002
{
1002
}
1040
0.0
1002
{
1002
}
1040
0.0
1002
}
1002
}
1002
}
1070
     0
1040
0.0
1002
{
1002
}
1002
}
1002
{
1002
}
1002
}
1002
{
1071
        3
1070
     3
1070
     0
1002
{
1070
     2
1070
     0
1070
     0
1040
0.0
1002
}
1070
     0
1070
     2
1002
{
1002
}
1002
}
1002
{
1040
8030.0
1040
190.3000030517578
1040
0.3050000071525574
1040
228.0
1040
545.0
1040
14.0
1040
17.39999961853027
1040
0.4560000002384186
1002
}
1002
}
  0
TEXT
  5
66A1
330
17
100
AcDbEntity
  8
0
100
AcDbText
 10
15.70152735233387
 20
13.71163062961682
 30
0.0
 40
0.07
  1

  7
ROMANS
 72
     4
 11
15.70152735233387
 21
13.71163062961682
 31
0.0
100
AcDbText
  0
TEXT
  5
66A2
330
17
100
AcDbEntity
  8
0
100
AcDbText
 10
16.32652735233387
 20
13.71163062961682
 30
0.0
 40
0.07
  1

  7
ROMANS
 72
     4
 11
16.32652735233387
 21
13.71163062961682
 31
0.0
100
AcDbText
  0
INSERT
  5
66A3
330
17
100
AcDbEntity
  8
ASHADE
 62
     1
100
AcDbBlockReference
  2
AVE_RENDER
 10
42.43075660999278
 20
-1.401590630886552
 30
0.0
1001
AVE_RENDER
1002
{
1070
     7
1000
Pref
1070
    30
1070
    20
1070
     1
1070
     0
1000

1070
    10
1070
     1
1070
    10
1040
1.0
1070
     1
1040
0.3
1040
0.7
1040
0.0
1040
10.0
1010
-1.0
1020
-1.0
1030
-1.0
1040
0.3
1070
    49
1070
     0
1070
     0
1010
1.0
1020
1.0
1030
1.0
1040
45.0
1070
     1
1070
     0
1000
WCS
1040
0.0
1070
     0
1040
10.0
1002
}
  0
INSERT
  5
66A4
330
17
100
AcDbEntity
  8
ASHADE
 62
     3
100
AcDbBlockReference
  2
AVE_RENDER
 10
42.43075660999278
 20
-1.401590630886552
 30
0.0
1001
AVE_RENDER
1002
{
1070
     0
1000
Full Opt
1070
     0
1070
     1
1070
     1
1070
     1
1070
     0
1070
     0
1070
     0
1070
     1
1070
     1
1040
0.0001
1040
0.0001
1002
}
  0
INSERT
  5
66A5
330
17
100
AcDbEntity
  8
ASHADE
 62
     4
100
AcDbBlockReference
  2
AVE_RENDER
 10
42.43075660999278
 20
-1.401590630886552
 30
0.0
1001
AVE_RENDER
1002
{
1070
     0
1000
Quick Opt
1070
     0
1070
     1
1070
     1
1070
     1
1070
     0
1070
     0
1070
     1
1002
}
  0
INSERT
  5
66A6
330
17
100
AcDbEntity
  8
ASHADE
 62
     5
100
AcDbBlockReference
  2
AVE_RENDER
 10
42.43075660999278
 20
-1.401590630886552
 30
0.0
1001
AVE_RENDER
1002
{
1070
     1
1000
Scanl Opt
1070
     2
1070
     0
1070
     2
1040
2.0
1040
4.0
1070
     0
1070
     1
1070
     0
1040
0.03
1002
}
  0
INSERT
  5
66A7
330
17
100
AcDbEntity
  8
ASHADE
 62
     6
100
AcDbBlockReference
  2
AVE_RENDER
 10
42.43075660999278
 20
-1.401590630886552
 30
0.0
1001
AVE_RENDER
1002
{
1070
     2
1000
Raytr Opt
1070
     2
1070
     0
1070
     2
1040
2.0
1040
4.0
1070
     0
1070
     1
1070
     1
1040
0.03
1070
     3
1040
0.03
1002
}
  0
INSERT
  5
66A8
330
17
100
AcDbEntity
  8
ASHADE
 62
     7
100
AcDbBlockReference
  2
AVE_RENDER
 10
42.43075660999278
 20
-1.401590630886552
 30
0.0
1001
AVE_RENDER
1002
{
1070
     0
1000
RFile Opt
1070
     1
1070
   640
1070
   480
1070
 10000
1070
     1
1070
     8
1070
     8
1070
     0
1070
     0
1070
     0
1070
     0
1070
     0
1070
     0
1070
     0
1002
}
  0
INSERT
  5
66A9
330
17
100
AcDbEntity
  8
ASHADE
 62
     8
100
AcDbBlockReference
  2
AVE_RENDER
 10
42.43075660999278
 20
-1.401590630886552
 30
0.0
1001
AVE_RENDER
1002
{
1070
     0
1000
Fog Opt
1070
     0
1070
     0
1040
0.0
1040
1.0
1040
0.0
1040
1.0
1010
0.5
1020
0.5
1030
0.5
1002
}
  0
INSERT
  5
66AA
330
17
100
AcDbEntity
  8
ASHADE
 62
     9
100
AcDbBlockReference
  2
AVE_RENDER
 10
42.43075660999278
 20
-1.401590630886552
 30
0.0
1001
AVE_RENDER
1002
{
1070
     0
1000
BG Opt
1070
     0
1070
     1
1010
0.0
1020
0.0
1030
0.0
1010
1.0
1020
0.0
1030
0.0
1010
0.0
1020
1.0
1030
0.0
1010
0.0
1020
0.0
1030
1.0
1040
0.5
1040
0.33
1040
0.0
1000

1070
     1
1000

1070
     1
1070
     1
1040
1.0
1040
1.0
1040
0.0
1040
0.0
1070
     0
1002
}
  0
INSERT
  5
66AB
330
17
100
AcDbEntity
  8
ASHADE
 62
     1
100
AcDbBlockReference
  2
AVE_GLOBAL
 10
42.43075660999278
 20
-1.401590630886552
 30
0.0
1001
AVE_MATERIAL
1002
{
1000
*GLOBAL*
1000
1
1000
Global finish.
1002
{
1002
}
1002
{
1070
    63
1002
{
1002
{
1010
-1.0
1020
-1.0
1030
-1.0
1002
}
1040
0.1000000014901161
1000

1040
0.0
1002
{
1002
}
1040
0.0
1002
{
1002
}
1040
0.0
1002
}
1002
{
1002
{
1010
-1.0
1020
-1.0
1030
-1.0
1002
}
1040
0.6999999880790711
1000

1040
0.0
1002
{
1002
}
1040
0.0
1002
{
1002
}
1040
0.0
1002
}
1002
{
1002
{
1010
-1.0
1020
-1.0
1030
-1.0
1002
}
1040
0.2000000029802322
1000

1040
0.0
1002
{
1002
}
1040
0.0
1002
{
1002
}
1040
0.0
1002
}
1002
{
1070
     0
1002
{
1070
     1
1002
{
1040
1.0
1040
1.0
1000

1040
0.0
1002
{
1002
}
1040
0.0
1002
{
1002
}
1040
0.0
1002
}
1002
}
1040
1.0
1040
0.0
1040
0.0
1002
}
1002
{
1040
1.0
1040
1.0
1000

1040
0.0
1002
{
1002
}
1040
0.0
1002
{
1002
}
1040
0.0
1002
}
1002
{
1040
0.5
1040
1.0
1000

1040
0.0
1002
{
1002
}
1040
0.0
1002
{
1002
}
1040
0.0
1002
}
1002
{
1070
     0
1040
0.0
1002
{
1002
}
1040
1.0
1002
{
1002
}
1040
0.0
1002
}
1002
{
1040
0.0
1002
{
1002
{
1010
0.0
1020
0.0
1030
0.0
1002
}
1040
1.0
1000

1040
0.0
1002
{
1002
}
1040
0.0
1002
{
1002
}
1040
0.0
1002
}
1002
}
1002
{
1002
{
1070
     1
1002
{
1040
0.0
1040
1.0
1000

1040
0.0
1002
{
1002
}
1040
0.0
1002
{
1002
}
1040
0.0
1002
}
1002
}
1040
0.0
1002
{
1002
}
1010
1.0
1020
0.0
1030
0.0
1010
0.0
1020
1.0
1030
0.0
1010
0.0
1020
0.0
1030
1.0
1070
     0
1002
}
1002
{
1002
{
1040
1.0
1040
1.0
1002
{
1070
     1
1002
{
1040
1.0
1040
1.0
1000

1040
0.0
1002
{
1002
}
1040
0.0
1002
{
1002
}
1040
0.0
1002
}
1002
}
1002
}
1070
     0
1040
0.0
1002
{
1002
}
1002
}
1002
{
1002
}
1002
}
1002
{
1071
        3
1070
     3
1070
     0
1002
{
1070
     2
1070
     0
1070
     0
1040
0.0
1002
}
1070
     0
1070
     2
1002
{
1002
}
1002
}
1002
{
1040
8030.0
1040
190.3000030517578
1040
0.3050000071525574
1040
228.0
1040
545.0
1040
14.0
1040
17.39999961853027
1040
0.4560000002384186
1002
}
1002
}
  0
TEXT
  5
66AC
330
17
100
AcDbEntity
  8
0
100
AcDbText
 10
18.57752162163858
 20
17.89980853898525
 30
0.0
 40
0.125
  1

  7
ROMANS
 72
     4
 11
18.57752162163858
 21
17.89980853898525
 31
0.0
100
AcDbText
  0
TEXT
  5
6C45
330
17
100
AcDbEntity
  8
0
100
AcDbText
 10
100.0699825319042
 20
20.87230391926264
 30
0.0
 40
0.07
  1

  7
ROMANS
 72
     4
 11
100.0699825319042
 21
20.87230391926264
 31
0.0
100
AcDbText
  0
TEXT
  5
6C46
330
17
100
AcDbEntity
  8
0
100
AcDbText
 10
100.6949825319042
 20
20.87230391926264
 30
0.0
 40
0.07
  1

  7
ROMANS
 72
     4
 11
100.6949825319042
 21
20.87230391926264
 31
0.0
100
AcDbText
  0
INSERT
  5
71DF
330
17
100
AcDbEntity
  8
ASHADE
 62
     1
100
AcDbBlockReference
  2
AVE_RENDER
 10
128.8649946139053
 20
2.500682540970728
 30
0.0
1001
AVE_RENDER
1002
{
1070
     7
1000
Pref
1070
    30
1070
    20
1070
     1
1070
     0
1000

1070
    10
1070
     1
1070
    10
1040
1.0
1070
     1
1040
0.3
1040
0.7
1040
0.0
1040
10.0
1010
-1.0
1020
-1.0
1030
-1.0
1040
0.3
1070
    49
1070
     0
1070
     0
1010
1.0
1020
1.0
1030
1.0
1040
45.0
1070
     1
1070
     0
1000
WCS
1040
0.0
1070
     0
1040
10.0
1002
}
  0
INSERT
  5
71E0
330
17
100
AcDbEntity
  8
ASHADE
 62
     3
100
AcDbBlockReference
  2
AVE_RENDER
 10
128.8649946139053
 20
2.500682540970728
 30
0.0
1001
AVE_RENDER
1002
{
1070
     0
1000
Full Opt
1070
     0
1070
     1
1070
     1
1070
     1
1070
     0
1070
     0
1070
     0
1070
     1
1070
     1
1040
0.0001
1040
0.0001
1002
}
  0
INSERT
  5
71E1
330
17
100
AcDbEntity
  8
ASHADE
 62
     4
100
AcDbBlockReference
  2
AVE_RENDER
 10
128.8649946139053
 20
2.500682540970728
 30
0.0
1001
AVE_RENDER
1002
{
1070
     0
1000
Quick Opt
1070
     0
1070
     1
1070
     1
1070
     1
1070
     0
1070
     0
1070
     1
1002
}
  0
INSERT
  5
71E2
330
17
100
AcDbEntity
  8
ASHADE
 62
     5
100
AcDbBlockReference
  2
AVE_RENDER
 10
128.8649946139053
 20
2.500682540970728
 30
0.0
1001
AVE_RENDER
1002
{
1070
     1
1000
Scanl Opt
1070
     2
1070
     0
1070
     2
1040
2.0
1040
4.0
1070
     0
1070
     1
1070
     0
1040
0.03
1002
}
  0
INSERT
  5
71E3
330
17
100
AcDbEntity
  8
ASHADE
 62
     6
100
AcDbBlockReference
  2
AVE_RENDER
 10
128.8649946139053
 20
2.500682540970728
 30
0.0
1001
AVE_RENDER
1002
{
1070
     2
1000
Raytr Opt
1070
     2
1070
     0
1070
     2
1040
2.0
1040
4.0
1070
     0
1070
     1
1070
     1
1040
0.03
1070
     3
1040
0.03
1002
}
  0
INSERT
  5
71E4
330
17
100
AcDbEntity
  8
ASHADE
 62
     7
100
AcDbBlockReference
  2
AVE_RENDER
 10
128.8649946139053
 20
2.500682540970728
 30
0.0
1001
AVE_RENDER
1002
{
1070
     0
1000
RFile Opt
1070
     1
1070
   640
1070
   480
1070
 10000
1070
     1
1070
     8
1070
     8
1070
     0
1070
     0
1070
     0
1070
     0
1070
     0
1070
     0
1070
     0
1002
}
  0
INSERT
  5
71E5
330
17
100
AcDbEntity
  8
ASHADE
 62
     8
100
AcDbBlockReference
  2
AVE_RENDER
 10
128.8649946139053
 20
2.500682540970728
 30
0.0
1001
AVE_RENDER
1002
{
1070
     0
1000
Fog Opt
1070
     0
1070
     0
1040
0.0
1040
1.0
1040
0.0
1040
1.0
1010
0.5
1020
0.5
1030
0.5
1002
}
  0
INSERT
  5
71E6
330
17
100
AcDbEntity
  8
ASHADE
 62
     9
100
AcDbBlockReference
  2
AVE_RENDER
 10
128.8649946139053
 20
2.500682540970728
 30
0.0
1001
AVE_RENDER
1002
{
1070
     0
1000
BG Opt
1070
     0
1070
     1
1010
0.0
1020
0.0
1030
0.0
1010
1.0
1020
0.0
1030
0.0
1010
0.0
1020
1.0
1030
0.0
1010
0.0
1020
0.0
1030
1.0
1040
0.5
1040
0.33
1040
0.0
1000

1070
     1
1000

1070
     1
1070
     1
1040
1.0
1040
1.0
1040
0.0
1040
0.0
1070
     0
1002
}
  0
INSERT
  5
71E7
330
17
100
AcDbEntity
  8
ASHADE
 62
     1
100
AcDbBlockReference
  2
AVE_GLOBAL
 10
128.8649946139053
 20
2.500682540970728
 30
0.0
1001
AVE_MATERIAL
1002
{
1000
*GLOBAL*
1000
1
1000
Global finish.
1002
{
1002
}
1002
{
1070
    63
1002
{
1002
{
1010
-1.0
1020
-1.0
1030
-1.0
1002
}
1040
0.1000000014901161
1000

1040
0.0
1002
{
1002
}
1040
0.0
1002
{
1002
}
1040
0.0
1002
}
1002
{
1002
{
1010
-1.0
1020
-1.0
1030
-1.0
1002
}
1040
0.6999999880790711
1000

1040
0.0
1002
{
1002
}
1040
0.0
1002
{
1002
}
1040
0.0
1002
}
1002
{
1002
{
1010
-1.0
1020
-1.0
1030
-1.0
1002
}
1040
0.2000000029802322
1000

1040
0.0
1002
{
1002
}
1040
0.0
1002
{
1002
}
1040
0.0
1002
}
1002
{
1070
     0
1002
{
1070
     1
1002
{
1040
1.0
1040
1.0
1000

1040
0.0
1002
{
1002
}
1040
0.0
1002
{
1002
}
1040
0.0
1002
}
1002
}
1040
1.0
1040
0.0
1040
0.0
1002
}
1002
{
1040
1.0
1040
1.0
1000

1040
0.0
1002
{
1002
}
1040
0.0
1002
{
1002
}
1040
0.0
1002
}
1002
{
1040
0.5
1040
1.0
1000

1040
0.0
1002
{
1002
}
1040
0.0
1002
{
1002
}
1040
0.0
1002
}
1002
{
1070
     0
1040
0.0
1002
{
1002
}
1040
1.0
1002
{
1002
}
1040
0.0
1002
}
1002
{
1040
0.0
1002
{
1002
{
1010
0.0
1020
0.0
1030
0.0
1002
}
1040
1.0
1000

1040
0.0
1002
{
1002
}
1040
0.0
1002
{
1002
}
1040
0.0
1002
}
1002
}
1002
{
1002
{
1070
     1
1002
{
1040
0.0
1040
1.0
1000

1040
0.0
1002
{
1002
}
1040
0.0
1002
{
1002
}
1040
0.0
1002
}
1002
}
1040
0.0
1002
{
1002
}
1010
1.0
1020
0.0
1030
0.0
1010
0.0
1020
1.0
1030
0.0
1010
0.0
1020
0.0
1030
1.0
1070
     0
1002
}
1002
{
1002
{
1040
1.0
1040
1.0
1002
{
1070
     1
1002
{
1040
1.0
1040
1.0
1000

1040
0.0
1002
{
1002
}
1040
0.0
1002
{
1002
}
1040
0.0
1002
}
1002
}
1002
}
1070
     0
1040
0.0
1002
{
1002
}
1002
}
1002
{
1002
}
1002
}
1002
{
1071
        3
1070
     3
1070
     0
1002
{
1070
     2
1070
     0
1070
     0
1040
0.0
1002
}
1070
     0
1070
     2
1002
{
1002
}
1002
}
1002
{
1040
8030.0
1040
190.3000030517578
1040
0.3050000071525574
1040
228.0
1040
545.0
1040
14.0
1040
17.39999961853027
1040
0.4560000002384186
1002
}
1002
}
  0
TEXT
  5
71E8
330
17
100
AcDbEntity
  8
0
100
AcDbText
 10
171.3028321408891
 20
18.1470347154926
 30
0.0
 40
0.07
  1

  7
ROMANS
 72
     4
 11
171.3028321408891
 21
18.1470347154926
 31
0.0
100
AcDbText
  0
TEXT
  5
71E9
330
17
100
AcDbEntity
  8
0
100
AcDbText
 10
171.9278321408891
 20
18.1470347154926
 30
0.0
 40
0.07
  1

  7
ROMANS
 72
     4
 11
171.9278321408891
 21
18.1470347154926
 31
0.0
100
AcDbText
  0
INSERT
  5
71EA
330
17
100
AcDbEntity
  8
ASHADE
 62
     1
100
AcDbBlockReference
  2
AVE_RENDER
 10
198.032061398548
 20
3.033813454989228
 30
0.0
1001
AVE_RENDER
1002
{
1070
     7
1000
Pref
1070
    30
1070
    20
1070
     1
1070
     0
1000

1070
    10
1070
     1
1070
    10
1040
1.0
1070
     1
1040
0.3
1040
0.7
1040
0.0
1040
10.0
1010
-1.0
1020
-1.0
1030
-1.0
1040
0.3
1070
    49
1070
     0
1070
     0
1010
1.0
1020
1.0
1030
1.0
1040
45.0
1070
     1
1070
     0
1000
WCS
1040
0.0
1070
     0
1040
10.0
1002
}
  0
INSERT
  5
71EB
330
17
100
AcDbEntity
  8
ASHADE
 62
     3
100
AcDbBlockReference
  2
AVE_RENDER
 10
198.032061398548
 20
3.033813454989228
 30
0.0
1001
AVE_RENDER
1002
{
1070
     0
1000
Full Opt
1070
     0
1070
     1
1070
     1
1070
     1
1070
     0
1070
     0
1070
     0
1070
     1
1070
     1
1040
0.0001
1040
0.0001
1002
}
  0
INSERT
  5
71EC
330
17
100
AcDbEntity
  8
ASHADE
 62
     4
100
AcDbBlockReference
  2
AVE_RENDER
 10
198.032061398548
 20
3.033813454989228
 30
0.0
1001
AVE_RENDER
1002
{
1070
     0
1000
Quick Opt
1070
     0
1070
     1
1070
     1
1070
     1
1070
     0
1070
     0
1070
     1
1002
}
  0
INSERT
  5
71ED
330
17
100
AcDbEntity
  8
ASHADE
 62
     5
100
AcDbBlockReference
  2
AVE_RENDER
 10
198.032061398548
 20
3.033813454989228
 30
0.0
1001
AVE_RENDER
1002
{
1070
     1
1000
Scanl Opt
1070
     2
1070
     0
1070
     2
1040
2.0
1040
4.0
1070
     0
1070
     1
1070
     0
1040
0.03
1002
}
  0
INSERT
  5
71EE
330
17
100
AcDbEntity
  8
ASHADE
 62
     6
100
AcDbBlockReference
  2
AVE_RENDER
 10
198.032061398548
 20
3.033813454989228
 30
0.0
1001
AVE_RENDER
1002
{
1070
     2
1000
Raytr Opt
1070
     2
1070
     0
1070
     2
1040
2.0
1040
4.0
1070
     0
1070
     1
1070
     1
1040
0.03
1070
     3
1040
0.03
1002
}
  0
INSERT
  5
71EF
330
17
100
AcDbEntity
  8
ASHADE
 62
     7
100
AcDbBlockReference
  2
AVE_RENDER
 10
198.032061398548
 20
3.033813454989228
 30
0.0
1001
AVE_RENDER
1002
{
1070
     0
1000
RFile Opt
1070
     1
1070
   640
1070
   480
1070
 10000
1070
     1
1070
     8
1070
     8
1070
     0
1070
     0
1070
     0
1070
     0
1070
     0
1070
     0
1070
     0
1002
}
  0
INSERT
  5
71F0
330
17
100
AcDbEntity
  8
ASHADE
 62
     8
100
AcDbBlockReference
  2
AVE_RENDER
 10
198.032061398548
 20
3.033813454989228
 30
0.0
1001
AVE_RENDER
1002
{
1070
     0
1000
Fog Opt
1070
     0
1070
     0
1040
0.0
1040
1.0
1040
0.0
1040
1.0
1010
0.5
1020
0.5
1030
0.5
1002
}
  0
INSERT
  5
71F1
330
17
100
AcDbEntity
  8
ASHADE
 62
     9
100
AcDbBlockReference
  2
AVE_RENDER
 10
198.032061398548
 20
3.033813454989228
 30
0.0
1001
AVE_RENDER
1002
{
1070
     0
1000
BG Opt
1070
     0
1070
     1
1010
0.0
1020
0.0
1030
0.0
1010
1.0
1020
0.0
1030
0.0
1010
0.0
1020
1.0
1030
0.0
1010
0.0
1020
0.0
1030
1.0
1040
0.5
1040
0.33
1040
0.0
1000

1070
     1
1000

1070
     1
1070
     1
1040
1.0
1040
1.0
1040
0.0
1040
0.0
1070
     0
1002
}
  0
INSERT
  5
71F2
330
17
100
AcDbEntity
  8
ASHADE
 62
     1
100
AcDbBlockReference
  2
AVE_GLOBAL
 10
198.032061398548
 20
3.033813454989228
 30
0.0
1001
AVE_MATERIAL
1002
{
1000
*GLOBAL*
1000
1
1000
Global finish.
1002
{
1002
}
1002
{
1070
    63
1002
{
1002
{
1010
-1.0
1020
-1.0
1030
-1.0
1002
}
1040
0.1000000014901161
1000

1040
0.0
1002
{
1002
}
1040
0.0
1002
{
1002
}
1040
0.0
1002
}
1002
{
1002
{
1010
-1.0
1020
-1.0
1030
-1.0
1002
}
1040
0.6999999880790711
1000

1040
0.0
1002
{
1002
}
1040
0.0
1002
{
1002
}
1040
0.0
1002
}
1002
{
1002
{
1010
-1.0
1020
-1.0
1030
-1.0
1002
}
1040
0.2000000029802322
1000

1040
0.0
1002
{
1002
}
1040
0.0
1002
{
1002
}
1040
0.0
1002
}
1002
{
1070
     0
1002
{
1070
     1
1002
{
1040
1.0
1040
1.0
1000

1040
0.0
1002
{
1002
}
1040
0.0
1002
{
1002
}
1040
0.0
1002
}
1002
}
1040
1.0
1040
0.0
1040
0.0
1002
}
1002
{
1040
1.0
1040
1.0
1000

1040
0.0
1002
{
1002
}
1040
0.0
1002
{
1002
}
1040
0.0
1002
}
1002
{
1040
0.5
1040
1.0
1000

1040
0.0
1002
{
1002
}
1040
0.0
1002
{
1002
}
1040
0.0
1002
}
1002
{
1070
     0
1040
0.0
1002
{
1002
}
1040
1.0
1002
{
1002
}
1040
0.0
1002
}
1002
{
1040
0.0
1002
{
1002
{
1010
0.0
1020
0.0
1030
0.0
1002
}
1040
1.0
1000

1040
0.0
1002
{
1002
}
1040
0.0
1002
{
1002
}
1040
0.0
1002
}
1002
}
1002
{
1002
{
1070
     1
1002
{
1040
0.0
1040
1.0
1000

1040
0.0
1002
{
1002
}
1040
0.0
1002
{
1002
}
1040
0.0
1002
}
1002
}
1040
0.0
1002
{
1002
}
1010
1.0
1020
0.0
1030
0.0
1010
0.0
1020
1.0
1030
0.0
1010
0.0
1020
0.0
1030
1.0
1070
     0
1002
}
1002
{
1002
{
1040
1.0
1040
1.0
1002
{
1070
     1
1002
{
1040
1.0
1040
1.0
1000

1040
0.0
1002
{
1002
}
1040
0.0
1002
{
1002
}
1040
0.0
1002
}
1002
}
1002
}
1070
     0
1040
0.0
1002
{
1002
}
1002
}
1002
{
1002
}
1002
}
1002
{
1071
        3
1070
     3
1070
     0
1002
{
1070
     2
1070
     0
1070
     0
1040
0.0
1002
}
1070
     0
1070
     2
1002
{
1002
}
1002
}
1002
{
1040
8030.0
1040
190.3000030517578
1040
0.3050000071525574
1040
228.0
1040
545.0
1040
14.0
1040
17.39999961853027
1040
0.4560000002384186
1002
}
1002
}
  0
TEXT
  5
71F3
330
17
100
AcDbEntity
  8
0
100
AcDbText
 10
174.1788264101938
 20
22.33521262486103
 30
0.0
 40
0.125
  1

  7
ROMANS
 72
     4
 11
174.1788264101938
 21
22.33521262486103
 31
0.0
100
AcDbText
  0
INSERT
  5
778C
330
17
100
AcDbEntity
  8
ASHADE
 62
     1
100
AcDbBlockReference
  2
AVE_RENDER
 10
152.7667012467457
 20
2.508684491539625
 30
0.0
1001
AVE_RENDER
1002
{
1070
     7
1000
Pref
1070
    30
1070
    20
1070
     1
1070
     0
1000

1070
    10
1070
     1
1070
    10
1040
1.0
1070
     1
1040
0.3
1040
0.7
1040
0.0
1040
10.0
1010
-1.0
1020
-1.0
1030
-1.0
1040
0.3
1070
    49
1070
     0
1070
     0
1010
1.0
1020
1.0
1030
1.0
1040
45.0
1070
     1
1070
     0
1000
WCS
1040
0.0
1070
     0
1040
10.0
1002
}
  0
INSERT
  5
778D
330
17
100
AcDbEntity
  8
ASHADE
 62
     3
100
AcDbBlockReference
  2
AVE_RENDER
 10
152.7667012467457
 20
2.508684491539625
 30
0.0
1001
AVE_RENDER
1002
{
1070
     0
1000
Full Opt
1070
     0
1070
     1
1070
     1
1070
     1
1070
     0
1070
     0
1070
     0
1070
     1
1070
     1
1040
0.0001
1040
0.0001
1002
}
  0
INSERT
  5
778E
330
17
100
AcDbEntity
  8
ASHADE
 62
     4
100
AcDbBlockReference
  2
AVE_RENDER
 10
152.7667012467457
 20
2.508684491539625
 30
0.0
1001
AVE_RENDER
1002
{
1070
     0
1000
Quick Opt
1070
     0
1070
     1
1070
     1
1070
     1
1070
     0
1070
     0
1070
     1
1002
}
  0
INSERT
  5
778F
330
17
100
AcDbEntity
  8
ASHADE
 62
     5
100
AcDbBlockReference
  2
AVE_RENDER
 10
152.7667012467457
 20
2.508684491539625
 30
0.0
1001
AVE_RENDER
1002
{
1070
     1
1000
Scanl Opt
1070
     2
1070
     0
1070
     2
1040
2.0
1040
4.0
1070
     0
1070
     1
1070
     0
1040
0.03
1002
}
  0
INSERT
  5
7790
330
17
100
AcDbEntity
  8
ASHADE
 62
     6
100
AcDbBlockReference
  2
AVE_RENDER
 10
152.7667012467457
 20
2.508684491539625
 30
0.0
1001
AVE_RENDER
1002
{
1070
     2
1000
Raytr Opt
1070
     2
1070
     0
1070
     2
1040
2.0
1040
4.0
1070
     0
1070
     1
1070
     1
1040
0.03
1070
     3
1040
0.03
1002
}
  0
INSERT
  5
7791
330
17
100
AcDbEntity
  8
ASHADE
 62
     7
100
AcDbBlockReference
  2
AVE_RENDER
 10
152.7667012467457
 20
2.508684491539625
 30
0.0
1001
AVE_RENDER
1002
{
1070
     0
1000
RFile Opt
1070
     1
1070
   640
1070
   480
1070
 10000
1070
     1
1070
     8
1070
     8
1070
     0
1070
     0
1070
     0
1070
     0
1070
     0
1070
     0
1070
     0
1002
}
  0
INSERT
  5
7792
330
17
100
AcDbEntity
  8
ASHADE
 62
     8
100
AcDbBlockReference
  2
AVE_RENDER
 10
152.7667012467457
 20
2.508684491539625
 30
0.0
1001
AVE_RENDER
1002
{
1070
     0
1000
Fog Opt
1070
     0
1070
     0
1040
0.0
1040
1.0
1040
0.0
1040
1.0
1010
0.5
1020
0.5
1030
0.5
1002
}
  0
INSERT
  5
7793
330
17
100
AcDbEntity
  8
ASHADE
 62
     9
100
AcDbBlockReference
  2
AVE_RENDER
 10
152.7667012467457
 20
2.508684491539625
 30
0.0
1001
AVE_RENDER
1002
{
1070
     0
1000
BG Opt
1070
     0
1070
     1
1010
0.0
1020
0.0
1030
0.0
1010
1.0
1020
0.0
1030
0.0
1010
0.0
1020
1.0
1030
0.0
1010
0.0
1020
0.0
1030
1.0
1040
0.5
1040
0.33
1040
0.0
1000

1070
     1
1000

1070
     1
1070
     1
1040
1.0
1040
1.0
1040
0.0
1040
0.0
1070
     0
1002
}
  0
INSERT
  5
7794
330
17
100
AcDbEntity
  8
ASHADE
 62
     1
100
AcDbBlockReference
  2
AVE_GLOBAL
 10
152.7667012467457
 20
2.508684491539625
 30
0.0
1001
AVE_MATERIAL
1002
{
1000
*GLOBAL*
1000
1
1000
Global finish.
1002
{
1002
}
1002
{
1070
    63
1002
{
1002
{
1010
-1.0
1020
-1.0
1030
-1.0
1002
}
1040
0.1000000014901161
1000

1040
0.0
1002
{
1002
}
1040
0.0
1002
{
1002
}
1040
0.0
1002
}
1002
{
1002
{
1010
-1.0
1020
-1.0
1030
-1.0
1002
}
1040
0.6999999880790711
1000

1040
0.0
1002
{
1002
}
1040
0.0
1002
{
1002
}
1040
0.0
1002
}
1002
{
1002
{
1010
-1.0
1020
-1.0
1030
-1.0
1002
}
1040
0.2000000029802322
1000

1040
0.0
1002
{
1002
}
1040
0.0
1002
{
1002
}
1040
0.0
1002
}
1002
{
1070
     0
1002
{
1070
     1
1002
{
1040
1.0
1040
1.0
1000

1040
0.0
1002
{
1002
}
1040
0.0
1002
{
1002
}
1040
0.0
1002
}
1002
}
1040
1.0
1040
0.0
1040
0.0
1002
}
1002
{
1040
1.0
1040
1.0
1000

1040
0.0
1002
{
1002
}
1040
0.0
1002
{
1002
}
1040
0.0
1002
}
1002
{
1040
0.5
1040
1.0
1000

1040
0.0
1002
{
1002
}
1040
0.0
1002
{
1002
}
1040
0.0
1002
}
1002
{
1070
     0
1040
0.0
1002
{
1002
}
1040
1.0
1002
{
1002
}
1040
0.0
1002
}
1002
{
1040
0.0
1002
{
1002
{
1010
0.0
1020
0.0
1030
0.0
1002
}
1040
1.0
1000

1040
0.0
1002
{
1002
}
1040
0.0
1002
{
1002
}
1040
0.0
1002
}
1002
}
1002
{
1002
{
1070
     1
1002
{
1040
0.0
1040
1.0
1000

1040
0.0
1002
{
1002
}
1040
0.0
1002
{
1002
}
1040
0.0
1002
}
1002
}
1040
0.0
1002
{
1002
}
1010
1.0
1020
0.0
1030
0.0
1010
0.0
1020
1.0
1030
0.0
1010
0.0
1020
0.0
1030
1.0
1070
     0
1002
}
1002
{
1002
{
1040
1.0
1040
1.0
1002
{
1070
     1
1002
{
1040
1.0
1040
1.0
1000

1040
0.0
1002
{
1002
}
1040
0.0
1002
{
1002
}
1040
0.0
1002
}
1002
}
1002
}
1070
     0
1040
0.0
1002
{
1002
}
1002
}
1002
{
1002
}
1002
}
1002
{
1071
        3
1070
     3
1070
     0
1002
{
1070
     2
1070
     0
1070
     0
1040
0.0
1002
}
1070
     0
1070
     2
1002
{
1002
}
1002
}
1002
{
1040
8030.0
1040
190.3000030517578
1040
0.3050000071525574
1040
228.0
1040
545.0
1040
14.0
1040
17.39999961853027
1040
0.4560000002384186
1002
}
1002
}
  0
TEXT
  5
7795
330
17
100
AcDbEntity
  8
0
100
AcDbText
 10
195.2045387737296
 20
18.15503666606149
 30
0.0
 40
0.07
  1

  7
ROMANS
 72
     4
 11
195.2045387737296
 21
18.15503666606149
 31
0.0
100
AcDbText
  0
TEXT
  5
7796
330
17
100
AcDbEntity
  8
0
100
AcDbText
 10
195.8295387737296
 20
18.15503666606149
 30
0.0
 40
0.07
  1

  7
ROMANS
 72
     4
 11
195.8295387737296
 21
18.15503666606149
 31
0.0
100
AcDbText
  0
INSERT
  5
7797
330
17
100
AcDbEntity
  8
ASHADE
 62
     1
100
AcDbBlockReference
  2
AVE_RENDER
 10
221.9337680313885
 20
3.041815405558125
 30
0.0
1001
AVE_RENDER
1002
{
1070
     7
1000
Pref
1070
    30
1070
    20
1070
     1
1070
     0
1000

1070
    10
1070
     1
1070
    10
1040
1.0
1070
     1
1040
0.3
1040
0.7
1040
0.0
1040
10.0
1010
-1.0
1020
-1.0
1030
-1.0
1040
0.3
1070
    49
1070
     0
1070
     0
1010
1.0
1020
1.0
1030
1.0
1040
45.0
1070
     1
1070
     0
1000
WCS
1040
0.0
1070
     0
1040
10.0
1002
}
  0
INSERT
  5
7798
330
17
100
AcDbEntity
  8
ASHADE
 62
     3
100
AcDbBlockReference
  2
AVE_RENDER
 10
221.9337680313885
 20
3.041815405558125
 30
0.0
1001
AVE_RENDER
1002
{
1070
     0
1000
Full Opt
1070
     0
1070
     1
1070
     1
1070
     1
1070
     0
1070
     0
1070
     0
1070
     1
1070
     1
1040
0.0001
1040
0.0001
1002
}
  0
INSERT
  5
7799
330
17
100
AcDbEntity
  8
ASHADE
 62
     4
100
AcDbBlockReference
  2
AVE_RENDER
 10
221.9337680313885
 20
3.041815405558125
 30
0.0
1001
AVE_RENDER
1002
{
1070
     0
1000
Quick Opt
1070
     0
1070
     1
1070
     1
1070
     1
1070
     0
1070
     0
1070
     1
1002
}
  0
INSERT
  5
779A
330
17
100
AcDbEntity
  8
ASHADE
 62
     5
100
AcDbBlockReference
  2
AVE_RENDER
 10
221.9337680313885
 20
3.041815405558125
 30
0.0
1001
AVE_RENDER
1002
{
1070
     1
1000
Scanl Opt
1070
     2
1070
     0
1070
     2
1040
2.0
1040
4.0
1070
     0
1070
     1
1070
     0
1040
0.03
1002
}
  0
INSERT
  5
779B
330
17
100
AcDbEntity
  8
ASHADE
 62
     6
100
AcDbBlockReference
  2
AVE_RENDER
 10
221.9337680313885
 20
3.041815405558125
 30
0.0
1001
AVE_RENDER
1002
{
1070
     2
1000
Raytr Opt
1070
     2
1070
     0
1070
     2
1040
2.0
1040
4.0
1070
     0
1070
     1
1070
     1
1040
0.03
1070
     3
1040
0.03
1002
}
  0
INSERT
  5
779C
330
17
100
AcDbEntity
  8
ASHADE
 62
     7
100
AcDbBlockReference
  2
AVE_RENDER
 10
221.9337680313885
 20
3.041815405558125
 30
0.0
1001
AVE_RENDER
1002
{
1070
     0
1000
RFile Opt
1070
     1
1070
   640
1070
   480
1070
 10000
1070
     1
1070
     8
1070
     8
1070
     0
1070
     0
1070
     0
1070
     0
1070
     0
1070
     0
1070
     0
1002
}
  0
INSERT
  5
779D
330
17
100
AcDbEntity
  8
ASHADE
 62
     8
100
AcDbBlockReference
  2
AVE_RENDER
 10
221.9337680313885
 20
3.041815405558125
 30
0.0
1001
AVE_RENDER
1002
{
1070
     0
1000
Fog Opt
1070
     0
1070
     0
1040
0.0
1040
1.0
1040
0.0
1040
1.0
1010
0.5
1020
0.5
1030
0.5
1002
}
  0
INSERT
  5
779E
330
17
100
AcDbEntity
  8
ASHADE
 62
     9
100
AcDbBlockReference
  2
AVE_RENDER
 10
221.9337680313885
 20
3.041815405558125
 30
0.0
1001
AVE_RENDER
1002
{
1070
     0
1000
BG Opt
1070
     0
1070
     1
1010
0.0
1020
0.0
1030
0.0
1010
1.0
1020
0.0
1030
0.0
1010
0.0
1020
1.0
1030
0.0
1010
0.0
1020
0.0
1030
1.0
1040
0.5
1040
0.33
1040
0.0
1000

1070
     1
1000

1070
     1
1070
     1
1040
1.0
1040
1.0
1040
0.0
1040
0.0
1070
     0
1002
}
  0
INSERT
  5
779F
330
17
100
AcDbEntity
  8
ASHADE
 62
     1
100
AcDbBlockReference
  2
AVE_GLOBAL
 10
221.9337680313885
 20
3.041815405558125
 30
0.0
1001
AVE_MATERIAL
1002
{
1000
*GLOBAL*
1000
1
1000
Global finish.
1002
{
1002
}
1002
{
1070
    63
1002
{
1002
{
1010
-1.0
1020
-1.0
1030
-1.0
1002
}
1040
0.1000000014901161
1000

1040
0.0
1002
{
1002
}
1040
0.0
1002
{
1002
}
1040
0.0
1002
}
1002
{
1002
{
1010
-1.0
1020
-1.0
1030
-1.0
1002
}
1040
0.6999999880790711
1000

1040
0.0
1002
{
1002
}
1040
0.0
1002
{
1002
}
1040
0.0
1002
}
1002
{
1002
{
1010
-1.0
1020
-1.0
1030
-1.0
1002
}
1040
0.2000000029802322
1000

1040
0.0
1002
{
1002
}
1040
0.0
1002
{
1002
}
1040
0.0
1002
}
1002
{
1070
     0
1002
{
1070
     1
1002
{
1040
1.0
1040
1.0
1000

1040
0.0
1002
{
1002
}
1040
0.0
1002
{
1002
}
1040
0.0
1002
}
1002
}
1040
1.0
1040
0.0
1040
0.0
1002
}
1002
{
1040
1.0
1040
1.0
1000

1040
0.0
1002
{
1002
}
1040
0.0
1002
{
1002
}
1040
0.0
1002
}
1002
{
1040
0.5
1040
1.0
1000

1040
0.0
1002
{
1002
}
1040
0.0
1002
{
1002
}
1040
0.0
1002
}
1002
{
1070
     0
1040
0.0
1002
{
1002
}
1040
1.0
1002
{
1002
}
1040
0.0
1002
}
1002
{
1040
0.0
1002
{
1002
{
1010
0.0
1020
0.0
1030
0.0
1002
}
1040
1.0
1000

1040
0.0
1002
{
1002
}
1040
0.0
1002
{
1002
}
1040
0.0
1002
}
1002
}
1002
{
1002
{
1070
     1
1002
{
1040
0.0
1040
1.0
1000

1040
0.0
1002
{
1002
}
1040
0.0
1002
{
1002
}
1040
0.0
1002
}
1002
}
1040
0.0
1002
{
1002
}
1010
1.0
1020
0.0
1030
0.0
1010
0.0
1020
1.0
1030
0.0
1010
0.0
1020
0.0
1030
1.0
1070
     0
1002
}
1002
{
1002
{
1040
1.0
1040
1.0
1002
{
1070
     1
1002
{
1040
1.0
1040
1.0
1000

1040
0.0
1002
{
1002
}
1040
0.0
1002
{
1002
}
1040
0.0
1002
}
1002
}
1002
}
1070
     0
1040
0.0
1002
{
1002
}
1002
}
1002
{
1002
}
1002
}
1002
{
1071
        3
1070
     3
1070
     0
1002
{
1070
     2
1070
     0
1070
     0
1040
0.0
1002
}
1070
     0
1070
     2
1002
{
1002
}
1002
}
1002
{
1040
8030.0
1040
190.3000030517578
1040
0.3050000071525574
1040
228.0
1040
545.0
1040
14.0
1040
17.39999961853027
1040
0.4560000002384186
1002
}
1002
}
  0
TEXT
  5
77A0
330
17
100
AcDbEntity
  8
0
100
AcDbText
 10
198.0805330430343
 20
22.34321457542992
 30
0.0
 40
0.125
  1

  7
ROMANS
 72
     4
 11
198.0805330430343
 21
22.34321457542992
 31
0.0
100
AcDbText
  0
INSERT
  5
82D1
330
17
100
AcDbEntity
  8
ASHADE
 62
     1
100
AcDbBlockReference
  2
AVE_RENDER
 10
-11.38269069823991
 20
5.092135968565855
 30
0.0
1001
AVE_RENDER
1002
{
1070
     7
1000
Pref
1070
    30
1070
    20
1070
     1
1070
     0
1000

1070
    10
1070
     1
1070
    10
1040
1.0
1070
     1
1040
0.3
1040
0.7
1040
0.0
1040
10.0
1010
-1.0
1020
-1.0
1030
-1.0
1040
0.3
1070
    49
1070
     0
1070
     0
1010
1.0
1020
1.0
1030
1.0
1040
45.0
1070
     1
1070
     0
1000
WCS
1040
0.0
1070
     0
1040
10.0
1002
}
  0
INSERT
  5
82D2
330
17
100
AcDbEntity
  8
ASHADE
 62
     3
100
AcDbBlockReference
  2
AVE_RENDER
 10
-11.38269069823991
 20
5.092135968565855
 30
0.0
1001
AVE_RENDER
1002
{
1070
     0
1000
Full Opt
1070
     0
1070
     1
1070
     1
1070
     1
1070
     0
1070
     0
1070
     0
1070
     1
1070
     1
1040
0.0001
1040
0.0001
1002
}
  0
INSERT
  5
82D3
330
17
100
AcDbEntity
  8
ASHADE
 62
     4
100
AcDbBlockReference
  2
AVE_RENDER
 10
-11.38269069823991
 20
5.092135968565855
 30
0.0
1001
AVE_RENDER
1002
{
1070
     0
1000
Quick Opt
1070
     0
1070
     1
1070
     1
1070
     1
1070
     0
1070
     0
1070
     1
1002
}
  0
INSERT
  5
82D4
330
17
100
AcDbEntity
  8
ASHADE
 62
     5
100
AcDbBlockReference
  2
AVE_RENDER
 10
-11.38269069823991
 20
5.092135968565855
 30
0.0
1001
AVE_RENDER
1002
{
1070
     1
1000
Scanl Opt
1070
     2
1070
     0
1070
     2
1040
2.0
1040
4.0
1070
     0
1070
     1
1070
     0
1040
0.03
1002
}
  0
INSERT
  5
82D5
330
17
100
AcDbEntity
  8
ASHADE
 62
     6
100
AcDbBlockReference
  2
AVE_RENDER
 10
-11.38269069823991
 20
5.092135968565855
 30
0.0
1001
AVE_RENDER
1002
{
1070
     2
1000
Raytr Opt
1070
     2
1070
     0
1070
     2
1040
2.0
1040
4.0
1070
     0
1070
     1
1070
     1
1040
0.03
1070
     3
1040
0.03
1002
}
  0
INSERT
  5
82D6
330
17
100
AcDbEntity
  8
ASHADE
 62
     7
100
AcDbBlockReference
  2
AVE_RENDER
 10
-11.38269069823991
 20
5.092135968565855
 30
0.0
1001
AVE_RENDER
1002
{
1070
     0
1000
RFile Opt
1070
     1
1070
   640
1070
   480
1070
 10000
1070
     1
1070
     8
1070
     8
1070
     0
1070
     0
1070
     0
1070
     0
1070
     0
1070
     0
1070
     0
1002
}
  0
INSERT
  5
82D7
330
17
100
AcDbEntity
  8
ASHADE
 62
     8
100
AcDbBlockReference
  2
AVE_RENDER
 10
-11.38269069823991
 20
5.092135968565855
 30
0.0
1001
AVE_RENDER
1002
{
1070
     0
1000
Fog Opt
1070
     0
1070
     0
1040
0.0
1040
1.0
1040
0.0
1040
1.0
1010
0.5
1020
0.5
1030
0.5
1002
}
  0
INSERT
  5
82D8
330
17
100
AcDbEntity
  8
ASHADE
 62
     9
100
AcDbBlockReference
  2
AVE_RENDER
 10
-11.38269069823991
 20
5.092135968565855
 30
0.0
1001
AVE_RENDER
1002
{
1070
     0
1000
BG Opt
1070
     0
1070
     1
1010
0.0
1020
0.0
1030
0.0
1010
1.0
1020
0.0
1030
0.0
1010
0.0
1020
1.0
1030
0.0
1010
0.0
1020
0.0
1030
1.0
1040
0.5
1040
0.33
1040
0.0
1000

1070
     1
1000

1070
     1
1070
     1
1040
1.0
1040
1.0
1040
0.0
1040
0.0
1070
     0
1002
}
  0
INSERT
  5
82D9
330
17
100
AcDbEntity
  8
ASHADE
 62
     1
100
AcDbBlockReference
  2
AVE_GLOBAL
 10
-11.38269069823991
 20
5.092135968565855
 30
0.0
1001
AVE_MATERIAL
1002
{
1000
*GLOBAL*
1000
1
1000
Global finish.
1002
{
1002
}
1002
{
1070
    63
1002
{
1002
{
1010
-1.0
1020
-1.0
1030
-1.0
1002
}
1040
0.1000000014901161
1000

1040
0.0
1002
{
1002
}
1040
0.0
1002
{
1002
}
1040
0.0
1002
}
1002
{
1002
{
1010
-1.0
1020
-1.0
1030
-1.0
1002
}
1040
0.6999999880790711
1000

1040
0.0
1002
{
1002
}
1040
0.0
1002
{
1002
}
1040
0.0
1002
}
1002
{
1002
{
1010
-1.0
1020
-1.0
1030
-1.0
1002
}
1040
0.2000000029802322
1000

1040
0.0
1002
{
1002
}
1040
0.0
1002
{
1002
}
1040
0.0
1002
}
1002
{
1070
     0
1002
{
1070
     1
1002
{
1040
1.0
1040
1.0
1000

1040
0.0
1002
{
1002
}
1040
0.0
1002
{
1002
}
1040
0.0
1002
}
1002
}
1040
1.0
1040
0.0
1040
0.0
1002
}
1002
{
1040
1.0
1040
1.0
1000

1040
0.0
1002
{
1002
}
1040
0.0
1002
{
1002
}
1040
0.0
1002
}
1002
{
1040
0.5
1040
1.0
1000

1040
0.0
1002
{
1002
}
1040
0.0
1002
{
1002
}
1040
0.0
1002
}
1002
{
1070
     0
1040
0.0
1002
{
1002
}
1040
1.0
1002
{
1002
}
1040
0.0
1002
}
1002
{
1040
0.0
1002
{
1002
{
1010
0.0
1020
0.0
1030
0.0
1002
}
1040
1.0
1000

1040
0.0
1002
{
1002
}
1040
0.0
1002
{
1002
}
1040
0.0
1002
}
1002
}
1002
{
1002
{
1070
     1
1002
{
1040
0.0
1040
1.0
1000

1040
0.0
1002
{
1002
}
1040
0.0
1002
{
1002
}
1040
0.0
1002
}
1002
}
1040
0.0
1002
{
1002
}
1010
1.0
1020
0.0
1030
0.0
1010
0.0
1020
1.0
1030
0.0
1010
0.0
1020
0.0
1030
1.0
1070
     0
1002
}
1002
{
1002
{
1040
1.0
1040
1.0
1002
{
1070
     1
1002
{
1040
1.0
1040
1.0
1000

1040
0.0
1002
{
1002
}
1040
0.0
1002
{
1002
}
1040
0.0
1002
}
1002
}
1002
}
1070
     0
1040
0.0
1002
{
1002
}
1002
}
1002
{
1002
}
1002
}
1002
{
1071
        3
1070
     3
1070
     0
1002
{
1070
     2
1070
     0
1070
     0
1040
0.0
1002
}
1070
     0
1070
     2
1002
{
1002
}
1002
}
1002
{
1040
8030.0
1040
190.3000030517578
1040
0.3050000071525574
1040
228.0
1040
545.0
1040
14.0
1040
17.39999961853027
1040
0.4560000002384186
1002
}
1002
}
  0
TEXT
  5
82DA
330
17
100
AcDbEntity
  8
0
100
AcDbText
 10
31.05514682874396
 20
20.73848814308772
 30
0.0
 40
0.07
  1

  7
ROMANS
 72
     4
 11
31.05514682874396
 21
20.73848814308772
 31
0.0
100
AcDbText
  0
TEXT
  5
82DB
330
17
100
AcDbEntity
  8
0
100
AcDbText
 10
31.68014682874396
 20
20.73848814308772
 30
0.0
 40
0.07
  1

  7
ROMANS
 72
     4
 11
31.68014682874396
 21
20.73848814308772
 31
0.0
100
AcDbText
  0
INSERT
  5
82DC
330
17
100
AcDbEntity
  8
ASHADE
 62
     1
100
AcDbBlockReference
  2
AVE_RENDER
 10
57.78437608640287
 20
5.625266882584355
 30
0.0
1001
AVE_RENDER
1002
{
1070
     7
1000
Pref
1070
    30
1070
    20
1070
     1
1070
     0
1000

1070
    10
1070
     1
1070
    10
1040
1.0
1070
     1
1040
0.3
1040
0.7
1040
0.0
1040
10.0
1010
-1.0
1020
-1.0
1030
-1.0
1040
0.3
1070
    49
1070
     0
1070
     0
1010
1.0
1020
1.0
1030
1.0
1040
45.0
1070
     1
1070
     0
1000
WCS
1040
0.0
1070
     0
1040
10.0
1002
}
  0
INSERT
  5
82DD
330
17
100
AcDbEntity
  8
ASHADE
 62
     3
100
AcDbBlockReference
  2
AVE_RENDER
 10
57.78437608640287
 20
5.625266882584355
 30
0.0
1001
AVE_RENDER
1002
{
1070
     0
1000
Full Opt
1070
     0
1070
     1
1070
     1
1070
     1
1070
     0
1070
     0
1070
     0
1070
     1
1070
     1
1040
0.0001
1040
0.0001
1002
}
  0
INSERT
  5
82DE
330
17
100
AcDbEntity
  8
ASHADE
 62
     4
100
AcDbBlockReference
  2
AVE_RENDER
 10
57.78437608640287
 20
5.625266882584355
 30
0.0
1001
AVE_RENDER
1002
{
1070
     0
1000
Quick Opt
1070
     0
1070
     1
1070
     1
1070
     1
1070
     0
1070
     0
1070
     1
1002
}
  0
INSERT
  5
82DF
330
17
100
AcDbEntity
  8
ASHADE
 62
     5
100
AcDbBlockReference
  2
AVE_RENDER
 10
57.78437608640287
 20
5.625266882584355
 30
0.0
1001
AVE_RENDER
1002
{
1070
     1
1000
Scanl Opt
1070
     2
1070
     0
1070
     2
1040
2.0
1040
4.0
1070
     0
1070
     1
1070
     0
1040
0.03
1002
}
  0
INSERT
  5
82E0
330
17
100
AcDbEntity
  8
ASHADE
 62
     6
100
AcDbBlockReference
  2
AVE_RENDER
 10
57.78437608640287
 20
5.625266882584355
 30
0.0
1001
AVE_RENDER
1002
{
1070
     2
1000
Raytr Opt
1070
     2
1070
     0
1070
     2
1040
2.0
1040
4.0
1070
     0
1070
     1
1070
     1
1040
0.03
1070
     3
1040
0.03
1002
}
  0
INSERT
  5
82E1
330
17
100
AcDbEntity
  8
ASHADE
 62
     7
100
AcDbBlockReference
  2
AVE_RENDER
 10
57.78437608640287
 20
5.625266882584355
 30
0.0
1001
AVE_RENDER
1002
{
1070
     0
1000
RFile Opt
1070
     1
1070
   640
1070
   480
1070
 10000
1070
     1
1070
     8
1070
     8
1070
     0
1070
     0
1070
     0
1070
     0
1070
     0
1070
     0
1070
     0
1002
}
  0
INSERT
  5
82E2
330
17
100
AcDbEntity
  8
ASHADE
 62
     8
100
AcDbBlockReference
  2
AVE_RENDER
 10
57.78437608640287
 20
5.625266882584355
 30
0.0
1001
AVE_RENDER
1002
{
1070
     0
1000
Fog Opt
1070
     0
1070
     0
1040
0.0
1040
1.0
1040
0.0
1040
1.0
1010
0.5
1020
0.5
1030
0.5
1002
}
  0
INSERT
  5
82E3
330
17
100
AcDbEntity
  8
ASHADE
 62
     9
100
AcDbBlockReference
  2
AVE_RENDER
 10
57.78437608640287
 20
5.625266882584355
 30
0.0
1001
AVE_RENDER
1002
{
1070
     0
1000
BG Opt
1070
     0
1070
     1
1010
0.0
1020
0.0
1030
0.0
1010
1.0
1020
0.0
1030
0.0
1010
0.0
1020
1.0
1030
0.0
1010
0.0
1020
0.0
1030
1.0
1040
0.5
1040
0.33
1040
0.0
1000

1070
     1
1000

1070
     1
1070
     1
1040
1.0
1040
1.0
1040
0.0
1040
0.0
1070
     0
1002
}
  0
INSERT
  5
82E4
330
17
100
AcDbEntity
  8
ASHADE
 62
     1
100
AcDbBlockReference
  2
AVE_GLOBAL
 10
57.78437608640287
 20
5.625266882584355
 30
0.0
1001
AVE_MATERIAL
1002
{
1000
*GLOBAL*
1000
1
1000
Global finish.
1002
{
1002
}
1002
{
1070
    63
1002
{
1002
{
1010
-1.0
1020
-1.0
1030
-1.0
1002
}
1040
0.1000000014901161
1000

1040
0.0
1002
{
1002
}
1040
0.0
1002
{
1002
}
1040
0.0
1002
}
1002
{
1002
{
1010
-1.0
1020
-1.0
1030
-1.0
1002
}
1040
0.6999999880790711
1000

1040
0.0
1002
{
1002
}
1040
0.0
1002
{
1002
}
1040
0.0
1002
}
1002
{
1002
{
1010
-1.0
1020
-1.0
1030
-1.0
1002
}
1040
0.2000000029802322
1000

1040
0.0
1002
{
1002
}
1040
0.0
1002
{
1002
}
1040
0.0
1002
}
1002
{
1070
     0
1002
{
1070
     1
1002
{
1040
1.0
1040
1.0
1000

1040
0.0
1002
{
1002
}
1040
0.0
1002
{
1002
}
1040
0.0
1002
}
1002
}
1040
1.0
1040
0.0
1040
0.0
1002
}
1002
{
1040
1.0
1040
1.0
1000

1040
0.0
1002
{
1002
}
1040
0.0
1002
{
1002
}
1040
0.0
1002
}
1002
{
1040
0.5
1040
1.0
1000

1040
0.0
1002
{
1002
}
1040
0.0
1002
{
1002
}
1040
0.0
1002
}
1002
{
1070
     0
1040
0.0
1002
{
1002
}
1040
1.0
1002
{
1002
}
1040
0.0
1002
}
1002
{
1040
0.0
1002
{
1002
{
1010
0.0
1020
0.0
1030
0.0
1002
}
1040
1.0
1000

1040
0.0
1002
{
1002
}
1040
0.0
1002
{
1002
}
1040
0.0
1002
}
1002
}
1002
{
1002
{
1070
     1
1002
{
1040
0.0
1040
1.0
1000

1040
0.0
1002
{
1002
}
1040
0.0
1002
{
1002
}
1040
0.0
1002
}
1002
}
1040
0.0
1002
{
1002
}
1010
1.0
1020
0.0
1030
0.0
1010
0.0
1020
1.0
1030
0.0
1010
0.0
1020
0.0
1030
1.0
1070
     0
1002
}
1002
{
1002
{
1040
1.0
1040
1.0
1002
{
1070
     1
1002
{
1040
1.0
1040
1.0
1000

1040
0.0
1002
{
1002
}
1040
0.0
1002
{
1002
}
1040
0.0
1002
}
1002
}
1002
}
1070
     0
1040
0.0
1002
{
1002
}
1002
}
1002
{
1002
}
1002
}
1002
{
1071
        3
1070
     3
1070
     0
1002
{
1070
     2
1070
     0
1070
     0
1040
0.0
1002
}
1070
     0
1070
     2
1002
{
1002
}
1002
}
1002
{
1040
8030.0
1040
190.3000030517578
1040
0.3050000071525574
1040
228.0
1040
545.0
1040
14.0
1040
17.39999961853027
1040
0.4560000002384186
1002
}
1002
}
  0
TEXT
  5
82E5
330
17
100
AcDbEntity
  8
0
100
AcDbText
 10
33.93114109804867
 20
24.92666605245616
 30
0.0
 40
0.125
  1

  7
ROMANS
 72
     4
 11
33.93114109804867
 21
24.92666605245616
 31
0.0
100
AcDbText
  0
INSERT
  5
887E
330
17
100
AcDbEntity
  8
ASHADE
 62
     1
100
AcDbBlockReference
  2
AVE_RENDER
 10
12.51901593460056
 20
5.100137919134752
 30
0.0
1001
AVE_RENDER
1002
{
1070
     7
1000
Pref
1070
    30
1070
    20
1070
     1
1070
     0
1000

1070
    10
1070
     1
1070
    10
1040
1.0
1070
     1
1040
0.3
1040
0.7
1040
0.0
1040
10.0
1010
-1.0
1020
-1.0
1030
-1.0
1040
0.3
1070
    49
1070
     0
1070
     0
1010
1.0
1020
1.0
1030
1.0
1040
45.0
1070
     1
1070
     0
1000
WCS
1040
0.0
1070
     0
1040
10.0
1002
}
  0
INSERT
  5
887F
330
17
100
AcDbEntity
  8
ASHADE
 62
     3
100
AcDbBlockReference
  2
AVE_RENDER
 10
12.51901593460056
 20
5.100137919134752
 30
0.0
1001
AVE_RENDER
1002
{
1070
     0
1000
Full Opt
1070
     0
1070
     1
1070
     1
1070
     1
1070
     0
1070
     0
1070
     0
1070
     1
1070
     1
1040
0.0001
1040
0.0001
1002
}
  0
INSERT
  5
8880
330
17
100
AcDbEntity
  8
ASHADE
 62
     4
100
AcDbBlockReference
  2
AVE_RENDER
 10
12.51901593460056
 20
5.100137919134752
 30
0.0
1001
AVE_RENDER
1002
{
1070
     0
1000
Quick Opt
1070
     0
1070
     1
1070
     1
1070
     1
1070
     0
1070
     0
1070
     1
1002
}
  0
INSERT
  5
8881
330
17
100
AcDbEntity
  8
ASHADE
 62
     5
100
AcDbBlockReference
  2
AVE_RENDER
 10
12.51901593460056
 20
5.100137919134752
 30
0.0
1001
AVE_RENDER
1002
{
1070
     1
1000
Scanl Opt
1070
     2
1070
     0
1070
     2
1040
2.0
1040
4.0
1070
     0
1070
     1
1070
     0
1040
0.03
1002
}
  0
INSERT
  5
8882
330
17
100
AcDbEntity
  8
ASHADE
 62
     6
100
AcDbBlockReference
  2
AVE_RENDER
 10
12.51901593460056
 20
5.100137919134752
 30
0.0
1001
AVE_RENDER
1002
{
1070
     2
1000
Raytr Opt
1070
     2
1070
     0
1070
     2
1040
2.0
1040
4.0
1070
     0
1070
     1
1070
     1
1040
0.03
1070
     3
1040
0.03
1002
}
  0
INSERT
  5
8883
330
17
100
AcDbEntity
  8
ASHADE
 62
     7
100
AcDbBlockReference
  2
AVE_RENDER
 10
12.51901593460056
 20
5.100137919134752
 30
0.0
1001
AVE_RENDER
1002
{
1070
     0
1000
RFile Opt
1070
     1
1070
   640
1070
   480
1070
 10000
1070
     1
1070
     8
1070
     8
1070
     0
1070
     0
1070
     0
1070
     0
1070
     0
1070
     0
1070
     0
1002
}
  0
INSERT
  5
8884
330
17
100
AcDbEntity
  8
ASHADE
 62
     8
100
AcDbBlockReference
  2
AVE_RENDER
 10
12.51901593460056
 20
5.100137919134752
 30
0.0
1001
AVE_RENDER
1002
{
1070
     0
1000
Fog Opt
1070
     0
1070
     0
1040
0.0
1040
1.0
1040
0.0
1040
1.0
1010
0.5
1020
0.5
1030
0.5
1002
}
  0
INSERT
  5
8885
330
17
100
AcDbEntity
  8
ASHADE
 62
     9
100
AcDbBlockReference
  2
AVE_RENDER
 10
12.51901593460056
 20
5.100137919134752
 30
0.0
1001
AVE_RENDER
1002
{
1070
     0
1000
BG Opt
1070
     0
1070
     1
1010
0.0
1020
0.0
1030
0.0
1010
1.0
1020
0.0
1030
0.0
1010
0.0
1020
1.0
1030
0.0
1010
0.0
1020
0.0
1030
1.0
1040
0.5
1040
0.33
1040
0.0
1000

1070
     1
1000

1070
     1
1070
     1
1040
1.0
1040
1.0
1040
0.0
1040
0.0
1070
     0
1002
}
  0
INSERT
  5
8886
330
17
100
AcDbEntity
  8
ASHADE
 62
     1
100
AcDbBlockReference
  2
AVE_GLOBAL
 10
12.51901593460056
 20
5.100137919134752
 30
0.0
1001
AVE_MATERIAL
1002
{
1000
*GLOBAL*
1000
1
1000
Global finish.
1002
{
1002
}
1002
{
1070
    63
1002
{
1002
{
1010
-1.0
1020
-1.0
1030
-1.0
1002
}
1040
0.1000000014901161
1000

1040
0.0
1002
{
1002
}
1040
0.0
1002
{
1002
}
1040
0.0
1002
}
1002
{
1002
{
1010
-1.0
1020
-1.0
1030
-1.0
1002
}
1040
0.6999999880790711
1000

1040
0.0
1002
{
1002
}
1040
0.0
1002
{
1002
}
1040
0.0
1002
}
1002
{
1002
{
1010
-1.0
1020
-1.0
1030
-1.0
1002
}
1040
0.2000000029802322
1000

1040
0.0
1002
{
1002
}
1040
0.0
1002
{
1002
}
1040
0.0
1002
}
1002
{
1070
     0
1002
{
1070
     1
1002
{
1040
1.0
1040
1.0
1000

1040
0.0
1002
{
1002
}
1040
0.0
1002
{
1002
}
1040
0.0
1002
}
1002
}
1040
1.0
1040
0.0
1040
0.0
1002
}
1002
{
1040
1.0
1040
1.0
1000

1040
0.0
1002
{
1002
}
1040
0.0
1002
{
1002
}
1040
0.0
1002
}
1002
{
1040
0.5
1040
1.0
1000

1040
0.0
1002
{
1002
}
1040
0.0
1002
{
1002
}
1040
0.0
1002
}
1002
{
1070
     0
1040
0.0
1002
{
1002
}
1040
1.0
1002
{
1002
}
1040
0.0
1002
}
1002
{
1040
0.0
1002
{
1002
{
1010
0.0
1020
0.0
1030
0.0
1002
}
1040
1.0
1000

1040
0.0
1002
{
1002
}
1040
0.0
1002
{
1002
}
1040
0.0
1002
}
1002
}
1002
{
1002
{
1070
     1
1002
{
1040
0.0
1040
1.0
1000

1040
0.0
1002
{
1002
}
1040
0.0
1002
{
1002
}
1040
0.0
1002
}
1002
}
1040
0.0
1002
{
1002
}
1010
1.0
1020
0.0
1030
0.0
1010
0.0
1020
1.0
1030
0.0
1010
0.0
1020
0.0
1030
1.0
1070
     0
1002
}
1002
{
1002
{
1040
1.0
1040
1.0
1002
{
1070
     1
1002
{
1040
1.0
1040
1.0
1000

1040
0.0
1002
{
1002
}
1040
0.0
1002
{
1002
}
1040
0.0
1002
}
1002
}
1002
}
1070
     0
1040
0.0
1002
{
1002
}
1002
}
1002
{
1002
}
1002
}
1002
{
1071
        3
1070
     3
1070
     0
1002
{
1070
     2
1070
     0
1070
     0
1040
0.0
1002
}
1070
     0
1070
     2
1002
{
1002
}
1002
}
1002
{
1040
8030.0
1040
190.3000030517578
1040
0.3050000071525574
1040
228.0
1040
545.0
1040
14.0
1040
17.39999961853027
1040
0.4560000002384186
1002
}
1002
}
  0
TEXT
  5
8887
330
17
100
AcDbEntity
  8
0
100
AcDbText
 10
54.95685346158444
 20
20.74649009365662
 30
0.0
 40
0.07
  1

  7
ROMANS
 72
     4
 11
54.95685346158444
 21
20.74649009365662
 31
0.0
100
AcDbText
  0
TEXT
  5
8888
330
17
100
AcDbEntity
  8
0
100
AcDbText
 10
55.58185346158444
 20
20.74649009365662
 30
0.0
 40
0.07
  1

  7
ROMANS
 72
     4
 11
55.58185346158444
 21
20.74649009365662
 31
0.0
100
AcDbText
  0
INSERT
  5
8889
330
17
100
AcDbEntity
  8
ASHADE
 62
     1
100
AcDbBlockReference
  2
AVE_RENDER
 10
81.68608271924336
 20
5.633268833153252
 30
0.0
1001
AVE_RENDER
1002
{
1070
     7
1000
Pref
1070
    30
1070
    20
1070
     1
1070
     0
1000

1070
    10
1070
     1
1070
    10
1040
1.0
1070
     1
1040
0.3
1040
0.7
1040
0.0
1040
10.0
1010
-1.0
1020
-1.0
1030
-1.0
1040
0.3
1070
    49
1070
     0
1070
     0
1010
1.0
1020
1.0
1030
1.0
1040
45.0
1070
     1
1070
     0
1000
WCS
1040
0.0
1070
     0
1040
10.0
1002
}
  0
INSERT
  5
888A
330
17
100
AcDbEntity
  8
ASHADE
 62
     3
100
AcDbBlockReference
  2
AVE_RENDER
 10
81.68608271924336
 20
5.633268833153252
 30
0.0
1001
AVE_RENDER
1002
{
1070
     0
1000
Full Opt
1070
     0
1070
     1
1070
     1
1070
     1
1070
     0
1070
     0
1070
     0
1070
     1
1070
     1
1040
0.0001
1040
0.0001
1002
}
  0
INSERT
  5
888B
330
17
100
AcDbEntity
  8
ASHADE
 62
     4
100
AcDbBlockReference
  2
AVE_RENDER
 10
81.68608271924336
 20
5.633268833153252
 30
0.0
1001
AVE_RENDER
1002
{
1070
     0
1000
Quick Opt
1070
     0
1070
     1
1070
     1
1070
     1
1070
     0
1070
     0
1070
     1
1002
}
  0
INSERT
  5
888C
330
17
100
AcDbEntity
  8
ASHADE
 62
     5
100
AcDbBlockReference
  2
AVE_RENDER
 10
81.68608271924336
 20
5.633268833153252
 30
0.0
1001
AVE_RENDER
1002
{
1070
     1
1000
Scanl Opt
1070
     2
1070
     0
1070
     2
1040
2.0
1040
4.0
1070
     0
1070
     1
1070
     0
1040
0.03
1002
}
  0
INSERT
  5
888D
330
17
100
AcDbEntity
  8
ASHADE
 62
     6
100
AcDbBlockReference
  2
AVE_RENDER
 10
81.68608271924336
 20
5.633268833153252
 30
0.0
1001
AVE_RENDER
1002
{
1070
     2
1000
Raytr Opt
1070
     2
1070
     0
1070
     2
1040
2.0
1040
4.0
1070
     0
1070
     1
1070
     1
1040
0.03
1070
     3
1040
0.03
1002
}
  0
INSERT
  5
888E
330
17
100
AcDbEntity
  8
ASHADE
 62
     7
100
AcDbBlockReference
  2
AVE_RENDER
 10
81.68608271924336
 20
5.633268833153252
 30
0.0
1001
AVE_RENDER
1002
{
1070
     0
1000
RFile Opt
1070
     1
1070
   640
1070
   480
1070
 10000
1070
     1
1070
     8
1070
     8
1070
     0
1070
     0
1070
     0
1070
     0
1070
     0
1070
     0
1070
     0
1002
}
  0
INSERT
  5
888F
330
17
100
AcDbEntity
  8
ASHADE
 62
     8
100
AcDbBlockReference
  2
AVE_RENDER
 10
81.68608271924336
 20
5.633268833153252
 30
0.0
1001
AVE_RENDER
1002
{
1070
     0
1000
Fog Opt
1070
     0
1070
     0
1040
0.0
1040
1.0
1040
0.0
1040
1.0
1010
0.5
1020
0.5
1030
0.5
1002
}
  0
INSERT
  5
8890
330
17
100
AcDbEntity
  8
ASHADE
 62
     9
100
AcDbBlockReference
  2
AVE_RENDER
 10
81.68608271924336
 20
5.633268833153252
 30
0.0
1001
AVE_RENDER
1002
{
1070
     0
1000
BG Opt
1070
     0
1070
     1
1010
0.0
1020
0.0
1030
0.0
1010
1.0
1020
0.0
1030
0.0
1010
0.0
1020
1.0
1030
0.0
1010
0.0
1020
0.0
1030
1.0
1040
0.5
1040
0.33
1040
0.0
1000

1070
     1
1000

1070
     1
1070
     1
1040
1.0
1040
1.0
1040
0.0
1040
0.0
1070
     0
1002
}
  0
INSERT
  5
8891
330
17
100
AcDbEntity
  8
ASHADE
 62
     1
100
AcDbBlockReference
  2
AVE_GLOBAL
 10
81.68608271924336
 20
5.633268833153252
 30
0.0
1001
AVE_MATERIAL
1002
{
1000
*GLOBAL*
1000
1
1000
Global finish.
1002
{
1002
}
1002
{
1070
    63
1002
{
1002
{
1010
-1.0
1020
-1.0
1030
-1.0
1002
}
1040
0.1000000014901161
1000

1040
0.0
1002
{
1002
}
1040
0.0
1002
{
1002
}
1040
0.0
1002
}
1002
{
1002
{
1010
-1.0
1020
-1.0
1030
-1.0
1002
}
1040
0.6999999880790711
1000

1040
0.0
1002
{
1002
}
1040
0.0
1002
{
1002
}
1040
0.0
1002
}
1002
{
1002
{
1010
-1.0
1020
-1.0
1030
-1.0
1002
}
1040
0.2000000029802322
1000

1040
0.0
1002
{
1002
}
1040
0.0
1002
{
1002
}
1040
0.0
1002
}
1002
{
1070
     0
1002
{
1070
     1
1002
{
1040
1.0
1040
1.0
1000

1040
0.0
1002
{
1002
}
1040
0.0
1002
{
1002
}
1040
0.0
1002
}
1002
}
1040
1.0
1040
0.0
1040
0.0
1002
}
1002
{
1040
1.0
1040
1.0
1000

1040
0.0
1002
{
1002
}
1040
0.0
1002
{
1002
}
1040
0.0
1002
}
1002
{
1040
0.5
1040
1.0
1000

1040
0.0
1002
{
1002
}
1040
0.0
1002
{
1002
}
1040
0.0
1002
}
1002
{
1070
     0
1040
0.0
1002
{
1002
}
1040
1.0
1002
{
1002
}
1040
0.0
1002
}
1002
{
1040
0.0
1002
{
1002
{
1010
0.0
1020
0.0
1030
0.0
1002
}
1040
1.0
1000

1040
0.0
1002
{
1002
}
1040
0.0
1002
{
1002
}
1040
0.0
1002
}
1002
}
1002
{
1002
{
1070
     1
1002
{
1040
0.0
1040
1.0
1000

1040
0.0
1002
{
1002
}
1040
0.0
1002
{
1002
}
1040
0.0
1002
}
1002
}
1040
0.0
1002
{
1002
}
1010
1.0
1020
0.0
1030
0.0
1010
0.0
1020
1.0
1030
0.0
1010
0.0
1020
0.0
1030
1.0
1070
     0
1002
}
1002
{
1002
{
1040
1.0
1040
1.0
1002
{
1070
     1
1002
{
1040
1.0
1040
1.0
1000

1040
0.0
1002
{
1002
}
1040
0.0
1002
{
1002
}
1040
0.0
1002
}
1002
}
1002
}
1070
     0
1040
0.0
1002
{
1002
}
1002
}
1002
{
1002
}
1002
}
1002
{
1071
        3
1070
     3
1070
     0
1002
{
1070
     2
1070
     0
1070
     0
1040
0.0
1002
}
1070
     0
1070
     2
1002
{
1002
}
1002
}
1002
{
1040
8030.0
1040
190.3000030517578
1040
0.3050000071525574
1040
228.0
1040
545.0
1040
14.0
1040
17.39999961853027
1040
0.4560000002384186
1002
}
1002
}
  0
TEXT
  5
8892
330
17
100
AcDbEntity
  8
0
100
AcDbText
 10
57.83284773088915
 20
24.93466800302505
 30
0.0
 40
0.125
  1

  7
ROMANS
 72
     4
 11
57.83284773088915
 21
24.93466800302505
 31
0.0
100
AcDbText
  0
TEXT
  5
8E2B
330
17
100
AcDbEntity
  8
0
100
AcDbText
 10
83.86121169453282
 20
32.66582015260669
 30
0.0
 40
0.125
  1

  7
ROMANS
 72
     4
 11
83.86121169453282
 21
32.66582015260669
 31
0.0
100
AcDbText
  0
TEXT
  5
8E2C
330
17
100
AcDbEntity
  8
0
100
AcDbText
 10
154.2027231526585
 20
33.87480657082611
 30
0.0
 40
0.125
  1

  7
ROMANS
 72
     4
 11
154.2027231526585
 21
33.87480657082611
 31
0.0
100
AcDbText
  0
TEXT
  5
A914
330
17
100
AcDbEntity
  8
0
100
AcDbText
 10
69.39369604564323
 20
40.93040104021554
 30
0.0
 40
0.07
  1

  7
ROMANS
100
AcDbText
  0
TEXT
  5
A917
330
17
100
AcDbEntity
  8
0
100
AcDbText
 10
72.03603003872036
 20
40.93619570426382
 30
0.0
 40
0.07
  1

  7
ROMANS
 72
     1
 11
72.03603003872036
 21
40.93619570426382
 31
0.0
100
AcDbText
  0
TEXT
  5
A92C
330
17
100
AcDbEntity
  8
0
100
AcDbText
 10
69.39369604564323
 20
40.74240104021554
 30
0.0
 40
0.07
  1

 41
0.95
  7
ROMANS
100
AcDbText
  0
TEXT
  5
A92E
330
17
100
AcDbEntity
  8
0
100
AcDbText
 10
69.08689210768585
 20
40.74819570426382
 30
0.0
 40
0.07
  1

  7
ROMANS
 72
     1
 11
69.08689210768585
 21
40.74819570426382
 31
0.0
100
AcDbText
  0
TEXT
  5
A92F
330
17
100
AcDbEntity
  8
0
100
AcDbText
 10
72.03603003872036
 20
40.74819570426382
 30
0.0
 40
0.07
  1

  7
ROMANS
 72
     1
 11
72.03603003872036
 21
40.74819570426382
 31
0.0
100
AcDbText
  0
TEXT
  5
A969
330
17
100
AcDbEntity
  8
0
100
AcDbText
 10
69.39369604564323
 20
40.55440104021554
 30
0.0
 40
0.07
  1

 41
0.95
  7
ROMANS
100
AcDbText
  0
TEXT
  5
A96B
330
17
100
AcDbEntity
  8
0
100
AcDbText
 10
69.08689210768585
 20
40.56019570426381
 30
0.0
 40
0.07
  1

  7
ROMANS
 72
     1
 11
69.08689210768585
 21
40.56019570426381
 31
0.0
100
AcDbText
  0
TEXT
  5
A96C
330
17
100
AcDbEntity
  8
0
100
AcDbText
 10
72.03603003872036
 20
40.56019570426381
 30
0.0
 40
0.07
  1

  7
ROMANS
 72
     1
 11
72.03603003872036
 21
40.56019570426381
 31
0.0
100
AcDbText
  0
INSERT
  5
B768
330
17
100
AcDbEntity
  8
0
100
AcDbBlockReference
 66
     1
  2
ASSEMBLY_B
 10
80.80293751952018
 20
37.78943524156055
 30
0.0
  0
ATTRIB
  5
B769
330
B768
100
AcDbEntity
  8
Title Block
  6
Continuous
 62
     2
100
AcDbText
 10
91.60293751952018
 20
38.38943524156055
 30
0.0
 40
0.126326427375
  1
BREAKOUT BD, USER I/O MMC-SD
 41
0.8
100
AcDbAttribute
  2
GEN-TITLE-DES1{15.54}
 70
     0
  0
ATTRIB
  5
B76A
330
B768
100
AcDbEntity
  8
Title Block
  6
Continuous
 62
     2
100
AcDbText
 10
93.32793751952019
 20
38.81443524156056
 30
0.0
 40
0.1010611419
  1

100
AcDbAttribute
  2
GEN-TITLE-APPM{5}
 70
     0
  0
ATTRIB
  5
B76B
330
B768
100
AcDbEntity
  8
Title Block
  6
Continuous
 62
     2
100
AcDbText
 10
93.32793751952019
 20
39.06443524156056
 30
0.0
 40
0.1010611419
  1

100
AcDbAttribute
  2
GEN-TITLE-CHKM{5}
 70
     0
  0
ATTRIB
  5
B76C
330
B768
100
AcDbEntity
  8
Title Block
  6
Continuous
 62
     2
100
AcDbText
 10
93.32793751952019
 20
39.31443524156056
 30
0.0
 40
0.1010611419
  1
G. MUMM
100
AcDbAttribute
  2
GEN-TITLE-NAME{5}
 70
     0
  0
ATTRIB
  5
B76D
330
B768
100
AcDbEntity
  8
Title Block
  6
Continuous
 62
     2
100
AcDbText
 10
94.80293751952018
 20
38.28943524156055
 30
0.0
 40
0.196816573850279
  1
MD.1000.8492
 41
0.8
100
AcDbAttribute
  2
GEN-TITLE-NR{13.37}
 70
     0
  0
ATTRIB
  5
B76E
330
B768
100
AcDbEntity
  8
Title Block
  6
Continuous
 62
     2
100
AcDbText
 10
96.40293751952018
 20
38.81443524156056
 30
0.0
 40
0.11808994431015
  1
1
 41
0.8
100
AcDbAttribute
  2
GEN-TITLE-SHEET{2.62}
 70
     0
  0
ATTRIB
  5
B76F
330
B768
100
AcDbEntity
  8
Title Block
  6
Continuous
 62
     2
100
AcDbText
 10
96.3279375195202
 20
39.06443524156056
 30
0.0
 40
0.1010611419
  1
17.06.03
100
AcDbAttribute
  2
GEN-TITLE-PLOT{5}
 70
     0
  0
ATTRIB
  5
B770
330
B768
100
AcDbEntity
  8
Title Block
  6
Continuous
 62
     2
100
AcDbText
 10
96.80293751952019
 20
38.81443524156056
 30
0.0
 40
0.11808994431015
  1
1
 41
0.8
100
AcDbAttribute
  2
GEN-TITLE-SHEET-OF{2.62}
 70
     0
  0
ATTRIB
  5
B771
330
B768
100
AcDbEntity
  8
Title Block
  6
Continuous
 62
     2
100
AcDbText
 10
94.85293751952019
 20
39.31443524156056
 30
0.0
 40
0.1010611419
  1

100
AcDbAttribute
  2
GEN-TITLE-REF{5}
 70
     0
  0
ATTRIB
  5
B772
330
B768
100
AcDbEntity
  8
Title Block
  6
Continuous
 62
     2
100
AcDbText
 10
94.85293751952019
 20
39.06443524156056
 30
0.0
 40
0.1010611419
  1

100
AcDbAttribute
  2
GEN-TITLE-MACH{5}
 70
     0
  0
ATTRIB
  5
B773
330
B768
100
AcDbEntity
  8
Title Block
  6
Continuous
 62
     2
100
AcDbText
 10
94.85293751952019
 20
38.81443524156056
 30
0.0
 40
0.1010611419
  1

 41
0.8
100
AcDbAttribute
  2
GEN-TITLE-MAT{11.15}
 70
     0
  0
SEQEND
  5
B774
330
B768
100
AcDbEntity
  8
0
  0
LINE
  5
B775
330
17
100
AcDbEntity
  8
0
 62
     4
100
AcDbLine
 10
97.185035892821
 20
40.50856396844356
 30
0.0
 11
97.185035892821
 21
41.25856396844355
 31
0.0
  0
LINE
  5
B776
330
17
100
AcDbEntity
  8
0
 62
     4
100
AcDbLine
 10
94.01957789448882
 20
40.50856396844356
 30
0.0
 11
94.01957789448882
 21
41.25856396844355
 31
0.0
  0
LINE
  5
B777
330
17
100
AcDbEntity
  8
0
 62
     4
100
AcDbLine
 10
92.01957789448881
 20
40.50856396844356
 30
0.0
 11
92.01957789448881
 21
41.25856396844355
 31
0.0
  0
LINE
  5
B778
330
17
100
AcDbEntity
  8
0
 62
     4
100
AcDbLine
 10
90.14457789448881
 20
40.50856396844356
 30
0.0
 11
90.14457789448881
 21
41.25856396844355
 31
0.0
  0
TEXT
  5
B779
330
17
100
AcDbEntity
  8
0
100
AcDbText
 10
90.70530231701733
 20
40.57090482685667
 30
0.0
 40
0.125
  1
P27988
  7
ROMANS
 72
     1
 11
91.06839755511257
 21
40.57090482685667
 31
0.0
100
AcDbText
  0
TEXT
  5
B77A
330
17
100
AcDbEntity
  8
0
100
AcDbText
 10
90.54652329084907
 20
41.02549924750263
 30
0.0
 40
0.125
  1
REFERENCE
  7
ROMANS
 72
     1
 11
91.08521376703956
 21
41.02549924750263
 31
0.0
100
AcDbText
  0
TEXT
  5
B77B
330
17
100
AcDbEntity
  8
0
100
AcDbText
 10
90.40961852894431
 20
40.83298218548094
 30
0.0
 40
0.125
  1
PART NUMBER
  7
ROMANS
 72
     1
 11
91.08521376703956
 21
40.83298218548094
 31
0.0
100
AcDbText
  0
TEXT
  5
B77C
330
17
100
AcDbEntity
  8
0
100
AcDbText
 10
92.53743503734595
 20
41.02549924750263
 30
0.0
 40
0.125
  1
G&L Motion Control
  7
ROMANS
 72
     1
 11
93.01957789448882
 21
41.02549924750263
 31
0.0
100
AcDbText
  0
TEXT
  5
B77D
330
17
100
AcDbEntity
  8
0
100
AcDbText
 10
92.39755408496501
 20
40.83298218548094
 30
0.0
 40
0.125
  1
SAP NUMBER
  7
ROMANS
 72
     1
 11
93.01957789448882
 21
40.83298218548094
 31
0.0
100
AcDbText
  0
TEXT
  5
B77E
330
17
100
AcDbEntity
  8
0
100
AcDbText
 10
92.40945884686977
 20
40.57090482685667
 30
0.0
 40
0.125
  1
M.1302.6973
  7
ROMANS
 72
     1
 11
93.01957789448882
 21
40.57090482685667
 31
0.0
100
AcDbText
  0
LINE
  5
B77F
330
17
100
AcDbEntity
  8
0
 62
     4
100
AcDbLine
 10
97.185035892821
 20
41.25856396844356
 30
0.0
 11
90.14457789448881
 21
41.25856396844355
 31
0.0
  0
LINE
  5
B780
330
17
100
AcDbEntity
  8
0
 62
     4
100
AcDbLine
 10
97.185035892821
 20
40.50856396844356
 30
0.0
 11
90.14457789448881
 21
40.50856396844356
 31
0.0
  0
LINE
  5
B781
330
17
100
AcDbEntity
  8
0
 62
     4
100
AcDbLine
 10
97.185035892821
 20
40.75856396844357
 30
0.0
 11
90.14457789448881
 21
40.75856396844357
 31
0.0
  0
TEXT
  5
B782
330
17
100
AcDbEntity
  8
0
100
AcDbText
 10
94.17546188225751
 20
40.57090482685667
 30
0.0
 40
0.125
  1
BKOUT BD,IO,MMC-SD PNL MT
  7
ROMANS
 72
     1
 11
95.651652358448
 21
40.57090482685667
 31
0.0
100
AcDbText
  0
TEXT
  5
B783
330
17
100
AcDbEntity
  8
0
100
AcDbText
 10
94.50469694210788
 20
40.83298218548094
 30
0.0
 40
0.125
  1
SHORT DESCRIPTION
  7
ROMANS
 72
     1
 11
95.45707789448883
 21
40.83298218548094
 31
0.0
100
AcDbText
  0
TEXT
  5
B784
330
17
100
AcDbEntity
  8
0
100
AcDbText
 10
94.35588741829835
 20
41.02549924750263
 30
0.0
 40
0.125
  1
G&L Motion Control
  7
ROMANS
 72
     1
 11
95.45707789448883
 21
41.02549924750263
 31
0.0
100
AcDbText
  0
LWPOLYLINE
  5
B8FE
330
17
100
AcDbEntity
  8
0
  6
L5
 62
     2
100
AcDbPolyline
 90
        2
 70
     0
 43
0.0
 10
89.96648988859261
 20
46.30386458723282
 10
87.16299988859264
 20
46.30386458723282
  0
LWPOLYLINE
  5
B8FF
330
17
100
AcDbEntity
  8
0
  6
L0
 62
     4
100
AcDbPolyline
 90
        2
 70
     0
 43
0.0
 10
87.30399988859263
 20
43.33186258723281
 10
87.27899988859261
 20
43.33186258723281
  0
LWPOLYLINE
  5
B900
330
17
100
AcDbEntity
  8
0
  6
L0
 62
     4
100
AcDbPolyline
 90
        2
 70
     0
 43
0.0
 10
87.27899988859261
 20
43.28986258723281
 10
87.30399988859263
 20
43.28986258723281
  0
LWPOLYLINE
  5
B901
330
17
100
AcDbEntity
  8
0
  6
L0
 62
     4
100
AcDbPolyline
 90
        2
 70
     0
 43
0.0
 10
87.25277388859264
 20
43.79643858723282
 10
87.35648088859262
 20
43.90014458723282
  0
LWPOLYLINE
  5
B902
330
17
100
AcDbEntity
  8
0
  6
L0
 62
     4
100
AcDbPolyline
 90
        2
 70
     0
 43
0.0
 10
87.27257288859261
 20
43.77663958723281
 10
87.37627988859264
 20
43.88034558723282
  0
CIRCLE
  5
B903
330
17
100
AcDbEntity
  8
0
  6
L0
 62
     4
100
AcDbCircle
 10
87.31499988859262
 20
43.83886458723281
 30
0.0
 40
0.074
  0
LWPOLYLINE
  5
B904
330
17
100
AcDbEntity
  8
0
  6
L5
 62
     4
100
AcDbPolyline
 90
        2
 70
     0
 43
0.0
 10
87.19699988859263
 20
43.64886458723281
 10
89.85370388859266
 20
43.64886458723281
  0
LWPOLYLINE
  5
B905
330
17
100
AcDbEntity
  8
0
  6
L5
 62
     4
100
AcDbPolyline
 90
        2
 70
     0
 43
0.0
 10
87.19699988859263
 20
44.05686458723281
 10
89.72990788859268
 20
44.05686458723281
  0
LWPOLYLINE
  5
B906
330
17
100
AcDbEntity
  8
0
  6
L0
 62
     4
100
AcDbPolyline
 90
        2
 70
     0
 43
0.0
 10
87.19699988859263
 20
43.97586458723281
 10
89.72990788859268
 20
43.97586458723281
  0
LWPOLYLINE
  5
B907
330
17
100
AcDbEntity
  8
0
  6
L0
 62
     4
100
AcDbPolyline
 90
        2
 70
     0
 43
0.0
 10
87.19699988859263
 20
43.73886458723282
 10
89.72990788859268
 20
43.73886458723282
  0
LWPOLYLINE
  5
B908
330
17
100
AcDbEntity
  8
0
  6
L5
 62
     2
100
AcDbPolyline
 90
        2
 70
     0
 43
0.0
 10
87.16299988859264
 20
42.96386458723281
 10
89.96648988859261
 20
42.96386458723281
  0
LWPOLYLINE
  5
B909
330
17
100
AcDbEntity
  8
0
  6
L5
 62
     2
100
AcDbPolyline
 90
        2
 70
     0
 43
0.0
 10
90.16448988859259
 20
43.21386458723281
 10
86.96499988859264
 20
43.21386458723281
  0
LWPOLYLINE
  5
B90A
330
17
100
AcDbEntity
  8
0
  6
L5
 62
     2
100
AcDbPolyline
 90
        2
 70
     0
 43
0.0
 10
90.16448988859259
 20
46.05386458723281
 10
86.96499988859264
 20
46.05386458723281
  0
LWPOLYLINE
  5
B90B
330
17
100
AcDbEntity
  8
0
  6
L5
 62
     2
100
AcDbPolyline
 90
        2
 70
     0
 43
0.0
 10
87.16299988859264
 20
43.21386458723281
 10
87.16299988859264
 20
42.94386458723281
  0
LWPOLYLINE
  5
B90C
330
17
100
AcDbEntity
  8
0
  6
L5
 62
     2
100
AcDbPolyline
 90
        2
 70
     0
 43
0.0
 10
86.96499988859264
 20
46.31386458723282
 10
86.96499988859264
 20
42.94386458723281
  0
LWPOLYLINE
  5
B90D
330
17
100
AcDbEntity
  8
0
  6
L5
 62
     2
100
AcDbPolyline
 90
        2
 70
     0
 43
0.0
 10
86.98999988859263
 20
42.91886458723281
 10
87.13799988859262
 20
42.91886458723281
  0
LWPOLYLINE
  5
B90E
330
17
100
AcDbEntity
  8
0
  6
L5
 62
     2
100
AcDbPolyline
 90
        2
 70
     0
 43
0.0
 10
87.13799988859262
 20
42.91886458723281
 42
0.4142140000000001
 10
87.16299988859264
 20
42.94386458723281
  0
LWPOLYLINE
  5
B90F
330
17
100
AcDbEntity
  8
0
  6
L5
 62
     2
100
AcDbPolyline
 90
        2
 70
     0
 43
0.0
 10
86.96499988859264
 20
42.94386458723281
 42
0.4142140000000001
 10
86.98999988859263
 20
42.91886458723281
  0
LWPOLYLINE
  5
B910
330
17
100
AcDbEntity
  8
0
  6
L0
 62
     2
100
AcDbPolyline
 90
        2
 70
     0
 43
0.0
 10
87.03299988859264
 20
46.05386458723281
 10
87.03299988859264
 20
43.21386458723281
  0
LWPOLYLINE
  5
B911
330
17
100
AcDbEntity
  8
0
  6
L5
 62
     4
100
AcDbPolyline
 90
        2
 70
     0
 43
0.0
 10
87.19699988859263
 20
44.05686458723281
 10
87.19699988859263
 20
43.64886458723281
  0
LWPOLYLINE
  5
B912
330
17
100
AcDbEntity
  8
0
  6
L0
 62
     4
100
AcDbPolyline
 90
        2
 70
     0
 43
0.0
 10
87.27899988859261
 20
43.33186258723281
 10
87.27899988859261
 20
43.28986258723281
  0
LWPOLYLINE
  5
B913
330
17
100
AcDbEntity
  8
0
  6
L0
 62
     4
100
AcDbPolyline
 90
        2
 70
     0
 43
0.0
 10
87.19699988859263
 20
43.67586458723281
 10
87.17199988859261
 20
43.67586458723281
  0
LWPOLYLINE
  5
B914
330
17
100
AcDbEntity
  8
0
  6
L0
 62
     4
100
AcDbPolyline
 90
        2
 70
     0
 43
0.0
 10
87.17199988859261
 20
43.71786458723281
 10
87.19699988859263
 20
43.71786458723281
  0
LWPOLYLINE
  5
B915
330
17
100
AcDbEntity
  8
0
  6
L0
 62
     4
100
AcDbPolyline
 90
        2
 70
     0
 43
0.0
 10
87.17199988859261
 20
43.71786458723281
 10
87.17199988859261
 20
43.67586458723281
  0
TEXT
  5
B916
330
17
100
AcDbEntity
  8
0
100
AcDbText
 10
87.13623568585912
 20
43.39136458723281
 30
0.0
 40
0.08
  1
14
  7
SIMPLEX
 72
     4
 11
87.19528330490673
 21
43.43136458723281
 31
0.0
100
AcDbText
  0
LWPOLYLINE
  5
B917
330
17
100
AcDbEntity
  8
0
  6
L0
 62
     2
100
AcDbPolyline
 90
        2
 70
     0
 43
0.0
 10
87.06899988859264
 20
44.82886458723282
 10
87.03299988859264
 20
44.82886458723282
  0
LWPOLYLINE
  5
B918
330
17
100
AcDbEntity
  8
0
  6
L0
 62
     2
100
AcDbPolyline
 90
        2
 70
     0
 43
0.0
 10
87.10799988859262
 20
44.78986458723282
 42
0.4142140000000001
 10
87.06899988859264
 20
44.82886458723282
  0
LWPOLYLINE
  5
B919
330
17
100
AcDbEntity
  8
0
  6
L0
 62
     2
100
AcDbPolyline
 90
        2
 70
     0
 43
0.0
 10
87.06899988859264
 20
44.43886458723282
 10
87.03299988859264
 20
44.43886458723282
  0
LWPOLYLINE
  5
B91A
330
17
100
AcDbEntity
  8
0
  6
L0
 62
     2
100
AcDbPolyline
 90
        2
 70
     0
 43
0.0
 10
87.06899988859264
 20
44.43886458723282
 42
0.4142140000000001
 10
87.10799988859262
 20
44.47786458723282
  0
LWPOLYLINE
  5
B91B
330
17
100
AcDbEntity
  8
0
  6
L0
 62
     2
100
AcDbPolyline
 90
        2
 70
     0
 43
0.0
 10
87.10799988859262
 20
44.78986458723282
 10
87.10799988859262
 20
44.47786458723282
  0
LWPOLYLINE
  5
B91C
330
17
100
AcDbEntity
  8
0
  6
L5
 62
     2
100
AcDbPolyline
 90
        2
 70
     0
 43
0.0
 10
87.13799988859262
 20
46.3488645872328
 10
86.99999988859262
 20
46.3488645872328
  0
LWPOLYLINE
  5
B91D
330
17
100
AcDbEntity
  8
0
  6
L5
 62
     2
100
AcDbPolyline
 90
        2
 70
     0
 43
0.0
 10
87.16299988859264
 20
46.32386458723282
 42
0.4142140000000001
 10
87.13799988859262
 20
46.3488645872328
  0
LWPOLYLINE
  5
B91E
330
17
100
AcDbEntity
  8
0
  6
L5
 62
     2
100
AcDbPolyline
 90
        2
 70
     0
 43
0.0
 10
87.16299988859264
 20
46.32386458723282
 10
87.16299988859264
 20
46.05386458723281
  0
LWPOLYLINE
  5
B91F
330
17
100
AcDbEntity
  8
0
  6
L5
 62
     2
100
AcDbPolyline
 90
        2
 70
     0
 43
0.0
 10
86.99999988859262
 20
46.3488645872328
 42
0.4142140000000001
 10
86.96499988859264
 20
46.31386458723282
  0
LWPOLYLINE
  5
B920
330
17
100
AcDbEntity
  8
0
  6
L5
 62
     2
100
AcDbPolyline
 90
        2
 70
     0
 43
0.0
 10
89.96648988859261
 20
43.21386458723281
 10
89.96648988859261
 20
42.94386458723281
  0
LWPOLYLINE
  5
B921
330
17
100
AcDbEntity
  8
0
  6
L5
 62
     2
100
AcDbPolyline
 90
        2
 70
     0
 43
0.0
 10
90.16448988859259
 20
42.94386458723281
 10
90.16448988859259
 20
46.32386458723282
  0
LWPOLYLINE
  5
B922
330
17
100
AcDbEntity
  8
0
  6
L5
 62
     2
100
AcDbPolyline
 90
        2
 70
     0
 43
0.0
 10
89.99148988859259
 20
42.91886458723281
 10
90.1394898885926
 20
42.91886458723281
  0
LWPOLYLINE
  5
B923
330
17
100
AcDbEntity
  8
0
  6
L5
 62
     2
100
AcDbPolyline
 90
        2
 70
     0
 43
0.0
 10
90.1394898885926
 20
42.91886458723281
 42
0.4142140000000001
 10
90.16448988859259
 20
42.94386458723281
  0
LWPOLYLINE
  5
B924
330
17
100
AcDbEntity
  8
0
  6
L5
 62
     2
100
AcDbPolyline
 90
        2
 70
     0
 43
0.0
 10
89.96648988859261
 20
42.94386458723281
 42
0.4142140000000001
 10
89.99148988859259
 20
42.91886458723281
  0
LWPOLYLINE
  5
B925
330
17
100
AcDbEntity
  8
0
  6
L0
 62
     2
100
AcDbPolyline
 90
        2
 70
     0
 43
0.0
 10
90.09648988859259
 20
46.05386458723281
 10
90.09648988859259
 20
43.21386458723281
  0
LWPOLYLINE
  5
B926
330
17
100
AcDbEntity
  8
0
  6
L0
 62
     4
100
AcDbPolyline
 90
        2
 70
     0
 43
0.0
 10
88.51070388859264
 20
43.54386458723281
 10
89.01070388859265
 20
43.54386458723281
  0
LWPOLYLINE
  5
B927
330
17
100
AcDbEntity
  8
0
  6
L0
 62
     4
100
AcDbPolyline
 90
        2
 70
     0
 43
0.0
 10
88.51070388859264
 20
43.58386458723281
 10
89.01070388859265
 20
43.58386458723281
  0
CIRCLE
  5
B928
330
17
100
AcDbEntity
  8
0
  6
L0
 62
     4
100
AcDbCircle
 10
88.76070388859265
 20
43.43136458723281
 30
0.0
 40
0.074
  0
TEXT
  5
B929
330
17
100
AcDbEntity
  8
0
 62
     2
100
AcDbText
 10
88.09737261244974
 20
44.28819040020406
 30
0.0
 40
0.125
  1
20-54130
 41
0.85
  7
SIMPLEX
100
AcDbText
  0
LWPOLYLINE
  5
B92A
330
17
100
AcDbEntity
  8
0
  6
L0
 62
     4
100
AcDbPolyline
 90
        2
 70
     0
 43
0.0
 10
87.30399988859263
 20
43.31186458723281
 10
89.85370388859266
 20
43.31186458723281
  0
LWPOLYLINE
  5
B92B
330
17
100
AcDbEntity
  8
0
  6
L0
 62
     4
100
AcDbPolyline
 90
        2
 70
     0
 43
0.0
 10
87.79679588859263
 20
43.64886458723281
 10
87.79679588859263
 20
44.05686458723281
  0
LWPOLYLINE
  5
B92C
330
17
100
AcDbEntity
  8
0
  6
L0
 62
     4
100
AcDbPolyline
 90
        2
 70
     0
 43
0.0
 10
88.37099988859263
 20
43.64886458723281
 10
88.37099988859263
 20
44.05686458723281
  0
CIRCLE
  5
B92D
330
17
100
AcDbEntity
  8
0
  6
L0
 62
     4
100
AcDbCircle
 10
87.99449988859263
 20
43.43136458723281
 30
0.0
 40
0.074
  0
LWPOLYLINE
  5
B92E
330
17
100
AcDbEntity
  8
0
  6
L0
 62
     4
100
AcDbPolyline
 90
        2
 70
     0
 43
0.0
 10
87.93649988859264
 20
43.58386458723281
 10
88.43649988859263
 20
43.58386458723281
  0
LWPOLYLINE
  5
B92F
330
17
100
AcDbEntity
  8
0
  6
L0
 62
     4
100
AcDbPolyline
 90
        2
 70
     0
 43
0.0
 10
87.93649988859264
 20
43.54386458723281
 10
88.43649988859263
 20
43.54386458723281
  0
LWPOLYLINE
  5
B930
330
17
100
AcDbEntity
  8
0
  6
L0
 62
     4
100
AcDbPolyline
 90
        2
 70
     0
 43
0.0
 10
88.02077388859261
 20
43.79643858723282
 10
88.12448088859262
 20
43.90014458723282
  0
CIRCLE
  5
B931
330
17
100
AcDbEntity
  8
0
  6
L0
 62
     4
100
AcDbCircle
 10
88.08299988859262
 20
43.83886458723281
 30
0.0
 40
0.074
  0
LWPOLYLINE
  5
B932
330
17
100
AcDbEntity
  8
0
  6
L0
 62
     4
100
AcDbPolyline
 90
        2
 70
     0
 43
0.0
 10
87.8287738885926
 20
43.79643858723282
 10
87.93248088859263
 20
43.90014458723282
  0
LWPOLYLINE
  5
B933
330
17
100
AcDbEntity
  8
0
  6
L0
 62
     4
100
AcDbPolyline
 90
        2
 70
     0
 43
0.0
 10
87.84857288859264
 20
43.77663958723281
 10
87.95227988859263
 20
43.88034558723282
  0
CIRCLE
  5
B934
330
17
100
AcDbEntity
  8
0
  6
L0
 62
     4
100
AcDbCircle
 10
87.80249988859264
 20
43.43136458723281
 30
0.0
 40
0.074
  0
CIRCLE
  5
B935
330
17
100
AcDbEntity
  8
0
  6
L0
 62
     4
100
AcDbCircle
 10
87.89099988859261
 20
43.83886458723281
 30
0.0
 40
0.074
  0
LWPOLYLINE
  5
B936
330
17
100
AcDbEntity
  8
0
  6
L0
 62
     4
100
AcDbPolyline
 90
        2
 70
     0
 43
0.0
 10
87.78849988859262
 20
43.35736458723281
 10
87.78849988859262
 20
43.50402858723281
  0
LWPOLYLINE
  5
B937
330
17
100
AcDbEntity
  8
0
  6
L0
 62
     4
100
AcDbPolyline
 90
        2
 70
     0
 43
0.0
 10
87.81649988859264
 20
43.35736458723281
 10
87.81649988859264
 20
43.50402858723281
  0
LWPOLYLINE
  5
B938
330
17
100
AcDbEntity
  8
0
  6
L0
 62
     4
100
AcDbPolyline
 90
        2
 70
     0
 43
0.0
 10
87.86049988859263
 20
43.54386458723281
 10
87.86049988859263
 20
43.58386458723281
  0
LWPOLYLINE
  5
B939
330
17
100
AcDbEntity
  8
0
  6
L0
 62
     4
100
AcDbPolyline
 90
        2
 70
     0
 43
0.0
 10
87.89849988859261
 20
43.21386458723281
 10
87.89849988859261
 20
43.64886458723281
  0
LWPOLYLINE
  5
B93A
330
17
100
AcDbEntity
  8
0
  6
L0
 62
     4
100
AcDbPolyline
 90
        2
 70
     0
 43
0.0
 10
87.98049988859263
 20
43.35736458723281
 10
87.98049988859263
 20
43.50402858723281
  0
LWPOLYLINE
  5
B93B
330
17
100
AcDbEntity
  8
0
  6
L0
 62
     4
100
AcDbPolyline
 90
        2
 70
     0
 43
0.0
 10
88.00849988859262
 20
43.35736458723281
 10
88.00849988859262
 20
43.50402858723281
  0
LWPOLYLINE
  5
B93C
330
17
100
AcDbEntity
  8
0
  6
L0
 62
     4
100
AcDbPolyline
 90
        2
 70
     0
 43
0.0
 10
87.93649988859264
 20
43.54386458723281
 10
87.93649988859264
 20
43.58386458723281
  0
LWPOLYLINE
  5
B93D
330
17
100
AcDbEntity
  8
0
  6
L5
 62
     4
100
AcDbPolyline
 90
        2
 70
     0
 43
0.0
 10
87.30399988859263
 20
43.21386458723281
 10
87.30399988859263
 20
43.64886458723281
  0
CIRCLE
  5
B93E
330
17
100
AcDbEntity
  8
0
  6
L0
 62
     4
100
AcDbCircle
 10
87.41849988859264
 20
43.43136458723281
 30
0.0
 40
0.074
  0
LWPOLYLINE
  5
B93F
330
17
100
AcDbEntity
  8
0
  6
L0
 62
     4
100
AcDbPolyline
 90
        2
 70
     0
 43
0.0
 10
87.40449988859264
 20
43.35736458723281
 10
87.40449988859264
 20
43.50402858723281
  0
LWPOLYLINE
  5
B940
330
17
100
AcDbEntity
  8
0
  6
L0
 62
     4
100
AcDbPolyline
 90
        2
 70
     0
 43
0.0
 10
87.43249988859263
 20
43.35736458723281
 10
87.43249988859263
 20
43.50402858723281
  0
CIRCLE
  5
B941
330
17
100
AcDbEntity
  8
0
  6
L0
 62
     4
100
AcDbCircle
 10
87.61049988859262
 20
43.43136458723281
 30
0.0
 40
0.074
  0
LWPOLYLINE
  5
B942
330
17
100
AcDbEntity
  8
0
  6
L0
 62
     4
100
AcDbPolyline
 90
        2
 70
     0
 43
0.0
 10
87.59649988859264
 20
43.35736458723281
 10
87.59649988859264
 20
43.50402858723281
  0
LWPOLYLINE
  5
B943
330
17
100
AcDbEntity
  8
0
  6
L0
 62
     4
100
AcDbPolyline
 90
        2
 70
     0
 43
0.0
 10
87.62449988859261
 20
43.35736458723281
 10
87.62449988859261
 20
43.50402858723281
  0
LWPOLYLINE
  5
B944
330
17
100
AcDbEntity
  8
0
  6
L0
 62
     4
100
AcDbPolyline
 90
        2
 70
     0
 43
0.0
 10
87.44477388859262
 20
43.79643858723282
 10
87.54848088859263
 20
43.90014458723282
  0
CIRCLE
  5
B945
330
17
100
AcDbEntity
  8
0
  6
L0
 62
     4
100
AcDbCircle
 10
87.50699988859263
 20
43.83886458723281
 30
0.0
 40
0.074
  0
LWPOLYLINE
  5
B946
330
17
100
AcDbEntity
  8
0
  6
L0
 62
     4
100
AcDbPolyline
 90
        2
 70
     0
 43
0.0
 10
87.36049988859262
 20
43.54386458723281
 10
87.36049988859262
 20
43.58386458723281
  0
LWPOLYLINE
  5
B947
330
17
100
AcDbEntity
  8
0
  6
L0
 62
     4
100
AcDbPolyline
 90
        2
 70
     0
 43
0.0
 10
87.46457288859263
 20
43.77663958723281
 10
87.56827988859264
 20
43.88034558723282
  0
LWPOLYLINE
  5
B948
330
17
100
AcDbEntity
  8
0
  6
L0
 62
     4
100
AcDbPolyline
 90
        2
 70
     0
 43
0.0
 10
87.36049988859262
 20
43.54386458723281
 10
87.86049988859263
 20
43.54386458723281
  0
LWPOLYLINE
  5
B949
330
17
100
AcDbEntity
  8
0
  6
L0
 62
     4
100
AcDbPolyline
 90
        2
 70
     0
 43
0.0
 10
87.36049988859262
 20
43.58386458723281
 10
87.86049988859263
 20
43.58386458723281
  0
LWPOLYLINE
  5
B94A
330
17
100
AcDbEntity
  8
0
  6
L0
 62
     4
100
AcDbPolyline
 90
        2
 70
     0
 43
0.0
 10
87.63677388859262
 20
43.79643858723282
 10
87.74048088859261
 20
43.90014458723282
  0
LWPOLYLINE
  5
B94B
330
17
100
AcDbEntity
  8
0
  6
L0
 62
     4
100
AcDbPolyline
 90
        2
 70
     0
 43
0.0
 10
87.65657288859264
 20
43.77663958723281
 10
87.76027988859262
 20
43.88034558723282
  0
CIRCLE
  5
B94C
330
17
100
AcDbEntity
  8
0
  6
L0
 62
     4
100
AcDbCircle
 10
87.69899988859263
 20
43.83886458723281
 30
0.0
 40
0.074
  0
CIRCLE
  5
B94D
330
17
100
AcDbEntity
  8
0
  6
L0
 62
     4
100
AcDbCircle
 10
88.65720388859264
 20
43.83886458723281
 30
0.0
 40
0.074
  0
LWPOLYLINE
  5
B94E
330
17
100
AcDbEntity
  8
0
  6
L0
 62
     4
100
AcDbPolyline
 90
        2
 70
     0
 43
0.0
 10
88.61477688859265
 20
43.77663958723281
 10
88.71848388859262
 20
43.88034558723282
  0
LWPOLYLINE
  5
B94F
330
17
100
AcDbEntity
  8
0
  6
L0
 62
     4
100
AcDbPolyline
 90
        2
 70
     0
 43
0.0
 10
88.59497788859263
 20
43.79643858723282
 10
88.69868488859262
 20
43.90014458723282
  0
LWPOLYLINE
  5
B950
330
17
100
AcDbEntity
  8
0
  6
L0
 62
     4
100
AcDbPolyline
 90
        2
 70
     0
 43
0.0
 10
88.51070388859264
 20
43.54386458723281
 10
88.51070388859264
 20
43.58386458723281
  0
LWPOLYLINE
  5
B951
330
17
100
AcDbEntity
  8
0
  6
L0
 62
     4
100
AcDbPolyline
 90
        2
 70
     0
 43
0.0
 10
88.74670388859263
 20
43.35736458723281
 10
88.74670388859263
 20
43.50402858723281
  0
LWPOLYLINE
  5
B952
330
17
100
AcDbEntity
  8
0
  6
L0
 62
     4
100
AcDbPolyline
 90
        2
 70
     0
 43
0.0
 10
88.58270388859262
 20
43.35736458723281
 10
88.58270388859262
 20
43.50402858723281
  0
LWPOLYLINE
  5
B953
330
17
100
AcDbEntity
  8
0
  6
L0
 62
     4
100
AcDbPolyline
 90
        2
 70
     0
 43
0.0
 10
88.55470388859263
 20
43.35736458723281
 10
88.55470388859263
 20
43.50402858723281
  0
CIRCLE
  5
B954
330
17
100
AcDbEntity
  8
0
  6
L0
 62
     4
100
AcDbCircle
 10
88.56870388859263
 20
43.43136458723281
 30
0.0
 40
0.074
  0
LWPOLYLINE
  5
B955
330
17
100
AcDbEntity
  8
0
  6
L0
 62
     4
100
AcDbPolyline
 90
        2
 70
     0
 43
0.0
 10
88.47449988859265
 20
43.21386458723281
 10
88.47449988859265
 20
43.64886458723281
  0
LWPOLYLINE
  5
B956
330
17
100
AcDbEntity
  8
0
  6
L0
 62
     4
100
AcDbPolyline
 90
        2
 70
     0
 43
0.0
 10
88.17249988859261
 20
43.35736458723281
 10
88.17249988859261
 20
43.50402858723281
  0
LWPOLYLINE
  5
B957
330
17
100
AcDbEntity
  8
0
  6
L0
 62
     4
100
AcDbPolyline
 90
        2
 70
     0
 43
0.0
 10
88.20049988859263
 20
43.35736458723281
 10
88.20049988859263
 20
43.50402858723281
  0
CIRCLE
  5
B958
330
17
100
AcDbEntity
  8
0
  6
L0
 62
     4
100
AcDbCircle
 10
88.18649988859261
 20
43.43136458723281
 30
0.0
 40
0.074
  0
LWPOLYLINE
  5
B959
330
17
100
AcDbEntity
  8
0
  6
L0
 62
     4
100
AcDbPolyline
 90
        2
 70
     0
 43
0.0
 10
88.36449988859264
 20
43.35736458723281
 10
88.36449988859264
 20
43.50402858723281
  0
LWPOLYLINE
  5
B95A
330
17
100
AcDbEntity
  8
0
  6
L0
 62
     4
100
AcDbPolyline
 90
        2
 70
     0
 43
0.0
 10
88.39249988859263
 20
43.35736458723281
 10
88.39249988859263
 20
43.50402858723281
  0
CIRCLE
  5
B95B
330
17
100
AcDbEntity
  8
0
  6
L0
 62
     4
100
AcDbCircle
 10
88.37849988859263
 20
43.43136458723281
 30
0.0
 40
0.074
  0
LWPOLYLINE
  5
B95C
330
17
100
AcDbEntity
  8
0
  6
L0
 62
     4
100
AcDbPolyline
 90
        2
 70
     0
 43
0.0
 10
88.21277388859263
 20
43.79643858723282
 10
88.31648088859264
 20
43.90014458723282
  0
LWPOLYLINE
  5
B95D
330
17
100
AcDbEntity
  8
0
  6
L0
 62
     4
100
AcDbPolyline
 90
        2
 70
     0
 43
0.0
 10
88.23257288859263
 20
43.77663958723281
 10
88.33627988859261
 20
43.88034558723282
  0
CIRCLE
  5
B95E
330
17
100
AcDbEntity
  8
0
  6
L0
 62
     4
100
AcDbCircle
 10
88.2749998885926
 20
43.83886458723281
 30
0.0
 40
0.074
  0
LWPOLYLINE
  5
B95F
330
17
100
AcDbEntity
  8
0
  6
L0
 62
     4
100
AcDbPolyline
 90
        2
 70
     0
 43
0.0
 10
88.04057288859262
 20
43.77663958723281
 10
88.14427988859263
 20
43.88034558723282
  0
LWPOLYLINE
  5
B960
330
17
100
AcDbEntity
  8
0
  6
L0
 62
     4
100
AcDbPolyline
 90
        2
 70
     0
 43
0.0
 10
88.43649988859263
 20
43.54386458723281
 10
88.43649988859263
 20
43.58386458723281
  0
CIRCLE
  5
B961
330
17
100
AcDbEntity
  8
0
  6
L0
 62
     4
100
AcDbCircle
 10
88.46520388859264
 20
43.83886458723281
 30
0.0
 40
0.074
  0
LWPOLYLINE
  5
B962
330
17
100
AcDbEntity
  8
0
  6
L0
 62
     4
100
AcDbPolyline
 90
        2
 70
     0
 43
0.0
 10
88.42277688859264
 20
43.77663958723281
 10
88.52648388859265
 20
43.88034558723282
  0
LWPOLYLINE
  5
B963
330
17
100
AcDbEntity
  8
0
  6
L0
 62
     4
100
AcDbPolyline
 90
        2
 70
     0
 43
0.0
 10
88.40297788859263
 20
43.79643858723282
 10
88.50668488859264
 20
43.90014458723282
  0
TEXT
  5
B964
330
17
100
AcDbEntity
  8
0
100
AcDbText
 10
87.71327402873557
 20
44.11362411484826
 30
0.0
 40
0.08
  1
JP2
  7
SIMPLEX
 72
     4
 11
87.81041688587844
 21
44.15362411484825
 31
0.0
100
AcDbText
  0
TEXT
  5
B965
330
17
100
AcDbEntity
  8
0
100
AcDbText
 10
87.30547607906883
 20
44.10121197009947
 30
0.0
 40
0.08
  1
1
  7
SIMPLEX
 72
     4
 11
87.31499988859265
 21
44.14121197009946
 31
0.0
100
AcDbText
  0
LWPOLYLINE
  5
B966
330
17
100
AcDbEntity
  8
0
  6
L0
 62
     4
100
AcDbPolyline
 90
        2
 70
     0
 43
0.0
 10
88.94520388859266
 20
43.64886458723281
 10
88.94520388859266
 20
44.05686458723281
  0
LWPOLYLINE
  5
B967
330
17
100
AcDbEntity
  8
0
  6
L0
 62
     4
100
AcDbPolyline
 90
        2
 70
     0
 43
0.0
 10
89.32740788859264
 20
43.64886458723281
 10
89.32740788859264
 20
44.05686458723281
  0
LWPOLYLINE
  5
B968
330
17
100
AcDbEntity
  8
0
  6
L5
 62
     4
100
AcDbPolyline
 90
        2
 70
     0
 43
0.0
 10
89.72990788859268
 20
44.05686458723281
 10
89.72990788859268
 20
43.64886458723281
  0
LWPOLYLINE
  5
B969
330
17
100
AcDbEntity
  8
0
  6
L0
 62
     4
100
AcDbPolyline
 90
        2
 70
     0
 43
0.0
 10
89.48820388859264
 20
43.58386458723281
 10
89.79820388859266
 20
43.58386458723281
  0
LWPOLYLINE
  5
B96A
330
17
100
AcDbEntity
  8
0
  6
L0
 62
     4
100
AcDbPolyline
 90
        2
 70
     0
 43
0.0
 10
89.48820388859264
 20
43.54386458723281
 10
89.79820388859266
 20
43.54386458723281
  0
CIRCLE
  5
B96B
330
17
100
AcDbEntity
  8
0
  6
L0
 62
     4
100
AcDbCircle
 10
89.54720388859263
 20
43.43136458723281
 30
0.0
 40
0.074
  0
CIRCLE
  5
B96C
330
17
100
AcDbEntity
  8
0
  6
L0
 62
     4
100
AcDbCircle
 10
89.42340788859263
 20
43.83886458723281
 30
0.0
 40
0.074
  0
LWPOLYLINE
  5
B96D
330
17
100
AcDbEntity
  8
0
  6
L0
 62
     4
100
AcDbPolyline
 90
        2
 70
     0
 43
0.0
 10
89.38098088859266
 20
43.77663958723281
 10
89.48468788859264
 20
43.88034558723282
  0
LWPOLYLINE
  5
B96E
330
17
100
AcDbEntity
  8
0
  6
L0
 62
     4
100
AcDbPolyline
 90
        2
 70
     0
 43
0.0
 10
89.36118188859266
 20
43.79643858723282
 10
89.46488888859267
 20
43.90014458723282
  0
LWPOLYLINE
  5
B96F
330
17
100
AcDbEntity
  8
0
  6
L5
 62
     4
100
AcDbPolyline
 90
        2
 70
     0
 43
0.0
 10
89.45120388859265
 20
43.64886458723281
 10
89.45120388859265
 20
43.21386458723281
  0
LWPOLYLINE
  5
B970
330
17
100
AcDbEntity
  8
0
  6
L0
 62
     4
100
AcDbPolyline
 90
        2
 70
     0
 43
0.0
 10
89.32270388859265
 20
43.35736458723281
 10
89.32270388859265
 20
43.50402858723281
  0
LWPOLYLINE
  5
B971
330
17
100
AcDbEntity
  8
0
  6
L0
 62
     4
100
AcDbPolyline
 90
        2
 70
     0
 43
0.0
 10
89.35070388859264
 20
43.35736458723281
 10
89.35070388859264
 20
43.50402858723281
  0
CIRCLE
  5
B972
330
17
100
AcDbEntity
  8
0
  6
L0
 62
     4
100
AcDbCircle
 10
89.33670388859264
 20
43.43136458723281
 30
0.0
 40
0.074
  0
LWPOLYLINE
  5
B973
330
17
100
AcDbEntity
  8
0
  6
L0
 62
     4
100
AcDbPolyline
 90
        2
 70
     0
 43
0.0
 10
89.39570388859266
 20
43.54386458723281
 10
89.39570388859266
 20
43.58386458723281
  0
LWPOLYLINE
  5
B974
330
17
100
AcDbEntity
  8
0
  6
L0
 62
     4
100
AcDbPolyline
 90
        2
 70
     0
 43
0.0
 10
89.48820388859264
 20
43.54386458723281
 10
89.48820388859264
 20
43.58386458723281
  0
CIRCLE
  5
B975
330
17
100
AcDbEntity
  8
0
  6
L0
 62
     4
100
AcDbCircle
 10
88.84920388859262
 20
43.83886458723281
 30
0.0
 40
0.074
  0
LWPOLYLINE
  5
B976
330
17
100
AcDbEntity
  8
0
  6
L0
 62
     4
100
AcDbPolyline
 90
        2
 70
     0
 43
0.0
 10
88.80677688859265
 20
43.77663958723281
 10
88.91048388859264
 20
43.88034558723282
  0
LWPOLYLINE
  5
B977
330
17
100
AcDbEntity
  8
0
  6
L0
 62
     4
100
AcDbPolyline
 90
        2
 70
     0
 43
0.0
 10
88.78697788859264
 20
43.79643858723282
 10
88.89068488859265
 20
43.90014458723282
  0
LWPOLYLINE
  5
B978
330
17
100
AcDbEntity
  8
0
  6
L0
 62
     4
100
AcDbPolyline
 90
        2
 70
     0
 43
0.0
 10
89.01070388859265
 20
43.54386458723281
 10
89.01070388859265
 20
43.58386458723281
  0
CIRCLE
  5
B979
330
17
100
AcDbEntity
  8
0
  6
L0
 62
     4
100
AcDbCircle
 10
88.95270388859264
 20
43.43136458723281
 30
0.0
 40
0.074
  0
LWPOLYLINE
  5
B97A
330
17
100
AcDbEntity
  8
0
  6
L0
 62
     4
100
AcDbPolyline
 90
        2
 70
     0
 43
0.0
 10
88.96670388859263
 20
43.35736458723281
 10
88.96670388859263
 20
43.50402858723281
  0
LWPOLYLINE
  5
B97B
330
17
100
AcDbEntity
  8
0
  6
L0
 62
     4
100
AcDbPolyline
 90
        2
 70
     0
 43
0.0
 10
88.93870388859264
 20
43.35736458723281
 10
88.93870388859264
 20
43.50402858723281
  0
LWPOLYLINE
  5
B97C
330
17
100
AcDbEntity
  8
0
  6
L0
 62
     4
100
AcDbPolyline
 90
        2
 70
     0
 43
0.0
 10
88.77470388859265
 20
43.35736458723281
 10
88.77470388859265
 20
43.50402858723281
  0
LWPOLYLINE
  5
B97D
330
17
100
AcDbEntity
  8
0
  6
L0
 62
     4
100
AcDbPolyline
 90
        2
 70
     0
 43
0.0
 10
89.04870388859265
 20
43.21386458723281
 10
89.04870388859265
 20
43.64886458723281
  0
CIRCLE
  5
B97E
330
17
100
AcDbEntity
  8
0
  6
L0
 62
     4
100
AcDbCircle
 10
89.03940788859264
 20
43.83886458723281
 30
0.0
 40
0.074
  0
LWPOLYLINE
  5
B97F
330
17
100
AcDbEntity
  8
0
  6
L0
 62
     4
100
AcDbPolyline
 90
        2
 70
     0
 43
0.0
 10
88.99698088859265
 20
43.77663958723281
 10
89.10068788859266
 20
43.88034558723282
  0
LWPOLYLINE
  5
B980
330
17
100
AcDbEntity
  8
0
  6
L0
 62
     4
100
AcDbPolyline
 90
        2
 70
     0
 43
0.0
 10
88.97718188859263
 20
43.79643858723282
 10
89.08088888859266
 20
43.90014458723282
  0
LWPOLYLINE
  5
B981
330
17
100
AcDbEntity
  8
0
  6
L0
 62
     4
100
AcDbPolyline
 90
        2
 70
     0
 43
0.0
 10
89.13070388859262
 20
43.35736458723281
 10
89.13070388859262
 20
43.50402858723281
  0
LWPOLYLINE
  5
B982
330
17
100
AcDbEntity
  8
0
  6
L0
 62
     4
100
AcDbPolyline
 90
        2
 70
     0
 43
0.0
 10
89.15870388859264
 20
43.35736458723281
 10
89.15870388859264
 20
43.50402858723281
  0
CIRCLE
  5
B983
330
17
100
AcDbEntity
  8
0
  6
L0
 62
     4
100
AcDbCircle
 10
89.14470388859262
 20
43.43136458723281
 30
0.0
 40
0.074
  0
LWPOLYLINE
  5
B984
330
17
100
AcDbEntity
  8
0
  6
L0
 62
     4
100
AcDbPolyline
 90
        2
 70
     0
 43
0.0
 10
89.08570388859263
 20
43.54386458723281
 10
89.08570388859263
 20
43.58386458723281
  0
CIRCLE
  5
B985
330
17
100
AcDbEntity
  8
0
  6
L0
 62
     4
100
AcDbCircle
 10
89.23140788859265
 20
43.83886458723281
 30
0.0
 40
0.074
  0
LWPOLYLINE
  5
B986
330
17
100
AcDbEntity
  8
0
  6
L0
 62
     4
100
AcDbPolyline
 90
        2
 70
     0
 43
0.0
 10
89.18898088859265
 20
43.77663958723281
 10
89.29268788859266
 20
43.88034558723282
  0
LWPOLYLINE
  5
B987
330
17
100
AcDbEntity
  8
0
  6
L0
 62
     4
100
AcDbPolyline
 90
        2
 70
     0
 43
0.0
 10
89.16918188859265
 20
43.79643858723282
 10
89.27288888859264
 20
43.90014458723282
  0
LWPOLYLINE
  5
B988
330
17
100
AcDbEntity
  8
0
  6
L0
 62
     4
100
AcDbPolyline
 90
        2
 70
     0
 43
0.0
 10
89.08570388859263
 20
43.58386458723281
 10
89.39570388859266
 20
43.58386458723281
  0
LWPOLYLINE
  5
B989
330
17
100
AcDbEntity
  8
0
  6
L0
 62
     4
100
AcDbPolyline
 90
        2
 70
     0
 43
0.0
 10
89.08570388859263
 20
43.54386458723281
 10
89.39570388859266
 20
43.54386458723281
  0
LWPOLYLINE
  5
B98A
330
17
100
AcDbEntity
  8
0
  6
L5
 62
     4
100
AcDbPolyline
 90
        2
 70
     0
 43
0.0
 10
89.85370388859266
 20
43.64886458723281
 10
89.85370388859266
 20
43.21386458723281
  0
LWPOLYLINE
  5
B98B
330
17
100
AcDbEntity
  8
0
  6
L0
 62
     4
100
AcDbPolyline
 90
        2
 70
     0
 43
0.0
 10
89.53320388859262
 20
43.35736458723281
 10
89.53320388859262
 20
43.50402858723281
  0
LWPOLYLINE
  5
B98C
330
17
100
AcDbEntity
  8
0
  6
L0
 62
     4
100
AcDbPolyline
 90
        2
 70
     0
 43
0.0
 10
89.56120388859265
 20
43.35736458723281
 10
89.56120388859265
 20
43.50402858723281
  0
LWPOLYLINE
  5
B98D
330
17
100
AcDbEntity
  8
0
  6
L0
 62
     4
100
AcDbPolyline
 90
        2
 70
     0
 43
0.0
 10
89.72520388859265
 20
43.35736458723281
 10
89.72520388859265
 20
43.50402858723281
  0
LWPOLYLINE
  5
B98E
330
17
100
AcDbEntity
  8
0
  6
L0
 62
     4
100
AcDbPolyline
 90
        2
 70
     0
 43
0.0
 10
89.75320388859264
 20
43.35736458723281
 10
89.75320388859264
 20
43.50402858723281
  0
CIRCLE
  5
B98F
330
17
100
AcDbEntity
  8
0
  6
L0
 62
     4
100
AcDbCircle
 10
89.73920388859264
 20
43.43136458723281
 30
0.0
 40
0.074
  0
LWPOLYLINE
  5
B990
330
17
100
AcDbEntity
  8
0
  6
L0
 62
     4
100
AcDbPolyline
 90
        2
 70
     0
 43
0.0
 10
89.79820388859266
 20
43.54386458723281
 10
89.79820388859266
 20
43.58386458723281
  0
LWPOLYLINE
  5
B991
330
17
100
AcDbEntity
  8
0
  6
L0
 62
     4
100
AcDbPolyline
 90
        2
 70
     0
 43
0.0
 10
89.55318188859264
 20
43.79643858723282
 10
89.65688888859267
 20
43.90014458723282
  0
LWPOLYLINE
  5
B992
330
17
100
AcDbEntity
  8
0
  6
L0
 62
     4
100
AcDbPolyline
 90
        2
 70
     0
 43
0.0
 10
89.57298088859266
 20
43.77663958723281
 10
89.67668788859267
 20
43.88034558723282
  0
CIRCLE
  5
B993
330
17
100
AcDbEntity
  8
0
  6
L0
 62
     4
100
AcDbCircle
 10
89.61540788859265
 20
43.83886458723281
 30
0.0
 40
0.074
  0
TEXT
  5
B994
330
17
100
AcDbEntity
  8
0
100
AcDbText
 10
89.87713672487791
 20
43.39136458723281
 30
0.0
 40
0.08
  1
26
  7
SIMPLEX
 72
     4
 11
89.93999386773506
 21
43.43136458723281
 31
0.0
100
AcDbText
  0
LWPOLYLINE
  5
B995
330
17
100
AcDbEntity
  8
0
  6
L0
 62
     2
100
AcDbPolyline
 90
        2
 70
     0
 43
0.0
 10
90.0604898885926
 20
44.82886458723282
 42
0.4142140000000001
 10
90.02148988859259
 20
44.78986458723282
  0
LWPOLYLINE
  5
B996
330
17
100
AcDbEntity
  8
0
  6
L0
 62
     2
100
AcDbPolyline
 90
        2
 70
     0
 43
0.0
 10
90.0604898885926
 20
44.82886458723282
 10
90.09648988859259
 20
44.82886458723282
  0
LWPOLYLINE
  5
B997
330
17
100
AcDbEntity
  8
0
  6
L0
 62
     2
100
AcDbPolyline
 90
        2
 70
     0
 43
0.0
 10
90.02148988859259
 20
44.47786458723282
 42
0.4142140000000001
 10
90.0604898885926
 20
44.43886458723282
  0
LWPOLYLINE
  5
B998
330
17
100
AcDbEntity
  8
0
  6
L0
 62
     2
100
AcDbPolyline
 90
        2
 70
     0
 43
0.0
 10
90.0604898885926
 20
44.43886458723282
 10
90.09648988859259
 20
44.43886458723282
  0
TEXT
  5
B999
330
17
100
AcDbEntity
  8
0
100
AcDbText
 10
89.55476503144982
 20
44.10121197009947
 30
0.0
 40
0.08
  1
13
  7
SIMPLEX
 72
     4
 11
89.61190788859267
 21
44.14121197009946
 31
0.0
100
AcDbText
  0
LWPOLYLINE
  5
B99A
330
17
100
AcDbEntity
  8
0
  6
L0
 62
     2
100
AcDbPolyline
 90
        2
 70
     0
 43
0.0
 10
90.02148988859259
 20
44.78986458723282
 10
90.02148988859259
 20
44.47786458723282
  0
CIRCLE
  5
B99B
330
17
100
AcDbEntity
  8
0
100
AcDbCircle
 10
88.75812392448187
 20
45.29686113859245
 30
0.0
 40
0.02077621
  0
CIRCLE
  5
B99C
330
17
100
AcDbEntity
  8
0
100
AcDbCircle
 10
88.78029685448188
 20
45.20816941859245
 30
0.0
 40
0.02077621
  0
CIRCLE
  5
B99D
330
17
100
AcDbEntity
  8
0
100
AcDbCircle
 10
88.78029685448188
 20
45.38555285859245
 30
0.0
 40
0.02077621
  0
LWPOLYLINE
  5
B99E
330
17
100
AcDbEntity
  8
0
  6
L5
 62
     2
100
AcDbPolyline
 90
        2
 70
     0
 43
0.0
 10
87.83749538859261
 20
45.04077647142882
 10
89.29199438859262
 20
45.04077647142882
  0
LWPOLYLINE
  5
B99F
330
17
100
AcDbEntity
  8
0
  6
L5
 62
     2
100
AcDbPolyline
 90
        2
 70
     0
 43
0.0
 10
87.83749538859261
 20
45.54077647142881
 10
89.29199438859262
 20
45.54077647142881
  0
LWPOLYLINE
  5
B9A0
330
17
100
AcDbEntity
  8
0
  6
L0
 62
     2
100
AcDbPolyline
 90
        2
 70
     0
 43
0.0
 10
88.20136138859261
 20
45.12377647142883
 10
88.92964838859262
 20
45.12377647142883
  0
LWPOLYLINE
  5
B9A1
330
17
100
AcDbEntity
  8
0
  6
L0
 62
     2
100
AcDbPolyline
 90
        2
 70
     0
 43
0.0
 10
88.20136138859261
 20
45.10677647142883
 10
88.92964838859262
 20
45.10677647142883
  0
LWPOLYLINE
  5
B9A2
330
17
100
AcDbEntity
  8
0
  6
L0
 62
     2
100
AcDbPolyline
 90
        2
 70
     0
 43
0.0
 10
88.17429638859263
 20
45.45777647142883
 10
88.95972238859263
 20
45.45777547142882
  0
LWPOLYLINE
  5
B9A3
330
17
100
AcDbEntity
  8
0
  6
L0
 62
     2
100
AcDbPolyline
 90
        2
 70
     0
 43
0.0
 10
88.17429638859263
 20
45.47477647142883
 10
88.95972238859263
 20
45.47477647142883
  0
LWPOLYLINE
  5
B9A4
330
17
100
AcDbEntity
  8
0
  6
L5
 62
     2
100
AcDbPolyline
 90
        2
 70
     0
 43
0.0
 10
87.83749538859261
 20
45.54077647142881
 42
0.4142140000000001
 10
87.78949538859261
 20
45.49277647142882
  0
LWPOLYLINE
  5
B9A5
330
17
100
AcDbEntity
  8
0
  6
L5
 62
     2
100
AcDbPolyline
 90
        2
 70
     0
 43
0.0
 10
87.78949538859261
 20
45.08877647142883
 42
0.4142140000000001
 10
87.83749538859261
 20
45.04077647142882
  0
CIRCLE
  5
B9A6
330
17
100
AcDbEntity
  8
0
  6
L0
 62
     2
100
AcDbCircle
 10
87.91349538859263
 20
45.29077647142883
 30
0.0
 40
0.039
  0
LWPOLYLINE
  5
B9A7
330
17
100
AcDbEntity
  8
0
  6
L0
 62
     2
100
AcDbPolyline
 90
        2
 70
     0
 43
0.0
 10
87.91349538859263
 20
45.18107947142881
 10
88.0084953885926
 20
45.23592847142883
  0
CIRCLE
  5
B9A8
330
17
100
AcDbEntity
  8
0
  6
L0
 62
     2
100
AcDbCircle
 10
87.91349538859263
 20
45.29077647142883
 30
0.0
 40
0.095
  0
LWPOLYLINE
  5
B9A9
330
17
100
AcDbEntity
  8
0
  6
L0
 62
     2
100
AcDbPolyline
 90
        2
 70
     0
 43
0.0
 10
87.81849438859261
 20
45.23592847142883
 10
87.91349538859263
 20
45.18107947142881
  0
LWPOLYLINE
  5
B9AA
330
17
100
AcDbEntity
  8
0
  6
L0
 62
     2
100
AcDbPolyline
 90
        2
 70
     0
 43
0.0
 10
87.81849438859261
 20
45.34562447142882
 10
87.81849438859261
 20
45.23592847142883
  0
LWPOLYLINE
  5
B9AB
330
17
100
AcDbEntity
  8
0
  6
L0
 62
     2
100
AcDbPolyline
 90
        2
 70
     0
 43
0.0
 10
88.0084953885926
 20
45.23592847142883
 10
88.0084953885926
 20
45.34562447142882
  0
CIRCLE
  5
B9AC
330
17
100
AcDbEntity
  8
0
  6
HIDDEN
100
AcDbCircle
 10
87.91349538859263
 20
45.29077647142883
 30
0.0
 40
0.054
  0
LWPOLYLINE
  5
B9AD
330
17
100
AcDbEntity
  8
0
  6
L5
 62
     2
100
AcDbPolyline
 90
        2
 70
     0
 43
0.0
 10
87.78949538859261
 20
45.08877647142883
 10
87.78949538859261
 20
45.49277647142882
  0
LWPOLYLINE
  5
B9AE
330
17
100
AcDbEntity
  8
0
  6
L0
 62
     2
100
AcDbPolyline
 90
        2
 70
     0
 43
0.0
 10
88.0084953885926
 20
45.34562447142882
 10
87.91349538859263
 20
45.40047347142882
  0
LWPOLYLINE
  5
B9AF
330
17
100
AcDbEntity
  8
0
  6
L0
 62
     2
100
AcDbPolyline
 90
        2
 70
     0
 43
0.0
 10
87.91349538859263
 20
45.40047347142882
 10
87.81849438859261
 20
45.34562447142882
  0
CIRCLE
  5
B9B0
330
17
100
AcDbEntity
  8
0
100
AcDbCircle
 10
88.66044192448189
 20
45.29686113859245
 30
0.0
 40
0.02077621
  0
CIRCLE
  5
B9B1
330
17
100
AcDbEntity
  8
0
100
AcDbCircle
 10
88.6826148544819
 20
45.20816941859245
 30
0.0
 40
0.02077621
  0
CIRCLE
  5
B9B2
330
17
100
AcDbEntity
  8
0
100
AcDbCircle
 10
88.56275992448189
 20
45.29686113859245
 30
0.0
 40
0.02077621
  0
CIRCLE
  5
B9B3
330
17
100
AcDbEntity
  8
0
100
AcDbCircle
 10
88.58493285448188
 20
45.20816941859245
 30
0.0
 40
0.02077621
  0
CIRCLE
  5
B9B4
330
17
100
AcDbEntity
  8
0
100
AcDbCircle
 10
88.6826148544819
 20
45.38555285859245
 30
0.0
 40
0.02077621
  0
CIRCLE
  5
B9B5
330
17
100
AcDbEntity
  8
0
100
AcDbCircle
 10
88.58493285448188
 20
45.38555285859245
 30
0.0
 40
0.02077621
  0
LWPOLYLINE
  5
B9B6
330
17
100
AcDbEntity
  8
0
  6
L0
 62
     2
100
AcDbPolyline
 90
        2
 70
     0
 43
0.0
 10
88.1184563885926
 20
45.19425947142882
 42
0.367631
 10
88.20136138859261
 20
45.12377647142883
  0
LWPOLYLINE
  5
B9B7
330
17
100
AcDbEntity
  8
0
  6
L0
 62
     2
100
AcDbPolyline
 90
        2
 70
     0
 43
0.0
 10
88.10167738859261
 20
45.19152347142882
 42
0.367631
 10
88.20136138859261
 20
45.10677647142883
  0
LWPOLYLINE
  5
B9B8
330
17
100
AcDbEntity
  8
0
  6
L0
 62
     2
100
AcDbPolyline
 90
        2
 70
     0
 43
0.0
 10
88.09139138859261
 20
45.36025947142883
 10
88.1184563885926
 20
45.19425947142882
  0
LWPOLYLINE
  5
B9B9
330
17
100
AcDbEntity
  8
0
  6
L0
 62
     2
100
AcDbPolyline
 90
        2
 70
     0
 43
0.0
 10
88.07461238859263
 20
45.35752347142883
 10
88.10167738859261
 20
45.19152347142882
  0
CIRCLE
  5
B9BA
330
17
100
AcDbEntity
  8
0
100
AcDbCircle
 10
88.38956885448189
 20
45.20816941859245
 30
0.0
 40
0.02077621
  0
CIRCLE
  5
B9BB
330
17
100
AcDbEntity
  8
0
100
AcDbCircle
 10
88.36739592448187
 20
45.29686113859245
 30
0.0
 40
0.02077621
  0
CIRCLE
  5
B9BC
330
17
100
AcDbEntity
  8
0
100
AcDbCircle
 10
88.17203192448188
 20
45.29686113859245
 30
0.0
 40
0.02077621
  0
CIRCLE
  5
B9BD
330
17
100
AcDbEntity
  8
0
100
AcDbCircle
 10
88.19420485448189
 20
45.20816941859245
 30
0.0
 40
0.02077621
  0
CIRCLE
  5
B9BE
330
17
100
AcDbEntity
  8
0
100
AcDbCircle
 10
88.26971392448189
 20
45.29686113859245
 30
0.0
 40
0.02077621
  0
CIRCLE
  5
B9BF
330
17
100
AcDbEntity
  8
0
100
AcDbCircle
 10
88.29188685448189
 20
45.20816941859245
 30
0.0
 40
0.02077621
  0
LWPOLYLINE
  5
B9C0
330
17
100
AcDbEntity
  8
0
  6
L0
 62
     2
100
AcDbPolyline
 90
        2
 70
     0
 43
0.0
 10
88.17429638859263
 20
45.45777647142883
 42
0.4623850000000001
 10
88.09139038859262
 20
45.36025947142883
  0
LWPOLYLINE
  5
B9C1
330
17
100
AcDbEntity
  8
0
  6
L0
 62
     2
100
AcDbPolyline
 90
        2
 70
     0
 43
0.0
 10
88.17429638859263
 20
45.47477647142883
 42
0.4623840000000001
 10
88.07461238859263
 20
45.35752347142883
  0
CIRCLE
  5
B9C2
330
17
100
AcDbEntity
  8
0
100
AcDbCircle
 10
88.38956885448189
 20
45.38555285859245
 30
0.0
 40
0.02077621
  0
CIRCLE
  5
B9C3
330
17
100
AcDbEntity
  8
0
100
AcDbCircle
 10
88.19420485448189
 20
45.38555285859245
 30
0.0
 40
0.02077621
  0
CIRCLE
  5
B9C4
330
17
100
AcDbEntity
  8
0
100
AcDbCircle
 10
88.29188685448189
 20
45.38555285859245
 30
0.0
 40
0.02077621
  0
CIRCLE
  5
B9C5
330
17
100
AcDbEntity
  8
0
100
AcDbCircle
 10
88.46507792448189
 20
45.29686113859245
 30
0.0
 40
0.02077621
  0
CIRCLE
  5
B9C6
330
17
100
AcDbEntity
  8
0
100
AcDbCircle
 10
88.48725085448188
 20
45.38555285859245
 30
0.0
 40
0.02077621
  0
CIRCLE
  5
B9C7
330
17
100
AcDbEntity
  8
0
100
AcDbCircle
 10
88.48725085448188
 20
45.20816941859245
 30
0.0
 40
0.02077621
  0
TEXT
  5
B9C8
330
17
100
AcDbEntity
  8
0
100
AcDbText
 10
87.48922287760768
 20
45.23776663022097
 30
0.0
 40
0.08
  1
JP1
  7
SIMPLEX
 72
     4
 11
87.56922287760769
 21
45.27776663022097
 31
0.0
100
AcDbText
  0
LINE
  5
B9C9
330
17
100
AcDbEntity
  8
0
100
AcDbLine
 10
89.95312918499097
 20
45.8025423220839
 30
0.0
 11
89.95312918499097
 21
45.65494232208389
 31
0.0
  0
LINE
  5
B9CA
330
17
100
AcDbEntity
  8
0
100
AcDbLine
 10
89.75612918499097
 20
45.8025423220839
 30
0.0
 11
89.75612918499097
 21
45.65494232208389
 31
0.0
  0
LINE
  5
B9CB
330
17
100
AcDbEntity
  8
0
100
AcDbLine
 10
89.79912918499097
 20
45.8025423220839
 30
0.0
 11
89.79912918499097
 21
45.6549423220839
 31
0.0
  0
LINE
  5
B9CC
330
17
100
AcDbEntity
  8
0
100
AcDbLine
 10
89.60212918499097
 20
45.8025423220839
 30
0.0
 11
89.60212918499097
 21
45.6549423220839
 31
0.0
  0
LINE
  5
B9CD
330
17
100
AcDbEntity
  8
0
100
AcDbLine
 10
89.70703603839952
 20
45.6659755293766
 30
0.0
 11
89.63356436615461
 21
45.77708886716602
 31
0.0
  0
LINE
  5
B9CE
330
17
100
AcDbEntity
  8
0
100
AcDbLine
 10
89.72201567649575
 20
45.67594723884986
 30
0.0
 11
89.64711738417497
 21
45.78848511022293
 31
0.0
  0
CIRCLE
  5
B9CF
330
17
100
AcDbEntity
  8
0
100
AcDbCircle
 10
89.67912918499097
 20
45.72874232208389
 30
0.0
 40
0.069
  0
CIRCLE
  5
B9D0
330
17
100
AcDbEntity
  8
0
100
AcDbCircle
 10
89.87612918499094
 20
45.72874232208389
 30
0.0
 40
0.069
  0
LINE
  5
B9D1
330
17
100
AcDbEntity
  8
0
100
AcDbLine
 10
89.91901567649575
 20
45.67594723884986
 30
0.0
 11
89.84411738417497
 21
45.78848511022293
 31
0.0
  0
LINE
  5
B9D2
330
17
100
AcDbEntity
  8
0
100
AcDbLine
 10
89.90403603839952
 20
45.6659755293766
 30
0.0
 11
89.83056436615461
 21
45.77708886716602
 31
0.0
  0
LINE
  5
B9D3
330
17
100
AcDbEntity
  8
0
 62
     4
100
AcDbLine
 10
89.97462918499094
 20
45.8025423220839
 30
0.0
 11
89.97462918499097
 21
45.31054232208389
 31
0.0
  0
LINE
  5
B9D4
330
17
100
AcDbEntity
  8
0
 62
     4
100
AcDbLine
 10
89.77762918499093
 20
45.8025423220839
 30
0.0
 11
89.77762918499097
 21
45.31054232208389
 31
0.0
  0
LINE
  5
B9D5
330
17
100
AcDbEntity
  8
0
 62
     4
100
AcDbLine
 10
89.58062918499097
 20
45.8025423220839
 30
0.0
 11
89.58062918499097
 21
45.31054232208389
 31
0.0
  0
LWPOLYLINE
  5
B9D6
330
17
100
AcDbEntity
  8
0
  6
L5
 62
     2
100
AcDbPolyline
 90
        2
 70
     0
 43
0.0
 10
89.33999438859263
 20
45.49277647142882
 42
0.4142140000000001
 10
89.29199438859262
 20
45.54077647142881
  0
LWPOLYLINE
  5
B9D7
330
17
100
AcDbEntity
  8
0
  6
L5
 62
     2
100
AcDbPolyline
 90
        2
 70
     0
 43
0.0
 10
89.29199438859262
 20
45.04077647142882
 42
0.4142140000000001
 10
89.33999438859263
 20
45.08877647142883
  0
LWPOLYLINE
  5
B9D8
330
17
100
AcDbEntity
  8
0
  6
L0
 62
     2
100
AcDbPolyline
 90
        2
 70
     0
 43
0.0
 10
89.31099438859261
 20
45.23592847142883
 10
89.31099438859261
 20
45.34562447142882
  0
LWPOLYLINE
  5
B9D9
330
17
100
AcDbEntity
  8
0
  6
L0
 62
     2
100
AcDbPolyline
 90
        2
 70
     0
 43
0.0
 10
89.12099438859263
 20
45.23592847142883
 10
89.21599438859264
 20
45.18107947142881
  0
LWPOLYLINE
  5
B9DA
330
17
100
AcDbEntity
  8
0
  6
L0
 62
     2
100
AcDbPolyline
 90
        2
 70
     0
 43
0.0
 10
88.92964838859262
 20
45.12377647142883
 42
0.362643
 10
89.01230338859262
 20
45.19280247142882
  0
LWPOLYLINE
  5
B9DB
330
17
100
AcDbEntity
  8
0
  6
L0
 62
     2
100
AcDbPolyline
 90
        2
 70
     0
 43
0.0
 10
88.92964838859262
 20
45.10677647142883
 42
0.362643
 10
89.02903038859262
 20
45.18977147142883
  0
LWPOLYLINE
  5
B9DC
330
17
100
AcDbEntity
  8
0
  6
L0
 62
     2
100
AcDbPolyline
 90
        2
 70
     0
 43
0.0
 10
89.12099438859263
 20
45.34562447142882
 10
89.12099438859263
 20
45.23592847142883
  0
LWPOLYLINE
  5
B9DD
330
17
100
AcDbEntity
  8
0
  6
L0
 62
     2
100
AcDbPolyline
 90
        2
 70
     0
 43
0.0
 10
89.04237738859263
 20
45.35880147142882
 10
89.01230238859261
 20
45.19280147142882
  0
LWPOLYLINE
  5
B9DE
330
17
100
AcDbEntity
  8
0
  6
L0
 62
     2
100
AcDbPolyline
 90
        2
 70
     0
 43
0.0
 10
89.05910438859264
 20
45.35577147142882
 10
89.02903038859262
 20
45.18977147142883
  0
CIRCLE
  5
B9DF
330
17
100
AcDbEntity
  8
0
100
AcDbCircle
 10
88.95348792448189
 20
45.29686113859245
 30
0.0
 40
0.02077621
  0
CIRCLE
  5
B9E0
330
17
100
AcDbEntity
  8
0
100
AcDbCircle
 10
88.85580592448189
 20
45.29686113859245
 30
0.0
 40
0.02077621
  0
CIRCLE
  5
B9E1
330
17
100
AcDbEntity
  8
0
100
AcDbCircle
 10
88.8779788544819
 20
45.20816941859245
 30
0.0
 40
0.02077621
  0
CIRCLE
  5
B9E2
330
17
100
AcDbEntity
  8
0
  6
L0
 62
     2
100
AcDbCircle
 10
89.2159943885926
 20
45.29077647142883
 30
0.0
 40
0.095
  0
CIRCLE
  5
B9E3
330
17
100
AcDbEntity
  8
0
  6
L0
 62
     2
100
AcDbCircle
 10
89.2159943885926
 20
45.29077647142883
 30
0.0
 40
0.039
  0
LWPOLYLINE
  5
B9E4
330
17
100
AcDbEntity
  8
0
  6
L0
 62
     2
100
AcDbPolyline
 90
        2
 70
     0
 43
0.0
 10
89.21599438859264
 20
45.18107947142881
 10
89.31099438859261
 20
45.23592847142883
  0
CIRCLE
  5
B9E5
330
17
100
AcDbEntity
  8
0
  6
HIDDEN
100
AcDbCircle
 10
89.2159943885926
 20
45.29077647142883
 30
0.0
 40
0.054
  0
LWPOLYLINE
  5
B9E6
330
17
100
AcDbEntity
  8
0
  6
L0
 62
     2
100
AcDbPolyline
 90
        2
 70
     0
 43
0.0
 10
89.21599438859264
 20
45.40047347142882
 10
89.12099438859263
 20
45.34562447142882
  0
LWPOLYLINE
  5
B9E7
330
17
100
AcDbEntity
  8
0
  6
L0
 62
     2
100
AcDbPolyline
 90
        2
 70
     0
 43
0.0
 10
89.04237738859263
 20
45.35880147142882
 42
0.467737
 10
88.95972238859263
 20
45.45777647142883
  0
LWPOLYLINE
  5
B9E8
330
17
100
AcDbEntity
  8
0
  6
L0
 62
     2
100
AcDbPolyline
 90
        2
 70
     0
 43
0.0
 10
89.05910438859264
 20
45.35577147142882
 42
0.467738
 10
88.95972238859263
 20
45.47477647142883
  0
LWPOLYLINE
  5
B9E9
330
17
100
AcDbEntity
  8
0
  6
L5
 62
     2
100
AcDbPolyline
 90
        2
 70
     0
 43
0.0
 10
89.33999438859263
 20
45.08877647142883
 10
89.33999438859263
 20
45.49277647142882
  0
LWPOLYLINE
  5
B9EA
330
17
100
AcDbEntity
  8
0
  6
L0
 62
     2
100
AcDbPolyline
 90
        2
 70
     0
 43
0.0
 10
89.31099438859261
 20
45.34562447142882
 10
89.21599438859264
 20
45.40047347142882
  0
CIRCLE
  5
B9EB
330
17
100
AcDbEntity
  8
0
100
AcDbCircle
 10
88.97566085448188
 20
45.38555285859245
 30
0.0
 40
0.02077621
  0
CIRCLE
  5
B9EC
330
17
100
AcDbEntity
  8
0
100
AcDbCircle
 10
88.8779788544819
 20
45.38555285859245
 30
0.0
 40
0.02077621
  0
LINE
  5
B9ED
330
17
100
AcDbEntity
  8
0
100
AcDbLine
 10
89.87612918499094
 20
45.6597423220839
 30
0.0
 11
89.87612918499094
 21
45.6597423220839
 31
0.0
  0
LINE
  5
B9EE
330
17
100
AcDbEntity
  8
0
100
AcDbLine
 10
89.62612918499097
 20
45.44056715897354
 30
0.0
 11
89.73212918499097
 21
45.44056715897354
 31
0.0
  0
LINE
  5
B9EF
330
17
100
AcDbEntity
  8
0
100
AcDbLine
 10
89.75612918499097
 20
45.5665423220839
 30
0.0
 11
89.60212918499097
 21
45.5665423220839
 31
0.0
  0
LINE
  5
B9F0
330
17
100
AcDbEntity
  8
0
100
AcDbLine
 10
89.67912918499097
 20
45.6597423220839
 30
0.0
 11
89.67912918499097
 21
45.6597423220839
 31
0.0
  0
LINE
  5
B9F1
330
17
100
AcDbEntity
  8
0
100
AcDbLine
 10
89.75612918499097
 20
45.65494232208389
 30
0.0
 11
89.60212918499097
 21
45.65494232208389
 31
0.0
  0
LINE
  5
B9F2
330
17
100
AcDbEntity
  8
0
100
AcDbLine
 10
89.82312918499095
 20
45.44056715897354
 30
0.0
 11
89.92912918499097
 21
45.44056715897354
 31
0.0
  0
LINE
  5
B9F3
330
17
100
AcDbEntity
  8
0
100
AcDbLine
 10
89.95312918499097
 20
45.5665423220839
 30
0.0
 11
89.79912918499094
 21
45.5665423220839
 31
0.0
  0
LINE
  5
B9F4
330
17
100
AcDbEntity
  8
0
100
AcDbLine
 10
89.95312918499097
 20
45.65494232208389
 30
0.0
 11
89.79912918499094
 21
45.65494232208389
 31
0.0
  0
LINE
  5
B9F5
330
17
100
AcDbEntity
  8
0
100
AcDbLine
 10
89.79684705302185
 20
45.13932451622031
 30
0.0
 11
89.75684705302183
 21
45.13932451622031
 31
0.0
  0
LINE
  5
B9F6
330
17
100
AcDbEntity
  8
0
100
AcDbLine
 10
89.77684705302184
 20
45.25932451622032
 30
0.0
 11
89.77684705302184
 21
45.19932451622032
 31
0.0
  0
LINE
  5
B9F7
330
17
100
AcDbEntity
  8
0
100
AcDbLine
 10
89.81684705302184
 20
45.16932451622031
 30
0.0
 11
89.73684705302185
 21
45.16932451622031
 31
0.0
  0
LINE
  5
B9F8
330
17
100
AcDbEntity
  8
0
100
AcDbLine
 10
89.83684705302184
 20
45.19932451622032
 30
0.0
 11
89.71684705302184
 21
45.19932451622032
 31
0.0
  0
LINE
  5
B9F9
330
17
100
AcDbEntity
  8
0
 62
     4
100
AcDbLine
 10
89.97462918499101
 20
45.3105423220839
 30
0.0
 11
89.58062918499097
 21
45.3105423220839
 31
0.0
  0
LINE
  5
B9FA
330
17
100
AcDbEntity
  8
0
100
AcDbLine
 10
89.62612918499097
 20
45.39440526844511
 30
0.0
 11
89.73212918499097
 21
45.39440526844511
 31
0.0
  0
LINE
  5
B9FB
330
17
100
AcDbEntity
  8
0
100
AcDbLine
 10
89.60212918499097
 20
45.37706047905682
 30
0.0
 11
89.75612918499097
 21
45.37706047905682
 31
0.0
  0
LINE
  5
B9FC
330
17
100
AcDbEntity
  8
0
100
AcDbLine
 10
89.79912918499094
 20
45.37706047905682
 30
0.0
 11
89.95312918499097
 21
45.37706047905682
 31
0.0
  0
LINE
  5
B9FD
330
17
100
AcDbEntity
  8
0
100
AcDbLine
 10
89.82312918499095
 20
45.39440526844511
 30
0.0
 11
89.92912918499097
 21
45.39440526844511
 31
0.0
  0
LINE
  5
B9FE
330
17
100
AcDbEntity
  8
0
100
AcDbLine
 10
89.92912918499097
 20
45.5665423220839
 30
0.0
 11
89.92912918499097
 21
45.39440526844511
 31
0.0
  0
LINE
  5
B9FF
330
17
100
AcDbEntity
  8
0
100
AcDbLine
 10
89.95312918499097
 20
45.5665423220839
 30
0.0
 11
89.95312918499097
 21
45.31054232208389
 31
0.0
  0
LINE
  5
BA00
330
17
100
AcDbEntity
  8
0
100
AcDbLine
 10
89.73212918499097
 20
45.5665423220839
 30
0.0
 11
89.73212918499097
 21
45.39440526844511
 31
0.0
  0
LINE
  5
BA01
330
17
100
AcDbEntity
  8
0
100
AcDbLine
 10
89.82312918499095
 20
45.5665423220839
 30
0.0
 11
89.82312918499095
 21
45.39440526844511
 31
0.0
  0
LINE
  5
BA02
330
17
100
AcDbEntity
  8
0
100
AcDbLine
 10
89.75612918499097
 20
45.5665423220839
 30
0.0
 11
89.75612918499097
 21
45.31054232208389
 31
0.0
  0
LINE
  5
BA03
330
17
100
AcDbEntity
  8
0
100
AcDbLine
 10
89.79912918499097
 20
45.5665423220839
 30
0.0
 11
89.79912918499094
 21
45.31054232208389
 31
0.0
  0
LINE
  5
BA04
330
17
100
AcDbEntity
  8
0
100
AcDbLine
 10
89.62612918499097
 20
45.5665423220839
 30
0.0
 11
89.62612918499097
 21
45.39440526844511
 31
0.0
  0
LINE
  5
BA05
330
17
100
AcDbEntity
  8
0
100
AcDbLine
 10
89.60212918499097
 20
45.5665423220839
 30
0.0
 11
89.60212918499097
 21
45.31054232208389
 31
0.0
  0
LWPOLYLINE
  5
BA06
330
17
100
AcDbEntity
  8
0
  6
L5
 62
     2
100
AcDbPolyline
 90
        2
 70
     0
 43
0.0
 10
89.99148988859259
 20
46.3488645872328
 10
90.1394898885926
 20
46.3488645872328
  0
LWPOLYLINE
  5
BA07
330
17
100
AcDbEntity
  8
0
  6
L5
 62
     2
100
AcDbPolyline
 90
        2
 70
     0
 43
0.0
 10
90.16448988859259
 20
46.32386458723282
 42
0.4142140000000001
 10
90.1394898885926
 20
46.3488645872328
  0
TEXT
  5
BA08
330
17
100
AcDbEntity
  8
0
100
AcDbText
 10
89.69410732513392
 20
45.85930184969934
 30
0.0
 40
0.08
  1
JP3
  7
SIMPLEX
 72
     4
 11
89.79125018227676
 21
45.89930184969934
 31
0.0
100
AcDbText
  0
LINE
  5
BA09
330
17
100
AcDbEntity
  8
0
100
AcDbLine
 10
89.97462918499094
 20
45.7450376378406
 30
0.0
 11
89.95312918499097
 21
45.7450376378406
 31
0.0
  0
LINE
  5
BA0A
330
17
100
AcDbEntity
  8
0
100
AcDbLine
 10
89.77762918499097
 20
45.7450376378406
 30
0.0
 11
89.75612918499097
 21
45.7450376378406
 31
0.0
  0
LINE
  5
BA0B
330
17
100
AcDbEntity
  8
0
100
AcDbLine
 10
89.79912918499094
 20
45.7450376378406
 30
0.0
 11
89.77762918499097
 21
45.7450376378406
 31
0.0
  0
LINE
  5
BA0C
330
17
100
AcDbEntity
  8
0
100
AcDbLine
 10
89.60212918499097
 20
45.7450376378406
 30
0.0
 11
89.58062918499097
 21
45.7450376378406
 31
0.0
  0
LINE
  5
BA0D
330
17
100
AcDbEntity
  8
0
 62
     4
100
AcDbLine
 10
89.58062918499097
 20
45.8025423220839
 30
0.0
 11
89.97462918499094
 21
45.8025423220839
 31
0.0
  0
LWPOLYLINE
  5
BA0E
330
17
100
AcDbEntity
  8
0
  6
L5
 62
     2
100
AcDbPolyline
 90
        2
 70
     0
 43
0.0
 10
89.96648988859261
 20
46.32386458723282
 10
89.96648988859261
 20
46.05386458723281
  0
LWPOLYLINE
  5
BA0F
330
17
100
AcDbEntity
  8
0
  6
L5
 62
     2
100
AcDbPolyline
 90
        2
 70
     0
 43
0.0
 10
89.99148988859259
 20
46.3488645872328
 42
0.4142140000000001
 10
89.96648988859261
 20
46.32386458723282
  0
LINE
  5
BA10
330
17
100
AcDbEntity
  8
0
 62
     2
100
AcDbLine
 10
92.75730515039942
 20
43.15068912089194
 30
0.0
 11
92.75730515039942
 21
47.15511167343922
 31
0.0
  0
LINE
  5
BA11
330
17
100
AcDbEntity
  8
0
 62
     2
100
AcDbLine
 10
92.47898155991444
 20
47.15511167343922
 30
0.0
 11
92.47898155991444
 21
43.15068912089194
 31
0.0
  0
LINE
  5
BA12
330
17
100
AcDbEntity
  8
0
 62
     2
100
AcDbLine
 10
96.6965962397947
 20
42.3086292346965
 30
0.0
 11
96.6965962397947
 21
47.15511167343922
 31
0.0
  0
LINE
  5
BA13
330
17
100
AcDbEntity
  8
0
 62
     2
100
AcDbLine
 10
96.41827264930974
 20
47.15511167343922
 30
0.0
 11
96.41827264930975
 21
42.3086292346965
 31
0.0
  0
LINE
  5
BA14
330
17
100
AcDbEntity
  8
0
100
AcDbLine
 10
92.75730515039942
 20
43.77918447562607
 30
0.0
 11
96.41827264930974
 21
43.77918447562607
 31
0.0
  0
LINE
  5
BA15
330
17
100
AcDbEntity
  8
0
100
AcDbLine
 10
92.75730515039942
 20
43.63781901533498
 30
0.0
 11
96.41827264930974
 21
43.63781901533498
 31
0.0
  0
LINE
  5
BA16
330
17
100
AcDbEntity
  8
0
100
AcDbLine
 10
92.75730515039942
 20
43.49101636461187
 30
0.0
 11
96.41827264930974
 21
43.49101636461187
 31
0.0
  0
LINE
  5
BA17
330
17
100
AcDbEntity
  8
0
100
AcDbLine
 10
92.75730515039942
 20
43.34421380707268
 30
0.0
 11
96.41827264930974
 21
43.34421380707268
 31
0.0
  0
LINE
  5
BA18
330
17
100
AcDbEntity
  8
0
100
AcDbLine
 10
92.75730515039944
 20
42.51100025734454
 30
0.0
 11
96.41827264930974
 21
42.51100025734458
 31
0.0
  0
LINE
  5
BA19
330
17
100
AcDbEntity
  8
0
100
AcDbLine
 10
92.75730515039944
 20
42.66324000531583
 30
0.0
 11
92.95862621321262
 21
42.66324000531584
 31
0.0
  0
TEXT
  5
BA1A
330
17
100
AcDbEntity
  8
0
 62
     2
100
AcDbText
 10
91.97263795990066
 20
42.53711720846033
 30
0.0
 40
0.125
  1
JP3
  7
SIMPLEX
100
AcDbText
  0
LINE
  5
BA1B
330
17
100
AcDbEntity
  8
0
100
AcDbLine
 10
92.63650799743428
 20
42.53720870688572
 30
0.0
 11
92.59650799743429
 21
42.53720870688572
 31
0.0
  0
LINE
  5
BA1C
330
17
100
AcDbEntity
  8
0
100
AcDbLine
 10
92.61650799743426
 20
42.65720870688571
 30
0.0
 11
92.61650799743426
 21
42.59720870688572
 31
0.0
  0
LINE
  5
BA1D
330
17
100
AcDbEntity
  8
0
100
AcDbLine
 10
92.65650799743429
 20
42.56720870688572
 30
0.0
 11
92.57650799743428
 21
42.56720870688572
 31
0.0
  0
LINE
  5
BA1E
330
17
100
AcDbEntity
  8
0
100
AcDbLine
 10
92.67650799743426
 20
42.59720870688572
 30
0.0
 11
92.55650799743426
 21
42.59720870688572
 31
0.0
  0
LINE
  5
BA1F
330
17
100
AcDbEntity
  8
0
 62
     2
100
AcDbLine
 10
92.47898155991444
 20
42.8553830307542
 30
0.0
 11
92.75730515039944
 21
42.8553830307542
 31
0.0
  0
LINE
  5
BA20
330
17
100
AcDbEntity
  8
0
 62
     2
100
AcDbLine
 10
92.47898155991444
 20
42.31885723190617
 30
0.0
 11
92.75730515039944
 21
42.31885723190617
 31
0.0
  0
LINE
  5
BA21
330
17
100
AcDbEntity
  8
0
 62
     2
100
AcDbLine
 10
92.75730515039942
 20
42.31885723190617
 30
0.0
 11
92.75730515039942
 21
42.85538303075421
 31
0.0
  0
LINE
  5
BA22
330
17
100
AcDbEntity
  8
0
 62
     2
100
AcDbLine
 10
92.47898155991444
 20
42.85538303075421
 30
0.0
 11
92.47898155991444
 21
42.31885723190617
 31
0.0
  0
LINE
  5
BA23
330
17
100
AcDbEntity
  8
0
 62
     2
100
AcDbLine
 10
92.47898155991444
 20
43.15068912089194
 30
0.0
 11
92.75730515039942
 21
43.15068912089194
 31
0.0
  0
TEXT
  5
BA24
330
17
100
AcDbEntity
  8
0
100
AcDbText
 10
92.54643823878431
 20
43.30437564289935
 30
0.0
 40
0.0848648979362779
  1
26
  7
SIMPLEX
 72
     4
 11
92.61311780144854
 21
43.34680809186749
 31
0.0
100
AcDbText
  0
TEXT
  5
BA25
330
17
100
AcDbEntity
  8
0
100
AcDbText
 10
92.54441764597631
 20
43.45117820043854
 30
0.0
 40
0.0848648979362779
  1
25
  7
SIMPLEX
 72
     4
 11
92.61311780144854
 21
43.49361064940668
 31
0.0
100
AcDbText
  0
TEXT
  5
BA26
330
17
100
AcDbEntity
  8
0
100
AcDbText
 10
92.5423970531683
 20
43.59798085116166
 30
0.0
 40
0.0848648979362779
  1
24
  7
SIMPLEX
 72
     4
 11
92.61311780144854
 21
43.64041330012979
 31
0.0
100
AcDbText
  0
TEXT
  5
BA27
330
17
100
AcDbEntity
  8
0
100
AcDbText
 10
92.54441764597631
 20
43.73934631145274
 30
0.0
 40
0.0848648979362779
  1
23
  7
SIMPLEX
 72
     4
 11
92.61311780144854
 21
43.78177876042088
 31
0.0
100
AcDbText
  0
LWPOLYLINE
  5
BA28
330
17
100
AcDbEntity
  8
0
100
AcDbPolyline
 90
        2
 70
     1
 43
0.04
 10
92.93862621321261
 20
42.51100025734454
 42
1.0
 10
92.97862621321261
 20
42.51100025734454
 42
1.0
  0
LINE
  5
BA29
330
17
100
AcDbEntity
  8
0
100
AcDbLine
 10
92.95862621321262
 20
42.66324000531584
 30
0.0
 11
92.95862621321262
 21
42.51100025734454
 31
0.0
  0
TEXT
  5
BA2A
330
17
100
AcDbEntity
  8
0
100
AcDbText
 10
96.4624088908438
 20
42.48359454213939
 30
0.0
 40
0.06
  1
SHELL
 41
0.7
  7
SIMPLEX
 72
     4
 11
96.5524088908438
 21
42.51359454213939
 31
0.0
100
AcDbText
  0
LINE
  5
BA2B
330
17
100
AcDbEntity
  8
0
 62
     2
100
AcDbLine
 10
96.41827264930975
 20
42.3086292346965
 30
0.0
 11
96.6965962397947
 21
42.3086292346965
 31
0.0
  0
TEXT
  5
BA2C
330
17
100
AcDbEntity
  8
0
100
AcDbText
 10
96.48370873537157
 20
43.73934631145274
 30
0.0
 40
0.0848648979362779
  1
23
  7
SIMPLEX
 72
     4
 11
96.5524088908438
 21
43.78177876042088
 31
0.0
100
AcDbText
  0
TEXT
  5
BA2D
330
17
100
AcDbEntity
  8
0
100
AcDbText
 10
96.48168814256356
 20
43.59798085116166
 30
0.0
 40
0.0848648979362779
  1
24
  7
SIMPLEX
 72
     4
 11
96.5524088908438
 21
43.64041330012979
 31
0.0
100
AcDbText
  0
TEXT
  5
BA2E
330
17
100
AcDbEntity
  8
0
100
AcDbText
 10
96.48370873537157
 20
43.45117820043854
 30
0.0
 40
0.0848648979362779
  1
25
  7
SIMPLEX
 72
     4
 11
96.5524088908438
 21
43.49361064940668
 31
0.0
100
AcDbText
  0
TEXT
  5
BA2F
330
17
100
AcDbEntity
  8
0
100
AcDbText
 10
96.48572932817957
 20
43.30437564289935
 30
0.0
 40
0.0848648979362779
  1
26
  7
SIMPLEX
 72
     4
 11
96.5524088908438
 21
43.34680809186749
 31
0.0
100
AcDbText
  0
LINE
  5
BA30
330
17
100
AcDbEntity
  8
0
100
AcDbLine
 10
92.75730515039942
 20
45.82013759293107
 30
0.0
 11
96.41827264930974
 21
45.82013759293107
 31
0.0
  0
LINE
  5
BA31
330
17
100
AcDbEntity
  8
0
100
AcDbLine
 10
92.75730515039942
 20
45.97781453133445
 30
0.0
 11
96.41827264930974
 21
45.97781453133445
 31
0.0
  0
LINE
  5
BA32
330
17
100
AcDbEntity
  8
0
100
AcDbLine
 10
92.75730515039942
 20
46.1137428943774
 30
0.0
 11
96.41827264930974
 21
46.1137428943774
 31
0.0
  0
LINE
  5
BA33
330
17
100
AcDbEntity
  8
0
100
AcDbLine
 10
92.75730515039942
 20
46.26054545191659
 30
0.0
 11
96.41827264930974
 21
46.26054545191659
 31
0.0
  0
LINE
  5
BA34
330
17
100
AcDbEntity
  8
0
100
AcDbLine
 10
92.75730515039942
 20
46.4127851998879
 30
0.0
 11
96.41827264930974
 21
46.4127851998879
 31
0.0
  0
LINE
  5
BA35
330
17
100
AcDbEntity
  8
0
100
AcDbLine
 10
92.75730515039942
 20
46.54327646568269
 30
0.0
 11
96.41827264930974
 21
46.54327646568269
 31
0.0
  0
LINE
  5
BA36
330
17
100
AcDbEntity
  8
0
100
AcDbLine
 10
92.75730515039942
 20
46.70095331090213
 30
0.0
 11
96.41827264930974
 21
46.70095331090213
 31
0.0
  0
LINE
  5
BA37
330
17
100
AcDbEntity
  8
0
100
AcDbLine
 10
92.75730515039942
 20
46.83688167394507
 30
0.0
 11
96.41827264930974
 21
46.83688167394507
 31
0.0
  0
LINE
  5
BA38
330
17
100
AcDbEntity
  8
0
100
AcDbLine
 10
92.75730515039942
 20
46.99455861234845
 30
0.0
 11
96.41827264930974
 21
46.99455861234845
 31
0.0
  0
LINE
  5
BA39
330
17
100
AcDbEntity
  8
0
100
AcDbLine
 10
92.75730515039942
 20
45.53196948191683
 30
0.0
 11
96.41827264930974
 21
45.53196948191687
 31
0.0
  0
LINE
  5
BA3A
330
17
100
AcDbEntity
  8
0
100
AcDbLine
 10
92.75730515039942
 20
45.67877213264
 30
0.0
 11
96.41827264930974
 21
45.67877213263999
 31
0.0
  0
LINE
  5
BA3B
330
17
100
AcDbEntity
  8
0
100
AcDbLine
 10
92.75730515039942
 20
44.95360549504345
 30
0.0
 11
96.41827264930974
 21
44.95360549504345
 31
0.0
  0
LINE
  5
BA3C
330
17
100
AcDbEntity
  8
0
100
AcDbLine
 10
92.75730515039942
 20
45.09497095533452
 30
0.0
 11
96.41827264930974
 21
45.09497095533452
 31
0.0
  0
LINE
  5
BA3D
330
17
100
AcDbEntity
  8
0
100
AcDbLine
 10
92.75730515039942
 20
45.24380146408655
 30
0.0
 11
96.41827264930974
 21
45.24380146408655
 31
0.0
  0
LINE
  5
BA3E
330
17
100
AcDbEntity
  8
0
100
AcDbLine
 10
92.75730515039942
 20
45.38516692437762
 30
0.0
 11
96.41827264930974
 21
45.38516692437768
 31
0.0
  0
LINE
  5
BA3F
330
17
100
AcDbEntity
  8
0
100
AcDbLine
 10
92.75730515039942
 20
44.79592855664007
 30
0.0
 11
96.41827264930974
 21
44.79592855664007
 31
0.0
  0
LINE
  5
BA40
330
17
100
AcDbEntity
  8
0
100
AcDbLine
 10
92.75730515039942
 20
44.66000019359714
 30
0.0
 11
96.41827264930974
 21
44.66000019359714
 31
0.0
  0
LINE
  5
BA41
330
17
100
AcDbEntity
  8
0
100
AcDbLine
 10
92.75730515039942
 20
44.50232334837769
 30
0.0
 11
96.41827264930974
 21
44.50232334837769
 31
0.0
  0
LINE
  5
BA42
330
17
100
AcDbEntity
  8
0
100
AcDbLine
 10
92.75730515039942
 20
44.3718320825829
 30
0.0
 11
96.41827264930974
 21
44.3718320825829
 31
0.0
  0
LINE
  5
BA43
330
17
100
AcDbEntity
  8
0
100
AcDbLine
 10
92.75730515039942
 20
44.21959233461159
 30
0.0
 11
96.41827264930974
 21
44.21959233461159
 31
0.0
  0
LINE
  5
BA44
330
17
100
AcDbEntity
  8
0
100
AcDbLine
 10
92.75730515039942
 20
44.07278977707239
 30
0.0
 11
96.41827264930974
 21
44.07278977707239
 31
0.0
  0
LINE
  5
BA45
330
17
100
AcDbEntity
  8
0
100
AcDbLine
 10
92.75730515039942
 20
43.93686141402945
 30
0.0
 11
96.41827264930974
 21
43.93686141402945
 31
0.0
  0
TEXT
  5
BA46
330
17
100
AcDbEntity
  8
0
100
AcDbText
 10
92.56260298124837
 20
44.03295161289906
 30
0.0
 40
0.0848648979362779
  1
21
  7
SIMPLEX
 72
     4
 11
92.61311780144854
 21
44.0753840618672
 31
0.0
100
AcDbText
  0
TEXT
  5
BA47
330
17
100
AcDbEntity
  8
0
100
AcDbText
 10
92.54441764597631
 20
44.17975417043826
 30
0.0
 40
0.0848648979362779
  1
20
  7
SIMPLEX
 72
     4
 11
92.61311780144854
 21
44.2221866194064
 31
0.0
100
AcDbText
  0
TEXT
  5
BA48
330
17
100
AcDbEntity
  8
0
100
AcDbText
 10
92.55452061001633
 20
44.33199391840957
 30
0.0
 40
0.0848648979362779
  1
19
  7
SIMPLEX
 72
     4
 11
92.61311780144854
 21
44.37442636737771
 31
0.0
100
AcDbText
  0
TEXT
  5
BA49
330
17
100
AcDbEntity
  8
0
100
AcDbText
 10
92.55250001720835
 20
44.46248518420436
 30
0.0
 40
0.0848648979362779
  1
18
  7
SIMPLEX
 72
     4
 11
92.61311780144854
 21
44.5049176331725
 31
0.0
100
AcDbText
  0
TEXT
  5
BA4A
330
17
100
AcDbEntity
  8
0
100
AcDbText
 10
92.55250001720835
 20
44.6201620294238
 30
0.0
 40
0.0848648979362779
  1
17
  7
SIMPLEX
 72
     4
 11
92.61311780144854
 21
44.66259447839195
 31
0.0
100
AcDbText
  0
TEXT
  5
BA4B
330
17
100
AcDbEntity
  8
0
100
AcDbText
 10
92.54441764597631
 20
43.89702324985612
 30
0.0
 40
0.0848648979362779
  1
22
  7
SIMPLEX
 72
     4
 11
92.61311780144854
 21
43.93945569882427
 31
0.0
100
AcDbText
  0
TEXT
  5
BA4C
330
17
100
AcDbEntity
  8
0
 62
     2
100
AcDbText
 10
92.00286234141362
 20
45.03493371840848
 30
0.0
 40
0.125
  1
JP1
  7
SIMPLEX
100
AcDbText
  0
TEXT
  5
BA4D
330
17
100
AcDbEntity
  8
0
100
AcDbText
 10
92.5679796181007
 20
45.49168163057188
 30
0.0
 40
0.0848648979362779
  1
11
  7
SIMPLEX
 72
     4
 11
92.61041206706883
 21
45.53411407954001
 31
0.0
100
AcDbText
  0
TEXT
  5
BA4E
330
17
100
AcDbEntity
  8
0
100
AcDbText
 10
92.54979428282863
 20
45.2007162662189
 30
0.0
 40
0.0848648979362779
  1
13
  7
SIMPLEX
 72
     4
 11
92.61041206706883
 21
45.24314871518705
 31
0.0
100
AcDbText
  0
TEXT
  5
BA4F
330
17
100
AcDbEntity
  8
0
100
AcDbText
 10
92.55604943715736
 20
44.91376733087011
 30
0.0
 40
0.0848648979362779
  1
15
  7
SIMPLEX
 72
     4
 11
92.61666722139755
 21
44.95619977983825
 31
0.0
100
AcDbText
  0
TEXT
  5
BA50
330
17
100
AcDbEntity
  8
0
100
AcDbText
 10
92.55402884434936
 20
45.05925001304659
 30
0.0
 40
0.0848648979362779
  1
14
  7
SIMPLEX
 72
     4
 11
92.61666722139755
 21
45.10168246201472
 31
0.0
100
AcDbText
  0
TEXT
  5
BA51
330
17
100
AcDbEntity
  8
0
100
AcDbText
 10
92.55452061001633
 20
44.75609039246674
 30
0.0
 40
0.0848648979362779
  1
16
  7
SIMPLEX
 72
     4
 11
92.61311780144854
 21
44.79852284143488
 31
0.0
100
AcDbText
  0
TEXT
  5
BA52
330
17
100
AcDbEntity
  8
0
100
AcDbText
 10
92.54979428282863
 20
45.34619894839539
 30
0.0
 40
0.0848648979362779
  1
12
  7
SIMPLEX
 72
     4
 11
92.61041206706883
 21
45.38863139736354
 31
0.0
100
AcDbText
  0
TEXT
  5
BA53
330
17
100
AcDbEntity
  8
0
100
AcDbText
 10
92.58212376775674
 20
46.36457772363074
 30
0.0
 40
0.0848648979362779
  1
5
  7
SIMPLEX
 72
     4
 11
92.61041206706883
 21
46.40701017259888
 31
0.0
100
AcDbText
  0
TEXT
  5
BA54
330
17
100
AcDbEntity
  8
0
100
AcDbText
 10
92.58414436056474
 20
46.21909504145427
 30
0.0
 40
0.0848648979362779
  1
6
  7
SIMPLEX
 72
     4
 11
92.61041206706883
 21
46.2615274904224
 31
0.0
100
AcDbText
  0
TEXT
  5
BA55
330
17
100
AcDbEntity
  8
0
100
AcDbText
 10
92.58414436056474
 20
45.78264699492483
 30
0.0
 40
0.0848648979362779
  1
9
  7
SIMPLEX
 72
     4
 11
92.61041206706883
 21
45.82507944389297
 31
0.0
100
AcDbText
  0
TEXT
  5
BA56
330
17
100
AcDbEntity
  8
0
100
AcDbText
 10
92.58212376775674
 20
45.92812967710131
 30
0.0
 40
0.0848648979362779
  1
8
  7
SIMPLEX
 72
     4
 11
92.61041206706883
 21
45.97056212606945
 31
0.0
100
AcDbText
  0
TEXT
  5
BA57
330
17
100
AcDbEntity
  8
0
100
AcDbText
 10
92.58212376775674
 20
46.07361235927778
 30
0.0
 40
0.0848648979362779
  1
7
  7
SIMPLEX
 72
     4
 11
92.61041206706883
 21
46.11604480824593
 31
0.0
100
AcDbText
  0
TEXT
  5
BA58
330
17
100
AcDbEntity
  8
0
100
AcDbText
 10
92.54979428282863
 20
45.63716431274835
 30
0.0
 40
0.0848648979362779
  1
10
  7
SIMPLEX
 72
     4
 11
92.61041206706883
 21
45.67959676171649
 31
0.0
100
AcDbText
  0
TEXT
  5
BA59
330
17
100
AcDbEntity
  8
0
100
AcDbText
 10
92.6003091030288
 20
46.94650845233666
 30
0.0
 40
0.0848648979362779
  1
1
  7
SIMPLEX
 72
     4
 11
92.61041206706883
 21
46.9889409013048
 31
0.0
100
AcDbText
  0
LINE
  5
BA5A
330
17
100
AcDbEntity
  8
0
 62
     2
100
AcDbLine
 10
92.75730515039942
 20
47.15511167343922
 30
0.0
 11
92.47898155991444
 21
47.15511167343922
 31
0.0
  0
TEXT
  5
BA5B
330
17
100
AcDbEntity
  8
0
100
AcDbText
 10
92.58010317494873
 20
46.51006040580722
 30
0.0
 40
0.0848648979362779
  1
4
  7
SIMPLEX
 72
     4
 11
92.61041206706883
 21
46.55249285477537
 31
0.0
100
AcDbText
  0
TEXT
  5
BA5C
330
17
100
AcDbEntity
  8
0
100
AcDbText
 10
92.58212376775674
 20
46.6555430879837
 30
0.0
 40
0.0848648979362779
  1
3
  7
SIMPLEX
 72
     4
 11
92.61041206706883
 21
46.69797553695184
 31
0.0
100
AcDbText
  0
TEXT
  5
BA5D
330
17
100
AcDbEntity
  8
0
100
AcDbText
 10
92.58212376775674
 20
46.80102577016017
 30
0.0
 40
0.0848648979362779
  1
2
  7
SIMPLEX
 72
     4
 11
92.61041206706883
 21
46.84345821912832
 31
0.0
100
AcDbText
  0
TEXT
  5
BA5E
330
17
100
AcDbEntity
  8
0
100
AcDbText
 10
96.49179110660361
 20
44.46248518420436
 30
0.0
 40
0.0848648979362779
  1
18
  7
SIMPLEX
 72
     4
 11
96.5524088908438
 21
44.5049176331725
 31
0.0
100
AcDbText
  0
TEXT
  5
BA5F
330
17
100
AcDbEntity
  8
0
100
AcDbText
 10
96.49381169941159
 20
44.33199391840957
 30
0.0
 40
0.0848648979362779
  1
19
  7
SIMPLEX
 72
     4
 11
96.5524088908438
 21
44.37442636737771
 31
0.0
100
AcDbText
  0
TEXT
  5
BA60
330
17
100
AcDbEntity
  8
0
100
AcDbText
 10
96.48370873537157
 20
44.17975417043826
 30
0.0
 40
0.0848648979362779
  1
20
  7
SIMPLEX
 72
     4
 11
96.5524088908438
 21
44.2221866194064
 31
0.0
100
AcDbText
  0
TEXT
  5
BA61
330
17
100
AcDbEntity
  8
0
100
AcDbText
 10
96.50189407064363
 20
44.03295161289906
 30
0.0
 40
0.0848648979362779
  1
21
  7
SIMPLEX
 72
     4
 11
96.5524088908438
 21
44.0753840618672
 31
0.0
100
AcDbText
  0
TEXT
  5
BA62
330
17
100
AcDbEntity
  8
0
100
AcDbText
 10
96.49179110660361
 20
44.6201620294238
 30
0.0
 40
0.0848648979362779
  1
17
  7
SIMPLEX
 72
     4
 11
96.5524088908438
 21
44.66259447839195
 31
0.0
100
AcDbText
  0
TEXT
  5
BA63
330
17
100
AcDbEntity
  8
0
100
AcDbText
 10
96.48370873537157
 20
43.89702324985612
 30
0.0
 40
0.0848648979362779
  1
22
  7
SIMPLEX
 72
     4
 11
96.5524088908438
 21
43.93945569882427
 31
0.0
100
AcDbText
  0
TEXT
  5
BA64
330
17
100
AcDbEntity
  8
0
 62
     2
100
AcDbText
 10
96.8686771222778
 20
44.42955416500915
 30
0.0
 40
0.125
  1
JP2
  7
SIMPLEX
100
AcDbText
  0
TEXT
  5
BA65
330
17
100
AcDbEntity
  8
0
100
AcDbText
 10
96.50727070749598
 20
45.49168163057188
 30
0.0
 40
0.0848648979362779
  1
11
  7
SIMPLEX
 72
     4
 11
96.54970315646412
 21
45.53411407954001
 31
0.0
100
AcDbText
  0
TEXT
  5
BA66
330
17
100
AcDbEntity
  8
0
100
AcDbText
 10
96.48908537222393
 20
45.2007162662189
 30
0.0
 40
0.0848648979362779
  1
13
  7
SIMPLEX
 72
     4
 11
96.54970315646412
 21
45.24314871518705
 31
0.0
100
AcDbText
  0
TEXT
  5
BA67
330
17
100
AcDbEntity
  8
0
100
AcDbText
 10
96.49179110660361
 20
44.91376733087012
 30
0.0
 40
0.0848648979362779
  1
15
  7
SIMPLEX
 72
     4
 11
96.5524088908438
 21
44.95619977983826
 31
0.0
100
AcDbText
  0
TEXT
  5
BA68
330
17
100
AcDbEntity
  8
0
100
AcDbText
 10
96.4897705137956
 20
45.05925001304659
 30
0.0
 40
0.0848648979362779
  1
14
  7
SIMPLEX
 72
     4
 11
96.5524088908438
 21
45.10168246201474
 31
0.0
100
AcDbText
  0
TEXT
  5
BA69
330
17
100
AcDbEntity
  8
0
100
AcDbText
 10
96.49381169941159
 20
44.75609039246674
 30
0.0
 40
0.0848648979362779
  1
16
  7
SIMPLEX
 72
     4
 11
96.5524088908438
 21
44.79852284143488
 31
0.0
100
AcDbText
  0
TEXT
  5
BA6A
330
17
100
AcDbEntity
  8
0
100
AcDbText
 10
96.48908537222393
 20
45.34619894839539
 30
0.0
 40
0.0848648979362779
  1
12
  7
SIMPLEX
 72
     4
 11
96.54970315646412
 21
45.38863139736354
 31
0.0
100
AcDbText
  0
TEXT
  5
BA6B
330
17
100
AcDbEntity
  8
0
100
AcDbText
 10
96.52141485715203
 20
46.36457772363074
 30
0.0
 40
0.0848648979362779
  1
5
  7
SIMPLEX
 72
     4
 11
96.54970315646412
 21
46.40701017259888
 31
0.0
100
AcDbText
  0
TEXT
  5
BA6C
330
17
100
AcDbEntity
  8
0
100
AcDbText
 10
96.48908537222393
 20
45.63716431274835
 30
0.0
 40
0.0848648979362779
  1
10
  7
SIMPLEX
 72
     4
 11
96.54970315646412
 21
45.67959676171649
 31
0.0
100
AcDbText
  0
TEXT
  5
BA6D
330
17
100
AcDbEntity
  8
0
100
AcDbText
 10
96.52343544996003
 20
46.21909504145427
 30
0.0
 40
0.0848648979362779
  1
6
  7
SIMPLEX
 72
     4
 11
96.54970315646412
 21
46.2615274904224
 31
0.0
100
AcDbText
  0
TEXT
  5
BA6E
330
17
100
AcDbEntity
  8
0
100
AcDbText
 10
96.52343544996003
 20
45.78264699492483
 30
0.0
 40
0.0848648979362779
  1
9
  7
SIMPLEX
 72
     4
 11
96.54970315646412
 21
45.82507944389297
 31
0.0
100
AcDbText
  0
TEXT
  5
BA6F
330
17
100
AcDbEntity
  8
0
100
AcDbText
 10
96.52141485715203
 20
45.92812967710131
 30
0.0
 40
0.0848648979362779
  1
8
  7
SIMPLEX
 72
     4
 11
96.54970315646412
 21
45.97056212606945
 31
0.0
100
AcDbText
  0
TEXT
  5
BA70
330
17
100
AcDbEntity
  8
0
100
AcDbText
 10
96.52141485715203
 20
46.07361235927778
 30
0.0
 40
0.0848648979362779
  1
7
  7
SIMPLEX
 72
     4
 11
96.54970315646412
 21
46.11604480824593
 31
0.0
100
AcDbText
  0
LINE
  5
BA71
330
17
100
AcDbEntity
  8
0
 62
     2
100
AcDbLine
 10
96.6965962397947
 20
47.15511167343922
 30
0.0
 11
96.41827264930974
 21
47.15511167343922
 31
0.0
  0
TEXT
  5
BA72
330
17
100
AcDbEntity
  8
0
100
AcDbText
 10
96.53960019242409
 20
46.94650845233666
 30
0.0
 40
0.0848648979362779
  1
1
  7
SIMPLEX
 72
     4
 11
96.54970315646412
 21
46.9889409013048
 31
0.0
100
AcDbText
  0
TEXT
  5
BA73
330
17
100
AcDbEntity
  8
0
100
AcDbText
 10
96.51939426434402
 20
46.51006040580722
 30
0.0
 40
0.0848648979362779
  1
4
  7
SIMPLEX
 72
     4
 11
96.54970315646412
 21
46.55249285477537
 31
0.0
100
AcDbText
  0
TEXT
  5
BA74
330
17
100
AcDbEntity
  8
0
100
AcDbText
 10
96.52141485715203
 20
46.6555430879837
 30
0.0
 40
0.0848648979362779
  1
3
  7
SIMPLEX
 72
     4
 11
96.54970315646412
 21
46.69797553695184
 31
0.0
100
AcDbText
  0
TEXT
  5
BA75
330
17
100
AcDbEntity
  8
0
100
AcDbText
 10
96.52141485715203
 20
46.80102577016017
 30
0.0
 40
0.0848648979362779
  1
2
  7
SIMPLEX
 72
     4
 11
96.54970315646412
 21
46.84345821912832
 31
0.0
100
AcDbText
  0
TEXT
  5
BA76
330
17
100
AcDbEntity
  8
0
 62
     2
100
AcDbText
 10
93.84521316919833
 20
47.37498976933843
 30
0.0
 40
0.1131531972483705
  1
WIRING DIAGRAM
  7
SIMPLEX
 72
     4
 11
94.52952060017656
 21
47.43156636796261
 31
0.0
100
AcDbText
  0
TEXT
  5
BA79
330
17
100
AcDbEntity
  8
0
100
AcDbText
 10
88.10972590180906
 20
45.85275196062956
 30
0.0
 40
0.09
  1
M.1302.6973
  7
ROMANS
 72
     4
 11
88.54901161609477
 21
45.89775196062956
 31
0.0
100
AcDbText
  0
LINE
  5
BA7A
330
17
100
AcDbEntity
  8
0
 62
     4
100
AcDbLine
 10
87.92401161609477
 20
45.9344474602103
 30
0.0
 11
87.92401161609479
 21
45.68244746021031
 31
0.0
  0
LINE
  5
BA7B
330
17
100
AcDbEntity
  8
0
 62
     4
100
AcDbLine
 10
89.17401161609477
 20
45.93444746021032
 30
0.0
 11
89.17401161609477
 21
45.68244746021032
 31
0.0
  0
LINE
  5
BA7C
330
17
100
AcDbEntity
  8
0
 62
     4
100
AcDbLine
 10
87.98601161609479
 20
45.62044746021031
 30
0.0
 11
89.11201161609477
 21
45.62044746021031
 31
0.0
  0
TEXT
  5
BA7D
330
17
100
AcDbEntity
  8
0
100
AcDbText
 10
88.1075830446662
 20
45.67375030464627
 30
0.0
 40
0.09
  1
(DATE CODE)
  7
ROMANS
 72
     4
 11
88.54901161609477
 21
45.7123217332177
 31
0.0
100
AcDbText
  0
ARC
  5
BA7E
330
17
100
AcDbEntity
  8
0
 62
     4
100
AcDbCircle
 10
87.98601161609479
 20
45.68244746021032
 30
0.0
 40
0.062
100
AcDbArc
 50
180.0000000000032
 51
270.0
  0
ARC
  5
BA7F
330
17
100
AcDbEntity
  8
0
 62
     4
100
AcDbCircle
 10
89.11201161609476
 20
45.68244746021029
 30
0.0
 40
0.062
100
AcDbArc
 50
269.9999999999992
 51
0.0000000000032569
  0
LINE
  5
BA80
330
17
100
AcDbEntity
  8
0
 62
     4
100
AcDbLine
 10
87.98601161609477
 20
45.99644746021032
 30
0.0
 11
89.11201161609477
 21
45.99644746021032
 31
0.0
  0
ARC
  5
BA81
330
17
100
AcDbEntity
  8
0
 62
     4
100
AcDbCircle
 10
87.98601161609475
 20
45.9344474602103
 30
0.0
 40
0.062
100
AcDbArc
 50
90.0
 51
180.0000000000032
  0
ARC
  5
BA82
330
17
100
AcDbEntity
  8
0
 62
     4
100
AcDbCircle
 10
89.11201161609476
 20
45.9344474602103
 30
0.0
 40
0.062
100
AcDbArc
 50
0.0000000000032569
 51
90.0
  0
LEADER
  5
BA83
330
17
100
AcDbEntity
  8
0
100
AcDbLeader
  3
STANDARD
 73
     0
 40
0.11875
 41
0.4919642857142856
 76
     3
 10
88.3895916221247
 20
45.99373724078751
 30
0.0
 10
88.80631958453713
 20
46.98536281948828
 30
0.0
 10
88.1696165462676
 20
47.03226281948828
 30
0.0
340
BA84
1001
ACAD
1000
DSTYLE
1002
{
1070
   147
1040
0.09
1070
    77
1070
     0
1070
   140
1040
0.0938
1070
   279
1070
     2
1070
   340
1005
21
1002
}
  0
MTEXT
  5
BA84
102
{ACAD_REACTORS
330
BA83
102
}
330
17
100
AcDbEntity
  8
0
100
AcDbMText
 10
88.0796165462676
 20
47.03226281948828
 30
0.0
 40
0.11875
 41
0.0
 71
     6
 72
     1
  1
\A1;LABEL
  7
ROMANS
 73
     1
 44
1.0
  0
TEXT
  5
BA86
330
17
100
AcDbEntity
  8
0
100
AcDbText
 10
83.22499265685134
 20
40.20975021392273
 30
0.0
 40
0.09999999999968
  1
b) RAIL, 35mm DIN ~ QTY (1)
  7
ROMANS
100
AcDbText
  0
TEXT
  5
BA87
330
17
100
AcDbEntity
  8
0
100
AcDbText
 10
83.22499265685134
 20
39.94395697547988
 30
0.0
 40
0.09999999999968
  1
c) INSTRUCTION CARD ~ QTY (1)
  7
ROMANS
100
AcDbText
  0
TEXT
  5
BA8C
330
17
100
AcDbEntity
  8
0
100
AcDbText
 10
83.21805080442489
 20
39.65127451880336
 30
0.0
 40
0.09999999999968
  1
d) SCREW, PHILLIPS HD, SELF THREADING, #6 ~ QTY(2)
  7
ROMANS
100
AcDbText
  0
TEXT
  5
BA8E
330
17
100
AcDbEntity
  8
0
100
AcDbText
 10
81.99226897932284
 20
34.52622005486395
 30
0.0
 40
0.09999999999968
  1

  7
ROMANS
100
AcDbText
  0
TEXT
  5
BA90
330
17
100
AcDbEntity
  8
0
100
AcDbText
 10
83.22499265685134
 20
40.47826400234451
 30
0.0
 40
0.09999999999968
  1
a) MODULE ~ QTY (1)
  7
ROMANS
100
AcDbText
  0
TEXT
  5
BA91
330
17
100
AcDbEntity
  8
0
 62
     2
100
AcDbText
 10
81.92424817030547
 20
37.14589750365664
 30
0.0
 40
0.112
  1

  7
ROMANS
100
AcDbText
  0
TEXT
  5
BA92
330
17
100
AcDbEntity
  8
0
100
AcDbText
 10
82.98549508354289
 20
40.74751023802154
 30
0.0
 40
0.09999999999968
  1
1) CONTENTS OF M.1302.6973
  7
ROMANS
100
AcDbText
  0
TEXT
  5
BA95
330
17
100
AcDbEntity
  8
0
100
AcDbText
 10
82.98549508354289
 20
39.22738145265894
 30
0.0
 40
0.09999999999968
  1
2) LABEL AND PACKAGE PER MD.1000.5034
  7
ROMANS
100
AcDbText
  0
TEXT
  5
BA96
330
17
100
AcDbEntity
  8
0
100
AcDbText
 10
82.79062522286388
 20
41.0631480462598
 30
0.0
 40
0.125
  1
%%uNOTES
  7
ROMANS
100
AcDbText
  0
LEADER
  5
BA97
330
17
100
AcDbEntity
  8
0
100
AcDbLeader
  3
STANDARD
 73
     0
 40
0.125
 41
0.7083333333333334
 76
     3
 10
90.16448988859259
 20
45.05539934593531
 30
0.0
 10
90.92446276412585
 20
45.75874956964649
 30
0.0
 10
91.1824371312251
 20
45.75874956964649
 30
0.0
340
BA98
213
0.0
223
-0.0469
233
0.0
1001
ACAD
1000
DSTYLE
1002
{
1070
   147
1040
0.09
1070
    77
1070
     0
1070
   140
1040
0.0938
1070
   279
1070
     2
1070
   340
1005
21
1002
}
  0
MTEXT
  5
BA98
102
{ACAD_REACTORS
330
BA97
102
}
330
17
100
AcDbEntity
  8
0
100
AcDbMText
 10
91.2724371312251
 20
45.80564956964649
 30
0.0
 40
0.125
 41
0.0
 71
     1
 72
     1
  1
MODULE
  7
ROMANS
 73
     1
 44
1.0
  0
LEADER
  5
BA9A
330
17
100
AcDbEntity
  8
0
100
AcDbLeader
  3
STANDARD
 73
     0
 40
0.3333333333333333
 41
0.9702380952380952
 76
     3
 10
87.91349538859263
 20
45.40047347142882
 30
0.0
 10
87.40132682970473
 20
46.97895682684844
 30
0.0
 10
87.19205854066283
 20
46.97895682684844
 30
0.0
340
BA9B
213
0.0
223
0.0469
233
0.0
1001
ACAD
1000
DSTYLE
1002
{
1070
   147
1040
0.09
1070
    77
1070
     0
1070
   140
1040
0.0938
1070
   279
1070
     2
1070
   340
1005
21
1002
}
  0
MTEXT
  5
BA9B
102
{ACAD_REACTORS
330
BA9A
102
}
330
17
100
AcDbEntity
  8
0
100
AcDbMText
 10
87.10205854066282
 20
46.93205682684844
 30
0.0
 40
0.125
 41
0.0
 71
     9
 72
     1
  1
STANDOFF,\P2 PLACES
  7
SIMPLEX
 73
     1
 44
1.0
  0
MTEXT
  5
BA9D
330
17
100
AcDbEntity
  8
0
100
AcDbMText
 10
90.8657782554372
 20
48.02539198507482
 30
0.0
 40
0.125
 41
0.0
 71
     1
 72
     1
  1
D-SUB, HI-DENSITY, 26 PIN,\PMALE (PIN CONTACTS)
  7
SIMPLEX
 73
     1
 44
1.0
  0
LINE
  5
BB4C
330
17
100
AcDbEntity
  8
0
100
AcDbLine
 10
86.93749988859263
 20
46.3488645872328
 30
0.0
 11
85.89642267095292
 21
46.3488645872328
 31
0.0
  0
LINE
  5
BB4D
330
17
100
AcDbEntity
  8
0
100
AcDbLine
 10
86.92749988859263
 20
42.91886458723281
 30
0.0
 11
85.89642267095292
 21
42.91886458723281
 31
0.0
  0
LINE
  5
BB4E
330
17
100
AcDbEntity
  8
0
100
AcDbLine
 10
86.07642267095293
 20
46.1688645872328
 30
0.0
 11
86.07642267095293
 21
44.7707645872328
 31
0.0
  0
LINE
  5
BB4F
330
17
100
AcDbEntity
  8
0
100
AcDbLine
 10
86.07642267095293
 20
43.09886458723281
 30
0.0
 11
86.07642267095293
 21
44.49696458723281
 31
0.0
  0
SOLID
  5
BB50
330
17
100
AcDbEntity
  8
0
100
AcDbTrace
 10
86.04642267095293
 20
46.1688645872328
 30
0.0
 11
86.10642267095293
 21
46.1688645872328
 31
0.0
 12
86.07642267095293
 22
46.3488645872328
 32
0.0
 13
86.07642267095293
 23
46.3488645872328
 33
0.0
  0
SOLID
  5
BB51
330
17
100
AcDbEntity
  8
0
100
AcDbTrace
 10
86.04642267095293
 20
43.09886458723281
 30
0.0
 11
86.10642267095293
 21
43.09886458723281
 31
0.0
 12
86.07642267095293
 22
42.91886458723281
 32
0.0
 13
86.07642267095293
 23
42.91886458723281
 33
0.0
  0
MTEXT
  5
BB52
330
17
100
AcDbEntity
  8
0
100
AcDbMText
 10
86.07642267095291
 20
44.63386458723282
 30
0.0
 40
0.0938
 41
0.0
 71
     5
 72
     1
  1
3.06 REF
  7
SIMPLEX
 73
     1
 44
1.0
  0
LINE
  5
BB53
330
17
100
AcDbEntity
  8
0
100
AcDbLine
 10
86.96499988859264
 20
42.88136458723282
 30
0.0
 11
86.96499988859264
 21
42.00820627471801
 31
0.0
  0
LINE
  5
BB54
330
17
100
AcDbEntity
  8
0
100
AcDbLine
 10
90.16448988859259
 20
42.88136458723282
 30
0.0
 11
90.16448988859259
 21
42.00820627471801
 31
0.0
  0
LINE
  5
BB55
330
17
100
AcDbEntity
  8
0
100
AcDbLine
 10
87.14499988859264
 20
42.18820627471801
 30
0.0
 11
88.25141155525928
 21
42.18820627471801
 31
0.0
  0
LINE
  5
BB56
330
17
100
AcDbEntity
  8
0
100
AcDbLine
 10
89.98448988859259
 20
42.18820627471801
 30
0.0
 11
88.87807822192595
 21
42.18820627471801
 31
0.0
  0
SOLID
  5
BB57
330
17
100
AcDbEntity
  8
0
100
AcDbTrace
 10
87.14499988859264
 20
42.21820627471801
 30
0.0
 11
87.14499988859264
 21
42.15820627471801
 31
0.0
 12
86.96499988859264
 22
42.18820627471801
 32
0.0
 13
86.96499988859264
 23
42.18820627471801
 33
0.0
  0
SOLID
  5
BB58
330
17
100
AcDbEntity
  8
0
100
AcDbTrace
 10
89.98448988859259
 20
42.21820627471801
 30
0.0
 11
89.98448988859259
 21
42.15820627471801
 31
0.0
 12
90.16448988859259
 22
42.18820627471801
 32
0.0
 13
90.16448988859259
 23
42.18820627471801
 33
0.0
  0
MTEXT
  5
BB59
330
17
100
AcDbEntity
  8
0
100
AcDbMText
 10
88.56474488859261
 20
42.18820627471801
 30
0.0
 40
0.0938
 41
0.0
 71
     5
 72
     1
  1
3.12 REF
  7
SIMPLEX
 73
     1
 44
1.0
  0
DIMENSION
  5
BCA6
330
17
100
AcDbEntity
  8
0
100
AcDbDimension
  2
*D6
 10
81.90666340204126
 20
42.13120616845116
 30
0.0
 11
83.26166340204126
 21
42.13120616845116
 31
0.0
 70
    32
  1
2.05 REF
 71
     5
 42
2.710000000000007
  3
MEDDIM1148
100
AcDbAlignedDimension
 13
84.61666340204127
 23
43.73620616845116
 33
0.0
 14
81.90666340204126
 24
43.06399716845116
 34
0.0
100
AcDbRotatedDimension
1001
ACAD
1000
DSTYLE
1002
{
1070
   340
1005
22
1070
   140
1040
0.125
1002
}
  0
LWPOLYLINE
  5
BCA7
330
17
100
AcDbEntity
  8
0
 62
     4
100
AcDbPolyline
 90
        2
 70
     0
 43
0.0
 10
84.36666340204126
 20
43.64620616845115
 10
84.01966340204126
 20
43.64620616845115
  0
LWPOLYLINE
  5
BCA9
330
17
100
AcDbEntity
  8
0
 62
     4
100
AcDbPolyline
 90
        2
 70
     0
 43
0.0
 10
84.26266340204128
 20
44.05420616845115
 10
83.32566440204127
 20
44.05420616845115
  0
LWPOLYLINE
  5
BCAA
330
17
100
AcDbEntity
  8
0
 62
     2
100
AcDbPolyline
 90
        2
 70
     0
 43
0.0
 10
82.46466340204127
 20
45.93323816845116
 10
82.46466340204127
 20
45.78423816845116
  0
LWPOLYLINE
  5
BCAB
330
17
100
AcDbEntity
  8
0
 62
     2
100
AcDbPolyline
 90
        2
 70
     0
 43
0.0
 10
82.37592140204126
 20
46.22757316845116
 10
82.11333240204126
 20
45.54611316845115
  0
LWPOLYLINE
  5
BCAC
330
17
100
AcDbEntity
  8
0
 62
     2
100
AcDbPolyline
 90
        2
 70
     0
 43
0.0
 10
82.34366340204125
 20
46.27457316845116
 10
82.05466340204127
 20
45.52457316845115
  0
LWPOLYLINE
  5
BCAD
330
17
100
AcDbEntity
  8
0
 62
     2
100
AcDbPolyline
 90
        2
 70
     0
 43
0.0
 10
83.32566440204127
 20
46.00220616845116
 10
83.32566440204127
 20
43.26020616845116
  0
LWPOLYLINE
  5
BCAE
330
17
100
AcDbEntity
  8
0
 62
     2
100
AcDbPolyline
 90
        2
 70
     0
 43
0.0
 10
82.66266340204126
 20
46.21923816845115
 10
82.66266340204126
 20
43.01320616845116
  0
LWPOLYLINE
  5
BCAF
330
17
100
AcDbEntity
  8
0
 62
     2
100
AcDbPolyline
 90
        2
 70
     0
 43
0.0
 10
82.42466440204125
 20
46.27457316845116
 10
82.42466440204125
 20
43.97359016845117
  0
LWPOLYLINE
  5
BCB0
330
17
100
AcDbEntity
  8
0
 62
     2
100
AcDbPolyline
 90
        2
 70
     0
 43
0.0
 10
82.42466440204125
 20
46.27457316845116
 10
82.42466440204125
 20
43.97359016845117
  0
LWPOLYLINE
  5
BCB1
330
17
100
AcDbEntity
  8
0
 62
     2
100
AcDbPolyline
 90
        2
 70
     0
 43
0.0
 10
82.23666340204125
 20
44.20908116845116
 10
82.23666340204125
 20
44.13008116845115
  0
LWPOLYLINE
  5
BCB2
330
17
100
AcDbEntity
  8
0
 62
     2
100
AcDbPolyline
 90
        2
 70
     0
 43
0.0
 10
82.61966340204127
 20
43.64770716845116
 10
82.61966340204127
 20
44.51390116845115
  0
LWPOLYLINE
  5
BCB3
330
17
100
AcDbEntity
  8
0
 62
     2
100
AcDbPolyline
 90
        2
 70
     0
 43
0.0
 10
82.46466340204127
 20
44.57720616845115
 10
82.46466340204127
 20
43.55620616845115
  0
LWPOLYLINE
  5
BCB4
330
17
100
AcDbEntity
  8
0
 62
     2
100
AcDbPolyline
 90
        2
 70
     0
 43
0.0
 10
82.55966440204126
 20
44.57720616845115
 10
82.55966440204126
 20
43.55620616845115
  0
LWPOLYLINE
  5
BCB5
330
17
100
AcDbEntity
  8
0
 62
     2
100
AcDbPolyline
 90
        2
 70
     0
 43
0.0
 10
82.33066340204127
 20
44.45208116845115
 10
82.33066340204127
 20
44.01026116845116
  0
LWPOLYLINE
  5
BCB6
330
17
100
AcDbEntity
  8
0
 62
     2
100
AcDbPolyline
 90
        2
 70
     0
 43
0.0
 10
83.02666440204125
 20
42.91620616845115
 10
82.66266340204126
 20
43.01320616845116
  0
LWPOLYLINE
  5
BCB7
330
17
100
AcDbEntity
  8
0
 62
     2
100
AcDbPolyline
 90
        2
 70
     0
 43
0.0
 10
82.46466340204127
 20
43.44820616845116
 10
82.46466340204127
 20
43.29920616845116
  0
LWPOLYLINE
  5
BCB8
330
17
100
AcDbEntity
  8
0
 62
     2
100
AcDbPolyline
 90
        2
 70
     0
 43
0.0
 10
82.42466440204125
 20
43.90508116845116
 10
82.42466440204125
 20
43.07320616845117
  0
LWPOLYLINE
  5
BCB9
330
17
100
AcDbEntity
  8
0
 62
     2
100
AcDbPolyline
 90
        2
 70
     0
 43
0.0
 10
81.90638540204126
 20
43.16761316845116
 10
82.00650640204127
 20
43.81229016845115
  0
LWPOLYLINE
  5
BCBA
330
17
100
AcDbEntity
  8
0
 62
     2
100
AcDbPolyline
 90
        2
 70
     0
 43
0.0
 10
81.95199240204127
 20
43.20714116845116
 10
82.04903140204127
 20
43.83197516845116
  0
LWPOLYLINE
  5
BCBB
330
17
100
AcDbEntity
  8
0
 62
     2
100
AcDbPolyline
 90
        2
 70
     0
 43
0.0
 10
82.07282940204127
 20
43.10516316845116
 42
0.4410000000000001
 10
82.03466340204126
 20
43.07030716845116
  0
LWPOLYLINE
  5
BCBC
330
17
100
AcDbEntity
  8
0
 62
     2
100
AcDbPolyline
 90
        2
 70
     0
 43
0.0
 10
82.39303840204128
 20
43.13608116845116
 10
81.97802440204126
 20
43.17381016845115
  0
LWPOLYLINE
  5
BCBD
330
17
100
AcDbEntity
  8
0
 62
     2
100
AcDbPolyline
 90
        2
 70
     0
 43
0.0
 10
82.01166340204126
 20
42.97049216845116
 10
82.12536740204127
 20
42.98267416845116
  0
LWPOLYLINE
  5
BCBE
330
17
100
AcDbEntity
  8
0
 62
     2
100
AcDbPolyline
 90
        2
 70
     0
 43
0.0
 10
82.03466340204126
 20
43.06650916845116
 42
0.384815
 10
82.06612040204126
 20
43.03168916845116
  0
LWPOLYLINE
  5
BCBF
330
17
100
AcDbEntity
  8
0
 62
     2
100
AcDbPolyline
 90
        2
 70
     0
 43
0.0
 10
81.90666340204126
 20
43.16939816845116
 10
81.90666340204126
 20
43.06399716845116
  0
LWPOLYLINE
  5
BCC0
330
17
100
AcDbEntity
  8
0
 62
     2
100
AcDbPolyline
 90
        2
 70
     0
 43
0.0
 10
81.90629440204126
 20
43.07263516845115
 42
0.425424
 10
82.01166340204126
 20
42.97120916845116
  0
LWPOLYLINE
  5
BCC1
330
17
100
AcDbEntity
  8
0
 62
     2
100
AcDbPolyline
 90
        2
 70
     0
 43
0.0
 10
82.03466340204126
 20
43.07030716845116
 10
82.03466340204126
 20
43.06650916845116
  0
LWPOLYLINE
  5
BCC2
330
17
100
AcDbEntity
  8
0
 62
     2
100
AcDbPolyline
 90
        2
 70
     0
 43
0.0
 10
81.95199240204127
 20
43.20714116845116
 42
0.4329130000000001
 10
81.97802340204125
 20
43.17381016845115
  0
LWPOLYLINE
  5
BCC3
330
17
100
AcDbEntity
  8
0
 62
     2
100
AcDbPolyline
 90
        2
 70
     0
 43
0.0
 10
82.46466340204127
 20
43.06957316845116
 10
82.07282940204127
 20
43.10516316845116
  0
LWPOLYLINE
  5
BCC4
330
17
100
AcDbEntity
  8
0
 62
     2
100
AcDbPolyline
 90
        2
 70
     0
 43
0.0
 10
82.12536840204126
 20
42.98267416845116
 42
0.383288
 10
82.13966340204127
 20
42.99858316845116
  0
LWPOLYLINE
  5
BCC5
330
17
100
AcDbEntity
  8
0
 62
     2
100
AcDbPolyline
 90
        2
 70
     0
 43
0.0
 10
82.13966340204127
 20
43.00975116845116
 42
0.384813
 10
82.12528340204126
 20
43.02566916845115
  0
LWPOLYLINE
  5
BCC6
330
17
100
AcDbEntity
  8
0
 62
     2
100
AcDbPolyline
 90
        2
 70
     0
 43
0.0
 10
82.13966340204127
 20
43.00975116845116
 10
82.13966340204127
 20
42.99858316845116
  0
LWPOLYLINE
  5
BCC7
330
17
100
AcDbEntity
  8
0
 62
     2
100
AcDbPolyline
 90
        2
 70
     0
 43
0.0
 10
82.12528340204126
 20
43.02566916845115
 10
82.06612040204126
 20
43.03168916845116
  0
LWPOLYLINE
  5
BCC8
330
17
100
AcDbEntity
  8
0
 62
     2
100
AcDbPolyline
 90
        2
 70
     0
 43
0.0
 10
82.46466340204127
 20
43.14850916845116
 10
82.46466340204127
 20
43.06957316845116
  0
LWPOLYLINE
  5
BCC9
330
17
100
AcDbEntity
  8
0
 62
     2
100
AcDbPolyline
 90
        2
 70
     0
 43
0.0
 10
82.49017340204126
 20
43.17729816845115
 10
82.66266340204126
 20
43.19820616845116
  0
LWPOLYLINE
  5
BCCA
330
17
100
AcDbEntity
  8
0
 62
     2
100
AcDbPolyline
 90
        2
 70
     0
 43
0.0
 10
82.66266340204126
 20
43.27020616845117
 10
82.49366440204125
 20
43.27020616845117
  0
LWPOLYLINE
  5
BCCB
330
17
100
AcDbEntity
  8
0
 62
     2
100
AcDbPolyline
 90
        2
 70
     0
 43
0.0
 10
82.49017440204125
 20
43.17729816845115
 42
0.379308
 10
82.46466340204127
 20
43.14850916845116
  0
LWPOLYLINE
  5
BCCC
330
17
100
AcDbEntity
  8
0
 62
     2
100
AcDbPolyline
 90
        2
 70
     0
 43
0.0
 10
82.39303840204128
 20
43.13608116845116
 42
0.441025
 10
82.42466440204125
 20
43.16496216845115
  0
LWPOLYLINE
  5
BCCD
330
17
100
AcDbEntity
  8
0
 62
     2
100
AcDbPolyline
 90
        2
 70
     0
 43
0.0
 10
82.46466340204127
 20
43.29920616845116
 42
0.4142140000000001
 10
82.49366440204125
 20
43.27020616845117
  0
LWPOLYLINE
  5
BCCE
330
17
100
AcDbEntity
  8
0
 62
     2
100
AcDbPolyline
 90
        2
 70
     0
 43
0.0
 10
82.06866340204127
 20
43.98685916845116
 42
0.229221
 10
81.90666340204126
 20
43.88430716845116
  0
LWPOLYLINE
  5
BCCF
330
17
100
AcDbEntity
  8
0
 62
     2
100
AcDbPolyline
 90
        2
 70
     0
 43
0.0
 10
82.08031540204126
 20
43.85640516845116
 42
0.395777
 10
82.04903140204127
 20
43.83197416845116
  0
LWPOLYLINE
  5
BCD0
330
17
100
AcDbEntity
  8
0
 62
     2
100
AcDbPolyline
 90
        2
 70
     0
 43
0.0
 10
81.98176040204126
 20
43.84547616845115
 10
81.91416340204126
 20
43.85467416845116
  0
LWPOLYLINE
  5
BCD1
330
17
100
AcDbEntity
  8
0
 62
     2
100
AcDbPolyline
 90
        2
 70
     0
 43
0.0
 10
81.90623940204126
 20
43.88075216845116
 10
81.91416340204126
 20
43.85467416845116
  0
LWPOLYLINE
  5
BCD2
330
17
100
AcDbEntity
  8
0
 62
     2
100
AcDbPolyline
 90
        2
 70
     0
 43
0.0
 10
82.00650740204126
 20
43.81229016845115
 42
0.4197430000000001
 10
81.98176040204126
 20
43.84547616845115
  0
LWPOLYLINE
  5
BCD3
330
17
100
AcDbEntity
  8
0
 62
     2
100
AcDbPolyline
 90
        2
 70
     0
 43
0.0
 10
82.66266340204126
 20
43.44820616845116
 10
82.46466340204127
 20
43.44820616845116
  0
LWPOLYLINE
  5
BCD4
330
17
100
AcDbEntity
  8
0
 62
     2
100
AcDbPolyline
 90
        2
 70
     0
 43
0.0
 10
82.53066340204126
 20
43.52720616845116
 42
0.4142140000000001
 10
82.55966440204126
 20
43.55620616845115
  0
LWPOLYLINE
  5
BCD5
330
17
100
AcDbEntity
  8
0
 62
     2
100
AcDbPolyline
 90
        2
 70
     0
 43
0.0
 10
82.46466340204127
 20
43.55620616845115
 42
0.4142140000000001
 10
82.49366440204125
 20
43.52720616845116
  0
LWPOLYLINE
  5
BCD6
330
17
100
AcDbEntity
  8
0
 62
     2
100
AcDbPolyline
 90
        2
 70
     0
 43
0.0
 10
82.53066340204126
 20
43.52720616845116
 10
82.49366440204125
 20
43.52720616845116
  0
LWPOLYLINE
  5
BCD7
330
17
100
AcDbEntity
  8
0
 62
     2
100
AcDbPolyline
 90
        2
 70
     0
 43
0.0
 10
82.61966340204127
 20
43.64770716845116
 10
82.65648140204126
 20
43.63444516845116
  0
LWPOLYLINE
  5
BCD8
330
17
100
AcDbEntity
  8
0
 62
     2
100
AcDbPolyline
 90
        2
 70
     0
 43
0.0
 10
82.42466440204125
 20
43.82508116845116
 10
82.37074540204126
 20
43.82998616845116
  0
LWPOLYLINE
  5
BCD9
330
17
100
AcDbEntity
  8
0
 62
     2
100
AcDbPolyline
 90
        2
 70
     0
 43
0.0
 10
82.42466440204125
 20
43.93508116845116
 10
82.33912540204126
 20
43.94913416845116
  0
LWPOLYLINE
  5
BCDA
330
17
100
AcDbEntity
  8
0
 62
     2
100
AcDbPolyline
 90
        2
 70
     0
 43
0.0
 10
82.42466440204125
 20
43.93508116845116
 10
82.33912540204126
 20
43.94913416845116
  0
LWPOLYLINE
  5
BCDB
330
17
100
AcDbEntity
  8
0
 62
     2
100
AcDbPolyline
 90
        2
 70
     0
 43
0.0
 10
82.42466440204125
 20
43.97359016845117
 10
82.35161040204125
 20
43.98559216845116
  0
LWPOLYLINE
  5
BCDC
330
17
100
AcDbEntity
  8
0
 62
     2
100
AcDbPolyline
 90
        2
 70
     0
 43
0.0
 10
82.42466440204125
 20
43.90508116845116
 10
82.20580940204127
 20
43.91064216845116
  0
LWPOLYLINE
  5
BCDD
330
17
100
AcDbEntity
  8
0
 62
     2
100
AcDbPolyline
 90
        2
 70
     0
 43
0.0
 10
82.18060840204127
 20
43.92666316845115
 10
82.14493940204127
 20
43.99800016845115
  0
LWPOLYLINE
  5
BCDE
330
17
100
AcDbEntity
  8
0
 62
     2
100
AcDbPolyline
 90
        2
 70
     0
 43
0.0
 10
82.28466340204127
 20
44.01327416845115
 42
0.367287
 10
82.33912640204126
 20
43.94913316845115
  0
LWPOLYLINE
  5
BCDF
330
17
100
AcDbEntity
  8
0
 62
     2
100
AcDbPolyline
 90
        2
 70
     0
 43
0.0
 10
82.33105540204126
 20
43.83359616845116
 10
82.08031540204126
 20
43.85640516845116
  0
LWPOLYLINE
  5
BCE0
330
17
100
AcDbEntity
  8
0
 62
     2
100
AcDbPolyline
 90
        2
 70
     0
 43
0.0
 10
82.18060840204127
 20
43.92666316845115
 42
0.277225
 10
82.20581040204127
 20
43.91064216845116
  0
LWPOLYLINE
  5
BCE1
330
17
100
AcDbEntity
  8
0
 62
     2
100
AcDbPolyline
 90
        2
 70
     0
 43
0.0
 10
82.33105540204126
 20
43.83359616845116
 42
0.9862680000000001
 10
82.37074640204125
 20
43.82998616845116
  0
LWPOLYLINE
  5
BCE2
330
17
100
AcDbEntity
  8
0
 62
     2
100
AcDbPolyline
 90
        2
 70
     0
 43
0.0
 10
82.11966340204126
 20
43.99800016845115
 10
82.11966340204126
 20
43.95100016845115
  0
LWPOLYLINE
  5
BCE3
330
17
100
AcDbEntity
  8
0
 62
     2
100
AcDbPolyline
 90
        2
 70
     0
 43
0.0
 10
82.14493940204127
 20
43.99800016845115
 10
82.11966340204126
 20
43.99800016845115
  0
LWPOLYLINE
  5
BCE4
330
17
100
AcDbEntity
  8
0
 62
     2
100
AcDbPolyline
 90
        2
 70
     0
 43
0.0
 10
82.06866340204127
 20
43.98685916845116
 10
82.06866340204127
 20
43.95100016845115
  0
LWPOLYLINE
  5
BCE5
330
17
100
AcDbEntity
  8
0
 62
     2
100
AcDbPolyline
 90
        2
 70
     0
 43
0.0
 10
82.11966340204126
 20
43.95100016845115
 10
82.06866340204127
 20
43.95100016845115
  0
LWPOLYLINE
  5
BCE6
330
17
100
AcDbEntity
  8
0
 62
     2
100
AcDbPolyline
 90
        2
 70
     0
 43
0.0
 10
82.33066340204127
 20
44.01026116845116
 42
0.367286
 10
82.35161140204127
 20
43.98559116845116
  0
LWPOLYLINE
  5
BCE7
330
17
100
AcDbEntity
  8
0
 62
     2
100
AcDbPolyline
 90
        2
 70
     0
 43
0.0
 10
82.28466340204127
 20
44.10508116845116
 10
82.28466340204127
 20
44.01327416845115
  0
LWPOLYLINE
  5
BCE8
330
17
100
AcDbEntity
  8
0
 62
     2
100
AcDbPolyline
 90
        2
 70
     0
 43
0.0
 10
82.25966340204127
 20
44.13008116845115
 10
82.23666340204125
 20
44.13008116845115
  0
LWPOLYLINE
  5
BCE9
330
17
100
AcDbEntity
  8
0
 62
     2
100
AcDbPolyline
 90
        2
 70
     0
 43
0.0
 10
82.28466340204127
 20
44.10508116845116
 42
0.4142140000000001
 10
82.25966340204127
 20
44.13008116845115
  0
LWPOLYLINE
  5
BCEA
330
17
100
AcDbEntity
  8
0
 62
     2
100
AcDbPolyline
 90
        2
 70
     0
 43
0.0
 10
82.42466440204125
 20
43.93508116845116
 10
82.42466440204125
 20
43.97359016845117
  0
LWPOLYLINE
  5
BCEB
330
17
100
AcDbEntity
  8
0
 62
     2
100
AcDbPolyline
 90
        2
 70
     0
 43
0.0
 10
82.40892140204127
 20
43.90529116845115
 42
0.9455670000000001
 10
82.40980840204127
 20
43.93777916845116
  0
LWPOLYLINE
  5
BCEC
330
17
100
AcDbEntity
  8
0
 62
     2
100
AcDbPolyline
 90
        2
 70
     0
 43
0.0
 10
82.41423840204125
 20
43.93679316845116
 42
0.095593
 10
82.40822940204127
 20
43.93778016845115
  0
LWPOLYLINE
  5
BCED
330
17
100
AcDbEntity
  8
0
 62
     2
100
AcDbPolyline
 90
        2
 70
     0
 43
0.0
 10
82.42466440204125
 20
43.93508116845116
 10
82.42466440204125
 20
43.90508116845116
  0
LWPOLYLINE
  5
BCEE
330
17
100
AcDbEntity
  8
0
 62
     4
100
AcDbPolyline
 90
        2
 70
     0
 43
0.0
 10
83.76966340204125
 20
43.21120616845115
 10
84.01966340204126
 20
43.30920616845115
  0
LWPOLYLINE
  5
BCEF
330
17
100
AcDbEntity
  8
0
 62
     4
100
AcDbPolyline
 90
        2
 70
     0
 43
0.0
 10
83.76966340204125
 20
43.21120616845115
 10
83.36466340204125
 20
43.21120616845115
  0
LWPOLYLINE
  5
BCF0
330
17
100
AcDbEntity
  8
0
 62
     4
100
AcDbPolyline
 90
        2
 70
     0
 43
0.0
 10
83.81566340204127
 20
43.28720616845116
 10
83.32566440204127
 20
43.28720616845116
  0
LWPOLYLINE
  5
BCF1
330
17
100
AcDbEntity
  8
0
 62
     4
100
AcDbPolyline
 90
        2
 70
     0
 43
0.0
 10
83.81566340204127
 20
43.24520616845116
 10
83.36466340204125
 20
43.24520616845116
  0
LWPOLYLINE
  5
BCF2
330
17
100
AcDbEntity
  8
0
 62
     2
100
AcDbPolyline
 90
        2
 70
     0
 43
0.0
 10
83.33181540204128
 20
42.96495816845116
 10
83.02666440204125
 20
42.91620616845115
  0
LWPOLYLINE
  5
BCF3
330
17
100
AcDbEntity
  8
0
 62
     2
100
AcDbPolyline
 90
        2
 70
     0
 43
0.0
 10
83.36466340204125
 20
43.23520616845115
 10
83.36466340204125
 20
43.00347016845115
  0
LWPOLYLINE
  5
BCF4
330
17
100
AcDbEntity
  8
0
 62
     2
100
AcDbPolyline
 90
        2
 70
     0
 43
0.0
 10
83.33181640204127
 20
42.96495816845116
 42
0.368539
 10
83.36466340204125
 20
43.00347016845115
  0
LWPOLYLINE
  5
BCF5
330
17
100
AcDbEntity
  8
0
 62
     2
100
AcDbPolyline
 90
        2
 70
     0
 43
0.0
 10
83.32566440204127
 20
43.26020616845116
 10
83.33966340204126
 20
43.26020616845116
  0
LWPOLYLINE
  5
BCF6
330
17
100
AcDbEntity
  8
0
 62
     2
100
AcDbPolyline
 90
        2
 70
     0
 43
0.0
 10
83.36466340204125
 20
43.23520616845115
 42
0.4142140000000001
 10
83.33966340204126
 20
43.26020616845116
  0
LWPOLYLINE
  5
BCF7
330
17
100
AcDbEntity
  8
0
 62
     4
100
AcDbPolyline
 90
        2
 70
     0
 43
0.0
 10
83.81566340204127
 20
43.28720616845116
 10
83.81566340204127
 20
43.24520616845116
  0
LWPOLYLINE
  5
BCF8
330
17
100
AcDbEntity
  8
0
 62
     4
100
AcDbPolyline
 90
        2
 70
     0
 43
0.0
 10
83.81566340204127
 20
43.71520616845116
 10
83.32566440204127
 20
43.71520616845116
  0
LWPOLYLINE
  5
BCF9
330
17
100
AcDbEntity
  8
0
 62
     4
100
AcDbPolyline
 90
        2
 70
     0
 43
0.0
 10
83.81566340204127
 20
43.67320616845115
 10
83.32566440204127
 20
43.67320616845115
  0
LWPOLYLINE
  5
BCFA
330
17
100
AcDbEntity
  8
0
 62
     4
100
AcDbPolyline
 90
        2
 70
     0
 43
0.0
 10
84.01966340204126
 20
43.62620616845116
 10
83.32566440204127
 20
43.62620616845116
  0
LWPOLYLINE
  5
BCFB
330
17
100
AcDbEntity
  8
0
 62
     4
100
AcDbPolyline
 90
        2
 70
     0
 43
0.0
 10
84.01966340204126
 20
43.64620616845115
 10
84.01966340204126
 20
43.30920616845115
  0
LWPOLYLINE
  5
BCFC
330
17
100
AcDbEntity
  8
0
 62
     4
100
AcDbPolyline
 90
        2
 70
     0
 43
0.0
 10
83.81566340204127
 20
43.71520616845116
 10
83.81566340204127
 20
43.67320616845115
  0
LWPOLYLINE
  5
BCFD
330
17
100
AcDbEntity
  8
0
 62
     2
100
AcDbPolyline
 90
        2
 70
     0
 43
0.0
 10
82.46466340204127
 20
45.67623816845116
 10
82.46466340204127
 20
44.65523816845116
  0
LWPOLYLINE
  5
BCFE
330
17
100
AcDbEntity
  8
0
 62
     2
100
AcDbPolyline
 90
        2
 70
     0
 43
0.0
 10
82.61966340204127
 20
45.57981216845115
 10
82.61966340204127
 20
44.71387916845116
  0
LWPOLYLINE
  5
BCFF
330
17
100
AcDbEntity
  8
0
 62
     2
100
AcDbPolyline
 90
        2
 70
     0
 43
0.0
 10
82.55966440204126
 20
45.67623816845116
 10
82.55966440204126
 20
44.65523816845116
  0
LWPOLYLINE
  5
BD00
330
17
100
AcDbEntity
  8
0
 62
     2
100
AcDbPolyline
 90
        2
 70
     0
 43
0.0
 10
82.11042840204127
 20
44.99575116845116
 10
82.10906640204127
 20
45.05114516845115
  0
LWPOLYLINE
  5
BD01
330
17
100
AcDbEntity
  8
0
 62
     2
100
AcDbPolyline
 90
        2
 70
     0
 43
0.0
 10
82.18453740204127
 20
44.65518816845116
 10
82.00436640204127
 20
44.45665516845116
  0
LWPOLYLINE
  5
BD02
330
17
100
AcDbEntity
  8
0
 62
     2
100
AcDbPolyline
 90
        2
 70
     0
 43
0.0
 10
82.04793840204127
 20
44.39178616845116
 42
0.28137
 10
82.07395840204126
 20
44.39941716845116
  0
LWPOLYLINE
  5
BD03
330
17
100
AcDbEntity
  8
0
 62
     2
100
AcDbPolyline
 90
        2
 70
     0
 43
0.0
 10
81.94380940204126
 20
44.43385516845116
 10
82.10949440204126
 20
44.71243116845116
  0
LWPOLYLINE
  5
BD04
330
17
100
AcDbEntity
  8
0
 62
     2
100
AcDbPolyline
 90
        2
 70
     0
 43
0.0
 10
82.12406540204126
 20
44.29877016845115
 10
81.99681140204125
 20
44.33306816845116
  0
LWPOLYLINE
  5
BD05
330
17
100
AcDbEntity
  8
0
 62
     2
100
AcDbPolyline
 90
        2
 70
     0
 43
0.0
 10
81.94420640204127
 20
44.43452116845115
 42
0.440095
 10
82.01474640204127
 20
44.32823416845116
  0
LWPOLYLINE
  5
BD06
330
17
100
AcDbEntity
  8
0
 62
     2
100
AcDbPolyline
 90
        2
 70
     0
 43
0.0
 10
81.99632240204127
 20
44.42944916845116
 42
0.339044
 10
82.01925540204127
 20
44.39951716845115
  0
LWPOLYLINE
  5
BD07
330
17
100
AcDbEntity
  8
0
 62
     2
100
AcDbPolyline
 90
        2
 70
     0
 43
0.0
 10
82.00436640204127
 20
44.45665516845116
 42
0.186351
 10
81.99632240204127
 20
44.43582216845117
  0
LWPOLYLINE
  5
BD08
330
17
100
AcDbEntity
  8
0
 62
     2
100
AcDbPolyline
 90
        2
 70
     0
 43
0.0
 10
82.04793840204127
 20
44.39178616845116
 10
82.01925440204126
 20
44.39951716845115
  0
LWPOLYLINE
  5
BD09
330
17
100
AcDbEntity
  8
0
 62
     2
100
AcDbPolyline
 90
        2
 70
     0
 43
0.0
 10
81.99632240204127
 20
44.42944916845116
 10
81.99632240204127
 20
44.43582216845117
  0
LWPOLYLINE
  5
BD0A
330
17
100
AcDbEntity
  8
0
 62
     2
100
AcDbPolyline
 90
        2
 70
     0
 43
0.0
 10
82.55966440204126
 20
44.57720616845115
 42
0.4142140000000001
 10
82.53066340204126
 20
44.60620616845116
  0
LWPOLYLINE
  5
BD0B
330
17
100
AcDbEntity
  8
0
 62
     2
100
AcDbPolyline
 90
        2
 70
     0
 43
0.0
 10
82.49366440204125
 20
44.60620616845116
 42
0.4142140000000001
 10
82.46466340204127
 20
44.57720616845115
  0
LWPOLYLINE
  5
BD0C
330
17
100
AcDbEntity
  8
0
 62
     2
100
AcDbPolyline
 90
        2
 70
     0
 43
0.0
 10
82.27435940204127
 20
44.62024216845115
 10
82.07395740204125
 20
44.39941716845116
  0
LWPOLYLINE
  5
BD0D
330
17
100
AcDbEntity
  8
0
 62
     2
100
AcDbPolyline
 90
        2
 70
     0
 43
0.0
 10
82.42466440204125
 20
44.64371516845116
 10
82.19716040204126
 20
44.44401916845116
  0
LWPOLYLINE
  5
BD0E
330
17
100
AcDbEntity
  8
0
 62
     2
100
AcDbPolyline
 90
        2
 70
     0
 43
0.0
 10
82.35566440204127
 20
44.47708116845116
 10
82.42466440204125
 20
44.47708116845116
  0
LWPOLYLINE
  5
BD0F
330
17
100
AcDbEntity
  8
0
 62
     2
100
AcDbPolyline
 90
        2
 70
     0
 43
0.0
 10
82.33466340204127
 20
44.51508116845116
 10
82.42466440204125
 20
44.51508116845116
  0
LWPOLYLINE
  5
BD10
330
17
100
AcDbEntity
  8
0
 62
     2
100
AcDbPolyline
 90
        2
 70
     0
 43
0.0
 10
82.19716040204126
 20
44.44401916845116
 10
82.19716040204126
 20
44.35477216845116
  0
LWPOLYLINE
  5
BD11
330
17
100
AcDbEntity
  8
0
 62
     2
100
AcDbPolyline
 90
        2
 70
     0
 43
0.0
 10
82.21266340204127
 20
44.35708116845115
 10
82.28466340204127
 20
44.45208116845115
  0
LWPOLYLINE
  5
BD12
330
17
100
AcDbEntity
  8
0
 62
     2
100
AcDbPolyline
 90
        2
 70
     0
 43
0.0
 10
82.23466340204126
 20
44.35708116845115
 10
82.21266340204127
 20
44.35708116845115
  0
LWPOLYLINE
  5
BD13
330
17
100
AcDbEntity
  8
0
 62
     2
100
AcDbPolyline
 90
        2
 70
     0
 43
0.0
 10
82.12406640204127
 20
44.29877016845115
 42
0.4936010000000001
 10
82.19716040204126
 20
44.35477216845116
  0
LWPOLYLINE
  5
BD14
330
17
100
AcDbEntity
  8
0
 62
     2
100
AcDbPolyline
 90
        2
 70
     0
 43
0.0
 10
82.28466340204127
 20
44.30708116845116
 10
82.28466340204127
 20
44.23408116845116
  0
LWPOLYLINE
  5
BD15
330
17
100
AcDbEntity
  8
0
 62
     2
100
AcDbPolyline
 90
        2
 70
     0
 43
0.0
 10
82.25966340204127
 20
44.20908116845116
 10
82.23666340204125
 20
44.20908116845116
  0
LWPOLYLINE
  5
BD16
330
17
100
AcDbEntity
  8
0
 62
     2
100
AcDbPolyline
 90
        2
 70
     0
 43
0.0
 10
82.25966340204127
 20
44.20908116845116
 42
0.4142140000000001
 10
82.28466340204127
 20
44.23408116845116
  0
LWPOLYLINE
  5
BD17
330
17
100
AcDbEntity
  8
0
 62
     2
100
AcDbPolyline
 90
        2
 70
     0
 43
0.0
 10
82.28466340204127
 20
44.30708116845116
 42
0.4142140000000001
 10
82.23466340204126
 20
44.35708116845115
  0
LWPOLYLINE
  5
BD18
330
17
100
AcDbEntity
  8
0
 62
     2
100
AcDbPolyline
 90
        2
 70
     0
 43
0.0
 10
82.28466340204127
 20
44.46508116845116
 10
82.28466340204127
 20
44.45208116845115
  0
LWPOLYLINE
  5
BD19
330
17
100
AcDbEntity
  8
0
 62
     2
100
AcDbPolyline
 90
        2
 70
     0
 43
0.0
 10
82.35566440204127
 20
44.47708116845116
 42
0.4142140000000001
 10
82.33066340204127
 20
44.45208116845115
  0
LWPOLYLINE
  5
BD1A
330
17
100
AcDbEntity
  8
0
 62
     2
100
AcDbPolyline
 90
        2
 70
     0
 43
0.0
 10
82.33466340204127
 20
44.51508116845116
 42
0.4142140000000001
 10
82.28466340204127
 20
44.46508116845116
  0
LWPOLYLINE
  5
BD1B
330
17
100
AcDbEntity
  8
0
 62
     2
100
AcDbPolyline
 90
        2
 70
     0
 43
0.0
 10
82.61966340204127
 20
44.51390116845115
 10
82.65688840204125
 20
44.52775216845116
  0
LWPOLYLINE
  5
BD1C
330
17
100
AcDbEntity
  8
0
 62
     2
100
AcDbPolyline
 90
        2
 70
     0
 43
0.0
 10
82.14266340204126
 20
44.93716016845115
 10
82.42466440204125
 20
44.85316016845117
  0
LWPOLYLINE
  5
BD1D
330
17
100
AcDbEntity
  8
0
 62
     2
100
AcDbPolyline
 90
        2
 70
     0
 43
0.0
 10
82.42466440204125
 20
45.02088216845116
 10
82.25954640204127
 20
45.02088216845116
  0
LWPOLYLINE
  5
BD1E
330
17
100
AcDbEntity
  8
0
 62
     2
100
AcDbPolyline
 90
        2
 70
     0
 43
0.0
 10
82.37466340204127
 20
44.79351616845116
 42
0.331747
 10
82.35322840204126
 20
44.82226816845115
  0
LWPOLYLINE
  5
BD1F
330
17
100
AcDbEntity
  8
0
 62
     2
100
AcDbPolyline
 90
        2
 70
     0
 43
0.0
 10
82.25510640204126
 20
44.66371516845116
 10
82.20379140204126
 20
44.66371516845116
  0
LWPOLYLINE
  5
BD20
330
17
100
AcDbEntity
  8
0
 62
     2
100
AcDbPolyline
 90
        2
 70
     0
 43
0.0
 10
82.34466340204127
 20
44.74371516845116
 10
82.16450040204128
 20
44.74371516845116
  0
LWPOLYLINE
  5
BD21
330
17
100
AcDbEntity
  8
0
 62
     2
100
AcDbPolyline
 90
        2
 70
     0
 43
0.0
 10
82.16450040204128
 20
44.74371516845116
 42
0.264479
 10
82.10949440204126
 20
44.71243116845116
  0
LWPOLYLINE
  5
BD22
330
17
100
AcDbEntity
  8
0
 62
     2
100
AcDbPolyline
 90
        2
 70
     0
 43
0.0
 10
82.20379140204126
 20
44.66371516845116
 42
0.211535
 10
82.18453840204126
 20
44.65518816845116
  0
LWPOLYLINE
  5
BD23
330
17
100
AcDbEntity
  8
0
 62
     2
100
AcDbPolyline
 90
        2
 70
     0
 43
0.0
 10
82.34466340204127
 20
44.74371516845116
 42
0.4142140000000001
 10
82.37466340204127
 20
44.77371516845116
  0
LWPOLYLINE
  5
BD24
330
17
100
AcDbEntity
  8
0
 62
     2
100
AcDbPolyline
 90
        2
 70
     0
 43
0.0
 10
82.37466340204127
 20
44.79351616845116
 10
82.37466340204127
 20
44.77371516845116
  0
LWPOLYLINE
  5
BD25
330
17
100
AcDbEntity
  8
0
 62
     2
100
AcDbPolyline
 90
        2
 70
     0
 43
0.0
 10
82.27436040204127
 20
44.62024216845115
 42
0.650798
 10
82.25510640204126
 20
44.66371516845116
  0
LWPOLYLINE
  5
BD26
330
17
100
AcDbEntity
  8
0
 62
     2
100
AcDbPolyline
 90
        2
 70
     0
 43
0.0
 10
82.25954640204127
 20
45.02088216845116
 10
82.14266340204126
 20
44.95636916845116
  0
LWPOLYLINE
  5
BD27
330
17
100
AcDbEntity
  8
0
 62
     2
100
AcDbPolyline
 90
        2
 70
     0
 43
0.0
 10
82.09266440204126
 20
44.89988216845115
 10
82.35322740204127
 20
44.82226816845115
  0
LWPOLYLINE
  5
BD28
330
17
100
AcDbEntity
  8
0
 62
     2
100
AcDbPolyline
 90
        2
 70
     0
 43
0.0
 10
82.11045540204127
 20
44.99570316845115
 10
82.09266440204126
 20
44.98588216845115
  0
LWPOLYLINE
  5
BD29
330
17
100
AcDbEntity
  8
0
 62
     2
100
AcDbPolyline
 90
        2
 70
     0
 43
0.0
 10
82.09266440204126
 20
44.98588216845115
 10
82.09266440204126
 20
44.89988216845115
  0
LWPOLYLINE
  5
BD2A
330
17
100
AcDbEntity
  8
0
 62
     2
100
AcDbPolyline
 90
        2
 70
     0
 43
0.0
 10
82.14266340204126
 20
44.95636916845116
 10
82.14266340204126
 20
44.93716016845115
  0
LWPOLYLINE
  5
BD2B
330
17
100
AcDbEntity
  8
0
 62
     2
100
AcDbPolyline
 90
        2
 70
     0
 43
0.0
 10
82.53066340204126
 20
44.62623816845116
 42
0.4142140000000001
 10
82.55966440204126
 20
44.65523816845116
  0
LWPOLYLINE
  5
BD2C
330
17
100
AcDbEntity
  8
0
 62
     2
100
AcDbPolyline
 90
        2
 70
     0
 43
0.0
 10
82.46466340204127
 20
44.65523816845116
 42
0.4142140000000001
 10
82.49366440204125
 20
44.62623816845116
  0
LWPOLYLINE
  5
BD2D
330
17
100
AcDbEntity
  8
0
 62
     2
100
AcDbPolyline
 90
        2
 70
     0
 43
0.0
 10
82.53066340204126
 20
44.62623816845116
 10
82.49366440204125
 20
44.62623816845116
  0
LWPOLYLINE
  5
BD2E
330
17
100
AcDbEntity
  8
0
 62
     2
100
AcDbPolyline
 90
        2
 70
     0
 43
0.0
 10
82.53066340204126
 20
44.60620616845116
 10
82.49366440204125
 20
44.60620616845116
  0
LWPOLYLINE
  5
BD2F
330
17
100
AcDbEntity
  8
0
 62
     2
100
AcDbPolyline
 90
        2
 70
     0
 43
0.0
 10
82.61966340204127
 20
44.71387916845116
 10
82.65598240204125
 20
44.70079616845116
  0
LWPOLYLINE
  5
BD30
330
17
100
AcDbEntity
  8
0
 62
     2
100
AcDbPolyline
 90
        2
 70
     0
 43
0.0
 10
82.06268340204125
 20
45.28994616845117
 10
82.01544240204126
 20
45.22508016845115
  0
LWPOLYLINE
  5
BD31
330
17
100
AcDbEntity
  8
0
 62
     2
100
AcDbPolyline
 90
        2
 70
     0
 43
0.0
 10
82.07721440204126
 20
45.16786916845116
 42
0.21203
 10
82.03313440204127
 20
45.10548416845115
  0
LWPOLYLINE
  5
BD32
330
17
100
AcDbEntity
  8
0
 62
     2
100
AcDbPolyline
 90
        2
 70
     0
 43
0.0
 10
81.91194140204126
 20
45.28323716845116
 42
0.450623
 10
81.90940440204126
 20
45.22486016845116
  0
LWPOLYLINE
  5
BD33
330
17
100
AcDbEntity
  8
0
 62
     2
100
AcDbPolyline
 90
        2
 70
     0
 43
0.0
 10
81.97463340204127
 20
45.26906416845116
 10
82.01544240204126
 20
45.22508016845115
  0
LWPOLYLINE
  5
BD34
330
17
100
AcDbEntity
  8
0
 62
     2
100
AcDbPolyline
 90
        2
 70
     0
 43
0.0
 10
82.03313440204127
 20
45.10548416845115
 10
81.90940440204126
 20
45.22486116845115
  0
LWPOLYLINE
  5
BD35
330
17
100
AcDbEntity
  8
0
 62
     2
100
AcDbPolyline
 90
        2
 70
     0
 43
0.0
 10
81.91194040204127
 20
45.28323716845116
 10
81.98073640204126
 20
45.33893916845116
  0
LWPOLYLINE
  5
BD36
330
17
100
AcDbEntity
  8
0
 62
     2
100
AcDbPolyline
 90
        2
 70
     0
 43
0.0
 10
81.97463340204127
 20
45.26906416845116
 10
81.99773840204127
 20
45.32061416845116
  0
LWPOLYLINE
  5
BD37
330
17
100
AcDbEntity
  8
0
 62
     2
100
AcDbPolyline
 90
        2
 70
     0
 43
0.0
 10
81.98073640204126
 20
45.33893916845116
 10
81.99773840204127
 20
45.32061416845116
  0
LWPOLYLINE
  5
BD38
330
17
100
AcDbEntity
  8
0
 62
     2
100
AcDbPolyline
 90
        2
 70
     0
 43
0.0
 10
82.22766340204126
 20
45.43650916845116
 42
0.293588
 10
82.21305240204127
 20
45.45924816845115
  0
LWPOLYLINE
  5
BD39
330
17
100
AcDbEntity
  8
0
 62
     2
100
AcDbPolyline
 90
        2
 70
     0
 43
0.0
 10
82.05466340204127
 20
45.52457316845115
 10
82.05466340204127
 20
45.40148416845116
  0
LWPOLYLINE
  5
BD3A
330
17
100
AcDbEntity
  8
0
 62
     2
100
AcDbPolyline
 90
        2
 70
     0
 43
0.0
 10
82.42466440204125
 20
45.21257316845115
 10
82.37366340204125
 20
45.21257316845115
  0
LWPOLYLINE
  5
BD3B
330
17
100
AcDbEntity
  8
0
 62
     2
100
AcDbPolyline
 90
        2
 70
     0
 43
0.0
 10
82.42466440204125
 20
45.29757316845116
 10
82.24227540204127
 20
45.38089716845115
  0
LWPOLYLINE
  5
BD3C
330
17
100
AcDbEntity
  8
0
 62
     2
100
AcDbPolyline
 90
        2
 70
     0
 43
0.0
 10
82.42466440204125
 20
45.07088216845116
 10
82.24666340204127
 20
45.07088216845116
  0
LWPOLYLINE
  5
BD3D
330
17
100
AcDbEntity
  8
0
 62
     2
100
AcDbPolyline
 90
        2
 70
     0
 43
0.0
 10
82.32466340204126
 20
45.23157316845116
 10
82.32466340204126
 20
45.27442216845116
  0
LWPOLYLINE
  5
BD3E
330
17
100
AcDbEntity
  8
0
 62
     2
100
AcDbPolyline
 90
        2
 70
     0
 43
0.0
 10
82.25895140204126
 20
45.24899216845116
 42
0.394979
 10
82.23205940204126
 20
45.22791516845116
  0
LWPOLYLINE
  5
BD3F
330
17
100
AcDbEntity
  8
0
 62
     2
100
AcDbPolyline
 90
        2
 70
     0
 43
0.0
 10
82.27458540204127
 20
45.19541916845116
 10
82.26621240204126
 20
45.24835516845115
  0
LWPOLYLINE
  5
BD40
330
17
100
AcDbEntity
  8
0
 62
     2
100
AcDbPolyline
 90
        2
 70
     0
 43
0.0
 10
82.14262940204127
 20
45.30728616845116
 10
82.16968540204126
 20
45.22021316845116
  0
LWPOLYLINE
  5
BD41
330
17
100
AcDbEntity
  8
0
 62
     2
100
AcDbPolyline
 90
        2
 70
     0
 43
0.0
 10
82.22766340204126
 20
45.19954016845116
 10
82.19137240204126
 20
45.20272716845116
  0
LWPOLYLINE
  5
BD42
330
17
100
AcDbEntity
  8
0
 62
     2
100
AcDbPolyline
 90
        2
 70
     0
 43
0.0
 10
82.24666340204127
 20
45.07088216845116
 10
82.18466440204126
 20
45.03666216845116
  0
LWPOLYLINE
  5
BD43
330
17
100
AcDbEntity
  8
0
 62
     2
100
AcDbPolyline
 90
        2
 70
     0
 43
0.0
 10
82.34647740204126
 20
45.13088216845116
 10
82.13466340204126
 20
45.14948416845117
  0
LWPOLYLINE
  5
BD44
330
17
100
AcDbEntity
  8
0
 62
     2
100
AcDbPolyline
 90
        2
 70
     0
 43
0.0
 10
82.11440740204126
 20
45.21025316845116
 42
0.414209
 10
82.09543340204126
 20
45.21974016845116
  0
LWPOLYLINE
  5
BD45
330
17
100
AcDbEntity
  8
0
 62
     2
100
AcDbPolyline
 90
        2
 70
     0
 43
0.0
 10
82.09543340204126
 20
45.21974016845116
 10
82.07835640204127
 20
45.21404816845115
  0
LWPOLYLINE
  5
BD46
330
17
100
AcDbEntity
  8
0
 62
     2
100
AcDbPolyline
 90
        2
 70
     0
 43
0.0
 10
82.16968540204126
 20
45.22021316845116
 42
0.304396
 10
82.19137240204126
 20
45.20272716845116
  0
LWPOLYLINE
  5
BD47
330
17
100
AcDbEntity
  8
0
 62
     2
100
AcDbPolyline
 90
        2
 70
     0
 43
0.0
 10
82.11812440204125
 20
45.10616116845116
 10
82.10761440204127
 20
45.10036016845115
  0
LWPOLYLINE
  5
BD48
330
17
100
AcDbEntity
  8
0
 62
     2
100
AcDbPolyline
 90
        2
 70
     0
 43
0.0
 10
82.10761440204127
 20
45.10036016845115
 42
0.4211960000000001
 10
82.09886240204125
 20
45.06863416845115
  0
LWPOLYLINE
  5
BD49
330
17
100
AcDbEntity
  8
0
 62
     2
100
AcDbPolyline
 90
        2
 70
     0
 43
0.0
 10
82.10906640204127
 20
45.05114516845115
 10
82.09886240204125
 20
45.06863416845115
  0
LWPOLYLINE
  5
BD4A
330
17
100
AcDbEntity
  8
0
 62
     2
100
AcDbPolyline
 90
        2
 70
     0
 43
0.0
 10
82.14910440204127
 20
45.09761416845115
 42
0.407264
 10
82.11812340204126
 20
45.10616016845117
  0
LWPOLYLINE
  5
BD4B
330
17
100
AcDbEntity
  8
0
 62
     2
100
AcDbPolyline
 90
        2
 70
     0
 43
0.0
 10
82.18466440204126
 20
45.03666216845116
 10
82.14910440204127
 20
45.09761416845115
  0
LWPOLYLINE
  5
BD4C
330
17
100
AcDbEntity
  8
0
 62
     2
100
AcDbPolyline
 90
        2
 70
     0
 43
0.0
 10
82.13466340204126
 20
45.14948416845117
 10
82.11440640204127
 20
45.21025416845115
  0
LWPOLYLINE
  5
BD4D
330
17
100
AcDbEntity
  8
0
 62
     2
100
AcDbPolyline
 90
        2
 70
     0
 43
0.0
 10
82.07835740204126
 20
45.21404816845115
 42
0.4142050000000001
 10
82.06887040204128
 20
45.19507516845115
  0
LWPOLYLINE
  5
BD4E
330
17
100
AcDbEntity
  8
0
 62
     2
100
AcDbPolyline
 90
        2
 70
     0
 43
0.0
 10
82.07721440204126
 20
45.17004116845116
 10
82.06886940204126
 20
45.19507516845115
  0
LWPOLYLINE
  5
BD4F
330
17
100
AcDbEntity
  8
0
 62
     2
100
AcDbPolyline
 90
        2
 70
     0
 43
0.0
 10
82.34866340204126
 20
45.21257316845115
 10
82.34366340204125
 20
45.21257316845115
  0
LWPOLYLINE
  5
BD50
330
17
100
AcDbEntity
  8
0
 62
     2
100
AcDbPolyline
 90
        2
 70
     0
 43
0.0
 10
82.34866340204126
 20
45.21257316845115
 10
82.34866340204126
 20
45.18891416845116
  0
LWPOLYLINE
  5
BD51
330
17
100
AcDbEntity
  8
0
 62
     2
100
AcDbPolyline
 90
        2
 70
     0
 43
0.0
 10
82.32466340204126
 20
45.23157316845116
 42
0.4142140000000001
 10
82.34366340204125
 20
45.21257316845115
  0
LWPOLYLINE
  5
BD52
330
17
100
AcDbEntity
  8
0
 62
     2
100
AcDbPolyline
 90
        2
 70
     0
 43
0.0
 10
82.34647640204126
 20
45.13088316845116
 42
0.4401080000000001
 10
82.37366340204125
 20
45.15578716845115
  0
LWPOLYLINE
  5
BD53
330
17
100
AcDbEntity
  8
0
 62
     2
100
AcDbPolyline
 90
        2
 70
     0
 43
0.0
 10
82.37366340204125
 20
45.21257316845115
 10
82.37366340204125
 20
45.15578716845115
  0
LWPOLYLINE
  5
BD54
330
17
100
AcDbEntity
  8
0
 62
     2
100
AcDbPolyline
 90
        2
 70
     0
 43
0.0
 10
82.22766340204126
 20
45.19954016845116
 10
82.23205940204126
 20
45.22791516845116
  0
LWPOLYLINE
  5
BD55
330
17
100
AcDbEntity
  8
0
 62
     2
100
AcDbPolyline
 90
        2
 70
     0
 43
0.0
 10
82.34866340204126
 20
45.18891416845116
 10
82.27458540204127
 20
45.19541916845116
  0
LWPOLYLINE
  5
BD56
330
17
100
AcDbEntity
  8
0
 62
     2
100
AcDbPolyline
 90
        2
 70
     0
 43
0.0
 10
82.20061440204126
 20
45.27789916845115
 42
0.5567260000000001
 10
82.22763840204127
 20
45.29589316845116
  0
LWPOLYLINE
  5
BD57
330
17
100
AcDbEntity
  8
0
 62
     2
100
AcDbPolyline
 90
        2
 70
     0
 43
0.0
 10
82.10977340204127
 20
45.41045816845115
 10
82.12380040204127
 20
45.44175416845115
  0
LWPOLYLINE
  5
BD58
330
17
100
AcDbEntity
  8
0
 62
     2
100
AcDbPolyline
 90
        2
 70
     0
 43
0.0
 10
82.08219740204127
 20
45.39614116845116
 42
0.348422
 10
82.10977340204127
 20
45.41045816845115
  0
LWPOLYLINE
  5
BD59
330
17
100
AcDbEntity
  8
0
 62
     2
100
AcDbPolyline
 90
        2
 70
     0
 43
0.0
 10
82.17466440204125
 20
45.41851716845116
 10
82.12380040204127
 20
45.44175416845115
  0
LWPOLYLINE
  5
BD5A
330
17
100
AcDbEntity
  8
0
 62
     2
100
AcDbPolyline
 90
        2
 70
     0
 43
0.0
 10
82.08219740204127
 20
45.39614116845116
 10
82.05466340204127
 20
45.40148416845116
  0
LWPOLYLINE
  5
BD5B
330
17
100
AcDbEntity
  8
0
 62
     2
100
AcDbPolyline
 90
        2
 70
     0
 43
0.0
 10
82.09581040204126
 20
45.32794216845116
 10
82.12186740204126
 20
45.32467316845115
  0
LWPOLYLINE
  5
BD5C
330
17
100
AcDbEntity
  8
0
 62
     2
100
AcDbPolyline
 90
        2
 70
     0
 43
0.0
 10
82.14262940204127
 20
45.30728516845115
 42
0.294249
 10
82.12186840204127
 20
45.32467216845115
  0
LWPOLYLINE
  5
BD5D
330
17
100
AcDbEntity
  8
0
 62
     2
100
AcDbPolyline
 90
        2
 70
     0
 43
0.0
 10
82.20062440204127
 20
45.27792016845116
 10
82.17466440204125
 20
45.28978116845116
  0
LWPOLYLINE
  5
BD5E
330
17
100
AcDbEntity
  8
0
 62
     2
100
AcDbPolyline
 90
        2
 70
     0
 43
0.0
 10
82.06873840204126
 20
45.31027316845116
 10
82.06268340204125
 20
45.28994616845117
  0
LWPOLYLINE
  5
BD5F
330
17
100
AcDbEntity
  8
0
 62
     2
100
AcDbPolyline
 90
        2
 70
     0
 43
0.0
 10
82.09581140204127
 20
45.32794216845116
 42
0.366769
 10
82.06873940204125
 20
45.31027316845116
  0
LWPOLYLINE
  5
BD60
330
17
100
AcDbEntity
  8
0
 62
     2
100
AcDbPolyline
 90
        2
 70
     0
 43
0.0
 10
82.17466440204125
 20
45.41851716845116
 10
82.17466440204125
 20
45.28978116845116
  0
LWPOLYLINE
  5
BD61
330
17
100
AcDbEntity
  8
0
 62
     2
100
AcDbPolyline
 90
        2
 70
     0
 43
0.0
 10
82.32466340204126
 20
45.27442216845116
 42
0.293591
 10
82.31005240204126
 20
45.29716116845115
  0
LWPOLYLINE
  5
BD62
330
17
100
AcDbEntity
  8
0
 62
     2
100
AcDbPolyline
 90
        2
 70
     0
 43
0.0
 10
82.22766340204126
 20
45.40363716845115
 42
0.293591
 10
82.24227540204127
 20
45.38089816845117
  0
LWPOLYLINE
  5
BD63
330
17
100
AcDbEntity
  8
0
 62
     2
100
AcDbPolyline
 90
        2
 70
     0
 43
0.0
 10
82.22766340204126
 20
45.43650916845116
 10
82.22766340204126
 20
45.40363716845115
  0
LWPOLYLINE
  5
BD64
330
17
100
AcDbEntity
  8
0
 62
     2
100
AcDbPolyline
 90
        2
 70
     0
 43
0.0
 10
82.26621240204126
 20
45.24835516845115
 10
82.25895140204126
 20
45.24899216845116
  0
LWPOLYLINE
  5
BD65
330
17
100
AcDbEntity
  8
0
 62
     2
100
AcDbPolyline
 90
        2
 70
     0
 43
0.0
 10
82.26305240204126
 20
45.31863316845115
 42
0.546087
 10
82.22766340204126
 20
45.29589416845115
  0
LWPOLYLINE
  5
BD66
330
17
100
AcDbEntity
  8
0
 62
     2
100
AcDbPolyline
 90
        2
 70
     0
 43
0.0
 10
82.31005140204127
 20
45.29716116845115
 10
82.26305140204127
 20
45.31863316845115
  0
LWPOLYLINE
  5
BD67
330
17
100
AcDbEntity
  8
0
 62
     2
100
AcDbPolyline
 90
        2
 70
     0
 43
0.0
 10
82.21305240204127
 20
45.45924816845115
 10
82.13403540204126
 20
45.49534716845116
  0
LWPOLYLINE
  5
BD68
330
17
100
AcDbEntity
  8
0
 62
     2
100
AcDbPolyline
 90
        2
 70
     0
 43
0.0
 10
82.11333240204126
 20
45.54611316845115
 42
0.396535
 10
82.13403540204126
 20
45.49534716845116
  0
LWPOLYLINE
  5
BD69
330
17
100
AcDbEntity
  8
0
 62
     2
100
AcDbPolyline
 90
        2
 70
     0
 43
0.0
 10
82.61934140204127
 20
45.57969216845116
 10
82.65656640204126
 20
45.59354416845116
  0
LWPOLYLINE
  5
BD6A
330
17
100
AcDbEntity
  8
0
 62
     2
100
AcDbPolyline
 90
        2
 70
     0
 43
0.0
 10
82.66266340204126
 20
45.78423816845116
 10
82.46466340204127
 20
45.78423816845116
  0
LWPOLYLINE
  5
BD6B
330
17
100
AcDbEntity
  8
0
 62
     2
100
AcDbPolyline
 90
        2
 70
     0
 43
0.0
 10
82.55966440204126
 20
45.67623816845116
 42
0.4142140000000001
 10
82.53066340204126
 20
45.70523816845116
  0
LWPOLYLINE
  5
BD6C
330
17
100
AcDbEntity
  8
0
 62
     2
100
AcDbPolyline
 90
        2
 70
     0
 43
0.0
 10
82.53066340204126
 20
45.70523816845116
 10
82.49366440204125
 20
45.70523816845116
  0
LWPOLYLINE
  5
BD6D
330
17
100
AcDbEntity
  8
0
 62
     2
100
AcDbPolyline
 90
        2
 70
     0
 43
0.0
 10
82.49366440204125
 20
45.70523816845116
 42
0.4142140000000001
 10
82.46466340204127
 20
45.67623816845116
  0
LWPOLYLINE
  5
BD6E
330
17
100
AcDbEntity
  8
0
 62
     2
100
AcDbPolyline
 90
        2
 70
     0
 43
0.0
 10
83.75466340204125
 20
45.37637628485906
 10
83.75466340204125
 20
44.90237628485899
  0
LWPOLYLINE
  5
BD6F
330
17
100
AcDbEntity
  8
0
 62
     2
100
AcDbPolyline
 90
        2
 70
     0
 43
0.0
 10
83.48566340204127
 20
45.46650028485906
 10
83.48566340204127
 20
44.81225128485898
  0
LWPOLYLINE
  5
BD70
330
17
100
AcDbEntity
  8
0
 62
     2
100
AcDbPolyline
 90
        2
 70
     0
 43
0.0
 10
83.52066340204126
 20
45.46650028485906
 10
83.52066340204126
 20
44.81225128485898
  0
LWPOLYLINE
  5
BD71
330
17
100
AcDbEntity
  8
0
 62
     2
100
AcDbPolyline
 90
        2
 70
     0
 43
0.0
 10
83.48566340204127
 20
45.01437628485907
 10
83.32566440204127
 20
45.01437628485907
  0
LWPOLYLINE
  5
BD72
330
17
100
AcDbEntity
  8
0
 62
     2
100
AcDbPolyline
 90
        2
 70
     0
 43
0.0
 10
83.34566440204126
 20
44.99637628485906
 42
0.2869871933168745
 10
83.41366340204126
 20
44.87537628485898
  0
LWPOLYLINE
  5
BD73
330
17
100
AcDbEntity
  8
0
 62
     2
100
AcDbPolyline
 90
        2
 70
     0
 43
0.0
 10
83.34566440204126
 20
45.01437628485907
 10
83.34566440204126
 20
44.99637628485906
  0
LWPOLYLINE
  5
BD74
330
17
100
AcDbEntity
  8
0
 62
     2
100
AcDbPolyline
 90
        2
 70
     0
 43
0.0
 10
83.52066340204126
 20
44.90237628485899
 10
83.75466340204125
 20
44.90237628485899
  0
LWPOLYLINE
  5
BD75
330
17
100
AcDbEntity
  8
0
 62
     2
100
AcDbPolyline
 90
        2
 70
     0
 43
0.0
 10
83.48566340204127
 20
44.87537628485898
 10
83.41366340204126
 20
44.87537628485898
  0
LWPOLYLINE
  5
BD76
330
17
100
AcDbEntity
  8
0
 62
     2
100
AcDbPolyline
 90
        2
 70
     0
 43
0.0
 10
83.52066340204126
 20
44.81225128485898
 10
83.48566340204127
 20
44.81225128485898
  0
LWPOLYLINE
  5
BD77
330
17
100
AcDbEntity
  8
0
 62
     2
100
AcDbPolyline
 90
        2
 70
     0
 43
0.0
 10
83.48566340204127
 20
45.26437628485907
 10
83.32566440204127
 20
45.26437628485907
  0
LWPOLYLINE
  5
BD78
330
17
100
AcDbEntity
  8
0
 62
     2
100
AcDbPolyline
 90
        2
 70
     0
 43
0.0
 10
83.41366340204126
 20
45.40337628485906
 42
0.4142140000000001
 10
83.34566440204126
 20
45.33537628485906
  0
LINE
  5
BD79
330
17
100
AcDbEntity
  8
0
 62
     4
100
AcDbLine
 10
83.32727527936944
 20
45.72826613551415
 30
0.0
 11
83.53548973576248
 21
45.56252161891658
 31
0.0
  0
LINE
  5
BD7A
330
17
100
AcDbEntity
  8
0
 62
     4
100
AcDbLine
 10
83.36817361868087
 20
45.72826613551415
 30
0.0
 11
83.55468058845533
 21
45.58171247160943
 31
0.0
  0
LINE
  5
BD7B
330
17
100
AcDbEntity
  8
0
 62
     4
100
AcDbLine
 10
83.76927527936942
 20
45.72826613551415
 30
0.0
 11
83.32566440204129
 21
45.72826613551415
 31
0.0
  0
LWPOLYLINE
  5
BD7C
330
17
100
AcDbEntity
  8
0
 62
     2
100
AcDbPolyline
 90
        2
 70
     0
 43
0.0
 10
83.34566440204126
 20
45.33537628485906
 10
83.34566440204126
 20
45.26437628485907
  0
LINE
  5
BD7D
330
17
100
AcDbEntity
  8
0
 62
     4
100
AcDbLine
 10
83.81927527936943
 20
45.49226613551415
 30
0.0
 11
83.70338542871433
 21
45.37637628485906
 31
0.0
  0
LWPOLYLINE
  5
BD7E
330
17
100
AcDbEntity
  8
0
 62
     2
100
AcDbPolyline
 90
        2
 70
     0
 43
0.0
 10
83.52066340204126
 20
45.37637628485906
 10
83.75466340204125
 20
45.37637628485906
  0
LWPOLYLINE
  5
BD7F
330
17
100
AcDbEntity
  8
0
 62
     2
100
AcDbPolyline
 90
        2
 70
     0
 43
0.0
 10
83.68166340204126
 20
45.19422328485906
 42
0.879479
 10
83.68166340204126
 20
45.24907228485907
  0
LWPOLYLINE
  5
BD80
330
17
100
AcDbEntity
  8
0
 62
     2
100
AcDbPolyline
 90
        2
 70
     0
 43
0.0
 10
83.68166340204126
 20
45.25198728485906
 10
83.70666340204127
 20
45.23755428485907
  0
LWPOLYLINE
  5
BD81
330
17
100
AcDbEntity
  8
0
 62
     2
100
AcDbPolyline
 90
        2
 70
     0
 43
0.0
 10
83.68166340204126
 20
45.24907328485906
 10
83.68166340204126
 20
45.02985628485906
  0
LWPOLYLINE
  5
BD82
330
17
100
AcDbEntity
  8
0
 62
     2
100
AcDbPolyline
 90
        2
 70
     0
 43
0.0
 10
83.54566340204128
 20
45.25198828485907
 42
0.636775
 10
83.54566340204128
 20
45.19422428485905
  0
LWPOLYLINE
  5
BD83
330
17
100
AcDbEntity
  8
0
 62
     2
100
AcDbPolyline
 90
        2
 70
     0
 43
0.0
 10
83.54566340204128
 20
45.25198728485906
 10
83.52066340204126
 20
45.23755428485907
  0
LWPOLYLINE
  5
BD84
330
17
100
AcDbEntity
  8
0
 62
     2
100
AcDbPolyline
 90
        2
 70
     0
 43
0.0
 10
83.54566340204128
 20
45.24907328485906
 10
83.54566340204128
 20
45.03018528485907
  0
LWPOLYLINE
  5
BD85
330
17
100
AcDbEntity
  8
0
 62
     2
100
AcDbPolyline
 90
        2
 70
     0
 43
0.0
 10
83.68139140204126
 20
45.02694128485906
 10
83.54539240204125
 20
45.02727128485907
  0
LWPOLYLINE
  5
BD86
330
17
100
AcDbEntity
  8
0
 62
     2
100
AcDbPolyline
 90
        2
 70
     0
 43
0.0
 10
83.68166340204126
 20
45.08470428485907
 10
83.54566340204128
 20
45.08503428485906
  0
LWPOLYLINE
  5
BD87
330
17
100
AcDbEntity
  8
0
 62
     2
100
AcDbPolyline
 90
        2
 70
     0
 43
0.0
 10
83.68166340204126
 20
45.19422428485905
 10
83.54566340204128
 20
45.19422428485905
  0
LWPOLYLINE
  5
BD88
330
17
100
AcDbEntity
  8
0
 62
     2
100
AcDbPolyline
 90
        2
 70
     0
 43
0.0
 10
83.54566340204128
 20
45.19422528485907
 42
0.266352
 10
83.54566340204128
 20
45.08503328485907
  0
LWPOLYLINE
  5
BD89
330
17
100
AcDbEntity
  8
0
 62
     2
100
AcDbPolyline
 90
        2
 70
     0
 43
0.0
 10
83.54566440204127
 20
45.08503328485907
 42
0.565172
 10
83.54566440204127
 20
45.03018528485907
  0
LWPOLYLINE
  5
BD8A
330
17
100
AcDbEntity
  8
0
 62
     2
100
AcDbPolyline
 90
        2
 70
     0
 43
0.0
 10
83.54566340204128
 20
45.02658828485905
 10
83.52066340204126
 20
45.04102228485907
  0
LWPOLYLINE
  5
BD8B
330
17
100
AcDbEntity
  8
0
 62
     2
100
AcDbPolyline
 90
        2
 70
     0
 43
0.0
 10
83.68166340204126
 20
45.08470428485907
 42
0.4565390000000001
 10
83.68166340204126
 20
45.19422428485905
  0
LWPOLYLINE
  5
BD8C
330
17
100
AcDbEntity
  8
0
 62
     2
100
AcDbPolyline
 90
        2
 70
     0
 43
0.0
 10
83.70666340204127
 20
45.23755428485907
 10
83.70666340204127
 20
45.04119828485906
  0
LWPOLYLINE
  5
BD8D
330
17
100
AcDbEntity
  8
0
 62
     2
100
AcDbPolyline
 90
        2
 70
     0
 43
0.0
 10
83.68166340204126
 20
45.02985528485907
 42
0.917145
 10
83.68166340204126
 20
45.08470428485907
  0
LWPOLYLINE
  5
BD8E
330
17
100
AcDbEntity
  8
0
 62
     2
100
AcDbPolyline
 90
        2
 70
     0
 43
0.0
 10
83.68166340204126
 20
45.02676528485906
 10
83.70666340204127
 20
45.04119828485906
  0
LWPOLYLINE
  5
BD8F
330
17
100
AcDbEntity
  8
0
 62
     2
100
AcDbPolyline
 90
        2
 70
     0
 43
0.0
 10
83.68166340204126
 20
45.25198728485906
 10
83.54566340204128
 20
45.25198728485906
  0
LWPOLYLINE
  5
BD90
330
17
100
AcDbEntity
  8
0
 62
     2
100
AcDbPolyline
 90
        2
 70
     0
 43
0.0
 10
83.48566340204127
 20
45.40337628485906
 10
83.41366340204126
 20
45.40337628485906
  0
LINE
  5
BD91
330
17
100
AcDbEntity
  8
0
 62
     4
100
AcDbLine
 10
83.55468058845533
 20
45.58171247160943
 30
0.0
 11
83.53548973576248
 21
45.56252161891658
 31
0.0
  0
LWPOLYLINE
  5
BD92
330
17
100
AcDbEntity
  8
0
 62
     2
100
AcDbPolyline
 90
        2
 70
     0
 43
0.0
 10
83.52066340204126
 20
45.46650028485906
 10
83.48566340204127
 20
45.46650028485906
  0
LINE
  5
BD93
330
17
100
AcDbEntity
  8
0
 62
     4
100
AcDbLine
 10
83.81927527936943
 20
45.67826613551415
 30
0.0
 11
83.81927527936943
 21
45.49226613551415
 31
0.0
  0
LINE
  5
BD94
330
17
100
AcDbEntity
  8
0
 62
     4
100
AcDbLine
 10
83.76927527936942
 20
45.72826613551415
 30
0.0
 11
83.81927527936943
 21
45.67826613551415
 31
0.0
  0
LWPOLYLINE
  5
BD95
330
17
100
AcDbEntity
  8
0
 62
     2
100
AcDbPolyline
 90
        2
 70
     0
 43
0.0
 10
83.02666440204125
 20
46.34620616845116
 10
82.69162040204127
 20
46.25692316845117
  0
LWPOLYLINE
  5
BD96
330
17
100
AcDbEntity
  8
0
 62
     2
100
AcDbPolyline
 90
        2
 70
     0
 43
0.0
 10
82.37592140204126
 20
46.22757316845116
 10
82.42466440204125
 20
46.22757316845116
  0
LWPOLYLINE
  5
BD97
330
17
100
AcDbEntity
  8
0
 62
     2
100
AcDbPolyline
 90
        2
 70
     0
 43
0.0
 10
82.34366340204125
 20
46.27457316845116
 10
82.43566340204127
 20
46.27457316845116
  0
LWPOLYLINE
  5
BD98
330
17
100
AcDbEntity
  8
0
 62
     2
100
AcDbPolyline
 90
        2
 70
     0
 43
0.0
 10
82.46466340204127
 20
46.24557316845115
 10
82.46466340204127
 20
46.08393516845116
  0
LWPOLYLINE
  5
BD99
330
17
100
AcDbEntity
  8
0
 62
     2
100
AcDbPolyline
 90
        2
 70
     0
 43
0.0
 10
82.49017340204126
 20
46.05514616845115
 10
82.66266340204126
 20
46.03423816845117
  0
LWPOLYLINE
  5
BD9A
330
17
100
AcDbEntity
  8
0
 62
     2
100
AcDbPolyline
 90
        2
 70
     0
 43
0.0
 10
82.66266340204126
 20
45.96223816845117
 10
82.49366440204125
 20
45.96223816845117
  0
LWPOLYLINE
  5
BD9B
330
17
100
AcDbEntity
  8
0
 62
     2
100
AcDbPolyline
 90
        2
 70
     0
 43
0.0
 10
82.46466340204127
 20
46.08393516845116
 42
0.379308
 10
82.49017440204125
 20
46.05514616845115
  0
LWPOLYLINE
  5
BD9C
330
17
100
AcDbEntity
  8
0
 62
     2
100
AcDbPolyline
 90
        2
 70
     0
 43
0.0
 10
82.49366440204125
 20
45.96223816845117
 42
0.4142140000000001
 10
82.46466340204127
 20
45.93323816845116
  0
LWPOLYLINE
  5
BD9D
330
17
100
AcDbEntity
  8
0
 62
     2
100
AcDbPolyline
 90
        2
 70
     0
 43
0.0
 10
82.46466340204127
 20
46.24557316845115
 42
0.4142140000000001
 10
82.43566340204127
 20
46.27457316845116
  0
LWPOLYLINE
  5
BD9E
330
17
100
AcDbEntity
  8
0
 62
     2
100
AcDbPolyline
 90
        2
 70
     0
 43
0.0
 10
82.69162140204127
 20
46.25692316845117
 42
0.339836
 10
82.66266340204126
 20
46.21923816845115
  0
LWPOLYLINE
  5
BD9F
330
17
100
AcDbEntity
  8
0
 62
     2
100
AcDbPolyline
 90
        2
 70
     0
 43
0.0
 10
83.33181540204128
 20
46.29745416845115
 10
83.02666440204125
 20
46.34620616845116
  0
LWPOLYLINE
  5
BDA0
330
17
100
AcDbEntity
  8
0
 62
     2
100
AcDbPolyline
 90
        2
 70
     0
 43
0.0
 10
83.36466340204125
 20
46.25894216845115
 10
83.36466340204125
 20
46.02720616845116
  0
LWPOLYLINE
  5
BDA1
330
17
100
AcDbEntity
  8
0
 62
     2
100
AcDbPolyline
 90
        2
 70
     0
 43
0.0
 10
83.32566440204127
 20
46.00220616845116
 10
83.33966340204126
 20
46.00220616845116
  0
LWPOLYLINE
  5
BDA2
330
17
100
AcDbEntity
  8
0
 62
     2
100
AcDbPolyline
 90
        2
 70
     0
 43
0.0
 10
83.33966340204126
 20
46.00220616845116
 42
0.4142140000000001
 10
83.36466340204125
 20
46.02720616845116
  0
LWPOLYLINE
  5
BDA3
330
17
100
AcDbEntity
  8
0
 62
     2
100
AcDbPolyline
 90
        2
 70
     0
 43
0.0
 10
83.36466340204125
 20
46.25894216845115
 42
0.368539
 10
83.33181640204127
 20
46.29745316845116
  0
LWPOLYLINE
  5
BDA4
330
17
100
AcDbEntity
  8
0
 62
     4
100
AcDbPolyline
 90
        2
 70
     0
 43
0.0
 10
84.36666340204126
 20
43.64620616845115
 10
84.61666340204127
 20
43.73620616845116
  0
LWPOLYLINE
  5
BDA5
330
17
100
AcDbEntity
  8
0
 62
     4
100
AcDbPolyline
 90
        2
 70
     0
 43
0.0
 10
84.61666340204127
 20
43.97320616845115
 10
84.32066340204126
 20
43.98920616845116
  0
LWPOLYLINE
  5
BDA6
330
17
100
AcDbEntity
  8
0
 62
     4
100
AcDbPolyline
 90
        2
 70
     0
 43
0.0
 10
84.26266340204128
 20
44.05420616845115
 10
84.32066340204126
 20
43.98920616845116
  0
LWPOLYLINE
  5
BDA7
330
17
100
AcDbEntity
  8
0
 62
     4
100
AcDbPolyline
 90
        2
 70
     0
 43
0.0
 10
84.61666340204127
 20
43.97320616845115
 10
84.61666340204127
 20
43.73620616845116
  0
LEADER
  5
BDD9
330
17
100
AcDbEntity
  8
0
100
AcDbLeader
  3
STANDARD
 76
     3
 10
89.26035321401949
 20
45.54312891508643
 30
0.0
 10
89.26035321401949
 20
47.94625672541949
 30
0.0
 10
90.78594426648985
 20
47.94625672541949
 30
0.0
1001
ACAD
1000
DSTYLE
1002
{
1070
   147
1040
0.09
1070
    77
1070
     0
1070
   140
1040
0.0938
1070
   279
1070
     2
1070
   340
1005
21
1002
}
  0
ENDSEC
  0
SECTION
  2
OBJECTS
  0
DICTIONARY
  5
C
330
0
100
AcDbDictionary
281
     1
  3
ABNSLEADERTOOLS
350
15DA
  3
ACAD_GROUP
350
D
  3
ACAD_LAYOUT
350
15DF
  3
ACAD_MLINESTYLE
350
1A
  3
ACAD_PLOTSETTINGS
350
15E0
  3
ACAD_PLOTSTYLENAME
350
15DD
  3
AcadDim
350
BDD8
  3
ACDBHEADERROUNDTRIPXREC
350
BE04
  3
ACDBVARIABLEDICTIONARY
350
2E
  3
AcmDictionary
350
BAC6
  3
AMG
350
BAAC
  3
AMGSNAPSETTINGS
350
BAF8
  3
ASE_INDEX_DICTIONARY
350
ADF7
  3
DWGPROPS
350
BE00
  0
DICTIONARY
  5
BAFB
330
17
100
AcDbDictionary
280
     1
281
     1
  3
ACAD_INDEX
360
BAFC
  0
XRECORD
  5
15DA
102
{ACAD_REACTORS
330
C
102
}
330
C
100
AcDbXrecord
280
     1
1001
AbnsLeaderTools
1071
 97072200
1070
     0
1070
     2
1070
     0
1070
     0
1070
     1
1070
     3
1070
     1
1070
     3
1070
     0
1070
     0
1070
     0
1070
     0
1071
        0
  0
DICTIONARY
  5
D
102
{ACAD_REACTORS
330
C
102
}
330
C
100
AcDbDictionary
281
     1
  0
DICTIONARY
  5
15DF
102
{ACAD_REACTORS
330
C
102
}
330
C
100
AcDbDictionary
281
     1
  3
Layout1
350
15E2
  3
Model
350
15E1
  0
DICTIONARY
  5
1A
102
{ACAD_REACTORS
330
C
102
}
330
C
100
AcDbDictionary
281
     1
  3
STANDARD
350
1B
  0
DICTIONARY
  5
15E0
102
{ACAD_REACTORS
330
C
102
}
330
C
100
AcDbDictionary
281
     1
  0
ACDBDICTIONARYWDFLT
  5
15DD
102
{ACAD_REACTORS
330
C
102
}
330
C
100
AcDbDictionary
281
     1
  3
Normal
350
15DE
100
AcDbDictionaryWithDefault
340
15DE
  0
XRECORD
  5
BDD8
102
{ACAD_REACTORS
330
C
102
}
330
C
100
AcDbXrecord
280
     1
 90
   990106
  3

 60
     0
 61
     0
 62
     1
 63
     3
 64
     0
 65
     0
 66
     0
 67
     3
 68
     1
 69
     0
 70
     0
 71
     0
 72
     0
 40
0.0
170
     0
  0
DICTIONARY
  5
BE04
102
{ACAD_REACTORS
330
C
102
}
330
C
100
AcDbDictionary
281
     1
  3
CEPSNTYPE
350
BE0E
  3
DIMSTYLEDATA
350
BE12
  3
FINGERPRINTGUID
350
BE0F
  3
HYPERLINKBASE
350
BE07
  3
INSUNITS
350
BE0D
  3
LAYOUTDICT
350
BE09
  3
LWETCUNION
350
BE0C
  3
PLOTSETDICT
350
BE0A
  3
PLOTSTYLNAMDICT
350
BE0B
  3
PSVPSCALE
350
BE11
  3
PUCSBASE
350
BE15
  3
PUCSORGBACK
350
BE1B
  3
PUCSORGBOTTOM
350
BE17
  3
PUCSORGFRONT
350
BE1A
  3
PUCSORGLEFT
350
BE18
  3
PUCSORGRIGHT
350
BE19
  3
PUCSORGTOP
350
BE16
  3
PUCSORTHOREF
350
BE13
  3
PUCSORTHOVIEW
350
BE14
  3
STYLESHEET
350
BE08
  3
TSTACKALIGN
350
BE05
  3
TSTACKSIZE
350
BE06
  3
UCSBASE
350
BE1E
  3
UCSORGBACK
350
BE24
  3
UCSORGBOTTOM
350
BE20
  3
UCSORGFRONT
350
BE23
  3
UCSORGLEFT
350
BE21
  3
UCSORGRIGHT
350
BE22
  3
UCSORGTOP
350
BE1F
  3
UCSORTHOREF
350
BE1C
  3
UCSORTHOVIEW
350
BE1D
  3
VERSIONGUID
350
BE10
  0
DICTIONARY
  5
2E
102
{ACAD_REACTORS
330
C
102
}
330
C
100
AcDbDictionary
281
     1
  3
DIMADEC
350
2F
  3
DIMASSOC
350
BB04
  3
INDEXCTL
350
BB03
  0
DICTIONARY
  5
BAC6
102
{ACAD_REACTORS
330
C
102
}
330
C
100
AcDbDictionary
281
     1
  3
AcmStdDictionary
350
BACC
  0
DICTIONARY
  5
BAAC
102
{ACAD_REACTORS
330
C
102
}
330
C
100
AcDbDictionary
281
     1
  3
AcMgSettings
350
BAAD
  0
DICTIONARY
  5
BAF8
102
{ACAD_REACTORS
330
C
102
}
330
C
100
AcDbDictionary
281
     1
  3
HATCH (1)
350
BAF9
  3
HATCH (2)
350
BAFA
  0
DICTIONARY
  5
ADF7
102
{ACAD_REACTORS
330
C
102
}
330
C
100
AcDbDictionary
281
     1
  3
ASEBlockHierarchyIndexRecord
350
ADF9
1001
DCO15
1040
1424065820.29
  0
XRECORD
  5
BE00
102
{ACAD_REACTORS
330
C
102
}
330
C
100
AcDbXrecord
280
     1
  1
DWGPROPS COOKIE
  2

  3

  4

  6

  7

  8

  9

300
AmdtFileType=84
301
=
302
=
303
=
304
=
305
=
306
=
307
=
308
=
309
=
 40
1.707139479166666
 41
2450133.6051375
 42
2452941.407904479
  1

 90
        1
  0
DICTIONARY
  5
BAFC
102
{ACAD_REACTORS
330
BAFB
102
}
330
BAFB
100
AcDbDictionary
281
     1
  3
*A1
350
BAFD
  0
LAYOUT
  5
15E2
102
{ACAD_REACTORS
330
15DF
102
}
330
15DF
100
AcDbPlotSettings
  1

  2
C:\PROGRAM FILES\AUTOCAD R14\plotters\HP DesignJet 750C_ (E_A0) by HP.pc3
  4

  6

 40
0.0
 41
0.0
 42
0.0
 43
0.0
 44
0.0
 45
0.0
 46
0.0
 47
0.0
 48
0.0
 49
0.0
140
0.0
141
0.0
142
1.0
143
1.0
 70
   688
 72
     0
 73
     0
 74
     5
  7
monochrome.ctb
 75
    16
147
1.0
148
0.0
149
0.0
100
AcDbLayout
  1
Layout1
 70
     1
 71
     1
 10
0.0
 20
0.0
 11
12.0
 21
9.0
 12
0.0
 22
0.0
 32
0.0
 14
1.000000000000000E+20
 24
1.000000000000000E+20
 34
1.000000000000000E+20
 15
-1.000000000000000E+20
 25
-1.000000000000000E+20
 35
-1.000000000000000E+20
146
0.0
 13
0.0
 23
0.0
 33
0.0
 16
1.0
 26
0.0
 36
0.0
 17
0.0
 27
1.0
 37
0.0
 76
     0
330
14
  0
LAYOUT
  5
15E1
102
{ACAD_REACTORS
330
15DF
102
}
330
15DF
100
AcDbPlotSettings
  1

  2
\\Fdlfs06\Engineering - HP LaserJet 5Si MX
  4
Letter
  6

 40
7.143749713897705
 41
6.974400997161865
 42
7.14373779296875
 43
6.297088623046875
 44
215.8999938964843
 45
279.3999938964843
 46
14.73199999999999
 47
0.0
 48
23.254315
 49
0.516803
140
45.25431499999999
141
17.516803
142
1.0
143
1.62306250984377
 70
 11956
 72
     0
 73
     1
 74
     1
  7
monochrome.ctb
 75
     0
147
0.616119215332166
148
-2052.365142322685
149
-960.6877432485429
100
AcDbLayout
  1
Model
 70
     1
 71
     0
 10
0.0
 20
0.0
 11
12.0
 21
9.0
 12
0.0
 22
0.0
 32
0.0
 14
0.0
 24
0.0
 34
0.0
 15
0.0
 25
0.0
 35
0.0
146
0.0
 13
0.0
 23
0.0
 33
0.0
 16
1.0
 26
0.0
 36
0.0
 17
0.0
 27
1.0
 37
0.0
 76
     0
330
17
  0
MLINESTYLE
  5
1B
102
{ACAD_REACTORS
330
1A
102
}
330
1A
100
AcDbMlineStyle
  2
STANDARD
 70
     0
  3

 62
   256
 51
90.0
 52
90.0
 71
     2
 49
0.5
 62
   256
  6
BYLAYER
 49
-0.5
 62
   256
  6
BYLAYER
  0
ACDBPLACEHOLDER
  5
15DE
102
{ACAD_REACTORS
330
15DD
102
}
330
15DD
  0
XRECORD
  5
BE0E
102
{ACAD_REACTORS
330
BE04
102
}
330
BE04
100
AcDbXrecord
280
     1
 90
        0
  0
XRECORD
  5
BE12
102
{ACAD_REACTORS
330
BE04
102
}
330
BE04
100
AcDbXrecord
280
     1
1000
DSTYLE
1002
{
1070
   279
 70
     2
1002
}
  0
XRECORD
  5
BE0F
102
{ACAD_REACTORS
330
BE04
102
}
330
BE04
100
AcDbXrecord
280
     1
  1
{56F8B3CC-9D8F-11D3-8C34-00C04F3577A6}
  0
XRECORD
  5
BE07
102
{ACAD_REACTORS
330
BE04
102
}
330
BE04
100
AcDbXrecord
280
     1
  1

  0
XRECORD
  5
BE0D
102
{ACAD_REACTORS
330
BE04
102
}
330
BE04
100
AcDbXrecord
280
     1
 90
        0
  0
XRECORD
  5
BE09
102
{ACAD_REACTORS
330
BE04
102
}
330
BE04
100
AcDbXrecord
280
     1
340
15DF
  0
XRECORD
  5
BE0C
102
{ACAD_REACTORS
330
BE04
102
}
330
BE04
100
AcDbXrecord
280
     1
 90
    10781
  0
XRECORD
  5
BE0A
102
{ACAD_REACTORS
330
BE04
102
}
330
BE04
100
AcDbXrecord
280
     1
340
15E0
  0
XRECORD
  5
BE0B
102
{ACAD_REACTORS
330
BE04
102
}
330
BE04
100
AcDbXrecord
280
     1
340
15DD
  0
XRECORD
  5
BE11
102
{ACAD_REACTORS
330
BE04
102
}
330
BE04
100
AcDbXrecord
280
     1
 40
0.0
  0
XRECORD
  5
BE15
102
{ACAD_REACTORS
330
BE04
102
}
330
BE04
100
AcDbXrecord
280
     1
340
0
  0
XRECORD
  5
BE1B
102
{ACAD_REACTORS
330
BE04
102
}
330
BE04
100
AcDbXrecord
280
     1
 10
0.0
 20
0.0
 30
0.0
  0
XRECORD
  5
BE17
102
{ACAD_REACTORS
330
BE04
102
}
330
BE04
100
AcDbXrecord
280
     1
 10
0.0
 20
0.0
 30
0.0
  0
XRECORD
  5
BE1A
102
{ACAD_REACTORS
330
BE04
102
}
330
BE04
100
AcDbXrecord
280
     1
 10
0.0
 20
0.0
 30
0.0
  0
XRECORD
  5
BE18
102
{ACAD_REACTORS
330
BE04
102
}
330
BE04
100
AcDbXrecord
280
     1
 10
0.0
 20
0.0
 30
0.0
  0
XRECORD
  5
BE19
102
{ACAD_REACTORS
330
BE04
102
}
330
BE04
100
AcDbXrecord
280
     1
 10
0.0
 20
0.0
 30
0.0
  0
XRECORD
  5
BE16
102
{ACAD_REACTORS
330
BE04
102
}
330
BE04
100
AcDbXrecord
280
     1
 10
0.0
 20
0.0
 30
0.0
  0
XRECORD
  5
BE13
102
{ACAD_REACTORS
330
BE04
102
}
330
BE04
100
AcDbXrecord
280
     1
340
0
  0
XRECORD
  5
BE14
102
{ACAD_REACTORS
330
BE04
102
}
330
BE04
100
AcDbXrecord
280
     1
 70
     0
  0
XRECORD
  5
BE08
102
{ACAD_REACTORS
330
BE04
102
}
330
BE04
100
AcDbXrecord
280
     1
  1
monochrome.ctb
  0
XRECORD
  5
BE05
102
{ACAD_REACTORS
330
BE04
102
}
330
BE04
100
AcDbXrecord
280
     1
 90
        1
  0
XRECORD
  5
BE06
102
{ACAD_REACTORS
330
BE04
102
}
330
BE04
100
AcDbXrecord
280
     1
 90
       70
  0
XRECORD
  5
BE1E
102
{ACAD_REACTORS
330
BE04
102
}
330
BE04
100
AcDbXrecord
280
     1
340
0
  0
XRECORD
  5
BE24
102
{ACAD_REACTORS
330
BE04
102
}
330
BE04
100
AcDbXrecord
280
     1
 10
0.0
 20
0.0
 30
0.0
  0
XRECORD
  5
BE20
102
{ACAD_REACTORS
330
BE04
102
}
330
BE04
100
AcDbXrecord
280
     1
 10
0.0
 20
0.0
 30
0.0
  0
XRECORD
  5
BE23
102
{ACAD_REACTORS
330
BE04
102
}
330
BE04
100
AcDbXrecord
280
     1
 10
0.0
 20
0.0
 30
0.0
  0
XRECORD
  5
BE21
102
{ACAD_REACTORS
330
BE04
102
}
330
BE04
100
AcDbXrecord
280
     1
 10
0.0
 20
0.0
 30
0.0
  0
XRECORD
  5
BE22
102
{ACAD_REACTORS
330
BE04
102
}
330
BE04
100
AcDbXrecord
280
     1
 10
0.0
 20
0.0
 30
0.0
  0
XRECORD
  5
BE1F
102
{ACAD_REACTORS
330
BE04
102
}
330
BE04
100
AcDbXrecord
280
     1
 10
0.0
 20
0.0
 30
0.0
  0
XRECORD
  5
BE1C
102
{ACAD_REACTORS
330
BE04
102
}
330
BE04
100
AcDbXrecord
280
     1
340
0
  0
XRECORD
  5
BE1D
102
{ACAD_REACTORS
330
BE04
102
}
330
BE04
100
AcDbXrecord
280
     1
 70
     0
  0
XRECORD
  5
BE10
102
{ACAD_REACTORS
330
BE04
102
}
330
BE04
100
AcDbXrecord
280
     1
  1
{883028AC-B259-47D2-8797-DBD2377773BA}
  0
DICTIONARYVAR
  5
2F
102
{ACAD_REACTORS
330
2E
102
}
330
2E
100
DictionaryVariables
280
     0
  1
0
  0
DICTIONARYVAR
  5
BB04
102
{ACAD_REACTORS
330
2E
102
}
330
2E
100
DictionaryVariables
280
     0
  1
0
  0
DICTIONARYVAR
  5
BB03
102
{ACAD_REACTORS
330
2E
102
}
330
2E
100
DictionaryVariables
280
     0
  1
1
  0
DICTIONARY
  5
BACC
102
{ACAD_REACTORS
330
BAC6
102
}
330
BAC6
100
AcDbDictionary
281
     1
  0
DICTIONARY
  5
BAAD
102
{ACAD_REACTORS
330
BAAC
102
}
330
BAAC
100
AcDbDictionary
281
     1
  3
DWGSETTINGS
350
BAAE
  3
TRANSSETTINGS
350
BAAF
  0
ACAMGFILTERDAT
  5
BAF9
102
{ACAD_REACTORS
330
BAF8
102
}
330
BAF8
100
AcAmgFilterDat
 70
    15
  1
HATCH
  2
*
  3
*
  4
*
  5
*
290
     1
  0
ACAMGFILTERDAT
  5
BAFA
102
{ACAD_REACTORS
330
BAF8
102
}
330
BAF8
100
AcAmgFilterDat
 70
    15
  1
LINE
  2
8,8N,*-8,*-8N,AM_8,AM_8N,*-AM_8,*-AM_8N
  3
*
  4
*
  5
INSERT,STDPART2D
290
     1
  0
XRECORD
  5
ADF9
102
{ACAD_REACTORS
330
ADF7
102
}
330
ADF7
100
AcDbXrecord
280
     1
330
60EB
330
60EC
330
60ED
330
60EE
330
60EF
330
60F0
330
60F1
330
60F2
330
60F3
330
60F6
330
60F7
330
60F8
330
60F9
330
60FA
330
60FB
330
60FC
330
60FD
330
60FE
330
6698
330
6699
330
669A
330
669B
330
669C
330
669D
330
669E
330
669F
330
66A0
330
66A3
330
66A4
330
66A5
330
66A6
330
66A7
330
66A8
330
66A9
330
66AA
330
66AB
330
71DF
330
71E0
330
71E1
330
71E2
330
71E3
330
71E4
330
71E5
330
71E6
330
71E7
330
71EA
330
71EB
330
71EC
330
71ED
330
71EE
330
71EF
330
71F0
330
71F1
330
71F2
330
778C
330
778D
330
778E
330
778F
330
7790
330
7791
330
7792
330
7793
330
7794
330
7797
330
7798
330
7799
330
779A
330
779B
330
779C
330
779D
330
779E
330
779F
330
82D1
330
82D2
330
82D3
330
82D4
330
82D5
330
82D6
330
82D7
330
82D8
330
82D9
330
82DC
330
82DD
330
82DE
330
82DF
330
82E0
330
82E1
330
82E2
330
82E3
330
82E4
330
887E
330
887F
330
8880
330
8881
330
8882
330
8883
330
8884
330
8885
330
8886
330
8889
330
888A
330
888B
330
888C
330
888D
330
888E
330
888F
330
8890
330
8891
330
0
330
0
330
0
330
0
  0
LAYER_INDEX
  5
BAFD
102
{ACAD_REACTORS
330
BAFC
102
}
330
BAFC
100
AcDbIndex
 40
2452941.41399118
100
AcDbLayerIndex
  8
0
360
BAFE
 90
      722
  8
ASHADE
360
BAFF
 90
      108
  8
BORDER
360
BB00
 90
        0
  8
Title Block
360
BB01
 90
        0
  8
Defpoints
360
BDEE
 90
        0
  0
IDBUFFER
  5
BAFE
330
0
100
AcDbIdBuffer
330
60F4
330
60F5
330
60FF
330
66A1
330
66A2
330
66AC
330
6C45
330
6C46
330
71E8
330
71E9
330
71F3
330
7795
330
7796
330
77A0
330
82DA
330
82DB
330
82E5
330
8887
330
8888
330
8892
330
8E2B
330
8E2C
330
A914
330
A917
330
A92C
330
A92E
330
A92F
330
A969
330
A96B
330
A96C
330
B768
330
B775
330
B776
330
B777
330
B778
330
B779
330
B77A
330
B77B
330
B77C
330
B77D
330
B77E
330
B77F
330
B780
330
B781
330
B782
330
B783
330
B784
330
B8FE
330
B8FF
330
B900
330
B901
330
B902
330
B903
330
B904
330
B905
330
B906
330
B907
330
B908
330
B909
330
B90A
330
B90B
330
B90C
330
B90D
330
B90E
330
B90F
330
B910
330
B911
330
B912
330
B913
330
B914
330
B915
330
B916
330
B917
330
B918
330
B919
330
B91A
330
B91B
330
B91C
330
B91D
330
B91E
330
B91F
330
B920
330
B921
330
B922
330
B923
330
B924
330
B925
330
B926
330
B927
330
B928
330
B929
330
B92A
330
B92B
330
B92C
330
B92D
330
B92E
330
B92F
330
B930
330
B931
330
B932
330
B933
330
B934
330
B935
330
B936
330
B937
330
B938
330
B939
330
B93A
330
B93B
330
B93C
330
B93D
330
B93E
330
B93F
330
B940
330
B941
330
B942
330
B943
330
B944
330
B945
330
B946
330
B947
330
B948
330
B949
330
B94A
330
B94B
330
B94C
330
B94D
330
B94E
330
B94F
330
B950
330
B951
330
B952
330
B953
330
B954
330
B955
330
B956
330
B957
330
B958
330
B959
330
B95A
330
B95B
330
B95C
330
B95D
330
B95E
330
B95F
330
B960
330
B961
330
B962
330
B963
330
B964
330
B965
330
B966
330
B967
330
B968
330
B969
330
B96A
330
B96B
330
B96C
330
B96D
330
B96E
330
B96F
330
B970
330
B971
330
B972
330
B973
330
B974
330
B975
330
B976
330
B977
330
B978
330
B979
330
B97A
330
B97B
330
B97C
330
B97D
330
B97E
330
B97F
330
B980
330
B981
330
B982
330
B983
330
B984
330
B985
330
B986
330
B987
330
B988
330
B989
330
B98A
330
B98B
330
B98C
330
B98D
330
B98E
330
B98F
330
B990
330
B991
330
B992
330
B993
330
B994
330
B995
330
B996
330
B997
330
B998
330
B999
330
B99A
330
B99B
330
B99C
330
B99D
330
B99E
330
B99F
330
B9A0
330
B9A1
330
B9A2
330
B9A3
330
B9A4
330
B9A5
330
B9A6
330
B9A7
330
B9A8
330
B9A9
330
B9AA
330
B9AB
330
B9AC
330
B9AD
330
B9AE
330
B9AF
330
B9B0
330
B9B1
330
B9B2
330
B9B3
330
B9B4
330
B9B5
330
B9B6
330
B9B7
330
B9B8
330
B9B9
330
B9BA
330
B9BB
330
B9BC
330
B9BD
330
B9BE
330
B9BF
330
B9C0
330
B9C1
330
B9C2
330
B9C3
330
B9C4
330
B9C5
330
B9C6
330
B9C7
330
B9C8
330
B9C9
330
B9CA
330
B9CB
330
B9CC
330
B9CD
330
B9CE
330
B9CF
330
B9D0
330
B9D1
330
B9D2
330
B9D3
330
B9D4
330
B9D5
330
B9D6
330
B9D7
330
B9D8
330
B9D9
330
B9DA
330
B9DB
330
B9DC
330
B9DD
330
B9DE
330
B9DF
330
B9E0
330
B9E1
330
B9E2
330
B9E3
330
B9E4
330
B9E5
330
B9E6
330
B9E7
330
B9E8
330
B9E9
330
B9EA
330
B9EB
330
B9EC
330
B9ED
330
B9EE
330
B9EF
330
B9F0
330
B9F1
330
B9F2
330
B9F3
330
B9F4
330
B9F5
330
B9F6
330
B9F7
330
B9F8
330
B9F9
330
B9FA
330
B9FB
330
B9FC
330
B9FD
330
B9FE
330
B9FF
330
BA00
330
BA01
330
BA02
330
BA03
330
BA04
330
BA05
330
BA06
330
BA07
330
BA08
330
BA09
330
BA0A
330
BA0B
330
BA0C
330
BA0D
330
BA0E
330
BA0F
330
BA10
330
BA11
330
BA12
330
BA13
330
BA14
330
BA15
330
BA16
330
BA17
330
BA18
330
BA19
330
BA1A
330
BA1B
330
BA1C
330
BA1D
330
BA1E
330
BA1F
330
BA20
330
BA21
330
BA22
330
BA23
330
BA24
330
BA25
330
BA26
330
BA27
330
BA28
330
BA29
330
BA2A
330
BA2B
330
BA2C
330
BA2D
330
BA2E
330
BA2F
330
BA30
330
BA31
330
BA32
330
BA33
330
BA34
330
BA35
330
BA36
330
BA37
330
BA38
330
BA39
330
BA3A
330
BA3B
330
BA3C
330
BA3D
330
BA3E
330
BA3F
330
BA40
330
BA41
330
BA42
330
BA43
330
BA44
330
BA45
330
BA46
330
BA47
330
BA48
330
BA49
330
BA4A
330
BA4B
330
BA4C
330
BA4D
330
BA4E
330
BA4F
330
BA50
330
BA51
330
BA52
330
BA53
330
BA54
330
BA55
330
BA56
330
BA57
330
BA58
330
BA59
330
BA5A
330
BA5B
330
BA5C
330
BA5D
330
BA5E
330
BA5F
330
BA60
330
BA61
330
BA62
330
BA63
330
BA64
330
BA65
330
BA66
330
BA67
330
BA68
330
BA69
330
BA6A
330
BA6B
330
BA6C
330
BA6D
330
BA6E
330
BA6F
330
BA70
330
BA71
330
BA72
330
BA73
330
BA74
330
BA75
330
BA76
330
BA79
330
BA7A
330
BA7B
330
BA7C
330
BA7D
330
BA7E
330
BA7F
330
BA80
330
BA81
330
BA82
330
BA83
330
BA84
330
BA86
330
BA87
330
BA8C
330
BA8E
330
BA90
330
BA91
330
BA92
330
BA95
330
BA96
330
BA97
330
BA98
330
BA9A
330
BA9B
330
BA9D
330
BB4C
330
BB4D
330
BB4E
330
BB4F
330
BB50
330
BB51
330
BB52
330
BB53
330
BB54
330
BB55
330
BB56
330
BB57
330
BB58
330
BB59
330
BCA6
330
BCA7
330
BCA9
330
BCAA
330
BCAB
330
BCAC
330
BCAD
330
BCAE
330
BCAF
330
BCB0
330
BCB1
330
BCB2
330
BCB3
330
BCB4
330
BCB5
330
BCB6
330
BCB7
330
BCB8
330
BCB9
330
BCBA
330
BCBB
330
BCBC
330
BCBD
330
BCBE
330
BCBF
330
BCC0
330
BCC1
330
BCC2
330
BCC3
330
BCC4
330
BCC5
330
BCC6
330
BCC7
330
BCC8
330
BCC9
330
BCCA
330
BCCB
330
BCCC
330
BCCD
330
BCCE
330
BCCF
330
BCD0
330
BCD1
330
BCD2
330
BCD3
330
BCD4
330
BCD5
330
BCD6
330
BCD7
330
BCD8
330
BCD9
330
BCDA
330
BCDB
330
BCDC
330
BCDD
330
BCDE
330
BCDF
330
BCE0
330
BCE1
330
BCE2
330
BCE3
330
BCE4
330
BCE5
330
BCE6
330
BCE7
330
BCE8
330
BCE9
330
BCEA
330
BCEB
330
BCEC
330
BCED
330
BCEE
330
BCEF
330
BCF0
330
BCF1
330
BCF2
330
BCF3
330
BCF4
330
BCF5
330
BCF6
330
BCF7
330
BCF8
330
BCF9
330
BCFA
330
BCFB
330
BCFC
330
BCFD
330
BCFE
330
BCFF
330
BD00
330
BD01
330
BD02
330
BD03
330
BD04
330
BD05
330
BD06
330
BD07
330
BD08
330
BD09
330
BD0A
330
BD0B
330
BD0C
330
BD0D
330
BD0E
330
BD0F
330
BD10
330
BD11
330
BD12
330
BD13
330
BD14
330
BD15
330
BD16
330
BD17
330
BD18
330
BD19
330
BD1A
330
BD1B
330
BD1C
330
BD1D
330
BD1E
330
BD1F
330
BD20
330
BD21
330
BD22
330
BD23
330
BD24
330
BD25
330
BD26
330
BD27
330
BD28
330
BD29
330
BD2A
330
BD2B
330
BD2C
330
BD2D
330
BD2E
330
BD2F
330
BD30
330
BD31
330
BD32
330
BD33
330
BD34
330
BD35
330
BD36
330
BD37
330
BD38
330
BD39
330
BD3A
330
BD3B
330
BD3C
330
BD3D
330
BD3E
330
BD3F
330
BD40
330
BD41
330
BD42
330
BD43
330
BD44
330
BD45
330
BD46
330
BD47
330
BD48
330
BD49
330
BD4A
330
BD4B
330
BD4C
330
BD4D
330
BD4E
330
BD4F
330
BD50
330
BD51
330
BD52
330
BD53
330
BD54
330
BD55
330
BD56
330
BD57
330
BD58
330
BD59
330
BD5A
330
BD5B
330
BD5C
330
BD5D
330
BD5E
330
BD5F
330
BD60
330
BD61
330
BD62
330
BD63
330
BD64
330
BD65
330
BD66
330
BD67
330
BD68
330
BD69
330
BD6A
330
BD6B
330
BD6C
330
BD6D
330
BD6E
330
BD6F
330
BD70
330
BD71
330
BD72
330
BD73
330
BD74
330
BD75
330
BD76
330
BD77
330
BD78
330
BD79
330
BD7A
330
BD7B
330
BD7C
330
BD7D
330
BD7E
330
BD7F
330
BD80
330
BD81
330
BD82
330
BD83
330
BD84
330
BD85
330
BD86
330
BD87
330
BD88
330
BD89
330
BD8A
330
BD8B
330
BD8C
330
BD8D
330
BD8E
330
BD8F
330
BD90
330
BD91
330
BD92
330
BD93
330
BD94
330
BD95
330
BD96
330
BD97
330
BD98
330
BD99
330
BD9A
330
BD9B
330
BD9C
330
BD9D
330
BD9E
330
BD9F
330
BDA0
330
BDA1
330
BDA2
330
BDA3
330
BDA4
330
BDA5
330
BDA6
330
BDA7
330
BDD9
  0
IDBUFFER
  5
BAFF
330
0
100
AcDbIdBuffer
330
60EB
330
60EC
330
60ED
330
60EE
330
60EF
330
60F0
330
60F1
330
60F2
330
60F3
330
60F6
330
60F7
330
60F8
330
60F9
330
60FA
330
60FB
330
60FC
330
60FD
330
60FE
330
6698
330
6699
330
669A
330
669B
330
669C
330
669D
330
669E
330
669F
330
66A0
330
66A3
330
66A4
330
66A5
330
66A6
330
66A7
330
66A8
330
66A9
330
66AA
330
66AB
330
71DF
330
71E0
330
71E1
330
71E2
330
71E3
330
71E4
330
71E5
330
71E6
330
71E7
330
71EA
330
71EB
330
71EC
330
71ED
330
71EE
330
71EF
330
71F0
330
71F1
330
71F2
330
778C
330
778D
330
778E
330
778F
330
7790
330
7791
330
7792
330
7793
330
7794
330
7797
330
7798
330
7799
330
779A
330
779B
330
779C
330
779D
330
779E
330
779F
330
82D1
330
82D2
330
82D3
330
82D4
330
82D5
330
82D6
330
82D7
330
82D8
330
82D9
330
82DC
330
82DD
330
82DE
330
82DF
330
82E0
330
82E1
330
82E2
330
82E3
330
82E4
330
887E
330
887F
330
8880
330
8881
330
8882
330
8883
330
8884
330
8885
330
8886
330
8889
330
888A
330
888B
330
888C
330
888D
330
888E
330
888F
330
8890
330
8891
  0
IDBUFFER
  5
BB00
330
0
100
AcDbIdBuffer
  0
IDBUFFER
  5
BB01
330
0
100
AcDbIdBuffer
  0
IDBUFFER
  5
BDEE
330
0
100
AcDbIdBuffer
  0
ENDSEC
  0
EOF
