  0
SECTION
  2
HEADER
  9
$ACADVER
  1
AC1018
  9
$ACADMAINTVER
 70
    76
  9
$DWGCODEPAGE
  3
ANSI_1252
  9
$LASTSAVEDBY
  1
gregory.mumm
  9
$INSBASE
 10
0.0
 20
0.0
 30
0.0
  9
$EXTMIN
 10
-0.0003661829982491
 20
0.0326843471646825
 30
-0.0015258207003583
  9
$EXTMAX
 10
11.40069582802324
 20
8.880111715151127
 30
0.0000000349246037
  9
$LIMMIN
 10
0.0
 20
0.0
  9
$LIMMAX
 10
12.0
 20
9.0
  9
$ORTHOMODE
 70
     0
  9
$REGENMODE
 70
     1
  9
$FILLMODE
 70
     1
  9
$QTEXTMODE
 70
     0
  9
$MIRRTEXT
 70
     0
  9
$LTSCALE
 40
1.0
  9
$ATTMODE
 70
     1
  9
$TEXTSIZE
 40
0.2
  9
$TRACEWID
 40
0.05
  9
$TEXTSTYLE
  7
Standard
  9
$CLAYER
  8
0
  9
$CELTYPE
  6
ByLayer
  9
$CECOLOR
 62
   256
  9
$CELTSCALE
 40
1.0
  9
$DISPSILH
 70
     0
  9
$DIMSCALE
 40
1.0
  9
$DIMASZ
 40
0.18
  9
$DIMEXO
 40
0.0625
  9
$DIMDLI
 40
0.38
  9
$DIMRND
 40
0.0
  9
$DIMDLE
 40
0.0
  9
$DIMEXE
 40
0.18
  9
$DIMTP
 40
0.0
  9
$DIMTM
 40
0.0
  9
$DIMTXT
 40
0.18
  9
$DIMCEN
 40
0.09
  9
$DIMTSZ
 40
0.0
  9
$DIMTOL
 70
     0
  9
$DIMLIM
 70
     0
  9
$DIMTIH
 70
     1
  9
$DIMTOH
 70
     1
  9
$DIMSE1
 70
     0
  9
$DIMSE2
 70
     0
  9
$DIMTAD
 70
     0
  9
$DIMZIN
 70
     0
  9
$DIMBLK
  1

  9
$DIMASO
 70
     1
  9
$DIMSHO
 70
     1
  9
$DIMPOST
  1

  9
$DIMAPOST
  1

  9
$DIMALT
 70
     0
  9
$DIMALTD
 70
     2
  9
$DIMALTF
 40
25.4
  9
$DIMLFAC
 40
1.0
  9
$DIMTOFL
 70
     0
  9
$DIMTVP
 40
0.0
  9
$DIMTIX
 70
     0
  9
$DIMSOXD
 70
     0
  9
$DIMSAH
 70
     0
  9
$DIMBLK1
  1

  9
$DIMBLK2
  1

  9
$DIMSTYLE
  2
Standard
  9
$DIMCLRD
 70
     0
  9
$DIMCLRE
 70
     0
  9
$DIMCLRT
 70
     0
  9
$DIMTFAC
 40
1.0
  9
$DIMGAP
 40
0.09
  9
$DIMJUST
 70
     0
  9
$DIMSD1
 70
     0
  9
$DIMSD2
 70
     0
  9
$DIMTOLJ
 70
     1
  9
$DIMTZIN
 70
     0
  9
$DIMALTZ
 70
     0
  9
$DIMALTTZ
 70
     0
  9
$DIMUPT
 70
     0
  9
$DIMDEC
 70
     4
  9
$DIMTDEC
 70
     4
  9
$DIMALTU
 70
     2
  9
$DIMALTTD
 70
     2
  9
$DIMTXSTY
  7
Standard
  9
$DIMAUNIT
 70
     0
  9
$DIMADEC
 70
     0
  9
$DIMALTRND
 40
0.0
  9
$DIMAZIN
 70
     0
  9
$DIMDSEP
 70
    46
  9
$DIMATFIT
 70
     3
  9
$DIMFRAC
 70
     0
  9
$DIMLDRBLK
  1

  9
$DIMLUNIT
 70
     2
  9
$DIMLWD
 70
    -2
  9
$DIMLWE
 70
    -2
  9
$DIMTMOVE
 70
     0
  9
$LUNITS
 70
     2
  9
$LUPREC
 70
     4
  9
$SKETCHINC
 40
0.1
  9
$FILLETRAD
 40
0.0
  9
$AUNITS
 70
     0
  9
$AUPREC
 70
     0
  9
$MENU
  1
.
  9
$ELEVATION
 40
0.0
  9
$PELEVATION
 40
0.0
  9
$THICKNESS
 40
0.0
  9
$LIMCHECK
 70
     0
  9
$CHAMFERA
 40
0.0
  9
$CHAMFERB
 40
0.0
  9
$CHAMFERC
 40
0.0
  9
$CHAMFERD
 40
0.0
  9
$SKPOLY
 70
     0
  9
$TDCREATE
 40
2454351.274900730
  9
$TDUCREATE
 40
2454351.524900729
  9
$TDUPDATE
 40
2455251.426188414
  9
$TDUUPDATE
 40
2455251.676188415
  9
$TDINDWG
 40
0.0139940741
  9
$TDUSRTIMER
 40
0.0139940741
  9
$USRTIMER
 70
     1
  9
$ANGBASE
 50
0.0
  9
$ANGDIR
 70
     0
  9
$PDMODE
 70
     0
  9
$PDSIZE
 40
0.0
  9
$PLINEWID
 40
0.0
  9
$SPLFRAME
 70
     0
  9
$SPLINETYPE
 70
     6
  9
$SPLINESEGS
 70
     8
  9
$HANDSEED
  5
5F4
  9
$SURFTAB1
 70
     6
  9
$SURFTAB2
 70
     6
  9
$SURFTYPE
 70
     6
  9
$SURFU
 70
     6
  9
$SURFV
 70
     6
  9
$UCSBASE
  2

  9
$UCSNAME
  2

  9
$UCSORG
 10
0.0
 20
0.0
 30
0.0
  9
$UCSXDIR
 10
1.0
 20
0.0
 30
0.0
  9
$UCSYDIR
 10
0.0
 20
1.0
 30
0.0
  9
$UCSORTHOREF
  2

  9
$UCSORTHOVIEW
 70
     0
  9
$UCSORGTOP
 10
0.0
 20
0.0
 30
0.0
  9
$UCSORGBOTTOM
 10
0.0
 20
0.0
 30
0.0
  9
$UCSORGLEFT
 10
0.0
 20
0.0
 30
0.0
  9
$UCSORGRIGHT
 10
0.0
 20
0.0
 30
0.0
  9
$UCSORGFRONT
 10
0.0
 20
0.0
 30
0.0
  9
$UCSORGBACK
 10
0.0
 20
0.0
 30
0.0
  9
$PUCSBASE
  2

  9
$PUCSNAME
  2

  9
$PUCSORG
 10
0.0
 20
0.0
 30
0.0
  9
$PUCSXDIR
 10
1.0
 20
0.0
 30
0.0
  9
$PUCSYDIR
 10
0.0
 20
1.0
 30
0.0
  9
$PUCSORTHOREF
  2

  9
$PUCSORTHOVIEW
 70
     0
  9
$PUCSORGTOP
 10
0.0
 20
0.0
 30
0.0
  9
$PUCSORGBOTTOM
 10
0.0
 20
0.0
 30
0.0
  9
$PUCSORGLEFT
 10
0.0
 20
0.0
 30
0.0
  9
$PUCSORGRIGHT
 10
0.0
 20
0.0
 30
0.0
  9
$PUCSORGFRONT
 10
0.0
 20
0.0
 30
0.0
  9
$PUCSORGBACK
 10
0.0
 20
0.0
 30
0.0
  9
$USERI1
 70
     0
  9
$USERI2
 70
     0
  9
$USERI3
 70
     0
  9
$USERI4
 70
     0
  9
$USERI5
 70
     0
  9
$USERR1
 40
0.0
  9
$USERR2
 40
0.0
  9
$USERR3
 40
0.0
  9
$USERR4
 40
0.0
  9
$USERR5
 40
0.0
  9
$WORLDVIEW
 70
     1
  9
$SHADEDGE
 70
     3
  9
$SHADEDIF
 70
    70
  9
$TILEMODE
 70
     1
  9
$MAXACTVP
 70
    64
  9
$PINSBASE
 10
0.0
 20
0.0
 30
0.0
  9
$PLIMCHECK
 70
     0
  9
$PEXTMIN
 10
0.0
 20
0.0
 30
0.0
  9
$PEXTMAX
 10
0.0
 20
0.0
 30
0.0
  9
$PLIMMIN
 10
0.0
 20
0.0
  9
$PLIMMAX
 10
12.0
 20
9.0
  9
$UNITMODE
 70
     0
  9
$VISRETAIN
 70
     1
  9
$PLINEGEN
 70
     0
  9
$PSLTSCALE
 70
     1
  9
$TREEDEPTH
 70
  3020
  9
$CMLSTYLE
  2
Standard
  9
$CMLJUST
 70
     0
  9
$CMLSCALE
 40
1.0
  9
$PROXYGRAPHICS
 70
     1
  9
$MEASUREMENT
 70
     0
  9
$CELWEIGHT
370
    -1
  9
$ENDCAPS
280
     0
  9
$JOINSTYLE
280
     0
  9
$LWDISPLAY
290
     0
  9
$INSUNITS
 70
     1
  9
$HYPERLINKBASE
  1

  9
$STYLESHEET
  1
monochrome.ctb
  9
$XEDIT
290
     1
  9
$CEPSNTYPE
380
     0
  9
$PSTYLEMODE
290
     1
  9
$FINGERPRINTGUID
  2
{A2C7984E-52BD-47D3-A4C1-4A9BAB15BC4F}
  9
$VERSIONGUID
  2
{C815AEAA-8708-4DF9-B1F4-6FE2F19CED69}
  9
$EXTNAMES
290
     1
  9
$PSVPSCALE
 40
0.0
  9
$OLESTARTUP
290
     0
  9
$SORTENTS
280
   127
  9
$INDEXCTL
280
     0
  9
$HIDETEXT
280
     1
  9
$XCLIPFRAME
290
     0
  9
$HALOGAP
280
     0
  9
$OBSCOLOR
 70
   257
  9
$OBSLTYPE
280
     0
  9
$INTERSECTIONDISPLAY
280
     0
  9
$INTERSECTIONCOLOR
 70
   257
  9
$DIMASSOC
280
     2
  9
$PROJECTNAME
  1

  0
ENDSEC
  0
SECTION
  2
CLASSES
  0
CLASS
  1
ACDBDICTIONARYWDFLT
  2
AcDbDictionaryWithDefault
  3
ObjectDBX Classes
 90
        0
 91
        1
280
     0
281
     0
  0
CLASS
  1
DICTIONARYVAR
  2
AcDbDictionaryVar
  3
ObjectDBX Classes
 90
        0
 91
        3
280
     0
281
     0
  0
CLASS
  1
TABLESTYLE
  2
AcDbTableStyle
  3
ObjectDBX Classes
 90
     2047
 91
        1
280
     0
281
     0
  0
CLASS
  1
SORTENTSTABLE
  2
AcDbSortentsTable
  3
ObjectDBX Classes
 90
        0
 91
        1
280
     0
281
     0
  0
CLASS
  1
DIMASSOC
  2
AcDbDimAssoc
  3
"AcDbDimAssoc|Product Desc:     AcDim ARX App For Dimension|Company:          Autodesk, Inc.|WEB Address:      www.autodesk.com"
 90
        0
 91
        3
280
     0
281
     0
  0
ENDSEC
  0
SECTION
  2
TABLES
  0
TABLE
  2
VPORT
  5
8
330
0
100
AcDbSymbolTable
 70
     3
  0
VPORT
  5
5F3
330
8
100
AcDbSymbolTableRecord
100
AcDbViewportTableRecord
  2
*Active
 70
     0
 10
0.0
 20
0.0
 11
1.0
 21
1.0
 12
5.700164822512498
 22
4.456398031157904
 13
0.0
 23
0.0
 14
0.125
 24
0.125
 15
0.5
 25
0.5
 16
0.0
 26
0.0
 36
1.0
 17
0.0
 27
0.0
 37
0.0
 40
8.932498784986314
 41
1.730337078651685
 42
50.0
 43
0.0
 44
0.0
 50
0.0
 51
0.0
 71
     0
 72
  1000
 73
     1
 74
     3
 75
     0
 76
     0
 77
     0
 78
     0
281
     0
 65
     1
110
0.0
120
0.0
130
0.0
111
1.0
121
0.0
131
0.0
112
0.0
122
1.0
132
0.0
 79
     0
146
0.0
  0
ENDTAB
  0
TABLE
  2
LTYPE
  5
5
330
0
100
AcDbSymbolTable
 70
    17
  0
LTYPE
  5
14
330
5
100
AcDbSymbolTableRecord
100
AcDbLinetypeTableRecord
  2
ByBlock
 70
     0
  3

 72
    65
 73
     0
 40
0.0
  0
LTYPE
  5
15
330
5
100
AcDbSymbolTableRecord
100
AcDbLinetypeTableRecord
  2
ByLayer
 70
     0
  3

 72
    65
 73
     0
 40
0.0
  0
LTYPE
  5
16
330
5
100
AcDbSymbolTableRecord
100
AcDbLinetypeTableRecord
  2
Continuous
 70
     0
  3
Solid line
 72
    65
 73
     0
 40
0.0
  0
LTYPE
  5
8F
330
5
100
AcDbSymbolTableRecord
100
AcDbLinetypeTableRecord
  2
MS
 70
     0
  3
MEDIUM_SOLID
 72
    65
 73
     0
 40
0.0
  0
LTYPE
  5
90
330
5
100
AcDbSymbolTableRecord
100
AcDbLinetypeTableRecord
  2
AM_ISO02W050
 70
     0
  3
__ __ __ __ __ __ __ __ __ __ __ __ __ __ __
 72
    65
 73
     2
 40
7.5
 49
6.0
 74
     0
 49
-1.5
 74
     0
  0
LTYPE
  5
91
330
5
100
AcDbSymbolTableRecord
100
AcDbLinetypeTableRecord
  2
AM_ISO08W050
 70
     0
  3
____ . ____ . ____ . ____ . ____ . ____ . ____
 72
    65
 73
     4
 40
18.0
 49
12.0
 74
     0
 49
-1.5
 74
     0
 49
3.0
 74
     0
 49
-1.5
 74
     0
  0
LTYPE
  5
92
330
5
100
AcDbSymbolTableRecord
100
AcDbLinetypeTableRecord
  2
AM_ISO09W050
 70
     0
  3
_____ . . _____ . . _____ . . ____ .. ____
 72
    65
 73
     6
 40
22.5
 49
12.0
 74
     0
 49
-1.5
 74
     0
 49
3.0
 74
     0
 49
-1.5
 74
     0
 49
3.0
 74
     0
 49
-1.5
 74
     0
  0
LTYPE
  5
93
330
5
100
AcDbSymbolTableRecord
100
AcDbLinetypeTableRecord
  2
Amconstr
 70
     0
  3
_______________________
 72
    65
 73
     2
 40
9999.0
 49
9999.0
 74
     0
 49
0.0
 74
     0
  0
LTYPE
  5
94
330
5
100
AcDbSymbolTableRecord
100
AcDbLinetypeTableRecord
  2
AM_ISO08W050x2
 70
     0
  3
__ . __ . __ . __ . __ . __
 72
    65
 73
     4
 40
9.0
 49
6.0
 74
     0
 49
-0.75
 74
     0
 49
1.5
 74
     0
 49
-0.75
 74
     0
  0
LTYPE
  5
95
330
5
100
AcDbSymbolTableRecord
100
AcDbLinetypeTableRecord
  2
AM_ISO02W050x2
 70
     0
  3
 _ _ _ _ _ _ _ _ _ _ _ _
 72
    65
 73
     2
 40
3.75
 49
3.0
 74
     0
 49
-0.75
 74
     0
  0
LTYPE
  5
96
330
5
100
AcDbSymbolTableRecord
100
AcDbLinetypeTableRecord
  2
Amzigzag
 70
     0
  3
/\/-/\/-/\/-/\/-/\/-/\/
 72
    65
 73
     2
 40
11.0001
 49
0.0001
 74
     4
 75
   135
340
A3
 46
0.04
 50
0.0
 44
0.0
 45
0.0
 49
-11.0
 74
     0
  0
LTYPE
  5
97
330
5
100
AcDbSymbolTableRecord
100
AcDbLinetypeTableRecord
  2
HIDDEN
 70
     0
  3
Hidden __ __ __ __ __ __ __ __ __ __ __ __ __ _
 72
    65
 73
     2
 40
0.375
 49
0.25
 74
     0
 49
-0.125
 74
     0
  0
LTYPE
  5
98
330
5
100
AcDbSymbolTableRecord
100
AcDbLinetypeTableRecord
  2
CENTER
 70
     0
  3
Center ____ _ ____ _ ____ _ ____ _ ____ _ ____
 72
    65
 73
     4
 40
2.0
 49
1.25
 74
     0
 49
-0.25
 74
     0
 49
0.25
 74
     0
 49
-0.25
 74
     0
  0
LTYPE
  5
99
330
5
100
AcDbSymbolTableRecord
100
AcDbLinetypeTableRecord
  2
PHANTOM2
 70
     0
  3
Phantom (.5x) ___ _ _ ___ _ _ ___ _ _ ___ _ _
 72
    65
 73
     6
 40
1.25
 49
0.625
 74
     0
 49
-0.125
 74
     0
 49
0.125
 74
     0
 49
-0.125
 74
     0
 49
0.125
 74
     0
 49
-0.125
 74
     0
  0
LTYPE
  5
9A
330
5
100
AcDbSymbolTableRecord
100
AcDbLinetypeTableRecord
  2
CENTER2
 70
     0
  3
Center (.5x) ___ _ ___ _ ___ _ ___ _ ___ _ ___
 72
    65
 73
     4
 40
1.125
 49
0.75
 74
     0
 49
-0.125
 74
     0
 49
0.125
 74
     0
 49
-0.125
 74
     0
  0
LTYPE
  5
9B
330
5
100
AcDbSymbolTableRecord
100
AcDbLinetypeTableRecord
  2
HIDDEN2
 70
     0
  3
Hidden (.5x) _ _ _ _ _ _ _ _ _ _ _ _ _ _ _ _ _
 72
    65
 73
     2
 40
0.1875
 49
0.125
 74
     0
 49
-0.0625
 74
     0
  0
LTYPE
  5
9C
330
5
100
AcDbSymbolTableRecord
100
AcDbLinetypeTableRecord
  2
Amzigzag2
 70
     0
  3
/\/-/\/-/\/-/\/-/\/-/\/
 72
    65
 73
     2
 40
0.4401
 49
0.0001
 74
     4
 75
   135
340
A3
 46
0.0016
 50
0.0
 44
0.0
 45
0.0
 49
-0.4400000000000001
 74
     0
  0
LTYPE
  5
9D
330
5
100
AcDbSymbolTableRecord
100
AcDbLinetypeTableRecord
  2
ACANSTGB
 70
     0
  3
__ . . __ . .
 72
    65
 73
     6
 40
0.35433070866
 49
0.15748031496
 74
     0
 49
-0.03937007874
 74
     0
 49
0.03937007874
 74
     0
 49
-0.03937007874
 74
     0
 49
0.03937007874
 74
     0
 49
-0.03937007874
 74
     0
  0
LTYPE
  5
9E
330
5
100
AcDbSymbolTableRecord
100
AcDbLinetypeTableRecord
  2
ACANSTGL
 70
     0
  3
_ _ _ _ _
 72
    65
 73
     2
 40
0.11811023622
 49
0.07874015748
 74
     0
 49
-0.03937007874
 74
     0
  0
ENDTAB
  0
TABLE
  2
LAYER
  5
2
330
0
100
AcDbSymbolTable
 70
     5
  0
LAYER
  5
10
330
2
100
AcDbSymbolTableRecord
100
AcDbLayerTableRecord
  2
0
 70
     0
 62
     7
  6
Continuous
370
    -3
390
F
  0
LAYER
  5
9F
330
2
100
AcDbSymbolTableRecord
100
AcDbLayerTableRecord
  2
BORDER
 70
     0
 62
    15
  6
Continuous
370
    -3
390
F
  0
LAYER
  5
A0
330
2
100
AcDbSymbolTableRecord
100
AcDbLayerTableRecord
  2
Title Block
 70
     0
 62
     2
  6
Continuous
370
    -3
390
F
  0
LAYER
  5
151
330
2
100
AcDbSymbolTableRecord
100
AcDbLayerTableRecord
  2
2
 70
     0
 62
     2
  6
Continuous
370
    -3
390
F
  0
LAYER
  5
549
330
2
100
AcDbSymbolTableRecord
100
AcDbLayerTableRecord
  2
Defpoints
 70
     0
 62
     7
  6
Continuous
290
     0
370
    -3
390
F
  0
ENDTAB
  0
TABLE
  2
STYLE
  5
3
330
0
100
AcDbSymbolTable
 70
     9
  0
STYLE
  5
11
330
3
100
AcDbSymbolTableRecord
100
AcDbTextStyleTableRecord
  2
Standard
 70
     0
 40
0.0
 41
1.0
 50
0.0
 71
     0
 42
0.2
  3
txt
  4

  0
STYLE
  5
A1
330
3
100
AcDbSymbolTableRecord
100
AcDbTextStyleTableRecord
  2
AE
 70
     0
 40
0.0
 41
1.0
 50
0.0
 71
     0
 42
0.16408998
  3
MIGRATOR
  4

  0
STYLE
  5
A2
330
3
100
AcDbSymbolTableRecord
100
AcDbTextStyleTableRecord
  2

 70
     1
 40
0.0
 41
1.0
 50
0.0
 71
     0
 42
1.0
  3
symtb128
  4

  0
STYLE
  5
A3
330
3
100
AcDbSymbolTableRecord
100
AcDbTextStyleTableRecord
  2

 70
     1
 40
0.0
 41
1.0
 50
0.0
 71
     0
 42
2.5
  3
ltypeshp.shx
  4

  0
STYLE
  5
A4
330
3
100
AcDbSymbolTableRecord
100
AcDbTextStyleTableRecord
  2
ACANSTS
 70
     0
 40
1.0
 41
1.0
 50
0.0
 71
     0
 42
2.5
  3
romans.shx
  4

  0
STYLE
  5
A5
330
3
100
AcDbSymbolTableRecord
100
AcDbTextStyleTableRecord
  2
ACANSGDT
 70
     0
 40
0.0
 41
1.0
 50
0.0
 71
     0
 42
2.5
  3
amgdtans.shx
  4

  0
STYLE
  5
152
330
3
100
AcDbSymbolTableRecord
100
AcDbTextStyleTableRecord
  2
ROMANS
 70
     0
 40
0.1
 41
1.0
 50
0.0
 71
     0
 42
0.1
  3
romans
  4

  0
STYLE
  5
153
330
3
100
AcDbSymbolTableRecord
100
AcDbTextStyleTableRecord
  2
ROMAND
 70
     0
 40
0.1
 41
1.0
 50
15.0
 71
     0
 42
0.1
  3
romand
  4

  0
ENDTAB
  0
TABLE
  2
VIEW
  5
6
330
0
100
AcDbSymbolTable
 70
     0
  0
ENDTAB
  0
TABLE
  2
UCS
  5
7
330
0
100
AcDbSymbolTable
 70
     0
  0
ENDTAB
  0
TABLE
  2
APPID
  5
9
330
0
100
AcDbSymbolTable
 70
     7
  0
APPID
  5
12
330
9
100
AcDbSymbolTableRecord
100
AcDbRegAppTableRecord
  2
ACAD
 70
     0
  0
APPID
  5
AD
330
9
100
AcDbSymbolTableRecord
100
AcDbRegAppTableRecord
  2
GENIUS_GENBLLY_14
 70
     0
  0
APPID
  5
AE
330
9
100
AcDbSymbolTableRecord
100
AcDbRegAppTableRecord
  2
GENIUS_GENTRA_14
 70
     0
  0
APPID
  5
AF
330
9
100
AcDbSymbolTableRecord
100
AcDbRegAppTableRecord
  2
MCAD_NO_VIS
 70
     0
  0
APPID
  5
B0
330
9
100
AcDbSymbolTableRecord
100
AcDbRegAppTableRecord
  2
ACAD_TEMP_GRAPHIC
 70
     0
  0
APPID
  5
B1
330
9
100
AcDbSymbolTableRecord
100
AcDbRegAppTableRecord
  2
ACATTRIBSERVICES
 70
     0
  0
APPID
  5
5CA
330
9
100
AcDbSymbolTableRecord
100
AcDbRegAppTableRecord
  2
ACAD_PSEXT
 70
     0
  0
ENDTAB
  0
TABLE
  2
DIMSTYLE
  5
A
330
0
100
AcDbSymbolTable
 70
     9
100
AcDbDimStyleTable
 71
     1
340
27
  0
DIMSTYLE
105
27
102
{ACAD_REACTORS
330
548
330
563
330
57D
102
}
330
A
100
AcDbSymbolTableRecord
100
AcDbDimStyleTableRecord
  2
Standard
 70
     0
340
11
  0
DIMSTYLE
105
A6
330
A
100
AcDbSymbolTableRecord
100
AcDbDimStyleTableRecord
  2
GEN-ANSI
 70
     0
  3
<>
  4
mm
 41
0.14
 42
0.125
 43
0.5
 44
0.125
 47
0.1
 48
0.1
 73
     0
 74
     0
 77
     1
 78
     7
140
0.12
141
0.0
146
0.71
147
0.06
176
   256
177
   256
178
     2
274
     4
340
11
  0
DIMSTYLE
105
A7
330
A
100
AcDbSymbolTableRecord
100
AcDbDimStyleTableRecord
  2
AM_ANSI
 70
     0
  4
mm
 41
0.1
 42
0.05
 43
0.5
 44
0.1
 47
0.1
 48
0.1
 78
     7
 79
     2
140
0.12
141
0.0
146
0.71
147
0.06
176
   256
177
   256
178
     2
274
     4
284
     7
340
11
371
    -1
372
    -1
  0
DIMSTYLE
105
A8
330
A
100
AcDbSymbolTableRecord
100
AcDbDimStyleTableRecord
  2
AM_ANSI$3
 70
     0
  4
mm
 41
0.1
 42
0.05
 43
0.5
 44
0.1
 47
0.1
 48
0.1
 78
     7
 79
     2
140
0.12
141
0.0
146
0.71
147
0.06
176
   256
177
   256
178
     2
274
     4
284
     7
288
     1
289
     0
340
11
371
    -1
372
    -1
  0
DIMSTYLE
105
A9
330
A
100
AcDbSymbolTableRecord
100
AcDbDimStyleTableRecord
  2
AM_ANSI$4
 70
     0
  4
mm
 41
0.1
 42
0.05
 43
0.5
 44
0.1
 47
0.1
 48
0.1
 78
     7
 79
     2
140
0.12
141
0.0
146
0.71
147
0.06
176
   256
177
   256
178
     2
274
     4
284
     7
288
     1
289
     0
340
11
371
    -1
372
    -1
  0
DIMSTYLE
105
AA
330
A
100
AcDbSymbolTableRecord
100
AcDbDimStyleTableRecord
  2
AM_ANSI$7
 70
     0
  4
mm
 41
0.1
 42
0.05
 43
0.5
 44
0.1
 47
0.1
 48
0.1
 78
     7
 79
     2
140
0.24
141
0.0
146
0.71
147
0.06
176
   256
177
   256
178
     2
274
     4
284
     7
340
11
371
    -1
372
    -1
  0
DIMSTYLE
105
AB
330
A
100
AcDbSymbolTableRecord
100
AcDbDimStyleTableRecord
  2
AM_ANSI$SF
 70
     0
  4
mm
 41
0.1
 42
0.05
 43
0.5
 44
0.1
 47
0.1
 48
0.1
 75
     1
 76
     1
 78
     7
 79
     2
140
0.12
141
0.0
146
0.71
147
0.06
176
   256
177
   256
178
     2
274
     4
284
     7
340
11
371
    -1
372
    -1
  0
DIMSTYLE
105
AC
330
A
100
AcDbSymbolTableRecord
100
AcDbDimStyleTableRecord
  2
AM_ANSI$SH
 70
     0
  4
mm
 41
0.1
 42
0.05
 43
0.5
 44
0.1
 47
0.1
 48
0.1
 75
     1
 76
     1
 78
     7
 79
     2
140
0.12
141
0.0
146
0.71
147
0.06
173
     1
176
   256
177
   256
178
     2
274
     4
284
     7
340
11
343
8B
371
    -1
372
    -1
  0
ENDTAB
  0
TABLE
  2
BLOCK_RECORD
  5
1
330
0
100
AcDbSymbolTable
 70
     7
  0
BLOCK_RECORD
  5
1F
330
1
100
AcDbSymbolTableRecord
100
AcDbBlockTableRecord
  2
*Model_Space
340
22
  0
BLOCK_RECORD
  5
58
330
1
100
AcDbSymbolTableRecord
100
AcDbBlockTableRecord
  2
*Paper_Space
340
59
  0
BLOCK_RECORD
  5
5D
330
1
100
AcDbSymbolTableRecord
100
AcDbBlockTableRecord
  2
*Paper_Space0
340
5E
  0
BLOCK_RECORD
  5
8B
330
1
100
AcDbSymbolTableRecord
100
AcDbBlockTableRecord
  2
GENAXEH
340
0
  0
BLOCK_RECORD
  5
B2
102
{ACAD_XDICTIONARY
360
13C
102
}
330
1
100
AcDbSymbolTableRecord
100
AcDbBlockTableRecord
  2
ASSEMBLY_A
340
0
102
{BLKREFS
331
140
102
}
  0
BLOCK_RECORD
  5
54A
330
1
100
AcDbSymbolTableRecord
100
AcDbBlockTableRecord
  2
*D3
340
0
  0
BLOCK_RECORD
  5
564
330
1
100
AcDbSymbolTableRecord
100
AcDbBlockTableRecord
  2
*D4
340
0
  0
BLOCK_RECORD
  5
57E
330
1
100
AcDbSymbolTableRecord
100
AcDbBlockTableRecord
  2
*D5
340
0
  0
ENDTAB
  0
ENDSEC
  0
SECTION
  2
BLOCKS
  0
BLOCK
  5
20
330
1F
100
AcDbEntity
  8
0
100
AcDbBlockBegin
  2
*Model_Space
 70
     0
 10
0.0
 20
0.0
 30
0.0
  3
*Model_Space
  1

  0
ENDBLK
  5
21
330
1F
100
AcDbEntity
  8
0
100
AcDbBlockEnd
  0
BLOCK
  5
5A
330
58
100
AcDbEntity
 67
     1
  8
0
100
AcDbBlockBegin
  2
*Paper_Space
 70
     0
 10
0.0
 20
0.0
 30
0.0
  3
*Paper_Space
  1

  0
ENDBLK
  5
5B
330
58
100
AcDbEntity
 67
     1
  8
0
100
AcDbBlockEnd
  0
BLOCK
  5
5F
330
5D
100
AcDbEntity
 67
     1
  8
0
100
AcDbBlockBegin
  2
*Paper_Space0
 70
     0
 10
0.0
 20
0.0
 30
0.0
  3
*Paper_Space0
  1

  0
ENDBLK
  5
60
330
5D
100
AcDbEntity
 67
     1
  8
0
100
AcDbBlockEnd
  0
BLOCK
  5
8C
330
8B
100
AcDbEntity
  8
0
100
AcDbBlockBegin
  2
GENAXEH
 70
     0
 10
0.0
 20
0.0
 30
0.0
  3
GENAXEH
  1

  0
LINE
  5
8D
330
8B
100
AcDbEntity
  8
0
100
AcDbLine
 10
-1.0
 20
0.0
 30
0.0
 11
1.0
 21
0.0
 31
0.0
  0
ENDBLK
  5
8E
330
8B
100
AcDbEntity
  8
0
100
AcDbBlockEnd
  0
BLOCK
  5
13E
330
B2
100
AcDbEntity
  8
0
100
AcDbBlockBegin
  2
ASSEMBLY_A
 70
     2
 10
0.0
 20
0.0
 30
0.0
  3
ASSEMBLY_A
  1

  0
LINE
  5
B3
330
B2
100
AcDbEntity
  8
BORDER
 62
    15
100
AcDbLine
 10
11.00000226000001
 20
0.3999656890232614
 30
0.0
 11
11.00000226000001
 21
8.5
 31
0.0
  0
LINE
  5
B4
330
B2
100
AcDbEntity
  8
BORDER
 62
    15
100
AcDbLine
 10
0.400011260000019
 20
0.3999656890232617
 30
0.0
 11
0.400011260000019
 21
8.5
 31
0.0
  0
LINE
  5
B5
330
B2
100
AcDbEntity
  8
BORDER
 62
    15
100
AcDbLine
 10
0.400011260000019
 20
0.3999656890232617
 30
0.0
 11
11.00000226000001
 21
0.3999656890232617
 31
0.0
  0
LINE
  5
B6
330
B2
100
AcDbEntity
  8
BORDER
 62
    15
100
AcDbLine
 10
0.0000022600000076
 20
4.249999854999983
 30
0.0
 11
0.400011260000019
 21
4.249999854999983
 31
0.0
  0
TEXT
  5
B7
330
B2
100
AcDbEntity
  8
Title Block
  6
Continuous
 62
     2
100
AcDbText
 10
6.706697087226764
 20
2.205546537751305
 30
0.0
 40
0.1010611419
  1
DO NOT SCALE
 50
0.09999996
  7
AE
100
AcDbText
  0
TEXT
  5
B8
330
B2
100
AcDbEntity
  8
Title Block
  6
Continuous
 62
     2
100
AcDbText
 10
6.706697087226764
 20
1.996163262564665
 30
0.0
 40
0.1010611419
  1
  DRAWING
 50
0.09999996
  7
AE
100
AcDbText
  0
ATTDEF
  5
B9
330
B2
100
AcDbEntity
  8
Title Block
  6
Continuous
 62
     2
100
AcDbText
 10
5.200002260000005
 20
0.6000000000000001
 30
0.0
 40
0.126326427375
  1

 41
0.8
100
AcDbAttributeDefinition
  3
Drawing Name
  2
GEN-TITLE-DES1{15.54}
 70
     0
1001
GENIUS_GENBLLY_14
1000
BOR5
  0
LINE
  5
BA
330
B2
100
AcDbEntity
  8
Title Block
  6
Continuous
 62
     2
100
AcDbLine
 10
2.250002260000005
 20
2.4
 30
0.0
 11
11.00000226000001
 21
2.4
 31
0.0
  0
LINE
  5
BB
330
B2
100
AcDbEntity
  8
Title Block
  6
Continuous
 62
     2
100
AcDbLine
 10
6.575192215153515
 20
1.7
 30
0.0
 11
11.00000226000001
 21
1.7
 31
0.0
  0
LINE
  5
BC
330
B2
100
AcDbEntity
  8
Title Block
  6
Continuous
 62
     2
100
AcDbLine
 10
6.575192215153515
 20
1.45
 30
0.0
 11
11.00000226000001
 21
1.45
 31
0.0
  0
LINE
  5
BD
330
B2
100
AcDbEntity
  8
Title Block
  6
Continuous
 62
     2
100
AcDbLine
 10
6.575192215153515
 20
1.199999999999999
 30
0.0
 11
11.00000226000001
 21
1.199999999999999
 31
0.0
  0
LINE
  5
BE
330
B2
100
AcDbEntity
  8
Title Block
  6
Continuous
 62
     2
100
AcDbLine
 10
5.099658650318536
 20
0.95
 30
0.0
 11
11.00000226000001
 21
0.95
 31
0.0
  0
ATTDEF
  5
BF
330
B2
100
AcDbEntity
  8
Title Block
  6
Continuous
 62
     2
100
AcDbText
 10
6.925002260000004
 20
1.024999999999999
 30
0.0
 40
0.1010611419
  1

100
AcDbAttributeDefinition
  3
Approved by
  2
GEN-TITLE-APPM{5}
 70
     0
1001
GENIUS_GENBLLY_14
1000
BOR2
1001
GENIUS_GENTRA_14
1002
{
1070
     3
1000
GENTRAPR,%s,(GENMSG gentitus 73)
1000
Approved by
1000
gb
1070
     0
1002
}
  0
ATTDEF
  5
C0
330
B2
100
AcDbEntity
  8
Title Block
  6
Continuous
 62
     2
100
AcDbText
 10
6.925002260000004
 20
1.274999999999999
 30
0.0
 40
0.1010611419
  1

100
AcDbAttributeDefinition
  3
Check by
  2
GEN-TITLE-CHKM{5}
 70
     0
1001
GENIUS_GENBLLY_14
1000
BOR2
  0
ATTDEF
  5
C1
330
B2
100
AcDbEntity
  8
Title Block
  6
Continuous
 62
     2
100
AcDbText
 10
6.925002260000004
 20
1.524999999999999
 30
0.0
 40
0.1010611419
  1

100
AcDbAttributeDefinition
  3
Drawn by
  2
GEN-TITLE-NAME{5}
 70
     0
1001
GENIUS_GENBLLY_14
1000
BOR2
  0
LINE
  5
C2
330
B2
100
AcDbEntity
  8
Title Block
  6
Continuous
 62
     2
100
AcDbLine
 10
2.250002260000005
 20
0.9
 30
0.0
 11
5.099658650318536
 21
0.9
 31
0.0
  0
LINE
  5
C3
330
B2
100
AcDbEntity
  8
Title Block
  6
Continuous
 62
     2
100
AcDbLine
 10
2.250002260000005
 20
1.149999999999999
 30
0.0
 11
5.099658650318536
 21
1.149999999999999
 31
0.0
  0
LINE
  5
C4
330
B2
100
AcDbEntity
  8
Title Block
  6
Continuous
 62
     2
100
AcDbLine
 10
2.250002260000005
 20
2.149999999999999
 30
0.0
 11
5.099658650318536
 21
2.149999999999999
 31
0.0
  0
LINE
  5
C5
330
B2
100
AcDbEntity
  8
Title Block
  6
Continuous
 62
     2
100
AcDbLine
 10
2.250002260000005
 20
1.9
 30
0.0
 11
5.099658650318536
 21
1.9
 31
0.0
  0
LINE
  5
C6
330
B2
100
AcDbEntity
  8
Title Block
  6
Continuous
 62
     2
100
AcDbLine
 10
2.250002260000005
 20
1.649999999999999
 30
0.0
 11
5.099658650318536
 21
1.649999999999999
 31
0.0
  0
LINE
  5
C7
330
B2
100
AcDbEntity
  8
Title Block
  6
Continuous
 62
     2
100
AcDbLine
 10
2.250002260000005
 20
1.399999999999999
 30
0.0
 11
5.099658650318536
 21
1.399999999999999
 31
0.0
  0
LINE
  5
C8
330
B2
100
AcDbEntity
  8
Title Block
  6
Continuous
 62
     2
100
AcDbLine
 10
2.250002260000005
 20
0.65
 30
0.0
 11
5.099658650318536
 21
0.65
 31
0.0
  0
TEXT
  5
C9
330
B2
100
AcDbEntity
  8
Title Block
  6
Continuous
 62
     2
100
AcDbText
 10
2.901376282347399
 20
0.7409580908741999
 30
0.0
 40
0.075937067150492
  1
DATE
 50
0.09999996
  7
AE
100
AcDbText
  0
LINE
  5
CA
330
B2
100
AcDbEntity
  8
BORDER
 62
    15
100
AcDbLine
 10
4.500175324840752
 20
0.1999999999999997
 30
0.0
 11
4.500175324840752
 21
0.3999656890232614
 31
0.0
  0
TEXT
  5
CB
330
B2
100
AcDbEntity
  8
BORDER
  6
Continuous
 62
    15
100
AcDbText
 10
4.471677461536399
 20
0.0599741912456091
 30
0.0
 40
0.0799862356161777
  1
0
 50
0.09999996
  7
AE
100
AcDbText
  0
LINE
  5
CC
330
B2
100
AcDbEntity
  8
BORDER
  6
Continuous
 62
    15
100
AcDbLine
 10
4.580161220298862
 20
0.3399759973137093
 30
0.0
 11
4.580161220298862
 21
0.3999656890232614
 31
0.0
  0
LINE
  5
CD
330
B2
100
AcDbEntity
  8
BORDER
  6
Continuous
 62
    15
100
AcDbLine
 10
4.560165156309787
 20
0.2999828395124902
 30
0.0
 11
4.560165156309787
 21
0.3999656890232614
 31
0.0
  0
LINE
  5
CE
330
B2
100
AcDbEntity
  8
BORDER
  6
Continuous
 62
    15
100
AcDbLine
 10
4.540168092492484
 20
0.2999828395124902
 30
0.0
 11
4.540168092492484
 21
0.3999656890232614
 31
0.0
  0
LINE
  5
CF
330
B2
100
AcDbEntity
  8
BORDER
  6
Continuous
 62
    15
100
AcDbLine
 10
4.520171128658045
 20
0.3399759973137093
 30
0.0
 11
4.520171128658045
 21
0.3999656890232614
 31
0.0
  0
LINE
  5
D0
330
B2
100
AcDbEntity
  8
BORDER
  6
Continuous
 62
    15
100
AcDbLine
 10
4.600157284287936
 20
0.2599896917095519
 30
0.0
 11
4.600157284287936
 21
0.3999656890232614
 31
0.0
  0
LINE
  5
D1
330
B2
100
AcDbEntity
  8
Title Block
  6
Continuous
 62
     2
100
AcDbLine
 10
2.600002260000005
 20
0.65
 30
0.0
 11
2.600002260000005
 21
2.4
 31
0.0
  0
LINE
  5
D2
330
B2
100
AcDbEntity
  8
Title Block
  6
Continuous
 62
     2
100
AcDbLine
 10
2.250002260000005
 20
0.3999656890232619
 30
0.0
 11
2.250002260000005
 21
2.4
 31
0.0
  0
TEXT
  5
D3
330
B2
100
AcDbEntity
  8
Title Block
  6
Continuous
 62
     2
100
AcDbText
 10
2.338244392245041
 20
0.7403498140978244
 30
0.0
 40
0.0771520776612738
  1
NO.
 50
0.09999996
  7
AE
100
AcDbText
  0
LINE
  5
D4
330
B2
100
AcDbEntity
  8
BORDER
  6
Continuous
 62
    15
100
AcDbLine
 10
5.500002260000007
 20
0.1999999999999997
 30
0.0
 11
5.500002260000007
 21
0.3999656890232614
 31
0.0
  0
TEXT
  5
D5
330
B2
100
AcDbEntity
  8
BORDER
  6
Continuous
 62
    15
100
AcDbText
 10
5.271543117131267
 20
0.1199638829551608
 30
0.0
 40
0.0799862356161777
  1
8
 50
0.09999996
  7
AE
100
AcDbText
  0
TEXT
  5
D6
330
B2
100
AcDbEntity
  8
BORDER
  6
Continuous
 62
    15
100
AcDbText
 10
6.071407672915045
 20
0.1199638829551608
 30
0.0
 40
0.0799862356161777
  1
6
 50
0.09999996
  7
AE
100
AcDbText
  0
TEXT
  5
D7
330
B2
100
AcDbEntity
  8
BORDER
  6
Continuous
 62
    15
100
AcDbText
 10
5.671475894937241
 20
0.1199638829551608
 30
0.0
 40
0.0799862356161777
  1
2
 50
0.09999996
  7
AE
100
AcDbText
  0
TEXT
  5
D8
330
B2
100
AcDbEntity
  8
BORDER
  6
Continuous
 62
    15
100
AcDbText
 10
5.471505656695663
 20
0.0599741912456091
 30
0.0
 40
0.0799862356161777
  1
1
 50
0.09999996
  7
AE
100
AcDbText
  0
TEXT
  5
D9
330
B2
100
AcDbEntity
  8
BORDER
  6
Continuous
 62
    15
100
AcDbText
 10
5.871441334003431
 20
0.1199638829551608
 30
0.0
 40
0.0799862356161777
  1
4
 50
0.09999996
  7
AE
100
AcDbText
  0
TEXT
  5
DA
330
B2
100
AcDbEntity
  8
BORDER
  6
Continuous
 62
    15
100
AcDbText
 10
6.271374111809436
 20
0.1199638829551608
 30
0.0
 40
0.0799862356161777
  1
8
 50
0.09999996
  7
AE
100
AcDbText
  0
LINE
  5
DB
330
B2
100
AcDbEntity
  8
BORDER
  6
Continuous
 62
    15
100
AcDbLine
 10
5.380026775910868
 20
0.3399759973137093
 30
0.0
 11
5.380026775910868
 21
0.3999656890232614
 31
0.0
  0
LINE
  5
DC
330
B2
100
AcDbEntity
  8
BORDER
  6
Continuous
 62
    15
100
AcDbLine
 10
5.360030711921794
 20
0.2999828395124902
 30
0.0
 11
5.360030711921794
 21
0.3999656890232614
 31
0.0
  0
LINE
  5
DD
330
B2
100
AcDbEntity
  8
BORDER
  6
Continuous
 62
    15
100
AcDbLine
 10
5.340033748087325
 20
0.2999828395124902
 30
0.0
 11
5.340033748087325
 21
0.3999656890232614
 31
0.0
  0
LINE
  5
DE
330
B2
100
AcDbEntity
  8
BORDER
  6
Continuous
 62
    15
100
AcDbLine
 10
5.32003668427005
 20
0.3399759973137093
 30
0.0
 11
5.32003668427005
 21
0.3999656890232614
 31
0.0
  0
LINE
  5
DF
330
B2
100
AcDbEntity
  8
BORDER
  6
Continuous
 62
    15
100
AcDbLine
 10
5.280043656446478
 20
0.3399759973137093
 30
0.0
 11
5.280043656446478
 21
0.3999656890232614
 31
0.0
  0
LINE
  5
E0
330
B2
100
AcDbEntity
  8
BORDER
  6
Continuous
 62
    15
100
AcDbLine
 10
5.460013931368989
 20
0.2999828395124902
 30
0.0
 11
5.460013931368989
 21
0.3999656890232614
 31
0.0
  0
LINE
  5
E1
330
B2
100
AcDbEntity
  8
BORDER
  6
Continuous
 62
    15
100
AcDbLine
 10
5.440016967534548
 20
0.2999828395124902
 30
0.0
 11
5.440016967534548
 21
0.3999656890232614
 31
0.0
  0
LINE
  5
E2
330
B2
100
AcDbEntity
  8
BORDER
  6
Continuous
 62
    15
100
AcDbLine
 10
5.420019903717246
 20
0.3399759973137093
 30
0.0
 11
5.420019903717246
 21
0.3999656890232614
 31
0.0
  0
LINE
  5
E3
330
B2
100
AcDbEntity
  8
BORDER
  6
Continuous
 62
    15
100
AcDbLine
 10
5.400022839899943
 20
0.2599896917095519
 30
0.0
 11
5.400022839899943
 21
0.3999656890232614
 31
0.0
  0
LINE
  5
E4
330
B2
100
AcDbEntity
  8
BORDER
  6
Continuous
 62
    15
100
AcDbLine
 10
5.300039720435552
 20
0.2599896917095519
 30
0.0
 11
5.300039720435552
 21
0.3999656890232614
 31
0.0
  0
LINE
  5
E5
330
B2
100
AcDbEntity
  8
BORDER
  6
Continuous
 62
    15
100
AcDbLine
 10
5.480009995358091
 20
0.3399759973137093
 30
0.0
 11
5.480009995358091
 21
0.3999656890232614
 31
0.0
  0
LINE
  5
E6
330
B2
100
AcDbEntity
  8
BORDER
  6
Continuous
 62
    15
100
AcDbLine
 10
5.699972498241557
 20
0.2599896917095519
 30
0.0
 11
5.699972498241557
 21
0.3999656890232614
 31
0.0
  0
LINE
  5
E7
330
B2
100
AcDbEntity
  8
BORDER
  6
Continuous
 62
    15
100
AcDbLine
 10
5.899937937307775
 20
0.2599896917095519
 30
0.0
 11
5.899937937307775
 21
0.3999656890232614
 31
0.0
  0
LINE
  5
E8
330
B2
100
AcDbEntity
  8
BORDER
  6
Continuous
 62
    15
100
AcDbLine
 10
6.099904376202193
 20
0.2599896917095519
 30
0.0
 11
6.099904376202193
 21
0.3999656890232614
 31
0.0
  0
LINE
  5
E9
330
B2
100
AcDbEntity
  8
BORDER
  6
Continuous
 62
    15
100
AcDbLine
 10
6.299870715113778
 20
0.2599896917095519
 30
0.0
 11
6.299870715113778
 21
0.3999656890232614
 31
0.0
  0
LINE
  5
EA
330
B2
100
AcDbEntity
  8
BORDER
  6
Continuous
 62
    15
100
AcDbLine
 10
6.499833354661037
 20
0.1999999999999997
 30
0.0
 11
6.499833354661037
 21
0.3999656890232614
 31
0.0
  0
TEXT
  5
EB
330
B2
100
AcDbEntity
  8
BORDER
  6
Continuous
 62
    15
100
AcDbText
 10
6.471333851854957
 20
0.0599741912456091
 30
0.0
 40
0.0799862356161777
  1
2
 50
0.09999996
  7
AE
100
AcDbText
  0
TEXT
  5
EC
330
B2
100
AcDbEntity
  8
BORDER
  6
Continuous
 62
    15
100
AcDbText
 10
4.671643900430845
 20
0.1199638829551608
 30
0.0
 40
0.0799862356161777
  1
2
 50
0.09999996
  7
AE
100
AcDbText
  0
LINE
  5
ED
330
B2
100
AcDbEntity
  8
BORDER
  6
Continuous
 62
    15
100
AcDbLine
 10
4.680144439746086
 20
0.3399759973137093
 30
0.0
 11
4.680144439746086
 21
0.3999656890232614
 31
0.0
  0
LINE
  5
EE
330
B2
100
AcDbEntity
  8
BORDER
  6
Continuous
 62
    15
100
AcDbLine
 10
4.660148375756982
 20
0.2999828395124902
 30
0.0
 11
4.660148375756982
 21
0.3999656890232614
 31
0.0
  0
LINE
  5
EF
330
B2
100
AcDbEntity
  8
BORDER
  6
Continuous
 62
    15
100
AcDbLine
 10
4.640151311939709
 20
0.2999828395124902
 30
0.0
 11
4.640151311939709
 21
0.3999656890232614
 31
0.0
  0
LINE
  5
F0
330
B2
100
AcDbEntity
  8
BORDER
  6
Continuous
 62
    15
100
AcDbLine
 10
4.620154248122434
 20
0.3399759973137093
 30
0.0
 11
4.620154248122434
 21
0.3999656890232614
 31
0.0
  0
LINE
  5
F1
330
B2
100
AcDbEntity
  8
BORDER
  6
Continuous
 62
    15
100
AcDbLine
 10
4.700140503735161
 20
0.2599896917095519
 30
0.0
 11
4.700140503735161
 21
0.3999656890232614
 31
0.0
  0
TEXT
  5
F2
330
B2
100
AcDbEntity
  8
BORDER
  6
Continuous
 62
    15
100
AcDbText
 10
5.07157667823685
 20
0.1199638829551608
 30
0.0
 40
0.0799862356161777
  1
6
 50
0.09999996
  7
AE
100
AcDbText
  0
TEXT
  5
F3
330
B2
100
AcDbEntity
  8
BORDER
  6
Continuous
 62
    15
100
AcDbText
 10
4.871610239342402
 20
0.1199638829551608
 30
0.0
 40
0.0799862356161777
  1
4
 50
0.09999996
  7
AE
100
AcDbText
  0
LINE
  5
F4
330
B2
100
AcDbEntity
  8
BORDER
  6
Continuous
 62
    15
100
AcDbLine
 10
4.780127559210475
 20
0.3399759973137093
 30
0.0
 11
4.780127559210475
 21
0.3999656890232614
 31
0.0
  0
LINE
  5
F5
330
B2
100
AcDbEntity
  8
BORDER
  6
Continuous
 62
    15
100
AcDbLine
 10
4.760131495221372
 20
0.2999828395124902
 30
0.0
 11
4.760131495221372
 21
0.3999656890232614
 31
0.0
  0
LINE
  5
F6
330
B2
100
AcDbEntity
  8
BORDER
  6
Continuous
 62
    15
100
AcDbLine
 10
4.740134531386932
 20
0.2999828395124902
 30
0.0
 11
4.740134531386932
 21
0.3999656890232614
 31
0.0
  0
LINE
  5
F7
330
B2
100
AcDbEntity
  8
BORDER
  6
Continuous
 62
    15
100
AcDbLine
 10
4.720137467569628
 20
0.3399759973137093
 30
0.0
 11
4.720137467569628
 21
0.3999656890232614
 31
0.0
  0
LINE
  5
F8
330
B2
100
AcDbEntity
  8
BORDER
  6
Continuous
 62
    15
100
AcDbLine
 10
5.120070345358437
 20
0.3399759973137093
 30
0.0
 11
5.120070345358437
 21
0.3999656890232614
 31
0.0
  0
LINE
  5
F9
330
B2
100
AcDbEntity
  8
BORDER
  6
Continuous
 62
    15
100
AcDbLine
 10
5.080077217552089
 20
0.3399759973137093
 30
0.0
 11
5.080077217552089
 21
0.3999656890232614
 31
0.0
  0
LINE
  5
FA
330
B2
100
AcDbEntity
  8
BORDER
  6
Continuous
 62
    15
100
AcDbLine
 10
5.060081153562986
 20
0.2999828395124902
 30
0.0
 11
5.060081153562986
 21
0.3999656890232614
 31
0.0
  0
LINE
  5
FB
330
B2
100
AcDbEntity
  8
BORDER
  6
Continuous
 62
    15
100
AcDbLine
 10
5.040084089745711
 20
0.2999828395124902
 30
0.0
 11
5.040084089745711
 21
0.3999656890232614
 31
0.0
  0
LINE
  5
FC
330
B2
100
AcDbEntity
  8
BORDER
  6
Continuous
 62
    15
100
AcDbLine
 10
5.020087125911242
 20
0.3399759973137093
 30
0.0
 11
5.020087125911242
 21
0.3999656890232614
 31
0.0
  0
LINE
  5
FD
330
B2
100
AcDbEntity
  8
BORDER
  6
Continuous
 62
    15
100
AcDbLine
 10
4.980093998104864
 20
0.3399759973137093
 30
0.0
 11
4.980093998104864
 21
0.3999656890232614
 31
0.0
  0
LINE
  5
FE
330
B2
100
AcDbEntity
  8
BORDER
  6
Continuous
 62
    15
100
AcDbLine
 10
4.96009793411579
 20
0.2999828395124902
 30
0.0
 11
4.96009793411579
 21
0.3999656890232614
 31
0.0
  0
LINE
  5
FF
330
B2
100
AcDbEntity
  8
BORDER
  6
Continuous
 62
    15
100
AcDbLine
 10
4.940100970281323
 20
0.2999828395124902
 30
0.0
 11
4.940100970281323
 21
0.3999656890232614
 31
0.0
  0
LINE
  5
100
330
B2
100
AcDbEntity
  8
BORDER
  6
Continuous
 62
    15
100
AcDbLine
 10
4.920103906464047
 20
0.3399759973137093
 30
0.0
 11
4.920103906464047
 21
0.3999656890232614
 31
0.0
  0
LINE
  5
101
330
B2
100
AcDbEntity
  8
BORDER
  6
Continuous
 62
    15
100
AcDbLine
 10
4.88011077865767
 20
0.3399759973137093
 30
0.0
 11
4.88011077865767
 21
0.3999656890232614
 31
0.0
  0
LINE
  5
102
330
B2
100
AcDbEntity
  8
BORDER
  6
Continuous
 62
    15
100
AcDbLine
 10
4.860114714668567
 20
0.2999828395124902
 30
0.0
 11
4.860114714668567
 21
0.3999656890232614
 31
0.0
  0
LINE
  5
103
330
B2
100
AcDbEntity
  8
BORDER
  6
Continuous
 62
    15
100
AcDbLine
 10
4.840117750834126
 20
0.2999828395124902
 30
0.0
 11
4.840117750834126
 21
0.3999656890232614
 31
0.0
  0
LINE
  5
104
330
B2
100
AcDbEntity
  8
BORDER
  6
Continuous
 62
    15
100
AcDbLine
 10
4.820120687016824
 20
0.3399759973137093
 30
0.0
 11
4.820120687016824
 21
0.3999656890232614
 31
0.0
  0
LINE
  5
105
330
B2
100
AcDbEntity
  8
BORDER
  6
Continuous
 62
    15
100
AcDbLine
 10
5.100073281541163
 20
0.2599896917095519
 30
0.0
 11
5.100073281541163
 21
0.3999656890232614
 31
0.0
  0
LINE
  5
106
330
B2
100
AcDbEntity
  8
BORDER
  6
Continuous
 62
    15
100
AcDbLine
 10
5.000090062093939
 20
0.2599896917095519
 30
0.0
 11
5.000090062093939
 21
0.3999656890232614
 31
0.0
  0
LINE
  5
107
330
B2
100
AcDbEntity
  8
BORDER
  6
Continuous
 62
    15
100
AcDbLine
 10
4.900106842646744
 20
0.2599896917095519
 30
0.0
 11
4.900106842646744
 21
0.3999656890232614
 31
0.0
  0
LINE
  5
108
330
B2
100
AcDbEntity
  8
BORDER
  6
Continuous
 62
    15
100
AcDbLine
 10
4.800123723182355
 20
0.2599896917095519
 30
0.0
 11
4.800123723182355
 21
0.3999656890232614
 31
0.0
  0
LINE
  5
109
330
B2
100
AcDbEntity
  8
BORDER
  6
Continuous
 62
    15
100
AcDbLine
 10
5.260047592457404
 20
0.2999828395124902
 30
0.0
 11
5.260047592457404
 21
0.3999656890232614
 31
0.0
  0
LINE
  5
10A
330
B2
100
AcDbEntity
  8
BORDER
  6
Continuous
 62
    15
100
AcDbLine
 10
5.24005052864013
 20
0.2999828395124902
 30
0.0
 11
5.24005052864013
 21
0.3999656890232614
 31
0.0
  0
LINE
  5
10B
330
B2
100
AcDbEntity
  8
BORDER
  6
Continuous
 62
    15
100
AcDbLine
 10
5.220053464822827
 20
0.3399759973137093
 30
0.0
 11
5.220053464822827
 21
0.3999656890232614
 31
0.0
  0
LINE
  5
10C
330
B2
100
AcDbEntity
  8
BORDER
  6
Continuous
 62
    15
100
AcDbLine
 10
5.180060436999283
 20
0.3399759973137093
 30
0.0
 11
5.180060436999283
 21
0.3999656890232614
 31
0.0
  0
LINE
  5
10D
330
B2
100
AcDbEntity
  8
BORDER
  6
Continuous
 62
    15
100
AcDbLine
 10
5.160064373010181
 20
0.2999828395124902
 30
0.0
 11
5.160064373010181
 21
0.3999656890232614
 31
0.0
  0
LINE
  5
10E
330
B2
100
AcDbEntity
  8
BORDER
  6
Continuous
 62
    15
100
AcDbLine
 10
5.140067309192934
 20
0.2999828395124902
 30
0.0
 11
5.140067309192934
 21
0.3999656890232614
 31
0.0
  0
LINE
  5
10F
330
B2
100
AcDbEntity
  8
BORDER
  6
Continuous
 62
    15
100
AcDbLine
 10
5.200056500988358
 20
0.2599896917095519
 30
0.0
 11
5.200056500988358
 21
0.3999656890232614
 31
0.0
  0
TEXT
  5
110
330
B2
100
AcDbEntity
  8
BORDER
  6
Continuous
 62
    15
100
AcDbText
 10
4.703120191722399
 20
0.0329812595588268
 30
0.0
 40
0.0399931278063708
  1
FULL SIZE   50   02
 50
0.09999996
 41
0.7749084200000001
  7
AE
100
AcDbText
  0
TEXT
  5
111
330
B2
100
AcDbEntity
  8
Title Block
  6
Continuous
 62
     2
100
AcDbText
 10
3.373545338500017
 20
0.4900242034427523
 30
0.0
 40
0.075937067150492
  1
REVISION
 50
0.09999996
  7
AE
100
AcDbText
  0
LINE
  5
112
330
B2
100
AcDbEntity
  8
BORDER
  6
Continuous
 62
    15
100
AcDbLine
 10
5.099658650318536
 20
0.3999656890232619
 30
0.0
 11
5.099658650318536
 21
2.4
 31
0.0
  0
LINE
  5
113
330
B2
100
AcDbEntity
  8
Title Block
  6
Continuous
 62
     2
100
AcDbLine
 10
6.575192215153515
 20
1.0
 30
0.0
 11
6.575192215153515
 21
2.4
 31
0.0
  0
TEXT
  5
114
330
B2
100
AcDbEntity
  8
Title Block
  6
Continuous
 62
     2
100
AcDbText
 10
5.150002260000006
 20
0.8
 30
0.0
 40
0.075937067150492
  1
DRAWING NAME
 50
0.09999996
  7
AE
100
AcDbText
  0
TEXT
  5
115
330
B2
100
AcDbEntity
  8
Title Block
  6
Continuous
 62
     2
100
AcDbText
 10
6.600002260000005
 20
0.975
 30
0.0
 40
0.075937067150492
  1
BY
 50
0.09999996
  7
AE
100
AcDbText
  0
TEXT
  5
116
330
B2
100
AcDbEntity
  8
Title Block
  6
Continuous
 62
     2
100
AcDbText
 10
6.610002260000005
 20
1.1
 30
0.0
 40
0.075937067150492
  1
APPD
 50
0.09999996
  7
AE
100
AcDbText
  0
TEXT
  5
117
330
B2
100
AcDbEntity
  8
Title Block
  6
Continuous
 62
     2
100
AcDbText
 10
6.600002260000005
 20
1.349999999999999
 30
0.0
 40
0.075937067150492
  1
CHK
 50
0.09999996
  7
AE
100
AcDbText
  0
TEXT
  5
118
330
B2
100
AcDbEntity
  8
Title Block
  6
Continuous
 62
     2
100
AcDbText
 10
6.60620263256118
 20
1.224999999999999
 30
0.0
 40
0.075937067150492
  1
BY
 50
0.09999996
  7
AE
100
AcDbText
  0
TEXT
  5
119
330
B2
100
AcDbEntity
  8
Title Block
  6
Continuous
 62
     2
100
AcDbText
 10
6.600002260000005
 20
1.474999999999999
 30
0.0
 40
0.075937067150492
  1
BY
 50
0.09999996
  7
AE
100
AcDbText
  0
TEXT
  5
11A
330
B2
100
AcDbEntity
  8
Title Block
  6
Continuous
 62
     2
100
AcDbText
 10
6.600002260000005
 20
1.599999999999999
 30
0.0
 40
0.075937067150492
  1
DR
 50
0.09999996
  7
AE
100
AcDbText
  0
LINE
  5
11B
330
B2
100
AcDbEntity
  8
Title Block
  6
Continuous
 62
     2
100
AcDbLine
 10
3.400002260000006
 20
0.65
 30
0.0
 11
3.400002260000006
 21
2.4
 31
0.0
  0
ATTDEF
  5
11C
330
B2
100
AcDbEntity
  8
Title Block
  6
Continuous
 62
     2
100
AcDbText
 10
8.400002260000006
 20
0.5
 30
0.0
 40
0.196816573850279
  1

 41
0.8
100
AcDbAttributeDefinition
  3
Drawing Number
  2
GEN-TITLE-NR{13.37}
 70
     0
1001
GENIUS_GENBLLY_14
1000
BOR5
  0
ATTDEF
  5
11D
330
B2
100
AcDbEntity
  8
Title Block
  6
Continuous
 62
     2
100
AcDbText
 10
10.00000226
 20
1.024999999999999
 30
0.0
 40
0.11808994431015
  1

 41
0.8
100
AcDbAttributeDefinition
  3
Sheet
  2
GEN-TITLE-SHEET{2.62}
 70
     0
1001
GENIUS_GENBLLY_14
1000
BOR3
  0
ATTDEF
  5
11E
330
B2
100
AcDbEntity
  8
Title Block
  6
Continuous
 62
     2
100
AcDbText
 10
9.925002260000004
 20
1.274999999999999
 30
0.0
 40
0.1010611419
  1

100
AcDbAttributeDefinition
  3
Date
  2
GEN-TITLE-PLOT{5}
 70
     0
1001
GENIUS_GENBLLY_14
1000
BOR2
  0
ATTDEF
  5
11F
330
B2
100
AcDbEntity
  8
Title Block
  6
Continuous
 62
     2
100
AcDbText
 10
10.40000226
 20
1.024999999999999
 30
0.0
 40
0.11808994431015
  1

 41
0.8
100
AcDbAttributeDefinition
  3
Sheet of
  2
GEN-TITLE-SHEET-OF{2.62}
 70
     0
1001
GENIUS_GENBLLY_14
1000
BOR3
  0
LINE
  5
120
330
B2
100
AcDbEntity
  8
Title Block
  6
Continuous
 62
     2
100
AcDbLine
 10
9.526259441263579
 20
0.95
 30
0.0
 11
9.526259441263549
 21
1.449999999999999
 31
0.0
  0
LINE
  5
121
330
B2
100
AcDbEntity
  8
BORDER
  6
Continuous
 62
    15
100
AcDbLine
 10
8.050002260000004
 20
0.3999656890232619
 30
0.0
 11
8.050002260000004
 21
2.4
 31
0.0
  0
TEXT
  5
122
330
B2
100
AcDbEntity
  8
Title Block
  6
Continuous
 62
     2
100
AcDbText
 10
8.100002260000005
 20
0.8
 30
0.0
 40
0.075937067150492
  1
DRAWING NUMBER
 50
0.09999996
  7
AE
100
AcDbText
  0
TEXT
  5
123
330
B2
100
AcDbEntity
  8
Title Block
  6
Continuous
 62
     2
100
AcDbText
 10
8.100002260000005
 20
1.599999999999999
 30
0.0
 40
0.075937067150492
  1
REF
 50
0.09999996
  7
AE
100
AcDbText
  0
TEXT
  5
124
330
B2
100
AcDbEntity
  8
Title Block
  6
Continuous
 62
     2
100
AcDbText
 10
8.100002260000005
 20
1.349999999999999
 30
0.0
 40
0.075937067150492
  1
MACH
 50
0.09999996
  7
AE
100
AcDbText
  0
TEXT
  5
125
330
B2
100
AcDbEntity
  8
Title Block
  6
Continuous
 62
     2
100
AcDbText
 10
8.100002260000005
 20
1.1
 30
0.0
 40
0.075937067150492
  1
MATL
 50
0.09999996
  7
AE
100
AcDbText
  0
ATTDEF
  5
126
330
B2
100
AcDbEntity
  8
Title Block
  6
Continuous
 62
     2
100
AcDbText
 10
8.450002260000005
 20
1.524999999999999
 30
0.0
 40
0.1010611419
  1

100
AcDbAttributeDefinition
  3
Ref. No.
  2
GEN-TITLE-REF{5}
 70
     0
1001
GENIUS_GENBLLY_14
1000
BOR2
  0
ATTDEF
  5
127
330
B2
100
AcDbEntity
  8
Title Block
  6
Continuous
 62
     2
100
AcDbText
 10
8.450002260000005
 20
1.274999999999999
 30
0.0
 40
0.1010611419
  1

100
AcDbAttributeDefinition
  3
Machine
  2
GEN-TITLE-MACH{5}
 70
     0
1001
GENIUS_GENBLLY_14
1000
BOR2
  0
ATTDEF
  5
128
330
B2
100
AcDbEntity
  8
Title Block
  6
Continuous
 62
     2
100
AcDbText
 10
8.450002260000005
 20
1.024999999999999
 30
0.0
 40
0.1010611419
  1

 41
0.8
100
AcDbAttributeDefinition
  3
Material
  2
GEN-TITLE-MAT{11.15}
 70
     0
1001
GENIUS_GENBLLY_14
1000
BOR3
  0
TEXT
  5
129
330
B2
100
AcDbEntity
  8
Title Block
  6
Continuous
 62
     2
100
AcDbText
 10
9.575002260000005
 20
1.1
 30
0.0
 40
0.075937067150492
  1
SHEET   OF
 50
0.09999996
  7
AE
100
AcDbText
  0
TEXT
  5
12A
330
B2
100
AcDbEntity
  8
Title Block
  6
Continuous
 62
     2
100
AcDbText
 10
9.575002260000005
 20
1.349999999999999
 30
0.0
 40
0.075937067150492
  1
DATE
 50
0.09999996
  7
AE
100
AcDbText
  0
LINE
  5
12B
330
B2
100
AcDbEntity
  8
BORDER
 62
    15
100
AcDbLine
 10
11.00000226000001
 20
4.25
 30
0.0
 11
11.40000188000002
 21
4.25
 31
0.0
  0
LINE
  5
12C
330
B2
100
AcDbEntity
  8
BORDER
 62
    15
100
AcDbLine
 10
0.400011260000019
 20
8.5
 30
0.0
 11
11.00000226000001
 21
8.5
 31
0.0
  0
LINE
  5
12D
330
B2
100
AcDbEntity
  8
BORDER
 62
    15
100
AcDbLine
 10
5.500002260000007
 20
8.5
 30
0.0
 11
5.500002260000007
 21
8.880000000000023
 31
0.0
  0
MTEXT
  5
12E
330
B2
100
AcDbEntity
  8
BORDER
  6
Continuous
100
AcDbMText
 10
9.503092053358715
 20
2.25
 30
0.0
 40
0.125
 41
2.663
 71
     2
 72
     5
  1
{\fArial|b0|i0|c0|p34;\C1;DANAHER MOTION}
 73
     1
 44
1.0
1001
ACAD
1000
ACAD_MTEXT_DEFINED_HEIGHT_BEGIN
1070
    46
1040
0.0
1000
ACAD_MTEXT_DEFINED_HEIGHT_END
  0
MTEXT
  5
12F
330
B2
100
AcDbEntity
  8
BORDER
  6
Continuous
100
AcDbMText
 10
9.50413083763949
 20
1.928264837305509
 30
0.0
 40
0.07874
 41
2.862
 71
     5
 72
     1
  1
{\Fromans.shx|c0;\C9;672 South Military Road\PFond du Lac, Wisconsin 54936 U.S.A.}
 73
     1
 44
1.0
  0
TEXT
  5
130
330
B2
100
AcDbEntity
  8
Title Block
  6
Continuous
 62
     2
100
AcDbText
 10
5.11882087560132
 20
2.036049281269597
 30
0.0
 40
0.0645465051491158
  1
of Danaher Motion, is
 50
0.0999999600000013
 41
0.6799434399999999
  7
AE
100
AcDbText
  0
TEXT
  5
131
330
B2
100
AcDbEntity
  8
Title Block
  6
Continuous
 62
     2
100
AcDbText
 10
5.117417134120477
 20
2.144627598463487
 30
0.0
 40
0.0645465051491158
  1
contains proprietary information
 50
0.0999999600000013
 41
0.7005041199999999
  7
AE
100
AcDbText
  0
TEXT
  5
132
330
B2
100
AcDbEntity
  8
Title Block
  6
Continuous
 62
     2
100
AcDbText
 10
5.12248893991202
 20
1.924616885729644
 30
0.0
 40
0.0645465051491158
  1
submitted in confidence on
 50
0.0999999600000013
 41
0.6605569100000001
  7
AE
100
AcDbText
  0
TEXT
  5
133
330
B2
100
AcDbEntity
  8
Title Block
  6
Continuous
 62
     2
100
AcDbText
 10
5.116796757515229
 20
1.81708586876793
 30
0.0
 40
0.0645465051491158
  1
condition that it will not be
 50
0.0999999600000013
 41
0.72234601
  7
AE
100
AcDbText
  0
TEXT
  5
134
330
B2
100
AcDbEntity
  8
Title Block
  6
Continuous
 62
     2
100
AcDbText
 10
5.114171255316859
 20
1.597796107226088
 30
0.0
 40
0.0645465051491158
  1
will be used only for your
 50
0.0999999600000013
 41
0.6799434399999999
  7
AE
100
AcDbText
  0
TEXT
  5
135
330
B2
100
AcDbEntity
  8
Title Block
  6
Continuous
 62
     2
100
AcDbText
 10
5.119489472122936
 20
1.489000640399515
 30
0.0
 40
0.0645465051491158
  1
information, and will not be used
 50
0.0999999600000013
 41
0.6605569100000001
  7
AE
100
AcDbText
  0
TEXT
  5
136
330
B2
100
AcDbEntity
  8
Title Block
  6
Continuous
 62
     2
100
AcDbText
 10
5.117399491933456
 20
1.378476657741246
 30
0.0
 40
0.0645465051491158
  1
or disclosed to anyone except as
 50
0.0999999600000013
 41
0.6799434399999999
  7
AE
100
AcDbText
  0
TEXT
  5
137
330
B2
100
AcDbEntity
  8
Title Block
  6
Continuous
 62
     2
100
AcDbText
 10
5.115407251658092
 20
1.267047562975569
 30
0.0
 40
0.0645465051491158
  1
authorized by specific
 50
0.0999999600000013
 41
0.79688752
  7
AE
100
AcDbText
  0
TEXT
  5
138
330
B2
100
AcDbEntity
  8
Title Block
  6
Continuous
 62
     2
100
AcDbText
 10
5.11777350306262
 20
1.705466828073234
 30
0.0
 40
0.0645465051491158
  1
copied or otherwise reproduced,
 50
0.0999999600000013
 41
0.6799434399999999
  7
AE
100
AcDbText
  0
TEXT
  5
139
330
B2
100
AcDbEntity
  8
Title Block
  6
Continuous
 62
     2
100
AcDbText
 10
5.120512203560588
 20
2.252555955563673
 30
0.0
 40
0.0645465051491158
  1
NOTICE: This drawing or material
 50
0.0999999600000013
 41
0.7005041199999999
  7
AE
100
AcDbText
  0
TEXT
  5
13A
330
B2
100
AcDbEntity
  8
Title Block
  6
Continuous
 62
     2
100
AcDbText
 10
5.120968584433857
 20
1.159697406318199
 30
0.0
 40
0.0645465051491158
  1
written consent of
 50
0.0999999600000013
 41
0.79688752
  7
AE
100
AcDbText
  0
TEXT
  5
13B
330
B2
100
AcDbEntity
  8
Title Block
  6
Continuous
 62
     2
100
AcDbText
 10
5.118752260000006
 20
1.046875
 30
0.0
 40
0.0645465051491158
  1
Danaher Motion
 50
0.0999999600000013
 41
0.79688752
  7
AE
100
AcDbText
  0
ENDBLK
  5
13F
330
B2
100
AcDbEntity
  8
0
100
AcDbBlockEnd
  0
BLOCK
  5
555
330
54A
100
AcDbEntity
  8
0
100
AcDbBlockBegin
  2
*D3
 70
     1
 10
0.0
 20
0.0
 30
0.0
  3
*D3
  1

  0
LINE
  5
5B6
330
54A
100
AcDbEntity
  8
0
 62
     0
370
    -2
100
AcDbLine
 10
3.492004000000001
 20
6.463122829884833
 30
0.0
 11
1.996641058017623
 21
6.463122829884834
 31
0.0
  0
LINE
  5
5B7
330
54A
100
AcDbEntity
  8
0
 62
     0
370
    -2
100
AcDbLine
 10
3.1875
 20
4.260595829884834
 30
0.0
 11
1.996641058017622
 21
4.260595829884834
 31
0.0
  0
LINE
  5
5B8
330
54A
100
AcDbEntity
  8
0
 62
     0
370
    -2
100
AcDbLine
 10
2.176641058017623
 20
6.283122829884834
 30
0.0
 11
2.176641058017623
 21
5.541859329884833
 31
0.0
  0
LINE
  5
5B9
330
54A
100
AcDbEntity
  8
0
 62
     0
370
    -2
100
AcDbLine
 10
2.176641058017622
 20
4.440595829884833
 30
0.0
 11
2.176641058017623
 21
5.181859329884834
 31
0.0
  0
SOLID
  5
5BA
330
54A
100
AcDbEntity
  8
0
 62
     0
100
AcDbTrace
 10
2.146641058017623
 20
6.283122829884834
 30
0.0
 11
2.206641058017623
 21
6.283122829884834
 31
0.0
 12
2.176641058017623
 22
6.463122829884833
 32
0.0
 13
2.176641058017623
 23
6.463122829884833
 33
0.0
  0
SOLID
  5
5BB
330
54A
100
AcDbEntity
  8
0
 62
     0
100
AcDbTrace
 10
2.146641058017622
 20
4.440595829884833
 30
0.0
 11
2.206641058017622
 21
4.440595829884833
 31
0.0
 12
2.176641058017622
 22
4.260595829884834
 32
0.0
 13
2.176641058017622
 23
4.260595829884834
 33
0.0
  0
MTEXT
  5
5BC
330
54A
100
AcDbEntity
  8
0
 62
     0
100
AcDbMText
 10
2.176641058017622
 20
5.361859329884834
 30
0.0
 40
0.18
 41
0.0
 71
     5
 72
     1
  1
\A1;2.20
 73
     1
 44
1.0
  0
POINT
  5
5BD
330
54A
100
AcDbEntity
  8
Defpoints
 62
     0
100
AcDbPoint
 10
3.554504000000001
 20
6.463122829884833
 30
0.0
  0
POINT
  5
5BE
330
54A
100
AcDbEntity
  8
Defpoints
 62
     0
100
AcDbPoint
 10
3.25
 20
4.260595829884834
 30
0.0
  0
POINT
  5
5BF
330
54A
100
AcDbEntity
  8
Defpoints
 62
     0
100
AcDbPoint
 10
2.176641058017622
 20
4.260595829884834
 30
0.0
  0
ENDBLK
  5
556
330
54A
100
AcDbEntity
  8
0
100
AcDbBlockEnd
  0
BLOCK
  5
56F
330
564
100
AcDbEntity
  8
0
100
AcDbBlockBegin
  2
*D4
 70
     1
 10
0.0
 20
0.0
 30
0.0
  3
*D4
  1

  0
LINE
  5
5A2
330
564
100
AcDbEntity
  8
0
 62
     0
370
    -2
100
AcDbLine
 10
6.951686472049615
 20
6.861209720423691
 30
0.0
 11
6.951686472049615
 21
7.791813307834644
 31
0.0
  0
LINE
  5
5A3
330
564
100
AcDbEntity
  8
0
 62
     0
370
    -2
100
AcDbLine
 10
8.721586968231711
 20
6.861209652945991
 30
0.0
 11
8.721586968231711
 21
7.791813307834644
 31
0.0
  0
LINE
  5
5A4
330
564
100
AcDbEntity
  8
0
 62
     0
370
    -2
100
AcDbLine
 10
7.131686472049615
 20
7.611813307834644
 30
0.0
 11
7.506636720140663
 21
7.611813307834644
 31
0.0
  0
LINE
  5
5A5
330
564
100
AcDbEntity
  8
0
 62
     0
370
    -2
100
AcDbLine
 10
8.541586968231712
 20
7.611813307834644
 30
0.0
 11
8.166636720140663
 21
7.611813307834644
 31
0.0
  0
SOLID
  5
5A6
330
564
100
AcDbEntity
  8
0
 62
     0
100
AcDbTrace
 10
7.131686472049615
 20
7.641813307834644
 30
0.0
 11
7.131686472049615
 21
7.581813307834644
 31
0.0
 12
6.951686472049615
 22
7.611813307834644
 32
0.0
 13
6.951686472049615
 23
7.611813307834644
 33
0.0
  0
SOLID
  5
5A7
330
564
100
AcDbEntity
  8
0
 62
     0
100
AcDbTrace
 10
8.541586968231712
 20
7.641813307834644
 30
0.0
 11
8.541586968231712
 21
7.581813307834644
 31
0.0
 12
8.721586968231711
 22
7.611813307834644
 32
0.0
 13
8.721586968231711
 23
7.611813307834644
 33
0.0
  0
MTEXT
  5
5A8
330
564
100
AcDbEntity
  8
0
 62
     0
100
AcDbMText
 10
7.836636720140663
 20
7.611813307834644
 30
0.0
 40
0.18
 41
0.0
 71
     5
 72
     1
  1
\A1;1.77
 73
     1
 44
1.0
  0
POINT
  5
5A9
330
564
100
AcDbEntity
  8
Defpoints
 62
     0
100
AcDbPoint
 10
6.951686472049615
 20
6.798709720423691
 30
0.0
  0
POINT
  5
5AA
330
564
100
AcDbEntity
  8
Defpoints
 62
     0
100
AcDbPoint
 10
8.721586968231711
 20
6.798709652945991
 30
0.0
  0
POINT
  5
5AB
330
564
100
AcDbEntity
  8
Defpoints
 62
     0
100
AcDbPoint
 10
8.721586968231711
 20
7.611813307834644
 30
0.0
  0
ENDBLK
  5
570
330
564
100
AcDbEntity
  8
0
100
AcDbBlockEnd
  0
BLOCK
  5
589
330
57E
100
AcDbEntity
  8
0
100
AcDbBlockBegin
  2
*D5
 70
     1
 10
0.0
 20
0.0
 30
0.0
  3
*D5
  1

  0
LINE
  5
5AC
330
57E
100
AcDbEntity
  8
0
 62
     0
370
    -2
100
AcDbLine
 10
8.784086968231711
 20
6.798709652945991
 30
0.0
 11
9.933129913513562
 21
6.798709652945991
 31
0.0
  0
LINE
  5
5AD
330
57E
100
AcDbEntity
  8
0
 62
     0
370
    -2
100
AcDbLine
 10
8.784086968231711
 20
3.768709652945993
 30
0.0
 11
9.93312991351356
 21
3.768709652945993
 31
0.0
  0
LINE
  5
5AE
330
57E
100
AcDbEntity
  8
0
 62
     0
370
    -2
100
AcDbLine
 10
9.753129913513562
 20
6.618709652945991
 30
0.0
 11
9.753129913513562
 21
5.463709652945992
 31
0.0
  0
LINE
  5
5AF
330
57E
100
AcDbEntity
  8
0
 62
     0
370
    -2
100
AcDbLine
 10
9.753129913513561
 20
3.948709652945993
 30
0.0
 11
9.753129913513562
 21
5.103709652945992
 31
0.0
  0
SOLID
  5
5B0
330
57E
100
AcDbEntity
  8
0
 62
     0
100
AcDbTrace
 10
9.723129913513563
 20
6.618709652945991
 30
0.0
 11
9.783129913513562
 21
6.618709652945991
 31
0.0
 12
9.753129913513562
 22
6.798709652945991
 32
0.0
 13
9.753129913513562
 23
6.798709652945991
 33
0.0
  0
SOLID
  5
5B1
330
57E
100
AcDbEntity
  8
0
 62
     0
100
AcDbTrace
 10
9.723129913513561
 20
3.948709652945993
 30
0.0
 11
9.78312991351356
 21
3.948709652945993
 31
0.0
 12
9.753129913513561
 22
3.768709652945993
 32
0.0
 13
9.753129913513561
 23
3.768709652945993
 33
0.0
  0
MTEXT
  5
5B2
330
57E
100
AcDbEntity
  8
0
 62
     0
100
AcDbMText
 10
9.753129913513561
 20
5.283709652945993
 30
0.0
 40
0.18
 41
0.0
 71
     5
 72
     1
  1
\A1;3.03
 73
     1
 44
1.0
  0
POINT
  5
5B3
330
57E
100
AcDbEntity
  8
Defpoints
 62
     0
100
AcDbPoint
 10
8.721586968231711
 20
6.798709652945991
 30
0.0
  0
POINT
  5
5B4
330
57E
100
AcDbEntity
  8
Defpoints
 62
     0
100
AcDbPoint
 10
8.721586968231711
 20
3.768709652945993
 30
0.0
  0
POINT
  5
5B5
330
57E
100
AcDbEntity
  8
Defpoints
 62
     0
100
AcDbPoint
 10
9.753129913513561
 20
3.768709652945993
 30
0.0
  0
ENDBLK
  5
58A
330
57E
100
AcDbEntity
  8
0
100
AcDbBlockEnd
  0
ENDSEC
  0
SECTION
  2
ENTITIES
  0
INSERT
  5
140
330
1F
100
AcDbEntity
  8
0
100
AcDbBlockReference
 66
     1
  2
ASSEMBLY_A
 10
0.0
 20
0.0
 30
0.0
  0
ATTRIB
  5
142
330
140
100
AcDbEntity
  8
Title Block
  6
Continuous
 62
     2
100
AcDbText
 10
5.200002260000005
 20
0.6000000000000001
 30
0.0
 40
0.126326427375
  1
BREAKOUT BOX D9-S
 41
0.8
100
AcDbAttribute
  2
GEN-TITLE-DES1{15.54}
 70
     0
1001
GENIUS_GENBLLY_14
1000
BOR5
  0
ATTRIB
  5
143
330
140
100
AcDbEntity
  8
Title Block
  6
Continuous
 62
     2
100
AcDbText
 10
6.925002260000004
 20
1.024999999999999
 30
0.0
 40
0.1010611419
  1

100
AcDbAttribute
  2
GEN-TITLE-APPM{5}
 70
     0
1001
GENIUS_GENBLLY_14
1000
BOR2
1001
GENIUS_GENTRA_14
1002
{
1070
     3
1000
GENTRAPR,%s,(GENMSG gentitus 73)
1000
Approved by
1000
gb
1070
     0
1002
}
  0
ATTRIB
  5
144
330
140
100
AcDbEntity
  8
Title Block
  6
Continuous
 62
     2
100
AcDbText
 10
6.925002260000004
 20
1.274999999999999
 30
0.0
 40
0.1010611419
  1

100
AcDbAttribute
  2
GEN-TITLE-CHKM{5}
 70
     0
1001
GENIUS_GENBLLY_14
1000
BOR2
  0
ATTRIB
  5
145
330
140
100
AcDbEntity
  8
Title Block
  6
Continuous
 62
     2
100
AcDbText
 10
6.925002260000004
 20
1.524999999999999
 30
0.0
 40
0.1010611419
  1
G. MUMM
100
AcDbAttribute
  2
GEN-TITLE-NAME{5}
 70
     0
1001
GENIUS_GENBLLY_14
1000
BOR2
  0
ATTRIB
  5
146
330
140
100
AcDbEntity
  8
Title Block
  6
Continuous
 62
     2
100
AcDbText
 10
8.400002260000006
 20
0.5
 30
0.0
 40
0.196816573850279
  1
M.1016.2533
 41
0.8
100
AcDbAttribute
  2
GEN-TITLE-NR{13.37}
 70
     0
1001
GENIUS_GENBLLY_14
1000
BOR5
  0
ATTRIB
  5
147
330
140
100
AcDbEntity
  8
Title Block
  6
Continuous
 62
     2
100
AcDbText
 10
10.00000226
 20
1.024999999999999
 30
0.0
 40
0.11808994431015
  1
1
 41
0.8
100
AcDbAttribute
  2
GEN-TITLE-SHEET{2.62}
 70
     0
1001
GENIUS_GENBLLY_14
1000
BOR3
  0
ATTRIB
  5
148
330
140
100
AcDbEntity
  8
Title Block
  6
Continuous
 62
     2
100
AcDbText
 10
9.925002260000004
 20
1.274999999999999
 30
0.0
 40
0.1010611419
  1
07-SEPT-07
100
AcDbAttribute
  2
GEN-TITLE-PLOT{5}
 70
     0
1001
GENIUS_GENBLLY_14
1000
BOR2
  0
ATTRIB
  5
149
330
140
100
AcDbEntity
  8
Title Block
  6
Continuous
 62
     2
100
AcDbText
 10
10.40000226
 20
1.024999999999999
 30
0.0
 40
0.11808994431015
  1
1
 41
0.8
100
AcDbAttribute
  2
GEN-TITLE-SHEET-OF{2.62}
 70
     0
1001
GENIUS_GENBLLY_14
1000
BOR3
  0
ATTRIB
  5
14A
330
140
100
AcDbEntity
  8
Title Block
  6
Continuous
 62
     2
100
AcDbText
 10
8.450002260000005
 20
1.524999999999999
 30
0.0
 40
0.1010611419
  1

100
AcDbAttribute
  2
GEN-TITLE-REF{5}
 70
     0
1001
GENIUS_GENBLLY_14
1000
BOR2
  0
ATTRIB
  5
14B
330
140
100
AcDbEntity
  8
Title Block
  6
Continuous
 62
     2
100
AcDbText
 10
8.450002260000005
 20
1.274999999999999
 30
0.0
 40
0.1010611419
  1

100
AcDbAttribute
  2
GEN-TITLE-MACH{5}
 70
     0
1001
GENIUS_GENBLLY_14
1000
BOR2
  0
ATTRIB
  5
14C
330
140
100
AcDbEntity
  8
Title Block
  6
Continuous
 62
     2
100
AcDbText
 10
8.450002260000005
 20
1.024999999999999
 30
0.0
 40
0.1010611419
  1

 41
0.8
100
AcDbAttribute
  2
GEN-TITLE-MAT{11.15}
 70
     0
1001
GENIUS_GENBLLY_14
1000
BOR3
  0
SEQEND
  5
141
330
140
100
AcDbEntity
  8
0
  0
LWPOLYLINE
  5
352
330
1F
100
AcDbEntity
  8
0
100
AcDbPolyline
 90
       12
 70
     1
 43
0.0
 10
8.676586472049617
 20
6.671709720423692
 10
6.996686472049617
 20
6.671709720423692
 10
6.996686472049617
 20
6.161709720423692
 10
7.051686472049617
 20
6.161709720423692
 10
7.051686472049617
 20
4.400756720423693
 10
6.996686472049617
 20
4.400756720423693
 10
6.996686472049617
 20
3.895709720423692
 10
8.676586472049617
 20
3.895709720423692
 10
8.676586472049617
 20
4.405709720423692
 10
8.621586472049614
 20
4.405709720423692
 10
8.621586472049614
 20
6.161709720423692
 10
8.676586472049617
 20
6.161709720423692
  0
LWPOLYLINE
  5
353
330
1F
100
AcDbEntity
  8
0
100
AcDbPolyline
 90
       12
 70
     1
 43
0.0
 10
8.676586968231713
 20
6.671709652945992
 10
6.996686594518699
 20
6.671709652945992
 10
6.996686594518699
 20
6.16170965294599
 10
7.051686594518699
 20
6.16170965294599
 10
7.051686594518699
 20
4.400756357290603
 10
6.996686594518699
 20
4.400756357290603
 10
6.996686594518699
 20
3.895709652945988
 10
8.67658696823171
 20
3.895709652945992
 10
8.67658696823171
 20
4.405709652945994
 10
8.62158696823171
 20
4.405709652945994
 10
8.62158696823171
 20
6.16170965294599
 10
8.67658696823171
 20
6.16170965294599
  0
LWPOLYLINE
  5
354
102
{ACAD_REACTORS
330
57C
102
}
330
1F
100
AcDbEntity
  8
0
100
AcDbPolyline
 90
        4
 70
     1
 43
0.0
 10
6.951686472049615
 20
6.798709720423691
 10
6.951686472049615
 20
3.768709720423693
 10
8.721586472049615
 20
3.768709720423693
 10
8.721586472049615
 20
6.798709720423691
  0
LWPOLYLINE
  5
355
102
{ACAD_REACTORS
330
57C
330
596
102
}
330
1F
100
AcDbEntity
  8
0
100
AcDbPolyline
 90
        4
 70
     1
 43
0.0
 10
6.951686594518701
 20
6.798709652945991
 10
6.951686594518701
 20
3.76870965294599
 10
8.721586968231711
 20
3.768709652945993
 10
8.721586968231711
 20
6.798709652945991
  0
LINE
  5
356
330
1F
100
AcDbEntity
  8
0
100
AcDbLine
 10
4.990715999999999
 20
4.916044829884834
 30
0.0
 11
3.221636
 21
4.916044829884834
 31
0.0
  0
LINE
  5
357
330
1F
100
AcDbEntity
  8
0
100
AcDbLine
 10
4.990715999999999
 20
5.110902829884834
 30
0.0
 11
3.221636
 21
5.110902829884834
 31
0.0
  0
LINE
  5
358
330
1F
100
AcDbEntity
  8
0
100
AcDbLine
 10
4.990715999999999
 20
5.305759829884833
 30
0.0
 11
3.221636
 21
5.305759829884833
 31
0.0
  0
LINE
  5
359
330
1F
100
AcDbEntity
  8
0
100
AcDbLine
 10
3.221636
 20
4.703281829884834
 30
0.0
 11
4.990715999999999
 21
4.703281829884834
 31
0.0
  0
LINE
  5
35A
330
1F
100
AcDbEntity
  8
0
100
AcDbLine
 10
4.990716122469084
 20
4.916045214918796
 30
0.0
 11
3.221635927794796
 21
4.916045214918796
 31
0.0
  0
LINE
  5
35B
330
1F
100
AcDbEntity
  8
0
100
AcDbLine
 10
4.990716122469088
 20
5.11090238002371
 30
0.0
 11
3.221635927794796
 21
5.11090238002371
 31
0.0
  0
LINE
  5
35C
330
1F
100
AcDbEntity
  8
0
100
AcDbLine
 10
4.990716122469088
 20
5.305759545128624
 30
0.0
 11
3.221635927794796
 21
5.305759545128624
 31
0.0
  0
LINE
  5
35D
330
1F
100
AcDbEntity
  8
0
100
AcDbLine
 10
3.221635927794796
 20
4.703282256263702
 30
0.0
 11
4.990716122469088
 21
4.703282256263702
 31
0.0
  0
LINE
  5
35E
330
1F
100
AcDbEntity
  8
0
100
AcDbLine
 10
4.182305000000003
 20
4.260595829884834
 30
0.0
 11
4.962352000000002
 21
4.260595829884834
 31
0.0
  0
LINE
  5
35F
330
1F
100
AcDbEntity
  8
0
100
AcDbLine
 10
4.182305000000003
 20
4.407233829884834
 30
0.0
 11
4.962352000000002
 21
4.407233829884834
 31
0.0
  0
LINE
  5
360
330
1F
100
AcDbEntity
  8
0
100
AcDbLine
 10
4.182304609924262
 20
4.260595935077104
 30
0.0
 11
4.962351931914586
 21
4.260595935077104
 31
0.0
  0
LINE
  5
361
330
1F
100
AcDbEntity
  8
0
100
AcDbLine
 10
4.182304609924262
 20
4.407233567119291
 30
0.0
 11
4.962351931914586
 21
4.407233567119291
 31
0.0
  0
LINE
  5
362
330
1F
100
AcDbEntity
  8
0
100
AcDbLine
 10
4.029887999999999
 20
4.260595829884834
 30
0.0
 11
4.029887999999999
 21
4.703185829884834
 31
0.0
  0
LINE
  5
363
330
1F
100
AcDbEntity
  8
0
100
AcDbLine
 10
3.25
 20
4.260595829884834
 30
0.0
 11
3.25
 21
4.703185829884834
 31
0.0
  0
LINE
  5
364
330
1F
100
AcDbEntity
  8
0
100
AcDbLine
 10
4.182464000000003
 20
4.260595829884834
 30
0.0
 11
4.182464000000003
 21
4.703185829884834
 31
0.0
  0
LINE
  5
365
330
1F
100
AcDbEntity
  8
0
100
AcDbLine
 10
4.029888165686049
 20
4.260595935077104
 30
0.0
 11
4.029888165686049
 21
4.70318604811723
 31
0.0
  0
LINE
  5
366
330
1F
100
AcDbEntity
  8
0
100
AcDbLine
 10
3.250000118349294
 20
4.260595935077104
 30
0.0
 11
3.250000118349294
 21
4.70318604811723
 31
0.0
  0
LINE
  5
367
330
1F
100
AcDbEntity
  8
0
100
AcDbLine
 10
4.182463884577831
 20
4.260595935077104
 30
0.0
 11
4.182463884577831
 21
4.70318604811723
 31
0.0
  0
TEXT
  5
368
330
1F
100
AcDbEntity
  8
0
100
AcDbText
 10
3.373395000000002
 20
3.362181829884834
 30
0.0
 40
0.1
  1
PART NO. M.1016.2533
  7
ROMANS
100
AcDbText
  0
TEXT
  5
369
330
1F
100
AcDbEntity
  8
0
100
AcDbText
 10
3.372499999999998
 20
3.570208829884833
 30
0.0
 40
0.1
  1
D9 SUB/S 
  7
ROMANS
100
AcDbText
  0
LINE
  5
36A
330
1F
100
AcDbEntity
  8
0
100
AcDbLine
 10
4.030046999999999
 20
4.407233829884834
 30
0.0
 11
3.25
 21
4.407233829884834
 31
0.0
  0
LINE
  5
36B
102
{ACAD_REACTORS
330
562
102
}
330
1F
100
AcDbEntity
  8
0
100
AcDbLine
 10
4.030046999999999
 20
4.260595829884834
 30
0.0
 11
3.25
 21
4.260595829884834
 31
0.0
  0
LINE
  5
36E
330
1F
100
AcDbEntity
  8
0
100
AcDbLine
 10
4.030047440339618
 20
4.407233567119291
 30
0.0
 11
3.250000118349294
 21
4.407233567119291
 31
0.0
  0
LINE
  5
36F
330
1F
100
AcDbEntity
  8
0
100
AcDbLine
 10
4.030047440339618
 20
4.260595935077104
 30
0.0
 11
3.250000118349294
 21
4.260595935077104
 31
0.0
  0
LINE
  5
370
330
1F
100
AcDbEntity
  8
0
100
AcDbLine
 10
3.654504000000002
 20
5.965031829884833
 30
0.0
 11
3.654504000000002
 21
5.305759829884833
 31
0.0
  0
LINE
  5
371
330
1F
100
AcDbEntity
  8
0
100
AcDbLine
 10
3.554504000000001
 20
6.463122829884833
 30
0.0
 11
3.554504000000001
 21
5.305759829884833
 31
0.0
  0
LINE
  5
372
330
1F
100
AcDbEntity
  8
0
100
AcDbLine
 10
4.254504
 20
5.965031829884833
 30
0.0
 11
4.254504
 21
5.305759829884833
 31
0.0
  0
LINE
  5
373
330
1F
100
AcDbEntity
  8
0
100
AcDbLine
 10
4.154504000000002
 20
6.463122829884833
 30
0.0
 11
4.154504000000002
 21
5.965031829884833
 31
0.0
  0
LINE
  5
374
330
1F
100
AcDbEntity
  8
0
100
AcDbLine
 10
4.654504000000002
 20
5.965031829884833
 30
0.0
 11
4.654504000000002
 21
5.305759829884833
 31
0.0
  0
LINE
  5
375
330
1F
100
AcDbEntity
  8
0
100
AcDbLine
 10
4.554504000000001
 20
6.463122829884833
 30
0.0
 11
4.554504000000001
 21
5.965031829884833
 31
0.0
  0
LINE
  5
376
330
1F
100
AcDbEntity
  8
0
100
AcDbLine
 10
4.547816
 20
4.703281829884834
 30
0.0
 11
4.547816
 21
5.305759829884833
 31
0.0
  0
LINE
  5
377
330
1F
100
AcDbEntity
  8
0
100
AcDbLine
 10
3.664536000000001
 20
4.703281829884834
 30
0.0
 11
3.664536000000001
 21
5.305759829884833
 31
0.0
  0
TEXT
  5
378
330
1F
100
AcDbEntity
  8
0
100
AcDbText
 10
3.621047
 20
6.262721829884834
 30
0.0
 40
0.08
  1
1
  7
ROMANS
100
AcDbText
  0
TEXT
  5
379
330
1F
100
AcDbEntity
  8
0
100
AcDbText
 10
3.821047
 20
6.262721829884834
 30
0.0
 40
0.08
  1
2
  7
ROMANS
100
AcDbText
  0
TEXT
  5
37A
330
1F
100
AcDbEntity
  8
0
100
AcDbText
 10
4.021046999999999
 20
6.262721829884834
 30
0.0
 40
0.08
  1
3
  7
ROMANS
100
AcDbText
  0
TEXT
  5
37B
330
1F
100
AcDbEntity
  8
0
100
AcDbText
 10
4.221047000000002
 20
6.262721829884834
 30
0.0
 40
0.08
  1
4
  7
ROMANS
100
AcDbText
  0
TEXT
  5
37C
330
1F
100
AcDbEntity
  8
0
100
AcDbText
 10
4.421047000000001
 20
6.262721829884834
 30
0.0
 40
0.08
  1
5
  7
ROMANS
100
AcDbText
  0
TEXT
  5
37D
330
1F
100
AcDbEntity
  8
0
100
AcDbText
 10
3.713080000000001
 20
5.767054829884833
 30
0.0
 40
0.08
  1
6
  7
ROMANS
100
AcDbText
  0
TEXT
  5
37E
330
1F
100
AcDbEntity
  8
0
100
AcDbText
 10
3.91308
 20
5.767054829884833
 30
0.0
 40
0.08
  1
7
  7
ROMANS
100
AcDbText
  0
TEXT
  5
37F
330
1F
100
AcDbEntity
  8
0
100
AcDbText
 10
4.113080000000003
 20
5.767054829884833
 30
0.0
 40
0.08
  1
8
  7
ROMANS
100
AcDbText
  0
TEXT
  5
380
330
1F
100
AcDbEntity
  8
0
100
AcDbText
 10
4.313080000000002
 20
5.767054829884833
 30
0.0
 40
0.08
  1
9
  7
ROMANS
100
AcDbText
  0
LINE
  5
381
330
1F
100
AcDbEntity
  8
0
100
AcDbLine
 10
3.696283000000001
 20
6.084649829884834
 30
0.0
 11
3.696283000000001
 21
6.131617829884834
 31
0.0
  0
LINE
  5
382
330
1F
100
AcDbEntity
  8
0
100
AcDbLine
 10
3.616571000000003
 20
6.131617829884834
 30
0.0
 11
3.616571000000003
 21
6.084649829884834
 31
0.0
  0
LINE
  5
383
330
1F
100
AcDbEntity
  8
0
100
AcDbLine
 10
3.578067
 20
6.132596829884834
 30
0.0
 11
3.734788000000001
 21
6.132596829884834
 31
0.0
  0
LINE
  5
384
330
1F
100
AcDbEntity
  8
0
100
AcDbLine
 10
3.616571000000003
 20
6.084649829884834
 30
0.0
 11
3.696283000000001
 21
6.084649829884834
 31
0.0
  0
LINE
  5
385
330
1F
100
AcDbEntity
  8
0
100
AcDbLine
 10
3.734788000000001
 20
6.132596829884834
 30
0.0
 11
3.734788000000001
 21
5.965031829884833
 31
0.0
  0
LINE
  5
386
330
1F
100
AcDbEntity
  8
0
100
AcDbLine
 10
3.578067
 20
5.909257829884833
 30
0.0
 11
3.578067
 21
6.132596829884834
 31
0.0
  0
LINE
  5
387
330
1F
100
AcDbEntity
  8
0
100
AcDbLine
 10
3.7164
 20
5.557974829884833
 30
0.0
 11
3.796112000000004
 21
5.557974829884833
 31
0.0
  0
LINE
  5
388
330
1F
100
AcDbEntity
  8
0
100
AcDbLine
 10
3.834617000000001
 20
5.605921829884834
 30
0.0
 11
3.834617000000001
 21
5.388693829884833
 31
0.0
  0
LINE
  5
389
330
1F
100
AcDbEntity
  8
0
100
AcDbLine
 10
3.7164
 20
5.604942829884834
 30
0.0
 11
3.7164
 21
5.557974829884833
 31
0.0
  0
LINE
  5
38A
330
1F
100
AcDbEntity
  8
0
100
AcDbLine
 10
3.796112000000004
 20
5.557974829884833
 30
0.0
 11
3.796112000000004
 21
5.604942829884834
 31
0.0
  0
LINE
  5
38B
330
1F
100
AcDbEntity
  8
0
100
AcDbLine
 10
3.677896000000004
 20
5.388693829884833
 30
0.0
 11
3.677896000000004
 21
5.605921829884834
 31
0.0
  0
LINE
  5
38C
330
1F
100
AcDbEntity
  8
0
100
AcDbLine
 10
3.834617000000001
 20
5.388693829884833
 30
0.0
 11
3.677896000000004
 21
5.388693829884833
 31
0.0
  0
LINE
  5
38D
330
1F
100
AcDbEntity
  8
0
100
AcDbLine
 10
3.677896000000004
 20
5.605921829884834
 30
0.0
 11
3.834617000000001
 21
5.605921829884834
 31
0.0
  0
LINE
  5
38E
330
1F
100
AcDbEntity
  8
0
100
AcDbLine
 10
3.896283
 20
6.084649829884834
 30
0.0
 11
3.896283
 21
6.131617829884834
 31
0.0
  0
LINE
  5
38F
330
1F
100
AcDbEntity
  8
0
100
AcDbLine
 10
3.816571000000003
 20
6.131617829884834
 30
0.0
 11
3.816571000000003
 21
6.084649829884834
 31
0.0
  0
LINE
  5
390
330
1F
100
AcDbEntity
  8
0
100
AcDbLine
 10
3.778067
 20
6.132596829884834
 30
0.0
 11
3.934788000000001
 21
6.132596829884834
 31
0.0
  0
LINE
  5
391
330
1F
100
AcDbEntity
  8
0
100
AcDbLine
 10
3.816571000000003
 20
6.084649829884834
 30
0.0
 11
3.896283
 21
6.084649829884834
 31
0.0
  0
LINE
  5
392
330
1F
100
AcDbEntity
  8
0
100
AcDbLine
 10
3.934788000000001
 20
6.132596829884834
 30
0.0
 11
3.934788000000001
 21
5.965031829884833
 31
0.0
  0
LINE
  5
393
330
1F
100
AcDbEntity
  8
0
100
AcDbLine
 10
3.778067
 20
5.965031829884833
 30
0.0
 11
3.778067
 21
6.132596829884834
 31
0.0
  0
LINE
  5
394
330
1F
100
AcDbEntity
  8
0
100
AcDbLine
 10
3.916399999999999
 20
5.557974829884833
 30
0.0
 11
3.996112000000003
 21
5.557974829884833
 31
0.0
  0
LINE
  5
395
330
1F
100
AcDbEntity
  8
0
100
AcDbLine
 10
4.034617
 20
5.605921829884834
 30
0.0
 11
4.034617
 21
5.388693829884833
 31
0.0
  0
LINE
  5
396
330
1F
100
AcDbEntity
  8
0
100
AcDbLine
 10
3.916399999999999
 20
5.604942829884834
 30
0.0
 11
3.916399999999999
 21
5.557974829884833
 31
0.0
  0
LINE
  5
397
330
1F
100
AcDbEntity
  8
0
100
AcDbLine
 10
3.996112000000003
 20
5.557974829884833
 30
0.0
 11
3.996112000000003
 21
5.604942829884834
 31
0.0
  0
LINE
  5
398
330
1F
100
AcDbEntity
  8
0
100
AcDbLine
 10
3.877896000000003
 20
5.388693829884833
 30
0.0
 11
3.877896000000003
 21
5.605921829884834
 31
0.0
  0
LINE
  5
399
330
1F
100
AcDbEntity
  8
0
100
AcDbLine
 10
4.034617
 20
5.388693829884833
 30
0.0
 11
3.877896000000003
 21
5.388693829884833
 31
0.0
  0
LINE
  5
39A
330
1F
100
AcDbEntity
  8
0
100
AcDbLine
 10
3.877896000000003
 20
5.605921829884834
 30
0.0
 11
4.034617
 21
5.605921829884834
 31
0.0
  0
LINE
  5
39B
330
1F
100
AcDbEntity
  8
0
100
AcDbLine
 10
4.096283000000003
 20
6.084649829884834
 30
0.0
 11
4.096283000000003
 21
6.131617829884834
 31
0.0
  0
LINE
  5
39C
330
1F
100
AcDbEntity
  8
0
100
AcDbLine
 10
4.016571000000002
 20
6.131617829884834
 30
0.0
 11
4.016571000000002
 21
6.084649829884834
 31
0.0
  0
LINE
  5
39D
330
1F
100
AcDbEntity
  8
0
100
AcDbLine
 10
3.978067000000002
 20
6.132596829884834
 30
0.0
 11
4.134788
 21
6.132596829884834
 31
0.0
  0
LINE
  5
39E
330
1F
100
AcDbEntity
  8
0
100
AcDbLine
 10
4.016571000000002
 20
6.084649829884834
 30
0.0
 11
4.096283000000003
 21
6.084649829884834
 31
0.0
  0
LINE
  5
39F
330
1F
100
AcDbEntity
  8
0
100
AcDbLine
 10
4.134788
 20
6.132596829884834
 30
0.0
 11
4.134788
 21
5.965031829884833
 31
0.0
  0
LINE
  5
3A0
330
1F
100
AcDbEntity
  8
0
100
AcDbLine
 10
3.978067000000002
 20
5.965031829884833
 30
0.0
 11
3.978067000000002
 21
6.132596829884834
 31
0.0
  0
LINE
  5
3A1
330
1F
100
AcDbEntity
  8
0
100
AcDbLine
 10
4.116399999999998
 20
5.557974829884833
 30
0.0
 11
4.196112000000002
 21
5.557974829884833
 31
0.0
  0
LINE
  5
3A2
330
1F
100
AcDbEntity
  8
0
100
AcDbLine
 10
4.234617
 20
5.605921829884834
 30
0.0
 11
4.234617
 21
5.388693829884833
 31
0.0
  0
LINE
  5
3A3
330
1F
100
AcDbEntity
  8
0
100
AcDbLine
 10
4.116399999999998
 20
5.604942829884834
 30
0.0
 11
4.116399999999998
 21
5.557974829884833
 31
0.0
  0
LINE
  5
3A4
330
1F
100
AcDbEntity
  8
0
100
AcDbLine
 10
4.196112000000002
 20
5.557974829884833
 30
0.0
 11
4.196112000000002
 21
5.604942829884834
 31
0.0
  0
LINE
  5
3A5
330
1F
100
AcDbEntity
  8
0
100
AcDbLine
 10
4.077896000000002
 20
5.388693829884833
 30
0.0
 11
4.077896000000002
 21
5.605921829884834
 31
0.0
  0
LINE
  5
3A6
330
1F
100
AcDbEntity
  8
0
100
AcDbLine
 10
4.234617
 20
5.388693829884833
 30
0.0
 11
4.077896000000002
 21
5.388693829884833
 31
0.0
  0
LINE
  5
3A7
330
1F
100
AcDbEntity
  8
0
100
AcDbLine
 10
4.077896000000002
 20
5.605921829884834
 30
0.0
 11
4.234617
 21
5.605921829884834
 31
0.0
  0
LINE
  5
3A8
330
1F
100
AcDbEntity
  8
0
100
AcDbLine
 10
4.296283000000002
 20
6.084649829884834
 30
0.0
 11
4.296283000000002
 21
6.131617829884834
 31
0.0
  0
LINE
  5
3A9
330
1F
100
AcDbEntity
  8
0
100
AcDbLine
 10
4.216571000000001
 20
6.131617829884834
 30
0.0
 11
4.216571000000001
 21
6.084649829884834
 31
0.0
  0
LINE
  5
3AA
330
1F
100
AcDbEntity
  8
0
100
AcDbLine
 10
4.178067000000002
 20
6.132596829884834
 30
0.0
 11
4.334787999999999
 21
6.132596829884834
 31
0.0
  0
LINE
  5
3AB
330
1F
100
AcDbEntity
  8
0
100
AcDbLine
 10
4.216571000000001
 20
6.084649829884834
 30
0.0
 11
4.296283000000002
 21
6.084649829884834
 31
0.0
  0
LINE
  5
3AC
330
1F
100
AcDbEntity
  8
0
100
AcDbLine
 10
4.334787999999999
 20
6.132596829884834
 30
0.0
 11
4.334787999999999
 21
5.965031829884833
 31
0.0
  0
LINE
  5
3AD
330
1F
100
AcDbEntity
  8
0
100
AcDbLine
 10
4.178067000000002
 20
5.965031829884833
 30
0.0
 11
4.178067000000002
 21
6.132596829884834
 31
0.0
  0
LINE
  5
3AE
330
1F
100
AcDbEntity
  8
0
100
AcDbLine
 10
4.316400000000001
 20
5.557974829884833
 30
0.0
 11
4.396112000000002
 21
5.557974829884833
 31
0.0
  0
LINE
  5
3AF
330
1F
100
AcDbEntity
  8
0
100
AcDbLine
 10
4.434617000000002
 20
5.605921829884834
 30
0.0
 11
4.434617000000002
 21
5.388693829884833
 31
0.0
  0
LINE
  5
3B0
330
1F
100
AcDbEntity
  8
0
100
AcDbLine
 10
4.316400000000001
 20
5.604942829884834
 30
0.0
 11
4.316400000000001
 21
5.557974829884833
 31
0.0
  0
LINE
  5
3B1
330
1F
100
AcDbEntity
  8
0
100
AcDbLine
 10
4.396112000000002
 20
5.557974829884833
 30
0.0
 11
4.396112000000002
 21
5.604942829884834
 31
0.0
  0
LINE
  5
3B2
330
1F
100
AcDbEntity
  8
0
100
AcDbLine
 10
4.277896000000001
 20
5.388693829884833
 30
0.0
 11
4.277896000000001
 21
5.605921829884834
 31
0.0
  0
LINE
  5
3B3
330
1F
100
AcDbEntity
  8
0
100
AcDbLine
 10
4.434617000000002
 20
5.388693829884833
 30
0.0
 11
4.277896000000001
 21
5.388693829884833
 31
0.0
  0
LINE
  5
3B4
330
1F
100
AcDbEntity
  8
0
100
AcDbLine
 10
4.277896000000001
 20
5.605921829884834
 30
0.0
 11
4.434617000000002
 21
5.605921829884834
 31
0.0
  0
LINE
  5
3B5
330
1F
100
AcDbEntity
  8
0
100
AcDbLine
 10
4.496283000000001
 20
6.084649829884834
 30
0.0
 11
4.496283000000001
 21
6.131617829884834
 31
0.0
  0
LINE
  5
3B6
330
1F
100
AcDbEntity
  8
0
100
AcDbLine
 10
4.416571000000001
 20
6.131617829884834
 30
0.0
 11
4.416571000000001
 21
6.084649829884834
 31
0.0
  0
LINE
  5
3B7
330
1F
100
AcDbEntity
  8
0
100
AcDbLine
 10
4.378067000000001
 20
6.132596829884834
 30
0.0
 11
4.534788000000002
 21
6.132596829884834
 31
0.0
  0
LINE
  5
3B8
330
1F
100
AcDbEntity
  8
0
100
AcDbLine
 10
4.416571000000001
 20
6.084649829884834
 30
0.0
 11
4.496283000000001
 21
6.084649829884834
 31
0.0
  0
LINE
  5
3B9
330
1F
100
AcDbEntity
  8
0
100
AcDbLine
 10
4.534788000000002
 20
6.132596829884834
 30
0.0
 11
4.534788000000002
 21
5.965031829884833
 31
0.0
  0
LINE
  5
3BA
330
1F
100
AcDbEntity
  8
0
100
AcDbLine
 10
4.378067000000001
 20
5.965031829884833
 30
0.0
 11
4.378067000000001
 21
6.132596829884834
 31
0.0
  0
LINE
  5
3BB
330
1F
100
AcDbEntity
  8
0
100
AcDbLine
 10
4.5164
 20
5.557974829884833
 30
0.0
 11
4.596112000000001
 21
5.557974829884833
 31
0.0
  0
LINE
  5
3BC
330
1F
100
AcDbEntity
  8
0
100
AcDbLine
 10
4.634617000000002
 20
5.605921829884834
 30
0.0
 11
4.634617000000002
 21
5.388693829884833
 31
0.0
  0
LINE
  5
3BD
330
1F
100
AcDbEntity
  8
0
100
AcDbLine
 10
4.5164
 20
5.604942829884834
 30
0.0
 11
4.5164
 21
5.557974829884833
 31
0.0
  0
LINE
  5
3BE
330
1F
100
AcDbEntity
  8
0
100
AcDbLine
 10
4.596112000000001
 20
5.557974829884833
 30
0.0
 11
4.596112000000001
 21
5.604942829884834
 31
0.0
  0
LINE
  5
3BF
330
1F
100
AcDbEntity
  8
0
100
AcDbLine
 10
4.477896000000001
 20
5.388693829884833
 30
0.0
 11
4.477896000000001
 21
5.605921829884834
 31
0.0
  0
LINE
  5
3C0
330
1F
100
AcDbEntity
  8
0
100
AcDbLine
 10
4.634617000000002
 20
5.388693829884833
 30
0.0
 11
4.477896000000001
 21
5.388693829884833
 31
0.0
  0
LINE
  5
3C1
330
1F
100
AcDbEntity
  8
0
100
AcDbLine
 10
4.477896000000001
 20
5.605921829884834
 30
0.0
 11
4.634617000000002
 21
5.605921829884834
 31
0.0
  0
LINE
  5
3C2
330
1F
100
AcDbEntity
  8
0
100
AcDbLine
 10
3.221636
 20
4.703281829884834
 30
0.0
 11
3.221636
 21
5.305759829884833
 31
0.0
  0
LINE
  5
3C3
330
1F
100
AcDbEntity
  8
0
100
AcDbLine
 10
4.550226000000002
 20
5.868980829884834
 30
0.0
 11
4.550226000000002
 21
5.802183829884834
 31
0.0
  0
LINE
  5
3C4
330
1F
100
AcDbEntity
  8
0
100
AcDbLine
 10
4.544246000000001
 20
5.752183829884834
 30
0.0
 11
4.556207
 21
5.752183829884834
 31
0.0
  0
LINE
  5
3C5
330
1F
100
AcDbEntity
  8
0
100
AcDbLine
 10
4.522236000000003
 20
5.777183829884834
 30
0.0
 11
4.578216000000001
 21
5.777183829884834
 31
0.0
  0
LINE
  5
3C6
330
1F
100
AcDbEntity
  8
0
100
AcDbLine
 10
4.500226000000001
 20
5.802183829884834
 30
0.0
 11
4.600226000000002
 21
5.802183829884834
 31
0.0
  0
LINE
  5
3C7
330
1F
100
AcDbEntity
  8
0
100
AcDbLine
 10
3.554504000000001
 20
6.208711829884834
 30
0.0
 11
4.554504000000001
 21
6.208711829884834
 31
0.0
  0
LINE
  5
3C8
330
1F
100
AcDbEntity
  8
0
100
AcDbLine
 10
3.554504000000001
 20
6.404901829884834
 30
0.0
 11
4.554504000000001
 21
6.404901829884834
 31
0.0
  0
LINE
  5
3C9
102
{ACAD_REACTORS
330
562
102
}
330
1F
100
AcDbEntity
  8
0
100
AcDbLine
 10
3.554504000000001
 20
6.463122829884833
 30
0.0
 11
4.554504000000001
 21
6.463122829884833
 31
0.0
  0
LINE
  5
3CA
330
1F
100
AcDbEntity
  8
0
100
AcDbLine
 10
3.654504000000002
 20
5.965031829884833
 30
0.0
 11
4.654504000000002
 21
5.965031829884833
 31
0.0
  0
LINE
  5
3CB
330
1F
100
AcDbEntity
  8
0
100
AcDbLine
 10
3.578067
 20
5.909257829884833
 30
0.0
 11
4.654504000000002
 21
5.909257829884833
 31
0.0
  0
LINE
  5
3CC
330
1F
100
AcDbEntity
  8
0
100
AcDbLine
 10
3.654504000000002
 20
5.717959829884834
 30
0.0
 11
4.654504000000002
 21
5.717959829884834
 31
0.0
  0
LINE
  5
3CD
330
1F
100
AcDbEntity
  8
0
100
AcDbLine
 10
3.654504256002603
 20
5.965032245674257
 30
0.0
 11
3.654504256002606
 21
5.305759545128624
 31
0.0
  0
LINE
  5
3CE
330
1F
100
AcDbEntity
  8
0
100
AcDbLine
 10
3.554504256002605
 20
6.463122587716732
 30
0.0
 11
3.554504256002605
 21
5.305759545128625
 31
0.0
  0
LINE
  5
3CF
330
1F
100
AcDbEntity
  8
0
100
AcDbLine
 10
4.254504256002604
 20
5.965032245674257
 30
0.0
 11
4.254504256002604
 21
5.305759545128624
 31
0.0
  0
LINE
  5
3D0
330
1F
100
AcDbEntity
  8
0
100
AcDbLine
 10
4.154504256002603
 20
6.463122587716731
 30
0.0
 11
4.154504256002606
 21
5.965032245674257
 31
0.0
  0
LINE
  5
3D1
330
1F
100
AcDbEntity
  8
0
100
AcDbLine
 10
4.654504256002603
 20
5.965032245674257
 30
0.0
 11
4.654504256002603
 21
5.305759545128624
 31
0.0
  0
LINE
  5
3D2
330
1F
100
AcDbEntity
  8
0
100
AcDbLine
 10
4.554504256002601
 20
6.463122587716731
 30
0.0
 11
4.554504256002605
 21
5.965032245674257
 31
0.0
  0
LINE
  5
3D3
330
1F
100
AcDbEntity
  8
0
100
AcDbLine
 10
4.547816122469086
 20
4.703282256263702
 30
0.0
 11
4.547816122469086
 21
5.305759545128624
 31
0.0
  0
LINE
  5
3D4
330
1F
100
AcDbEntity
  8
0
100
AcDbLine
 10
3.664535927794794
 20
4.703282256263702
 30
0.0
 11
3.664535927794794
 21
5.305759545128624
 31
0.0
  0
TEXT
  5
3D5
330
1F
100
AcDbEntity
  8
0
100
AcDbText
 10
3.621046532366371
 20
6.262721816422732
 30
0.0
 40
0.08
  1
1
  7
ROMANS
100
AcDbText
  0
TEXT
  5
3D6
330
1F
100
AcDbEntity
  8
0
100
AcDbText
 10
3.821046532366374
 20
6.262721816422732
 30
0.0
 40
0.08
  1
2
  7
ROMANS
100
AcDbText
  0
TEXT
  5
3D7
330
1F
100
AcDbEntity
  8
0
100
AcDbText
 10
4.021046532366373
 20
6.262721816422732
 30
0.0
 40
0.08
  1
3
  7
ROMANS
100
AcDbText
  0
TEXT
  5
3D8
330
1F
100
AcDbEntity
  8
0
100
AcDbText
 10
4.221046532366372
 20
6.262721816422732
 30
0.0
 40
0.08
  1
4
  7
ROMANS
100
AcDbText
  0
TEXT
  5
3D9
330
1F
100
AcDbEntity
  8
0
100
AcDbText
 10
4.421046532366371
 20
6.262721816422732
 30
0.0
 40
0.08
  1
5
  7
ROMANS
100
AcDbText
  0
TEXT
  5
3DA
330
1F
100
AcDbEntity
  8
0
100
AcDbText
 10
3.713079500498423
 20
5.767055108749707
 30
0.0
 40
0.08
  1
6
  7
ROMANS
100
AcDbText
  0
TEXT
  5
3DB
330
1F
100
AcDbEntity
  8
0
100
AcDbText
 10
3.913079500498426
 20
5.767055108749707
 30
0.0
 40
0.08
  1
7
  7
ROMANS
100
AcDbText
  0
TEXT
  5
3DC
330
1F
100
AcDbEntity
  8
0
100
AcDbText
 10
4.113079500498422
 20
5.767055108749707
 30
0.0
 40
0.08
  1
8
  7
ROMANS
100
AcDbText
  0
TEXT
  5
3DD
330
1F
100
AcDbEntity
  8
0
100
AcDbText
 10
4.313079500498425
 20
5.767055108749707
 30
0.0
 40
0.08
  1
9
  7
ROMANS
100
AcDbText
  0
LINE
  5
3DE
330
1F
100
AcDbEntity
  8
0
100
AcDbLine
 10
3.696282858814271
 20
6.084650123922238
 30
0.0
 11
3.696282858814271
 21
6.131618304479462
 31
0.0
  0
LINE
  5
3DF
330
1F
100
AcDbEntity
  8
0
100
AcDbLine
 10
3.616571348769184
 20
6.131618304479462
 30
0.0
 11
3.616571348769184
 21
6.084650123922238
 31
0.0
  0
LINE
  5
3E0
330
1F
100
AcDbEntity
  8
0
100
AcDbLine
 10
3.578066636289783
 20
6.13259680824107
 30
0.0
 11
3.734787571293672
 21
6.13259680824107
 31
0.0
  0
LINE
  5
3E1
330
1F
100
AcDbEntity
  8
0
100
AcDbLine
 10
3.616571348769184
 20
6.084650123922238
 30
0.0
 11
3.696282858814271
 21
6.084650123922238
 31
0.0
  0
LINE
  5
3E2
330
1F
100
AcDbEntity
  8
0
100
AcDbLine
 10
3.734787571293672
 20
6.13259680824107
 30
0.0
 11
3.734787571293672
 21
5.965032245674257
 31
0.0
  0
LINE
  5
3E3
330
1F
100
AcDbEntity
  8
0
100
AcDbLine
 10
3.578066636289783
 20
5.909257531262555
 30
0.0
 11
3.578066636289783
 21
6.13259680824107
 31
0.0
  0
LINE
  5
3E4
330
1F
100
AcDbEntity
  8
0
100
AcDbLine
 10
3.716400419413577
 20
5.557974680844988
 30
0.0
 11
3.796111929458664
 21
5.557974680844988
 31
0.0
  0
LINE
  5
3E5
330
1F
100
AcDbEntity
  8
0
100
AcDbLine
 10
3.834616641938065
 20
5.60592136516382
 30
0.0
 11
3.834616641938065
 21
5.388693530086661
 31
0.0
  0
LINE
  5
3E6
330
1F
100
AcDbEntity
  8
0
100
AcDbLine
 10
3.716400419413577
 20
5.60494286140221
 30
0.0
 11
3.716400419413577
 21
5.557974680844988
 31
0.0
  0
LINE
  5
3E7
330
1F
100
AcDbEntity
  8
0
100
AcDbLine
 10
3.796111929458664
 20
5.557974680844988
 30
0.0
 11
3.796111929458664
 21
5.60494286140221
 31
0.0
  0
LINE
  5
3E8
330
1F
100
AcDbEntity
  8
0
100
AcDbLine
 10
3.677895706934176
 20
5.388693530086661
 30
0.0
 11
3.677895706934176
 21
5.60592136516382
 31
0.0
  0
LINE
  5
3E9
330
1F
100
AcDbEntity
  8
0
100
AcDbLine
 10
3.834616641938065
 20
5.388693530086661
 30
0.0
 11
3.677895706934176
 21
5.388693530086661
 31
0.0
  0
LINE
  5
3EA
330
1F
100
AcDbEntity
  8
0
100
AcDbLine
 10
3.677895706934176
 20
5.60592136516382
 30
0.0
 11
3.834616641938065
 21
5.60592136516382
 31
0.0
  0
LINE
  5
3EB
330
1F
100
AcDbEntity
  8
0
100
AcDbLine
 10
3.89628285881427
 20
6.084650123922238
 30
0.0
 11
3.89628285881427
 21
6.131618304479462
 31
0.0
  0
LINE
  5
3EC
330
1F
100
AcDbEntity
  8
0
100
AcDbLine
 10
3.816571348769183
 20
6.131618304479462
 30
0.0
 11
3.816571348769183
 21
6.084650123922238
 31
0.0
  0
LINE
  5
3ED
330
1F
100
AcDbEntity
  8
0
100
AcDbLine
 10
3.778066636289782
 20
6.13259680824107
 30
0.0
 11
3.934787571293671
 21
6.13259680824107
 31
0.0
  0
LINE
  5
3EE
330
1F
100
AcDbEntity
  8
0
100
AcDbLine
 10
3.816571348769183
 20
6.084650123922238
 30
0.0
 11
3.89628285881427
 21
6.084650123922238
 31
0.0
  0
LINE
  5
3EF
330
1F
100
AcDbEntity
  8
0
100
AcDbLine
 10
3.934787571293671
 20
6.13259680824107
 30
0.0
 11
3.934787571293671
 21
5.965032245674257
 31
0.0
  0
LINE
  5
3F0
330
1F
100
AcDbEntity
  8
0
100
AcDbLine
 10
3.778066636289782
 20
5.965032245674257
 30
0.0
 11
3.778066636289782
 21
6.13259680824107
 31
0.0
  0
LINE
  5
3F1
330
1F
100
AcDbEntity
  8
0
100
AcDbLine
 10
3.916400419413577
 20
5.557974680844988
 30
0.0
 11
3.996111929458663
 21
5.557974680844988
 31
0.0
  0
LINE
  5
3F2
330
1F
100
AcDbEntity
  8
0
100
AcDbLine
 10
4.034616641938065
 20
5.60592136516382
 30
0.0
 11
4.034616641938065
 21
5.388693530086661
 31
0.0
  0
LINE
  5
3F3
330
1F
100
AcDbEntity
  8
0
100
AcDbLine
 10
3.916400419413577
 20
5.60494286140221
 30
0.0
 11
3.916400419413577
 21
5.557974680844988
 31
0.0
  0
LINE
  5
3F4
330
1F
100
AcDbEntity
  8
0
100
AcDbLine
 10
3.996111929458663
 20
5.557974680844988
 30
0.0
 11
3.996111929458663
 21
5.60494286140221
 31
0.0
  0
LINE
  5
3F5
330
1F
100
AcDbEntity
  8
0
100
AcDbLine
 10
3.877895706934175
 20
5.388693530086661
 30
0.0
 11
3.877895706934175
 21
5.60592136516382
 31
0.0
  0
LINE
  5
3F6
330
1F
100
AcDbEntity
  8
0
100
AcDbLine
 10
4.034616641938065
 20
5.388693530086661
 30
0.0
 11
3.877895706934175
 21
5.388693530086661
 31
0.0
  0
LINE
  5
3F7
330
1F
100
AcDbEntity
  8
0
100
AcDbLine
 10
3.877895706934175
 20
5.60592136516382
 30
0.0
 11
4.034616641938065
 21
5.60592136516382
 31
0.0
  0
LINE
  5
3F8
330
1F
100
AcDbEntity
  8
0
100
AcDbLine
 10
4.096282858814269
 20
6.084650123922238
 30
0.0
 11
4.096282858814269
 21
6.131618304479462
 31
0.0
  0
LINE
  5
3F9
330
1F
100
AcDbEntity
  8
0
100
AcDbLine
 10
4.016571348769183
 20
6.131618304479462
 30
0.0
 11
4.016571348769183
 21
6.084650123922238
 31
0.0
  0
LINE
  5
3FA
330
1F
100
AcDbEntity
  8
0
100
AcDbLine
 10
3.978066636289781
 20
6.13259680824107
 30
0.0
 11
4.134787571293671
 21
6.13259680824107
 31
0.0
  0
LINE
  5
3FB
330
1F
100
AcDbEntity
  8
0
100
AcDbLine
 10
4.016571348769183
 20
6.084650123922238
 30
0.0
 11
4.096282858814269
 21
6.084650123922238
 31
0.0
  0
LINE
  5
3FC
330
1F
100
AcDbEntity
  8
0
100
AcDbLine
 10
4.134787571293671
 20
6.13259680824107
 30
0.0
 11
4.134787571293671
 21
5.965032245674257
 31
0.0
  0
LINE
  5
3FD
330
1F
100
AcDbEntity
  8
0
100
AcDbLine
 10
3.978066636289781
 20
5.965032245674257
 30
0.0
 11
3.978066636289781
 21
6.13259680824107
 31
0.0
  0
LINE
  5
3FE
330
1F
100
AcDbEntity
  8
0
100
AcDbLine
 10
4.116400419413579
 20
5.557974680844988
 30
0.0
 11
4.196111929458666
 21
5.557974680844988
 31
0.0
  0
LINE
  5
3FF
330
1F
100
AcDbEntity
  8
0
100
AcDbLine
 10
4.234616641938067
 20
5.60592136516382
 30
0.0
 11
4.234616641938067
 21
5.388693530086661
 31
0.0
  0
LINE
  5
400
330
1F
100
AcDbEntity
  8
0
100
AcDbLine
 10
4.116400419413579
 20
5.60494286140221
 30
0.0
 11
4.116400419413579
 21
5.557974680844988
 31
0.0
  0
LINE
  5
401
330
1F
100
AcDbEntity
  8
0
100
AcDbLine
 10
4.196111929458666
 20
5.557974680844988
 30
0.0
 11
4.196111929458666
 21
5.60494286140221
 31
0.0
  0
LINE
  5
402
330
1F
100
AcDbEntity
  8
0
100
AcDbLine
 10
4.077895706934178
 20
5.388693530086661
 30
0.0
 11
4.077895706934178
 21
5.60592136516382
 31
0.0
  0
LINE
  5
403
330
1F
100
AcDbEntity
  8
0
100
AcDbLine
 10
4.234616641938067
 20
5.388693530086661
 30
0.0
 11
4.077895706934178
 21
5.388693530086661
 31
0.0
  0
LINE
  5
404
330
1F
100
AcDbEntity
  8
0
100
AcDbLine
 10
4.077895706934178
 20
5.60592136516382
 30
0.0
 11
4.234616641938067
 21
5.60592136516382
 31
0.0
  0
LINE
  5
405
330
1F
100
AcDbEntity
  8
0
100
AcDbLine
 10
4.296282858814269
 20
6.084650123922238
 30
0.0
 11
4.296282858814269
 21
6.131618304479462
 31
0.0
  0
LINE
  5
406
330
1F
100
AcDbEntity
  8
0
100
AcDbLine
 10
4.216571348769182
 20
6.131618304479462
 30
0.0
 11
4.216571348769182
 21
6.084650123922238
 31
0.0
  0
LINE
  5
407
330
1F
100
AcDbEntity
  8
0
100
AcDbLine
 10
4.178066636289781
 20
6.13259680824107
 30
0.0
 11
4.33478757129367
 21
6.13259680824107
 31
0.0
  0
LINE
  5
408
330
1F
100
AcDbEntity
  8
0
100
AcDbLine
 10
4.216571348769182
 20
6.084650123922238
 30
0.0
 11
4.296282858814269
 21
6.084650123922238
 31
0.0
  0
LINE
  5
409
330
1F
100
AcDbEntity
  8
0
100
AcDbLine
 10
4.33478757129367
 20
6.13259680824107
 30
0.0
 11
4.33478757129367
 21
5.965032245674257
 31
0.0
  0
LINE
  5
40A
330
1F
100
AcDbEntity
  8
0
100
AcDbLine
 10
4.178066636289781
 20
5.965032245674257
 30
0.0
 11
4.178066636289781
 21
6.13259680824107
 31
0.0
  0
LINE
  5
40B
330
1F
100
AcDbEntity
  8
0
100
AcDbLine
 10
4.316400419413575
 20
5.557974680844988
 30
0.0
 11
4.396111929458662
 21
5.557974680844988
 31
0.0
  0
LINE
  5
40C
330
1F
100
AcDbEntity
  8
0
100
AcDbLine
 10
4.434616641938063
 20
5.60592136516382
 30
0.0
 11
4.434616641938063
 21
5.388693530086661
 31
0.0
  0
LINE
  5
40D
330
1F
100
AcDbEntity
  8
0
100
AcDbLine
 10
4.316400419413575
 20
5.60494286140221
 30
0.0
 11
4.316400419413575
 21
5.557974680844988
 31
0.0
  0
LINE
  5
40E
330
1F
100
AcDbEntity
  8
0
100
AcDbLine
 10
4.396111929458662
 20
5.557974680844988
 30
0.0
 11
4.396111929458662
 21
5.60494286140221
 31
0.0
  0
LINE
  5
40F
330
1F
100
AcDbEntity
  8
0
100
AcDbLine
 10
4.277895706934174
 20
5.388693530086661
 30
0.0
 11
4.277895706934174
 21
5.60592136516382
 31
0.0
  0
LINE
  5
410
330
1F
100
AcDbEntity
  8
0
100
AcDbLine
 10
4.434616641938063
 20
5.388693530086661
 30
0.0
 11
4.277895706934174
 21
5.388693530086661
 31
0.0
  0
LINE
  5
411
330
1F
100
AcDbEntity
  8
0
100
AcDbLine
 10
4.277895706934174
 20
5.60592136516382
 30
0.0
 11
4.434616641938063
 21
5.60592136516382
 31
0.0
  0
LINE
  5
412
330
1F
100
AcDbEntity
  8
0
100
AcDbLine
 10
4.496282858814268
 20
6.084650123922238
 30
0.0
 11
4.496282858814268
 21
6.131618304479462
 31
0.0
  0
LINE
  5
413
330
1F
100
AcDbEntity
  8
0
100
AcDbLine
 10
4.416571348769181
 20
6.131618304479462
 30
0.0
 11
4.416571348769181
 21
6.084650123922238
 31
0.0
  0
LINE
  5
414
330
1F
100
AcDbEntity
  8
0
100
AcDbLine
 10
4.37806663628978
 20
6.13259680824107
 30
0.0
 11
4.534787571293669
 21
6.13259680824107
 31
0.0
  0
LINE
  5
415
330
1F
100
AcDbEntity
  8
0
100
AcDbLine
 10
4.416571348769181
 20
6.084650123922238
 30
0.0
 11
4.496282858814268
 21
6.084650123922238
 31
0.0
  0
LINE
  5
416
330
1F
100
AcDbEntity
  8
0
100
AcDbLine
 10
4.534787571293669
 20
6.13259680824107
 30
0.0
 11
4.534787571293669
 21
5.965032245674257
 31
0.0
  0
LINE
  5
417
330
1F
100
AcDbEntity
  8
0
100
AcDbLine
 10
4.37806663628978
 20
5.965032245674257
 30
0.0
 11
4.37806663628978
 21
6.13259680824107
 31
0.0
  0
LINE
  5
418
330
1F
100
AcDbEntity
  8
0
100
AcDbLine
 10
4.516400419413578
 20
5.557974680844988
 30
0.0
 11
4.596111929458665
 21
5.557974680844988
 31
0.0
  0
LINE
  5
419
330
1F
100
AcDbEntity
  8
0
100
AcDbLine
 10
4.634616641938066
 20
5.60592136516382
 30
0.0
 11
4.634616641938066
 21
5.388693530086661
 31
0.0
  0
LINE
  5
41A
330
1F
100
AcDbEntity
  8
0
100
AcDbLine
 10
4.516400419413578
 20
5.60494286140221
 30
0.0
 11
4.516400419413578
 21
5.557974680844988
 31
0.0
  0
LINE
  5
41B
330
1F
100
AcDbEntity
  8
0
100
AcDbLine
 10
4.596111929458665
 20
5.557974680844988
 30
0.0
 11
4.596111929458665
 21
5.60494286140221
 31
0.0
  0
LINE
  5
41C
330
1F
100
AcDbEntity
  8
0
100
AcDbLine
 10
4.477895706934177
 20
5.388693530086661
 30
0.0
 11
4.477895706934177
 21
5.60592136516382
 31
0.0
  0
LINE
  5
41D
330
1F
100
AcDbEntity
  8
0
100
AcDbLine
 10
4.634616641938066
 20
5.388693530086661
 30
0.0
 11
4.477895706934177
 21
5.388693530086661
 31
0.0
  0
LINE
  5
41E
330
1F
100
AcDbEntity
  8
0
100
AcDbLine
 10
4.477895706934177
 20
5.60592136516382
 30
0.0
 11
4.634616641938066
 21
5.60592136516382
 31
0.0
  0
LINE
  5
41F
330
1F
100
AcDbEntity
  8
0
100
AcDbLine
 10
3.221635927794796
 20
4.703282256263702
 30
0.0
 11
3.221635927794796
 21
5.305759545128624
 31
0.0
  0
LINE
  5
420
330
1F
100
AcDbEntity
  8
0
100
AcDbLine
 10
4.550226309742136
 20
5.868980420522826
 30
0.0
 11
4.550226309742136
 21
5.802184260245026
 31
0.0
  0
LINE
  5
421
330
1F
100
AcDbEntity
  8
0
100
AcDbLine
 10
4.544245951063359
 20
5.752184260245026
 30
0.0
 11
4.556206668420912
 21
5.752184260245026
 31
0.0
  0
LINE
  5
422
330
1F
100
AcDbEntity
  8
0
100
AcDbLine
 10
4.522236130402752
 20
5.777184260245028
 30
0.0
 11
4.578216489081526
 21
5.777184260245026
 31
0.0
  0
LINE
  5
423
330
1F
100
AcDbEntity
  8
0
100
AcDbLine
 10
4.500226309742139
 20
5.802184260245026
 30
0.0
 11
4.600226309742133
 21
5.802184260245026
 31
0.0
  0
LINE
  5
424
330
1F
100
AcDbEntity
  8
0
100
AcDbLine
 10
3.554504256002605
 20
6.208711609698441
 30
0.0
 11
4.554504256002605
 21
6.208711609698441
 31
0.0
  0
LINE
  5
425
330
1F
100
AcDbEntity
  8
0
100
AcDbLine
 10
3.554504256002605
 20
6.404901613901007
 30
0.0
 11
4.554504256002605
 21
6.404901613901006
 31
0.0
  0
LINE
  5
426
330
1F
100
AcDbEntity
  8
0
100
AcDbLine
 10
3.554504256002605
 20
6.463122587716732
 30
0.0
 11
4.554504256002601
 21
6.463122587716731
 31
0.0
  0
LINE
  5
427
330
1F
100
AcDbEntity
  8
0
100
AcDbLine
 10
3.654504256002603
 20
5.965032245674257
 30
0.0
 11
4.654504256002603
 21
5.965032245674257
 31
0.0
  0
LINE
  5
428
330
1F
100
AcDbEntity
  8
0
100
AcDbLine
 10
3.578066636289783
 20
5.909257531262555
 30
0.0
 11
4.654504256002603
 21
5.909257531262555
 31
0.0
  0
LINE
  5
429
330
1F
100
AcDbEntity
  8
0
100
AcDbLine
 10
3.654504256002603
 20
5.717960045868029
 30
0.0
 11
4.654504256002603
 21
5.717960045868029
 31
0.0
  0
LINE
  5
42A
330
1F
100
AcDbEntity
  8
0
100
AcDbLine
 10
8.278686472049617
 20
6.671709720423692
 30
0.0
 11
8.278686472049617
 21
6.798709720423691
 31
0.0
  0
LINE
  5
42B
330
1F
100
AcDbEntity
  8
0
100
AcDbLine
 10
7.394586472049617
 20
6.671709720423692
 30
0.0
 11
7.394586472049617
 21
6.798709720423691
 31
0.0
  0
LINE
  5
42C
330
1F
100
AcDbEntity
  8
0
100
AcDbLine
 10
8.27868696823171
 20
6.671709652945992
 30
0.0
 11
8.27868696823171
 21
6.798709652945987
 31
0.0
  0
LINE
  5
42D
330
1F
100
AcDbEntity
  8
0
100
AcDbLine
 10
7.394586594518699
 20
6.671709652945992
 30
0.0
 11
7.394586594518699
 21
6.798709652945987
 31
0.0
  0
TEXT
  5
42E
330
1F
100
AcDbEntity
  8
0
100
AcDbText
 10
7.170118472049615
 20
5.487606720423691
 30
0.0
 40
0.08
  1
VARIOFACE
 50
270.0
 41
0.65
  7
ROMANS
100
AcDbText
  0
TEXT
  5
42F
330
1F
100
AcDbEntity
  8
0
100
AcDbText
 10
8.585720472049615
 20
5.088100720423692
 30
0.0
 40
0.08
  1
VARIOFACE
 50
90.0
 41
0.65
  7
ROMANS
100
AcDbText
  0
LINE
  5
430
330
1F
100
AcDbEntity
  8
0
100
AcDbLine
 10
8.620696472049615
 20
5.505232720423691
 30
0.0
 11
7.130747472049616
 21
5.505232720423691
 31
0.0
  0
LINE
  5
431
330
1F
100
AcDbEntity
  8
0
100
AcDbLine
 10
7.290696472049617
 20
5.113688720423692
 30
0.0
 11
8.460696472049615
 21
5.113688720423692
 31
0.0
  0
LINE
  5
432
330
1F
100
AcDbEntity
  8
0
100
AcDbLine
 10
7.290696472049617
 20
5.461688720423691
 30
0.0
 11
8.460696472049615
 21
5.461688720423691
 31
0.0
  0
LINE
  5
433
330
1F
100
AcDbEntity
  8
0
100
AcDbLine
 10
8.460696472049615
 20
5.070145720423692
 30
0.0
 11
8.460696472049615
 21
5.505232720423691
 31
0.0
  0
LINE
  5
434
330
1F
100
AcDbEntity
  8
0
100
AcDbLine
 10
7.290696472049617
 20
5.070145720423692
 30
0.0
 11
7.290696472049617
 21
5.505232720423691
 31
0.0
  0
LINE
  5
435
330
1F
100
AcDbEntity
  8
0
100
AcDbLine
 10
7.130747472049616
 20
5.070145720423692
 30
0.0
 11
8.620696472049615
 21
5.070145720423692
 31
0.0
  0
LINE
  5
436
330
1F
100
AcDbEntity
  8
0
100
AcDbLine
 10
7.130747472049616
 20
5.505232720423691
 30
0.0
 11
7.130747472049616
 21
5.070145720423692
 31
0.0
  0
LINE
  5
437
330
1F
100
AcDbEntity
  8
0
100
AcDbLine
 10
8.620696472049615
 20
5.070145720423692
 30
0.0
 11
8.620696472049615
 21
5.505232720423691
 31
0.0
  0
LINE
  5
438
330
1F
100
AcDbEntity
  8
0
100
AcDbLine
 10
7.394586472049617
 20
3.768709720423693
 30
0.0
 11
7.394586472049617
 21
3.895709720423692
 31
0.0
  0
LINE
  5
439
330
1F
100
AcDbEntity
  8
0
100
AcDbLine
 10
8.278686472049617
 20
3.768709720423693
 30
0.0
 11
8.278686472049617
 21
3.895709720423692
 31
0.0
  0
CIRCLE
  5
43A
330
1F
100
AcDbEntity
  8
0
100
AcDbCircle
 10
8.278823472049616
 20
4.17031572042369
 30
0.0
 40
0.075
  0
CIRCLE
  5
43B
330
1F
100
AcDbEntity
  8
0
100
AcDbCircle
 10
8.278382472049617
 20
4.169698720423692
 30
0.0
 40
0.06629
  0
LINE
  5
43C
330
1F
100
AcDbEntity
  8
0
100
AcDbLine
 10
8.238219472049618
 20
4.116959720423693
 30
0.0
 11
8.333788472049619
 21
4.206092720423692
 31
0.0
  0
LINE
  5
43D
330
1F
100
AcDbEntity
  8
0
100
AcDbLine
 10
8.222579472049616
 20
4.133914720423693
 30
0.0
 11
8.317962472049618
 21
4.222874720423693
 31
0.0
  0
LINE
  5
43E
330
1F
100
AcDbEntity
  8
0
100
AcDbLine
 10
8.138219472049616
 20
4.557946720423693
 30
0.0
 11
8.233788472049617
 21
4.647079720423691
 31
0.0
  0
LINE
  5
43F
330
1F
100
AcDbEntity
  8
0
100
AcDbLine
 10
8.122579472049618
 20
4.574901720423692
 30
0.0
 11
8.217962472049617
 21
4.663861720423692
 31
0.0
  0
CIRCLE
  5
440
330
1F
100
AcDbEntity
  8
0
100
AcDbCircle
 10
8.178823472049614
 20
4.611302720423692
 30
0.0
 40
0.075
  0
CIRCLE
  5
441
330
1F
100
AcDbEntity
  8
0
100
AcDbCircle
 10
8.178382472049616
 20
4.610685720423692
 30
0.0
 40
0.06629
  0
CIRCLE
  5
442
330
1F
100
AcDbEntity
  8
0
100
AcDbCircle
 10
8.079223472049616
 20
4.17031572042369
 30
0.0
 40
0.075
  0
CIRCLE
  5
443
330
1F
100
AcDbEntity
  8
0
100
AcDbCircle
 10
8.078782472049617
 20
4.169698720423692
 30
0.0
 40
0.06629
  0
LINE
  5
444
330
1F
100
AcDbEntity
  8
0
100
AcDbLine
 10
8.038619472049617
 20
4.116959720423693
 30
0.0
 11
8.134188472049618
 21
4.206092720423692
 31
0.0
  0
LINE
  5
445
330
1F
100
AcDbEntity
  8
0
100
AcDbLine
 10
8.022979472049616
 20
4.133914720423693
 30
0.0
 11
8.118362472049618
 21
4.222874720423693
 31
0.0
  0
LINE
  5
446
330
1F
100
AcDbEntity
  8
0
100
AcDbLine
 10
7.938619472049616
 20
4.557946720423693
 30
0.0
 11
8.034188472049617
 21
4.647079720423691
 31
0.0
  0
LINE
  5
447
330
1F
100
AcDbEntity
  8
0
100
AcDbLine
 10
7.922979472049618
 20
4.574901720423692
 30
0.0
 11
8.018362472049616
 21
4.663861720423692
 31
0.0
  0
CIRCLE
  5
448
330
1F
100
AcDbEntity
  8
0
100
AcDbCircle
 10
7.979223472049614
 20
4.611302720423692
 30
0.0
 40
0.075
  0
CIRCLE
  5
449
330
1F
100
AcDbEntity
  8
0
100
AcDbCircle
 10
7.978782472049619
 20
4.610685720423692
 30
0.0
 40
0.06629
  0
CIRCLE
  5
44A
330
1F
100
AcDbEntity
  8
0
100
AcDbCircle
 10
7.879623472049615
 20
4.17031572042369
 30
0.0
 40
0.075
  0
CIRCLE
  5
44B
330
1F
100
AcDbEntity
  8
0
100
AcDbCircle
 10
7.879182472049617
 20
4.169698720423692
 30
0.0
 40
0.06629
  0
LINE
  5
44C
330
1F
100
AcDbEntity
  8
0
100
AcDbLine
 10
7.839019472049617
 20
4.116959720423693
 30
0.0
 11
7.934588472049618
 21
4.206092720423692
 31
0.0
  0
LINE
  5
44D
330
1F
100
AcDbEntity
  8
0
100
AcDbLine
 10
7.823379472049619
 20
4.133914720423693
 30
0.0
 11
7.918762472049618
 21
4.222874720423693
 31
0.0
  0
LINE
  5
44E
330
1F
100
AcDbEntity
  8
0
100
AcDbLine
 10
7.739019472049616
 20
4.557946720423693
 30
0.0
 11
7.834588472049617
 21
4.647079720423691
 31
0.0
  0
LINE
  5
44F
330
1F
100
AcDbEntity
  8
0
100
AcDbLine
 10
7.723379472049618
 20
4.574901720423692
 30
0.0
 11
7.818762472049616
 21
4.663861720423692
 31
0.0
  0
CIRCLE
  5
450
330
1F
100
AcDbEntity
  8
0
100
AcDbCircle
 10
7.779623472049614
 20
4.611302720423692
 30
0.0
 40
0.075
  0
CIRCLE
  5
451
330
1F
100
AcDbEntity
  8
0
100
AcDbCircle
 10
7.779182472049619
 20
4.610685720423692
 30
0.0
 40
0.06629
  0
CIRCLE
  5
452
330
1F
100
AcDbEntity
  8
0
100
AcDbCircle
 10
7.680023472049615
 20
4.17031572042369
 30
0.0
 40
0.075
  0
CIRCLE
  5
453
330
1F
100
AcDbEntity
  8
0
100
AcDbCircle
 10
7.679582472049617
 20
4.169698720423692
 30
0.0
 40
0.06629
  0
LINE
  5
454
330
1F
100
AcDbEntity
  8
0
100
AcDbLine
 10
7.639419472049617
 20
4.116959720423693
 30
0.0
 11
7.734988472049618
 21
4.206092720423692
 31
0.0
  0
LINE
  5
455
330
1F
100
AcDbEntity
  8
0
100
AcDbLine
 10
7.623779472049619
 20
4.133914720423693
 30
0.0
 11
7.719162472049617
 21
4.222874720423693
 31
0.0
  0
LINE
  5
456
330
1F
100
AcDbEntity
  8
0
100
AcDbLine
 10
7.539419472049615
 20
4.557946720423693
 30
0.0
 11
7.634988472049617
 21
4.647079720423691
 31
0.0
  0
LINE
  5
457
330
1F
100
AcDbEntity
  8
0
100
AcDbLine
 10
7.523779472049618
 20
4.574901720423692
 30
0.0
 11
7.619162472049616
 21
4.663861720423692
 31
0.0
  0
CIRCLE
  5
458
330
1F
100
AcDbEntity
  8
0
100
AcDbCircle
 10
7.580023472049614
 20
4.611302720423692
 30
0.0
 40
0.075
  0
CIRCLE
  5
459
330
1F
100
AcDbEntity
  8
0
100
AcDbCircle
 10
7.579582472049619
 20
4.610685720423692
 30
0.0
 40
0.06629
  0
CIRCLE
  5
45A
330
1F
100
AcDbEntity
  8
0
100
AcDbCircle
 10
7.480423472049615
 20
4.17031572042369
 30
0.0
 40
0.075
  0
CIRCLE
  5
45B
330
1F
100
AcDbEntity
  8
0
100
AcDbCircle
 10
7.479982472049616
 20
4.169698720423692
 30
0.0
 40
0.06629
  0
LINE
  5
45C
330
1F
100
AcDbEntity
  8
0
100
AcDbLine
 10
7.439819472049617
 20
4.116959720423693
 30
0.0
 11
7.535388472049618
 21
4.206092720423692
 31
0.0
  0
LINE
  5
45D
330
1F
100
AcDbEntity
  8
0
100
AcDbLine
 10
7.424179472049619
 20
4.133914720423693
 30
0.0
 11
7.519562472049617
 21
4.222874720423693
 31
0.0
  0
LINE
  5
45E
330
1F
100
AcDbEntity
  8
0
100
AcDbLine
 10
7.339819472049619
 20
4.557946720423693
 30
0.0
 11
7.435388472049616
 21
4.647079720423691
 31
0.0
  0
LINE
  5
45F
330
1F
100
AcDbEntity
  8
0
100
AcDbLine
 10
7.324179472049618
 20
4.574901720423692
 30
0.0
 11
7.419562472049616
 21
4.663861720423692
 31
0.0
  0
CIRCLE
  5
460
330
1F
100
AcDbEntity
  8
0
100
AcDbCircle
 10
7.380423472049614
 20
4.611302720423692
 30
0.0
 40
0.075
  0
CIRCLE
  5
461
330
1F
100
AcDbEntity
  8
0
100
AcDbCircle
 10
7.379982472049618
 20
4.610685720423692
 30
0.0
 40
0.06629
  0
LINE
  5
462
330
1F
100
AcDbEntity
  8
0
100
AcDbLine
 10
8.364392472049615
 20
4.353502720423692
 30
0.0
 11
8.364392472049615
 21
4.299085720423693
 31
0.0
  0
LINE
  5
463
330
1F
100
AcDbEntity
  8
0
100
AcDbLine
 10
7.288073472049614
 20
4.841474720423693
 30
0.0
 11
8.285200472049616
 21
4.841474720423693
 31
0.0
  0
LINE
  5
464
330
1F
100
AcDbEntity
  8
0
100
AcDbLine
 10
8.138276472049614
 20
4.802703720423693
 30
0.0
 11
8.240347472049617
 21
4.802703720423693
 31
0.0
  0
LINE
  5
465
330
1F
100
AcDbEntity
  8
0
100
AcDbLine
 10
7.938276472049615
 20
4.802703720423693
 30
0.0
 11
8.040347472049617
 21
4.802703720423693
 31
0.0
  0
LINE
  5
466
330
1F
100
AcDbEntity
  8
0
100
AcDbLine
 10
8.164392472049616
 20
4.353502720423692
 30
0.0
 11
8.164392472049616
 21
4.299085720423693
 31
0.0
  0
LINE
  5
467
330
1F
100
AcDbEntity
  8
0
100
AcDbLine
 10
8.214121472049615
 20
4.299085720423693
 30
0.0
 11
8.214121472049615
 21
4.353502720423692
 31
0.0
  0
LINE
  5
468
330
1F
100
AcDbEntity
  8
0
100
AcDbLine
 10
8.285200472049616
 20
4.413993720423691
 30
0.0
 11
8.285200472049616
 21
4.41142672042369
 31
0.0
  0
LINE
  5
469
330
1F
100
AcDbEntity
  8
0
100
AcDbLine
 10
7.964392472049617
 20
4.353502720423692
 30
0.0
 11
7.964392472049617
 21
4.299085720423693
 31
0.0
  0
LINE
  5
46A
330
1F
100
AcDbEntity
  8
0
100
AcDbLine
 10
8.014121472049616
 20
4.299085720423693
 30
0.0
 11
8.014121472049616
 21
4.353502720423692
 31
0.0
  0
LINE
  5
46B
330
1F
100
AcDbEntity
  8
0
100
AcDbLine
 10
8.014121472049616
 20
4.353502720423692
 30
0.0
 11
8.164392472049616
 21
4.353502720423692
 31
0.0
  0
LINE
  5
46C
330
1F
100
AcDbEntity
  8
0
100
AcDbLine
 10
7.738276472049616
 20
4.802703720423693
 30
0.0
 11
7.840347472049618
 21
4.802703720423693
 31
0.0
  0
LINE
  5
46D
330
1F
100
AcDbEntity
  8
0
100
AcDbLine
 10
7.540635472049618
 20
4.802703720423693
 30
0.0
 11
7.642706472049617
 21
4.802703720423693
 31
0.0
  0
LINE
  5
46E
330
1F
100
AcDbEntity
  8
0
100
AcDbLine
 10
7.766750472049618
 20
4.353502720423692
 30
0.0
 11
7.766750472049618
 21
4.299085720423693
 31
0.0
  0
LINE
  5
46F
330
1F
100
AcDbEntity
  8
0
100
AcDbLine
 10
7.814121472049617
 20
4.299085720423693
 30
0.0
 11
7.814121472049617
 21
4.353502720423692
 31
0.0
  0
LINE
  5
470
330
1F
100
AcDbEntity
  8
0
100
AcDbLine
 10
7.616480472049616
 20
4.299085720423693
 30
0.0
 11
7.616480472049616
 21
4.353502720423692
 31
0.0
  0
LINE
  5
471
330
1F
100
AcDbEntity
  8
0
100
AcDbLine
 10
7.566750472049616
 20
4.353502720423692
 30
0.0
 11
7.566750472049616
 21
4.299085720423693
 31
0.0
  0
LINE
  5
472
330
1F
100
AcDbEntity
  8
0
100
AcDbLine
 10
7.616480472049616
 20
4.353502720423692
 30
0.0
 11
7.766750472049618
 21
4.353502720423692
 31
0.0
  0
LINE
  5
473
330
1F
100
AcDbEntity
  8
0
100
AcDbLine
 10
7.814121472049617
 20
4.353502720423692
 30
0.0
 11
7.964392472049617
 21
4.353502720423692
 31
0.0
  0
LINE
  5
474
330
1F
100
AcDbEntity
  8
0
100
AcDbLine
 10
7.288073472049614
 20
4.41142672042369
 30
0.0
 11
8.385200472049618
 21
4.41142672042369
 31
0.0
  0
LINE
  5
475
330
1F
100
AcDbEntity
  8
0
100
AcDbLine
 10
7.288073472049614
 20
4.739516720423692
 30
0.0
 11
8.285071472049615
 21
4.739516720423692
 31
0.0
  0
LINE
  5
476
330
1F
100
AcDbEntity
  8
0
100
AcDbLine
 10
7.288073472049614
 20
4.513984720423692
 30
0.0
 11
8.285071472049615
 21
4.513984720423692
 31
0.0
  0
LINE
  5
477
330
1F
100
AcDbEntity
  8
0
100
AcDbLine
 10
7.540635472049618
 20
4.841719720423693
 30
0.0
 11
7.540635472049618
 21
4.802703720423693
 31
0.0
  0
LINE
  5
478
330
1F
100
AcDbEntity
  8
0
100
AcDbLine
 10
7.642706472049617
 20
4.802703720423693
 30
0.0
 11
7.642706472049617
 21
4.841719720423693
 31
0.0
  0
LINE
  5
479
330
1F
100
AcDbEntity
  8
0
100
AcDbLine
 10
7.886299472049614
 20
4.841474720423693
 30
0.0
 11
7.886299472049614
 21
4.413993720423691
 31
0.0
  0
LINE
  5
47A
330
1F
100
AcDbEntity
  8
0
100
AcDbLine
 10
7.840347472049618
 20
4.802703720423693
 30
0.0
 11
7.840347472049618
 21
4.841719720423693
 31
0.0
  0
LINE
  5
47B
330
1F
100
AcDbEntity
  8
0
100
AcDbLine
 10
7.738276472049616
 20
4.841719720423693
 30
0.0
 11
7.738276472049616
 21
4.802703720423693
 31
0.0
  0
LINE
  5
47C
330
1F
100
AcDbEntity
  8
0
100
AcDbLine
 10
8.040347472049617
 20
4.802703720423693
 30
0.0
 11
8.040347472049617
 21
4.841719720423693
 31
0.0
  0
LINE
  5
47D
330
1F
100
AcDbEntity
  8
0
100
AcDbLine
 10
7.938276472049615
 20
4.841719720423693
 30
0.0
 11
7.938276472049615
 21
4.802703720423693
 31
0.0
  0
LINE
  5
47E
330
1F
100
AcDbEntity
  8
0
100
AcDbLine
 10
8.240347472049617
 20
4.802703720423693
 30
0.0
 11
8.240347472049617
 21
4.841719720423693
 31
0.0
  0
LINE
  5
47F
330
1F
100
AcDbEntity
  8
0
100
AcDbLine
 10
8.138276472049614
 20
4.841719720423693
 30
0.0
 11
8.138276472049614
 21
4.802703720423693
 31
0.0
  0
LINE
  5
480
330
1F
100
AcDbEntity
  8
0
100
AcDbLine
 10
8.285200472049616
 20
4.841474720423693
 30
0.0
 11
8.285200472049616
 21
4.413993720423691
 31
0.0
  0
LINE
  5
481
330
1F
100
AcDbEntity
  8
0
100
AcDbLine
 10
8.214121472049615
 20
4.353502720423692
 30
0.0
 11
8.364392472049615
 21
4.353502720423692
 31
0.0
  0
LINE
  5
482
330
1F
100
AcDbEntity
  8
0
100
AcDbLine
 10
7.388073472049615
 20
4.298529720423692
 30
0.0
 11
8.382312472049616
 21
4.298529720423692
 31
0.0
  0
LINE
  5
483
330
1F
100
AcDbEntity
  8
0
100
AcDbLine
 10
7.388073472049615
 20
3.970439720423692
 30
0.0
 11
8.385200472049618
 21
3.970439720423692
 31
0.0
  0
LINE
  5
484
330
1F
100
AcDbEntity
  8
0
100
AcDbLine
 10
7.388073472049615
 20
4.072997720423693
 30
0.0
 11
8.382312472049616
 21
4.072997720423693
 31
0.0
  0
LINE
  5
485
330
1F
100
AcDbEntity
  8
0
100
AcDbLine
 10
7.986299472049616
 20
4.408719720423691
 30
0.0
 11
7.986299472049616
 21
3.970439720423692
 31
0.0
  0
LINE
  5
486
330
1F
100
AcDbEntity
  8
0
100
AcDbLine
 10
8.385200472049618
 20
4.41142672042369
 30
0.0
 11
8.385200472049618
 21
3.970439720423692
 31
0.0
  0
LINE
  5
487
330
1F
100
AcDbEntity
  8
0
100
AcDbLine
 10
7.340635472049619
 20
4.802703720423693
 30
0.0
 11
7.442706472049618
 21
4.802703720423693
 31
0.0
  0
LINE
  5
488
330
1F
100
AcDbEntity
  8
0
100
AcDbLine
 10
7.416480472049617
 20
4.299085720423693
 30
0.0
 11
7.416480472049617
 21
4.353502720423692
 31
0.0
  0
LINE
  5
489
330
1F
100
AcDbEntity
  8
0
100
AcDbLine
 10
7.340635472049619
 20
4.841719720423693
 30
0.0
 11
7.340635472049619
 21
4.802703720423693
 31
0.0
  0
LINE
  5
48A
330
1F
100
AcDbEntity
  8
0
100
AcDbLine
 10
7.442706472049618
 20
4.802703720423693
 30
0.0
 11
7.442706472049618
 21
4.841719720423693
 31
0.0
  0
LINE
  5
48B
330
1F
100
AcDbEntity
  8
0
100
AcDbLine
 10
7.388073472049615
 20
3.970439720423692
 30
0.0
 11
7.388073472049615
 21
4.410177720423693
 31
0.0
  0
LINE
  5
48C
330
1F
100
AcDbEntity
  8
0
100
AcDbLine
 10
7.288073472049614
 20
4.41142672042369
 30
0.0
 11
7.288073472049614
 21
4.841474720423693
 31
0.0
  0
LINE
  5
48D
330
1F
100
AcDbEntity
  8
0
100
AcDbLine
 10
7.416480472049617
 20
4.353502720423692
 30
0.0
 11
7.566750472049616
 21
4.353502720423692
 31
0.0
  0
ARC
  5
48E
330
1F
100
AcDbEntity
  8
0
100
AcDbCircle
 10
8.441429472049616
 20
6.581642720423692
 30
0.0
 40
0.04
100
AcDbArc
 50
0.0
 51
90.0
  0
TEXT
  5
48F
330
1F
100
AcDbEntity
  8
0
100
AcDbText
 10
8.171122472049617
 20
6.195162720423692
 30
0.0
 40
0.1
  1
9
  7
ROMANS
100
AcDbText
  0
LINE
  5
490
330
1F
100
AcDbEntity
  8
0
100
AcDbLine
 10
8.431704472049617
 20
6.313014720423693
 30
0.0
 11
8.470284472049616
 21
6.387051720423691
 31
0.0
  0
LINE
  5
491
330
1F
100
AcDbEntity
  8
0
100
AcDbLine
 10
8.470284472049616
 20
6.387051720423691
 30
0.0
 11
8.431580472049617
 21
6.460081720423692
 31
0.0
  0
CIRCLE
  5
492
330
1F
100
AcDbEntity
  8
0
100
AcDbCircle
 10
8.380499472049617
 20
6.387051720423691
 30
0.0
 40
0.034
  0
LINE
  5
493
330
1F
100
AcDbEntity
  8
0
100
AcDbLine
 10
8.156260472049616
 20
6.301341720423693
 30
0.0
 11
8.199090472049615
 21
6.461193720423691
 31
0.0
  0
LINE
  5
494
330
1F
100
AcDbEntity
  8
0
100
AcDbLine
 10
8.328914472049614
 20
6.460127720423692
 30
0.0
 11
8.290233472049617
 21
6.386801720423692
 31
0.0
  0
LINE
  5
495
330
1F
100
AcDbEntity
  8
0
100
AcDbLine
 10
8.290233472049617
 20
6.386801720423692
 30
0.0
 11
8.328914472049614
 21
6.313014720423693
 31
0.0
  0
ARC
  5
496
330
1F
100
AcDbEntity
  8
0
100
AcDbCircle
 10
8.098304472049619
 20
6.316870720423693
 30
0.0
 40
0.06
100
AcDbArc
 50
270.0
 51
345.0006259999999
  0
LINE
  5
497
330
1F
100
AcDbEntity
  8
0
100
AcDbLine
 10
8.431704472049617
 20
6.313014720423693
 30
0.0
 11
8.328914472049614
 21
6.313014720423693
 31
0.0
  0
LINE
  5
498
330
1F
100
AcDbEntity
  8
0
100
AcDbLine
 10
8.432022472049617
 20
6.460127720423692
 30
0.0
 11
8.328914472049614
 21
6.460127720423692
 31
0.0
  0
ARC
  5
499
330
1F
100
AcDbEntity
  8
0
100
AcDbCircle
 10
8.441429472049616
 20
6.191961720423693
 30
0.0
 40
0.04
100
AcDbArc
 50
270.0
 51
0.0
  0
TEXT
  5
49A
330
1F
100
AcDbEntity
  8
0
100
AcDbText
 10
8.172456472049617
 20
6.496644720423692
 30
0.0
 40
0.1
  1
5
  7
ROMANS
100
AcDbText
  0
LINE
  5
49B
330
1F
100
AcDbEntity
  8
0
100
AcDbLine
 10
8.481429472049619
 20
6.191961720423693
 30
0.0
 11
8.481429472049619
 21
6.581642720423692
 31
0.0
  0
ARC
  5
49C
330
1F
100
AcDbEntity
  8
0
100
AcDbCircle
 10
8.141134472049618
 20
6.476722720423692
 30
0.0
 40
0.06
100
AcDbArc
 50
345.0006259999999
 51
90.0
  0
CIRCLE
  5
49D
330
1F
100
AcDbEntity
  8
0
100
AcDbCircle
 10
7.933451472049615
 20
6.480563720423692
 30
0.0
 40
0.026673
  0
CIRCLE
  5
49E
330
1F
100
AcDbEntity
  8
0
100
AcDbCircle
 10
8.040451472049614
 20
6.480563720423692
 30
0.0
 40
0.026673
  0
CIRCLE
  5
49F
330
1F
100
AcDbEntity
  8
0
100
AcDbCircle
 10
7.983079472049617
 20
6.335109720423691
 30
0.0
 40
0.026673
  0
CIRCLE
  5
4A0
330
1F
100
AcDbEntity
  8
0
100
AcDbCircle
 10
7.719451472049616
 20
6.480563720423692
 30
0.0
 40
0.026673
  0
CIRCLE
  5
4A1
330
1F
100
AcDbEntity
  8
0
100
AcDbCircle
 10
7.826451472049615
 20
6.480563720423692
 30
0.0
 40
0.026673
  0
CIRCLE
  5
4A2
330
1F
100
AcDbEntity
  8
0
100
AcDbCircle
 10
7.769079472049618
 20
6.335109720423691
 30
0.0
 40
0.026673
  0
LINE
  5
4A3
330
1F
100
AcDbEntity
  8
0
100
AcDbLine
 10
7.542634472049616
 20
6.301341720423693
 30
0.0
 11
7.499803472049617
 21
6.461193720423691
 31
0.0
  0
ARC
  5
4A4
330
1F
100
AcDbEntity
  8
0
100
AcDbCircle
 10
7.600590472049617
 20
6.316870720423693
 30
0.0
 40
0.06
100
AcDbArc
 50
194.999374
 51
270.0
  0
CIRCLE
  5
4A5
330
1F
100
AcDbEntity
  8
0
100
AcDbCircle
 10
7.612451472049613
 20
6.480563720423692
 30
0.0
 40
0.026673
  0
CIRCLE
  5
4A6
330
1F
100
AcDbEntity
  8
0
100
AcDbCircle
 10
7.662079472049619
 20
6.335109720423691
 30
0.0
 40
0.026673
  0
ARC
  5
4A7
330
1F
100
AcDbEntity
  8
0
100
AcDbCircle
 10
7.231843472049614
 20
6.581642720423692
 30
0.0
 40
0.04
100
AcDbArc
 50
90.0
 51
180.0
  0
CIRCLE
  5
4A8
330
1F
100
AcDbEntity
  8
0
100
AcDbCircle
 10
7.291837472049618
 20
6.387051720423691
 30
0.0
 40
0.034
  0
LINE
  5
4A9
330
1F
100
AcDbEntity
  8
0
100
AcDbLine
 10
7.381622472049617
 20
6.387051720423691
 30
0.0
 11
7.342918472049618
 21
6.460081720423692
 31
0.0
  0
LINE
  5
4AA
330
1F
100
AcDbEntity
  8
0
100
AcDbLine
 10
7.343042472049614
 20
6.313014720423693
 30
0.0
 11
7.381622472049617
 21
6.387051720423691
 31
0.0
  0
LINE
  5
4AB
330
1F
100
AcDbEntity
  8
0
100
AcDbLine
 10
7.343360472049617
 20
6.460127720423692
 30
0.0
 11
7.240252472049615
 21
6.460127720423692
 31
0.0
  0
LINE
  5
4AC
330
1F
100
AcDbEntity
  8
0
100
AcDbLine
 10
7.343042472049614
 20
6.313014720423693
 30
0.0
 11
7.240252472049615
 21
6.313014720423693
 31
0.0
  0
TEXT
  5
4AD
330
1F
100
AcDbEntity
  8
0
100
AcDbText
 10
7.431563472049617
 20
6.194589720423692
 30
0.0
 40
0.1
  1
6
  7
ROMANS
100
AcDbText
  0
LINE
  5
4AE
330
1F
100
AcDbEntity
  8
0
100
AcDbLine
 10
7.201571472049614
 20
6.386801720423692
 30
0.0
 11
7.240252472049615
 21
6.313014720423693
 31
0.0
  0
LINE
  5
4AF
330
1F
100
AcDbEntity
  8
0
100
AcDbLine
 10
7.240252472049615
 20
6.460127720423692
 30
0.0
 11
7.201571472049614
 21
6.386801720423692
 31
0.0
  0
TEXT
  5
4B0
330
1F
100
AcDbEntity
  8
0
100
AcDbText
 10
7.390834472049615
 20
6.480220720423691
 30
0.0
 40
0.1
  1
1
  7
ROMANS
100
AcDbText
  0
ARC
  5
4B1
330
1F
100
AcDbEntity
  8
0
100
AcDbCircle
 10
7.231843472049614
 20
6.191961720423693
 30
0.0
 40
0.04
100
AcDbArc
 50
180.0
 51
270.0
  0
LINE
  5
4B2
330
1F
100
AcDbEntity
  8
0
100
AcDbLine
 10
7.191843472049615
 20
6.581642720423692
 30
0.0
 11
7.191843472049615
 21
6.191961720423693
 31
0.0
  0
ARC
  5
4B3
330
1F
100
AcDbEntity
  8
0
100
AcDbCircle
 10
7.557759472049617
 20
6.476722720423692
 30
0.0
 40
0.06
100
AcDbArc
 50
90.0
 51
194.999374
  0
CIRCLE
  5
4B4
330
1F
100
AcDbEntity
  8
0
100
AcDbCircle
 10
7.876079472049617
 20
6.335109720423691
 30
0.0
 40
0.026673
  0
LINE
  5
4B5
330
1F
100
AcDbEntity
  8
0
100
AcDbLine
 10
8.441429472049616
 20
6.621642720423693
 30
0.0
 11
7.231843472049614
 21
6.621642720423693
 31
0.0
  0
LINE
  5
4B6
330
1F
100
AcDbEntity
  8
0
100
AcDbLine
 10
7.231843472049614
 20
6.151961720423692
 30
0.0
 11
8.441429472049616
 21
6.151961720423692
 31
0.0
  0
LINE
  5
4B7
330
1F
100
AcDbEntity
  8
0
100
AcDbLine
 10
8.098304472049619
 20
6.256870720423691
 30
0.0
 11
7.600590472049617
 21
6.256870720423691
 31
0.0
  0
LINE
  5
4B8
330
1F
100
AcDbEntity
  8
0
100
AcDbLine
 10
8.141134472049618
 20
6.536722720423693
 30
0.0
 11
7.557759472049617
 21
6.536722720423693
 31
0.0
  0
TEXT
  5
4B9
330
1F
100
AcDbEntity
  8
0
100
AcDbText
 10
7.17011846248565
 20
5.487606293621531
 30
0.0
 40
0.08
  1
VARIOFACE
 50
270.0
 41
0.65
  7
ROMANS
100
AcDbText
  0
TEXT
  5
4BA
330
1F
100
AcDbEntity
  8
0
100
AcDbText
 10
8.585720883970545
 20
5.088100714170352
 30
0.0
 40
0.08
  1
VARIOFACE
 50
90.0
 41
0.65
  7
ROMANS
100
AcDbText
  0
LINE
  5
4BB
330
1F
100
AcDbEntity
  8
0
100
AcDbLine
 10
8.620696941848066
 20
5.505232491612758
 30
0.0
 11
7.130747818411599
 21
5.505232491612751
 31
0.0
  0
LINE
  5
4BC
330
1F
100
AcDbEntity
  8
0
100
AcDbLine
 10
7.290696941848068
 20
5.11368919627106
 30
0.0
 11
8.46069694184807
 21
5.11368919627106
 31
0.0
  0
LINE
  5
4BD
330
1F
100
AcDbEntity
  8
0
100
AcDbLine
 10
7.290696941848068
 20
5.461689196271066
 30
0.0
 11
8.46069694184807
 21
5.461689196271066
 31
0.0
  0
LINE
  5
4BE
330
1F
100
AcDbEntity
  8
0
100
AcDbLine
 10
8.46069694184807
 20
5.070145900929375
 30
0.0
 11
8.46069694184807
 21
5.505232491612751
 31
0.0
  0
LINE
  5
4BF
330
1F
100
AcDbEntity
  8
0
100
AcDbLine
 10
7.290696941848068
 20
5.070145900929375
 30
0.0
 11
7.290696941848068
 21
5.505232491612751
 31
0.0
  0
LINE
  5
4C0
330
1F
100
AcDbEntity
  8
0
100
AcDbLine
 10
7.130747818411599
 20
5.070145900929375
 30
0.0
 11
8.620696941848066
 21
5.070145900929375
 31
0.0
  0
LINE
  5
4C1
330
1F
100
AcDbEntity
  8
0
100
AcDbLine
 10
7.130747818411599
 20
5.505232491612751
 30
0.0
 11
7.130747818411599
 21
5.070145900929375
 31
0.0
  0
LINE
  5
4C2
330
1F
100
AcDbEntity
  8
0
100
AcDbLine
 10
8.620696941848066
 20
5.070145900929375
 30
0.0
 11
8.620696941848066
 21
5.505232491612758
 31
0.0
  0
LINE
  5
4C3
330
1F
100
AcDbEntity
  8
0
100
AcDbLine
 10
7.394586594518699
 20
3.768709652945993
 30
0.0
 11
7.394586594518699
 21
3.895709652945988
 31
0.0
  0
LINE
  5
4C4
330
1F
100
AcDbEntity
  8
0
100
AcDbLine
 10
8.27868696823171
 20
3.768709652945993
 30
0.0
 11
8.27868696823171
 21
3.895709652945988
 31
0.0
  0
CIRCLE
  5
4C5
330
1F
100
AcDbEntity
  8
0
100
AcDbCircle
 10
8.278822989569228
 20
4.170315231170484
 30
0.0
 40
0.075
  0
CIRCLE
  5
4C6
330
1F
100
AcDbEntity
  8
0
100
AcDbCircle
 10
8.278381998899995
 20
4.169698250152507
 30
0.0
 40
0.0662902360756252
  0
LINE
  5
4C7
330
1F
100
AcDbEntity
  8
0
100
AcDbLine
 10
8.238219721512074
 20
4.116959394704384
 30
0.0
 11
8.333788405505195
 21
4.206092281339799
 31
0.0
  0
LINE
  5
4C8
330
1F
100
AcDbEntity
  8
0
100
AcDbLine
 10
8.222579187001251
 20
4.13391499173246
 30
0.0
 11
8.317962576263923
 21
4.222875061776569
 31
0.0
  0
LINE
  5
4C9
330
1F
100
AcDbEntity
  8
0
100
AcDbLine
 10
8.138219721512093
 20
4.55794639297861
 30
0.0
 11
8.23378840550518
 21
4.64707927961399
 31
0.0
  0
LINE
  5
4CA
330
1F
100
AcDbEntity
  8
0
100
AcDbLine
 10
8.122579187001271
 20
4.574901990006686
 30
0.0
 11
8.2179625762639
 21
4.66386206005076
 31
0.0
  0
CIRCLE
  5
4CB
330
1F
100
AcDbEntity
  8
0
100
AcDbCircle
 10
8.178822989569226
 20
4.611302229444692
 30
0.0
 40
0.075
  0
CIRCLE
  5
4CC
330
1F
100
AcDbEntity
  8
0
100
AcDbCircle
 10
8.178381998899993
 20
4.610685248426715
 30
0.0
 40
0.0662902360756252
  0
CIRCLE
  5
4CD
330
1F
100
AcDbEntity
  8
0
100
AcDbCircle
 10
8.079222989569231
 20
4.170315231170484
 30
0.0
 40
0.075
  0
CIRCLE
  5
4CE
330
1F
100
AcDbEntity
  8
0
100
AcDbCircle
 10
8.078781998899998
 20
4.169698250152507
 30
0.0
 40
0.0662902360756252
  0
LINE
  5
4CF
330
1F
100
AcDbEntity
  8
0
100
AcDbLine
 10
8.03861972151207
 20
4.116959394704384
 30
0.0
 11
8.134188405505199
 21
4.206092281339799
 31
0.0
  0
LINE
  5
4D0
330
1F
100
AcDbEntity
  8
0
100
AcDbLine
 10
8.022979187001254
 20
4.13391499173246
 30
0.0
 11
8.118362576263919
 21
4.222875061776569
 31
0.0
  0
LINE
  5
4D1
330
1F
100
AcDbEntity
  8
0
100
AcDbLine
 10
7.93861972151209
 20
4.55794639297861
 30
0.0
 11
8.034188405505176
 21
4.64707927961399
 31
0.0
  0
LINE
  5
4D2
330
1F
100
AcDbEntity
  8
0
100
AcDbLine
 10
7.922979187001267
 20
4.574901990006686
 30
0.0
 11
8.018362576263903
 21
4.66386206005076
 31
0.0
  0
CIRCLE
  5
4D3
330
1F
100
AcDbEntity
  8
0
100
AcDbCircle
 10
7.97922298956923
 20
4.611302229444692
 30
0.0
 40
0.075
  0
CIRCLE
  5
4D4
330
1F
100
AcDbEntity
  8
0
100
AcDbCircle
 10
7.978781998899997
 20
4.610685248426715
 30
0.0
 40
0.0662902360756252
  0
CIRCLE
  5
4D5
330
1F
100
AcDbEntity
  8
0
100
AcDbCircle
 10
7.879622989569227
 20
4.170315231170484
 30
0.0
 40
0.075
  0
CIRCLE
  5
4D6
330
1F
100
AcDbEntity
  8
0
100
AcDbCircle
 10
7.879181998899994
 20
4.169698250152507
 30
0.0
 40
0.0662902360756252
  0
LINE
  5
4D7
330
1F
100
AcDbEntity
  8
0
100
AcDbLine
 10
7.839019721512073
 20
4.116959394704384
 30
0.0
 11
7.934588405505195
 21
4.206092281339799
 31
0.0
  0
LINE
  5
4D8
330
1F
100
AcDbEntity
  8
0
100
AcDbLine
 10
7.823379187001251
 20
4.13391499173246
 30
0.0
 11
7.918762576263922
 21
4.222875061776569
 31
0.0
  0
LINE
  5
4D9
330
1F
100
AcDbEntity
  8
0
100
AcDbLine
 10
7.739019721512093
 20
4.55794639297861
 30
0.0
 11
7.834588405505179
 21
4.64707927961399
 31
0.0
  0
LINE
  5
4DA
330
1F
100
AcDbEntity
  8
0
100
AcDbLine
 10
7.72337918700127
 20
4.574901990006686
 30
0.0
 11
7.8187625762639
 21
4.66386206005076
 31
0.0
  0
CIRCLE
  5
4DB
330
1F
100
AcDbEntity
  8
0
100
AcDbCircle
 10
7.779622989569226
 20
4.611302229444692
 30
0.0
 40
0.075
  0
CIRCLE
  5
4DC
330
1F
100
AcDbEntity
  8
0
100
AcDbCircle
 10
7.779181998899993
 20
4.610685248426715
 30
0.0
 40
0.0662902360756252
  0
CIRCLE
  5
4DD
330
1F
100
AcDbEntity
  8
0
100
AcDbCircle
 10
7.680022989569231
 20
4.170315231170484
 30
0.0
 40
0.075
  0
CIRCLE
  5
4DE
330
1F
100
AcDbEntity
  8
0
100
AcDbCircle
 10
7.679581998899998
 20
4.169698250152507
 30
0.0
 40
0.0662902360756252
  0
LINE
  5
4DF
330
1F
100
AcDbEntity
  8
0
100
AcDbLine
 10
7.639419721512069
 20
4.116959394704384
 30
0.0
 11
7.734988405505198
 21
4.206092281339799
 31
0.0
  0
LINE
  5
4E0
330
1F
100
AcDbEntity
  8
0
100
AcDbLine
 10
7.623779187001254
 20
4.13391499173246
 30
0.0
 11
7.719162576263919
 21
4.222875061776569
 31
0.0
  0
LINE
  5
4E1
330
1F
100
AcDbEntity
  8
0
100
AcDbLine
 10
7.539419721512089
 20
4.55794639297861
 30
0.0
 11
7.634988405505175
 21
4.64707927961399
 31
0.0
  0
LINE
  5
4E2
330
1F
100
AcDbEntity
  8
0
100
AcDbLine
 10
7.523779187001274
 20
4.574901990006686
 30
0.0
 11
7.619162576263903
 21
4.66386206005076
 31
0.0
  0
CIRCLE
  5
4E3
330
1F
100
AcDbEntity
  8
0
100
AcDbCircle
 10
7.580022989569229
 20
4.611302229444692
 30
0.0
 40
0.075
  0
CIRCLE
  5
4E4
330
1F
100
AcDbEntity
  8
0
100
AcDbCircle
 10
7.579581998899996
 20
4.610685248426715
 30
0.0
 40
0.0662902360756252
  0
CIRCLE
  5
4E5
330
1F
100
AcDbEntity
  8
0
100
AcDbCircle
 10
7.480422989569227
 20
4.170315231170484
 30
0.0
 40
0.075
  0
CIRCLE
  5
4E6
330
1F
100
AcDbEntity
  8
0
100
AcDbCircle
 10
7.479981998899994
 20
4.169698250152507
 30
0.0
 40
0.0662902360756252
  0
LINE
  5
4E7
330
1F
100
AcDbEntity
  8
0
100
AcDbLine
 10
7.439819721512073
 20
4.116959394704384
 30
0.0
 11
7.535388405505194
 21
4.206092281339799
 31
0.0
  0
LINE
  5
4E8
330
1F
100
AcDbEntity
  8
0
100
AcDbLine
 10
7.42417918700125
 20
4.13391499173246
 30
0.0
 11
7.519562576263922
 21
4.222875061776569
 31
0.0
  0
LINE
  5
4E9
330
1F
100
AcDbEntity
  8
0
100
AcDbLine
 10
7.339819721512093
 20
4.55794639297861
 30
0.0
 11
7.435388405505179
 21
4.64707927961399
 31
0.0
  0
LINE
  5
4EA
330
1F
100
AcDbEntity
  8
0
100
AcDbLine
 10
7.32417918700127
 20
4.574901990006686
 30
0.0
 11
7.419562576263899
 21
4.66386206005076
 31
0.0
  0
CIRCLE
  5
4EB
330
1F
100
AcDbEntity
  8
0
100
AcDbCircle
 10
7.380422989569225
 20
4.611302229444692
 30
0.0
 40
0.075
  0
CIRCLE
  5
4EC
330
1F
100
AcDbEntity
  8
0
100
AcDbCircle
 10
7.379981998899992
 20
4.610685248426715
 30
0.0
 40
0.0662902360756252
  0
LINE
  5
4ED
330
1F
100
AcDbEntity
  8
0
100
AcDbLine
 10
8.364392079582707
 20
4.353502766061087
 30
0.0
 11
8.364392079582707
 21
4.299085278497564
 31
0.0
  0
LINE
  5
4EE
330
1F
100
AcDbEntity
  8
0
100
AcDbLine
 10
7.288073459811805
 20
4.841474360865074
 30
0.0
 11
8.285200102938603
 21
4.841474360865067
 31
0.0
  0
LINE
  5
4EF
330
1F
100
AcDbEntity
  8
0
100
AcDbLine
 10
8.138276842045229
 20
4.802703724722238
 30
0.0
 11
8.240347670275312
 21
4.802703724722238
 31
0.0
  0
LINE
  5
4F0
330
1F
100
AcDbEntity
  8
0
100
AcDbLine
 10
7.938276842045226
 20
4.802703724722238
 30
0.0
 11
8.040347670275316
 21
4.802703724722238
 31
0.0
  0
LINE
  5
4F1
330
1F
100
AcDbEntity
  8
0
100
AcDbLine
 10
8.164392079582704
 20
4.353502766061087
 30
0.0
 11
8.164392079582704
 21
4.299085278497564
 31
0.0
  0
LINE
  5
4F2
330
1F
100
AcDbEntity
  8
0
100
AcDbLine
 10
8.214121138021752
 20
4.299085278497564
 30
0.0
 11
8.214121138021752
 21
4.353502766061087
 31
0.0
  0
LINE
  5
4F3
330
1F
100
AcDbEntity
  8
0
100
AcDbLine
 10
8.285200102938603
 20
4.413993609787631
 30
0.0
 11
8.285200102938603
 21
4.411426747166714
 31
0.0
  0
LINE
  5
4F4
330
1F
100
AcDbEntity
  8
0
100
AcDbLine
 10
7.964392079582708
 20
4.353502766061087
 30
0.0
 11
7.964392079582708
 21
4.299085278497564
 31
0.0
  0
LINE
  5
4F5
330
1F
100
AcDbEntity
  8
0
100
AcDbLine
 10
8.014121138021749
 20
4.299085278497564
 30
0.0
 11
8.014121138021749
 21
4.353502766061087
 31
0.0
  0
LINE
  5
4F6
330
1F
100
AcDbEntity
  8
0
100
AcDbLine
 10
8.014121138021749
 20
4.353502766061087
 30
0.0
 11
8.164392079582704
 21
4.353502766061087
 31
0.0
  0
LINE
  5
4F7
330
1F
100
AcDbEntity
  8
0
100
AcDbLine
 10
7.73827684204523
 20
4.802703724722238
 30
0.0
 11
7.840347670275313
 21
4.802703724722238
 31
0.0
  0
LINE
  5
4F8
330
1F
100
AcDbEntity
  8
0
100
AcDbLine
 10
7.540635704560358
 20
4.802703724722238
 30
0.0
 11
7.642706532790448
 21
4.802703724722238
 31
0.0
  0
LINE
  5
4F9
330
1F
100
AcDbEntity
  8
0
100
AcDbLine
 10
7.766750942097836
 20
4.353502766061087
 30
0.0
 11
7.766750942097836
 21
4.299085278497564
 31
0.0
  0
LINE
  5
4FA
330
1F
100
AcDbEntity
  8
0
100
AcDbLine
 10
7.814121138021754
 20
4.299085278497564
 30
0.0
 11
7.814121138021754
 21
4.353502766061087
 31
0.0
  0
LINE
  5
4FB
330
1F
100
AcDbEntity
  8
0
100
AcDbLine
 10
7.616480000536881
 20
4.299085278497564
 30
0.0
 11
7.616480000536881
 21
4.353502766061087
 31
0.0
  0
LINE
  5
4FC
330
1F
100
AcDbEntity
  8
0
100
AcDbLine
 10
7.56675094209784
 20
4.353502766061087
 30
0.0
 11
7.56675094209784
 21
4.299085278497564
 31
0.0
  0
LINE
  5
4FD
330
1F
100
AcDbEntity
  8
0
100
AcDbLine
 10
7.616480000536881
 20
4.353502766061087
 30
0.0
 11
7.766750942097836
 21
4.353502766061087
 31
0.0
  0
LINE
  5
4FE
330
1F
100
AcDbEntity
  8
0
100
AcDbLine
 10
7.814121138021754
 20
4.353502766061087
 30
0.0
 11
7.964392079582708
 21
4.353502766061087
 31
0.0
  0
LINE
  5
4FF
330
1F
100
AcDbEntity
  8
0
100
AcDbLine
 10
7.288073459811805
 20
4.411426747166711
 30
0.0
 11
8.385200102938608
 21
4.411426747166711
 31
0.0
  0
LINE
  5
500
330
1F
100
AcDbEntity
  8
0
100
AcDbLine
 10
7.288073459811805
 20
4.739516284178165
 30
0.0
 11
8.285071108245212
 21
4.739516284178165
 31
0.0
  0
LINE
  5
501
330
1F
100
AcDbEntity
  8
0
100
AcDbLine
 10
7.288073459811805
 20
4.513984844791888
 30
0.0
 11
8.285071108245212
 21
4.513984844791885
 31
0.0
  0
LINE
  5
502
330
1F
100
AcDbEntity
  8
0
100
AcDbLine
 10
7.540635704560358
 20
4.841720036560236
 30
0.0
 11
7.540635704560358
 21
4.802703724722238
 31
0.0
  0
LINE
  5
503
330
1F
100
AcDbEntity
  8
0
100
AcDbLine
 10
7.642706532790448
 20
4.802703724722238
 30
0.0
 11
7.642706532790448
 21
4.841720036560236
 31
0.0
  0
LINE
  5
504
330
1F
100
AcDbEntity
  8
0
100
AcDbLine
 10
7.886299486232552
 20
4.84147436086507
 30
0.0
 11
7.886299486232552
 21
4.413993609787631
 31
0.0
  0
LINE
  5
505
330
1F
100
AcDbEntity
  8
0
100
AcDbLine
 10
7.840347670275313
 20
4.802703724722238
 30
0.0
 11
7.840347670275313
 21
4.841720036560236
 31
0.0
  0
LINE
  5
506
330
1F
100
AcDbEntity
  8
0
100
AcDbLine
 10
7.73827684204523
 20
4.841720036560236
 30
0.0
 11
7.73827684204523
 21
4.802703724722238
 31
0.0
  0
LINE
  5
507
330
1F
100
AcDbEntity
  8
0
100
AcDbLine
 10
8.040347670275316
 20
4.802703724722238
 30
0.0
 11
8.040347670275316
 21
4.841720036560236
 31
0.0
  0
LINE
  5
508
330
1F
100
AcDbEntity
  8
0
100
AcDbLine
 10
7.938276842045226
 20
4.841720036560236
 30
0.0
 11
7.938276842045226
 21
4.802703724722238
 31
0.0
  0
LINE
  5
509
330
1F
100
AcDbEntity
  8
0
100
AcDbLine
 10
8.240347670275312
 20
4.802703724722238
 30
0.0
 11
8.240347670275312
 21
4.841720036560236
 31
0.0
  0
LINE
  5
50A
330
1F
100
AcDbEntity
  8
0
100
AcDbLine
 10
8.138276842045229
 20
4.841720036560236
 30
0.0
 11
8.138276842045229
 21
4.802703724722238
 31
0.0
  0
LINE
  5
50B
330
1F
100
AcDbEntity
  8
0
100
AcDbLine
 10
8.285200102938603
 20
4.841474360865067
 30
0.0
 11
8.285200102938603
 21
4.413993609787631
 31
0.0
  0
LINE
  5
50C
330
1F
100
AcDbEntity
  8
0
100
AcDbLine
 10
8.214121138021752
 20
4.353502766061087
 30
0.0
 11
8.364392079582707
 21
4.353502766061087
 31
0.0
  0
LINE
  5
50D
330
1F
100
AcDbEntity
  8
0
100
AcDbLine
 10
7.388073459811803
 20
4.298529285903956
 30
0.0
 11
8.382312005911991
 21
4.29852928590396
 31
0.0
  0
LINE
  5
50E
330
1F
100
AcDbEntity
  8
0
100
AcDbLine
 10
7.388073459811806
 20
3.970439748892506
 30
0.0
 11
8.385200102938604
 21
3.970439748892502
 31
0.0
  0
LINE
  5
50F
330
1F
100
AcDbEntity
  8
0
100
AcDbLine
 10
7.388073459811806
 20
4.072997846517672
 30
0.0
 11
8.382312005911991
 21
4.072997846517676
 31
0.0
  0
LINE
  5
510
330
1F
100
AcDbEntity
  8
0
100
AcDbLine
 10
7.986299486232546
 20
4.408720142257688
 30
0.0
 11
7.986299486232546
 21
3.970439748892502
 31
0.0
  0
LINE
  5
511
330
1F
100
AcDbEntity
  8
0
100
AcDbLine
 10
8.385200102938608
 20
4.411426747166711
 30
0.0
 11
8.385200102938604
 21
3.970439748892502
 31
0.0
  0
LINE
  5
512
330
1F
100
AcDbEntity
  8
0
100
AcDbLine
 10
7.340635704560362
 20
4.802703724722238
 30
0.0
 11
7.442706532790445
 21
4.802703724722238
 31
0.0
  0
LINE
  5
513
330
1F
100
AcDbEntity
  8
0
100
AcDbLine
 10
7.416480000536878
 20
4.299085278497564
 30
0.0
 11
7.416480000536878
 21
4.353502766061087
 31
0.0
  0
LINE
  5
514
330
1F
100
AcDbEntity
  8
0
100
AcDbLine
 10
7.340635704560362
 20
4.841720036560236
 30
0.0
 11
7.340635704560362
 21
4.802703724722238
 31
0.0
  0
LINE
  5
515
330
1F
100
AcDbEntity
  8
0
100
AcDbLine
 10
7.442706532790445
 20
4.802703724722238
 30
0.0
 11
7.442706532790445
 21
4.841720036560236
 31
0.0
  0
LINE
  5
516
330
1F
100
AcDbEntity
  8
0
100
AcDbLine
 10
7.388073459811806
 20
3.970439748892506
 30
0.0
 11
7.388073459811803
 21
4.410178093016121
 31
0.0
  0
LINE
  5
517
330
1F
100
AcDbEntity
  8
0
100
AcDbLine
 10
7.288073459811805
 20
4.411426747166711
 30
0.0
 11
7.288073459811805
 21
4.841474360865074
 31
0.0
  0
LINE
  5
518
330
1F
100
AcDbEntity
  8
0
100
AcDbLine
 10
7.416480000536878
 20
4.353502766061087
 30
0.0
 11
7.56675094209784
 21
4.353502766061087
 31
0.0
  0
ARC
  5
519
330
1F
100
AcDbEntity
  8
0
100
AcDbCircle
 10
8.441429714735612
 20
6.581643057525081
 30
0.0
 40
0.04
100
AcDbArc
 50
0.0000000000001018
 51
90.0
  0
TEXT
  5
51A
330
1F
100
AcDbEntity
  8
0
100
AcDbText
 10
8.171122423037989
 20
6.195162833780214
 30
0.0
 40
0.1
  1
9
  7
ROMANS
100
AcDbText
  0
LINE
  5
51B
330
1F
100
AcDbEntity
  8
0
100
AcDbLine
 10
8.431704930151944
 20
6.313015055877851
 30
0.0
 11
8.470284968564179
 21
6.387051465808124
 31
0.0
  0
LINE
  5
51C
330
1F
100
AcDbEntity
  8
0
100
AcDbLine
 10
8.470284968564179
 20
6.387051465808124
 30
0.0
 11
8.431580108429486
 21
6.460081821990112
 31
0.0
  0
CIRCLE
  5
51D
330
1F
100
AcDbEntity
  8
0
100
AcDbCircle
 10
8.380499795462164
 20
6.387051465808124
 30
0.0
 40
0.034
  0
LINE
  5
51E
330
1F
100
AcDbEntity
  8
0
100
AcDbLine
 10
8.156260179479112
 20
6.301341906392138
 30
0.0
 11
8.199090542518909
 21
6.461193982212261
 31
0.0
  0
LINE
  5
51F
330
1F
100
AcDbEntity
  8
0
100
AcDbLine
 10
8.328914361971065
 20
6.460127551705944
 30
0.0
 11
8.290233079736673
 21
6.386802154738962
 31
0.0
  0
LINE
  5
520
330
1F
100
AcDbEntity
  8
0
100
AcDbLine
 10
8.290233079736673
 20
6.386802154738962
 30
0.0
 11
8.328914361971065
 21
6.313015055877851
 31
0.0
  0
ARC
  5
521
330
1F
100
AcDbEntity
  8
0
100
AcDbCircle
 10
8.098304460265524
 20
6.316870415993374
 30
0.0
 40
0.06
100
AcDbArc
 50
270.0
 51
345.0006258966867
  0
LINE
  5
522
330
1F
100
AcDbEntity
  8
0
100
AcDbLine
 10
8.431704930151944
 20
6.313015055877851
 30
0.0
 11
8.328914361971065
 21
6.313015055877851
 31
0.0
  0
LINE
  5
523
330
1F
100
AcDbEntity
  8
0
100
AcDbLine
 10
8.432022088887791
 20
6.460127551705944
 30
0.0
 11
8.328914361971065
 21
6.460127551705944
 31
0.0
  0
ARC
  5
524
330
1F
100
AcDbEntity
  8
0
100
AcDbCircle
 10
8.441429714735612
 20
6.191961251952843
 30
0.0
 40
0.04
100
AcDbArc
 50
270.0
 51
0.0
  0
TEXT
  5
525
330
1F
100
AcDbEntity
  8
0
100
AcDbText
 10
8.172456473515783
 20
6.496644631787605
 30
0.0
 40
0.1
  1
5
  7
ROMANS
100
AcDbText
  0
LINE
  5
526
330
1F
100
AcDbEntity
  8
0
100
AcDbLine
 10
8.481429714735611
 20
6.191961251952843
 30
0.0
 11
8.481429714735611
 21
6.581643057525081
 31
0.0
  0
ARC
  5
527
330
1F
100
AcDbEntity
  8
0
100
AcDbCircle
 10
8.141134823305321
 20
6.4767224918135
 30
0.0
 40
0.06
100
AcDbArc
 50
345.0006258966864
 51
90.0
  0
CIRCLE
  5
528
330
1F
100
AcDbEntity
  8
0
100
AcDbCircle
 10
7.933451189061944
 20
6.4805633334153
 30
0.0
 40
0.0266728580779585
  0
CIRCLE
  5
529
330
1F
100
AcDbEntity
  8
0
100
AcDbCircle
 10
8.040451189061943
 20
6.4805633334153
 30
0.0
 40
0.0266728580779585
  0
CIRCLE
  5
52A
330
1F
100
AcDbEntity
  8
0
100
AcDbCircle
 10
7.983079778322814
 20
6.335109866512404
 30
0.0
 40
0.0266728580779585
  0
CIRCLE
  5
52B
330
1F
100
AcDbEntity
  8
0
100
AcDbCircle
 10
7.719451189061945
 20
6.4805633334153
 30
0.0
 40
0.0266728580779585
  0
CIRCLE
  5
52C
330
1F
100
AcDbEntity
  8
0
100
AcDbCircle
 10
7.826451189061945
 20
6.4805633334153
 30
0.0
 40
0.0266728580779585
  0
CIRCLE
  5
52D
330
1F
100
AcDbEntity
  8
0
100
AcDbCircle
 10
7.769079778322812
 20
6.335109866512404
 30
0.0
 40
0.0266728580779585
  0
LINE
  5
52E
330
1F
100
AcDbEntity
  8
0
100
AcDbLine
 10
7.542634268548145
 20
6.301341906392138
 30
0.0
 11
7.499803905508347
 21
6.461193982212261
 31
0.0
  0
ARC
  5
52F
330
1F
100
AcDbEntity
  8
0
100
AcDbCircle
 10
7.600589987761733
 20
6.316870415993374
 30
0.0
 40
0.06
100
AcDbArc
 50
194.9993741033137
 51
270.0
  0
CIRCLE
  5
530
330
1F
100
AcDbEntity
  8
0
100
AcDbCircle
 10
7.612451189061946
 20
6.4805633334153
 30
0.0
 40
0.0266728580779585
  0
CIRCLE
  5
531
330
1F
100
AcDbEntity
  8
0
100
AcDbCircle
 10
7.662079778322812
 20
6.335109866512404
 30
0.0
 40
0.0266728580779585
  0
ARC
  5
532
330
1F
100
AcDbEntity
  8
0
100
AcDbCircle
 10
7.231843848014801
 20
6.581643057525081
 30
0.0
 40
0.04
100
AcDbArc
 50
90.0
 51
180.0
  0
CIRCLE
  5
533
330
1F
100
AcDbEntity
  8
0
100
AcDbCircle
 10
7.291837707150577
 20
6.387051465808124
 30
0.0
 40
0.034
  0
LINE
  5
534
330
1F
100
AcDbEntity
  8
0
100
AcDbLine
 10
7.381622880252589
 20
6.387051465808124
 30
0.0
 11
7.342918020117895
 21
6.460081821990112
 31
0.0
  0
LINE
  5
535
330
1F
100
AcDbEntity
  8
0
100
AcDbLine
 10
7.34304284184035
 20
6.313015055877851
 30
0.0
 11
7.381622880252589
 21
6.387051465808124
 31
0.0
  0
LINE
  5
536
330
1F
100
AcDbEntity
  8
0
100
AcDbLine
 10
7.3433600005762
 20
6.460127551705944
 30
0.0
 11
7.240252273659475
 21
6.460127551705944
 31
0.0
  0
LINE
  5
537
330
1F
100
AcDbEntity
  8
0
100
AcDbLine
 10
7.34304284184035
 20
6.313015055877851
 30
0.0
 11
7.240252273659475
 21
6.313015055877851
 31
0.0
  0
TEXT
  5
538
330
1F
100
AcDbEntity
  8
0
100
AcDbText
 10
7.431563792026384
 20
6.194589512867789
 30
0.0
 40
0.1
  1
6
  7
ROMANS
100
AcDbText
  0
LINE
  5
539
330
1F
100
AcDbEntity
  8
0
100
AcDbLine
 10
7.201570991425082
 20
6.386802154738962
 30
0.0
 11
7.240252273659475
 21
6.313015055877851
 31
0.0
  0
LINE
  5
53A
330
1F
100
AcDbEntity
  8
0
100
AcDbLine
 10
7.240252273659475
 20
6.460127551705944
 30
0.0
 11
7.201570991425082
 21
6.386802154738962
 31
0.0
  0
TEXT
  5
53B
330
1F
100
AcDbEntity
  8
0
100
AcDbText
 10
7.390834010912744
 20
6.480220350169997
 30
0.0
 40
0.1
  1
1
  7
ROMANS
100
AcDbText
  0
ARC
  5
53C
330
1F
100
AcDbEntity
  8
0
100
AcDbCircle
 10
7.231843848014801
 20
6.191961251952843
 30
0.0
 40
0.04
100
AcDbArc
 50
180.0
 51
270.0
  0
LINE
  5
53D
330
1F
100
AcDbEntity
  8
0
100
AcDbLine
 10
7.191843848014801
 20
6.581643057525081
 30
0.0
 11
7.191843848014801
 21
6.191961251952843
 31
0.0
  0
ARC
  5
53E
330
1F
100
AcDbEntity
  8
0
100
AcDbCircle
 10
7.557759624721935
 20
6.4767224918135
 30
0.0
 40
0.06
100
AcDbArc
 50
90.0
 51
194.9993741033135
  0
CIRCLE
  5
53F
330
1F
100
AcDbEntity
  8
0
100
AcDbCircle
 10
7.876079778322811
 20
6.335109866512404
 30
0.0
 40
0.0266728580779585
  0
LINE
  5
540
330
1F
100
AcDbEntity
  8
0
100
AcDbLine
 10
8.441429714735612
 20
6.62164305752508
 30
0.0
 11
7.231843848014801
 21
6.62164305752508
 31
0.0
  0
LINE
  5
541
330
1F
100
AcDbEntity
  8
0
100
AcDbLine
 10
7.231843848014801
 20
6.151961251952844
 30
0.0
 11
8.441429714735612
 21
6.151961251952844
 31
0.0
  0
LINE
  5
542
330
1F
100
AcDbEntity
  8
0
100
AcDbLine
 10
8.098304460265524
 20
6.256870415993375
 30
0.0
 11
7.600589987761733
 21
6.256870415993375
 31
0.0
  0
LINE
  5
543
330
1F
100
AcDbEntity
  8
0
100
AcDbLine
 10
8.141134823305321
 20
6.536722491813502
 30
0.0
 11
7.557759624721935
 21
6.536722491813499
 31
0.0
  0
LINE
  5
544
330
1F
100
AcDbEntity
  8
0
100
AcDbLine
 10
4.962352000000002
 20
4.260595829884834
 30
0.0
 11
4.962352000000002
 21
4.703185829884834
 31
0.0
  0
LINE
  5
545
330
1F
100
AcDbEntity
  8
0
100
AcDbLine
 10
4.962351931914586
 20
4.260595935077104
 30
0.0
 11
4.962351931914586
 21
4.70318604811723
 31
0.0
  0
LINE
  5
546
330
1F
100
AcDbEntity
  8
0
100
AcDbLine
 10
4.990715999999999
 20
4.703281829884834
 30
0.0
 11
4.990715999999999
 21
5.305759829884833
 31
0.0
  0
LINE
  5
547
330
1F
100
AcDbEntity
  8
0
100
AcDbLine
 10
4.990716122469088
 20
4.703282256263702
 30
0.0
 11
4.990716122469088
 21
5.305759545128624
 31
0.0
  0
DIMENSION
  5
548
102
{ACAD_XDICTIONARY
360
557
102
}
102
{ACAD_REACTORS
330
562
102
}
330
1F
100
AcDbEntity
  8
0
100
AcDbDimension
  2
*D3
 10
2.176641058017622
 20
4.260595829884834
 30
0.0
 11
2.176641058017622
 21
5.361859329884834
 31
0.0
 70
    32
 71
     5
 42
2.202526999999999
  3
Standard
100
AcDbAlignedDimension
 13
3.554504000000001
 23
6.463122829884833
 33
0.0
 14
3.25
 24
4.260595829884834
 34
0.0
 50
90.0
100
AcDbRotatedDimension
1001
ACAD
1000
DSTYLE
1002
{
1070
   271
1070
     2
1002
}
  0
DIMENSION
  5
563
102
{ACAD_XDICTIONARY
360
571
102
}
102
{ACAD_REACTORS
330
57C
102
}
330
1F
100
AcDbEntity
  8
0
100
AcDbDimension
  2
*D4
 10
8.721586968231711
 20
7.611813307834644
 30
0.0
 11
7.836636720140663
 21
7.611813307834644
 31
0.0
 70
    32
 71
     5
 42
1.769900496182096
  3
Standard
100
AcDbAlignedDimension
 13
6.951686472049615
 23
6.798709720423691
 33
0.0
 14
8.721586968231711
 24
6.798709652945991
 34
0.0
100
AcDbRotatedDimension
1001
ACAD
1000
DSTYLE
1002
{
1070
   271
1070
     2
1002
}
  0
DIMENSION
  5
57D
102
{ACAD_XDICTIONARY
360
58B
102
}
102
{ACAD_REACTORS
330
596
102
}
330
1F
100
AcDbEntity
  8
0
100
AcDbDimension
  2
*D5
 10
9.753129913513561
 20
3.768709652945993
 30
0.0
 11
9.753129913513561
 21
5.283709652945993
 31
0.0
 70
    32
 71
     5
 42
3.029999999999997
  3
Standard
100
AcDbAlignedDimension
 13
8.721586968231711
 23
6.798709652945991
 33
0.0
 14
8.721586968231711
 24
3.768709652945993
 34
0.0
 50
90.0
100
AcDbRotatedDimension
1001
ACAD
1000
DSTYLE
1002
{
1070
   271
1070
     2
1002
}
  0
ENDSEC
  0
SECTION
  2
OBJECTS
  0
DICTIONARY
  5
C
330
0
100
AcDbDictionary
281
     1
  3
ACAD_COLOR
350
73
  3
ACAD_GROUP
350
D
  3
ACAD_LAYOUT
350
1A
  3
ACAD_MATERIAL
350
72
  3
ACAD_MLINESTYLE
350
17
  3
ACAD_PLOTSETTINGS
350
19
  3
ACAD_PLOTSTYLENAME
350
E
  3
ACAD_TABLESTYLE
350
86
  3
AcDbVariableDictionary
350
66
  0
DICTIONARY
  5
13C
330
B2
100
AcDbDictionary
280
     1
281
     1
  3
ACAD_SORTENTS
360
13D
  0
DICTIONARY
  5
557
330
548
100
AcDbDictionary
280
     1
281
     1
  3
ACAD_DIMASSOC
360
562
  0
DICTIONARY
  5
571
330
563
100
AcDbDictionary
280
     1
281
     1
  3
ACAD_DIMASSOC
360
57C
  0
DICTIONARY
  5
58B
330
57D
100
AcDbDictionary
280
     1
281
     1
  3
ACAD_DIMASSOC
360
596
  0
DICTIONARY
  5
73
102
{ACAD_REACTORS
330
C
102
}
330
C
100
AcDbDictionary
281
     1
  0
DICTIONARY
  5
D
102
{ACAD_REACTORS
330
C
102
}
330
C
100
AcDbDictionary
281
     1
  0
DICTIONARY
  5
1A
102
{ACAD_REACTORS
330
C
102
}
330
C
100
AcDbDictionary
281
     1
  3
Layout1
350
59
  3
Layout2
350
5E
  3
Model
350
22
  0
DICTIONARY
  5
72
102
{ACAD_REACTORS
330
C
102
}
330
C
100
AcDbDictionary
281
     1
  0
DICTIONARY
  5
17
102
{ACAD_REACTORS
330
C
102
}
330
C
100
AcDbDictionary
281
     1
  3
Standard
350
18
  0
DICTIONARY
  5
19
102
{ACAD_REACTORS
330
C
102
}
330
C
100
AcDbDictionary
281
     1
  0
ACDBDICTIONARYWDFLT
  5
E
102
{ACAD_REACTORS
330
C
102
}
330
C
100
AcDbDictionary
281
     1
  3
Normal
350
F
100
AcDbDictionaryWithDefault
340
F
  0
DICTIONARY
  5
86
102
{ACAD_REACTORS
330
C
102
}
330
C
100
AcDbDictionary
281
     1
  3
Standard
350
87
  0
DICTIONARY
  5
66
102
{ACAD_REACTORS
330
C
102
}
330
C
100
AcDbDictionary
281
     1
  3
CTABLESTYLE
350
150
  3
DIMASSOC
350
67
  3
HIDETEXT
350
6B
  0
SORTENTSTABLE
  5
13D
102
{ACAD_REACTORS
330
13C
102
}
330
13C
100
AcDbSortentsTable
330
B2
331
129
  5
128
331
127
  5
126
331
125
  5
124
331
123
  5
122
331
12C
  5
12B
331
12A
  5
129
331
121
  5
12D
331
128
  5
127
331
126
  5
125
331
124
  5
123
331
12D
  5
12C
331
122
  5
121
331
12B
  5
12A
  0
DIMASSOC
  5
562
102
{ACAD_REACTORS
330
557
102
}
330
557
100
AcDbDimAssoc
330
548
 90
        3
 70
     0
 71
     0
  1
AcDbOsnapPointRef
 72
    13
331
3C9
 73
     2
 91
        0
 40
0.0
 10
0.0
 20
0.0
 30
2.000000000000000E+50
 75
     0
  1
AcDbOsnapPointRef
 72
     1
331
36B
 73
     2
 91
        0
 40
1.0
 10
0.0
 20
0.0
 30
2.000000000000000E+50
 75
     0
  0
DIMASSOC
  5
57C
102
{ACAD_REACTORS
330
571
102
}
330
571
100
AcDbDimAssoc
330
563
 90
        3
 70
     0
 71
     0
  1
AcDbOsnapPointRef
 72
    13
331
354
 73
     2
 91
        1
 40
0.0
 10
0.0
 20
0.0
 30
2.000000000000000E+50
 75
     0
  1
AcDbOsnapPointRef
 72
     1
331
355
 73
     2
 91
        3
 40
1.0
 10
0.0
 20
0.0
 30
2.000000000000000E+50
 75
     0
  0
DIMASSOC
  5
596
102
{ACAD_REACTORS
330
58B
102
}
330
58B
100
AcDbDimAssoc
330
57D
 90
        3
 70
     0
 71
     0
  1
AcDbOsnapPointRef
 72
     1
331
355
 73
     2
 91
        3
 40
1.0
 10
0.0
 20
0.0
 30
2.000000000000000E+50
 75
     0
  1
AcDbOsnapPointRef
 72
     1
331
355
 73
     2
 91
        2
 40
1.0
 10
0.0
 20
0.0
 30
2.000000000000000E+50
 75
     0
  0
LAYOUT
  5
59
102
{ACAD_REACTORS
330
1A
102
}
330
1A
100
AcDbPlotSettings
  1

  2
None
  4

  6

 40
0.0
 41
0.0
 42
0.0
 43
0.0
 44
0.0
 45
0.0
 46
0.0
 47
0.0
 48
0.0
 49
0.0
140
0.0
141
0.0
142
1.0
143
1.0
 70
   688
 72
     0
 73
     0
 74
     5
  7
monochrome.ctb
 75
    16
147
1.0
 76
     0
 77
     2
 78
   300
148
0.0
149
0.0
100
AcDbLayout
  1
Layout1
 70
     1
 71
     1
 10
0.0
 20
0.0
 11
12.0
 21
9.0
 12
0.0
 22
0.0
 32
0.0
 14
0.0
 24
0.0
 34
0.0
 15
0.0
 25
0.0
 35
0.0
146
0.0
 13
0.0
 23
0.0
 33
0.0
 16
1.0
 26
0.0
 36
0.0
 17
0.0
 27
1.0
 37
0.0
 76
     0
330
58
  0
LAYOUT
  5
5E
102
{ACAD_REACTORS
330
1A
102
}
330
1A
100
AcDbPlotSettings
  1

  2
None
  4

  6

 40
0.0
 41
0.0
 42
0.0
 43
0.0
 44
0.0
 45
0.0
 46
0.0
 47
0.0
 48
0.0
 49
0.0
140
0.0
141
0.0
142
1.0
143
1.0
 70
   688
 72
     0
 73
     0
 74
     5
  7
monochrome.ctb
 75
    16
147
1.0
 76
     0
 77
     2
 78
   300
148
0.0
149
0.0
100
AcDbLayout
  1
Layout2
 70
     1
 71
     2
 10
0.0
 20
0.0
 11
12.0
 21
9.0
 12
0.0
 22
0.0
 32
0.0
 14
0.0
 24
0.0
 34
0.0
 15
0.0
 25
0.0
 35
0.0
146
0.0
 13
0.0
 23
0.0
 33
0.0
 16
1.0
 26
0.0
 36
0.0
 17
0.0
 27
1.0
 37
0.0
 76
     0
330
5D
  0
LAYOUT
  5
22
102
{ACAD_REACTORS
330
1A
102
}
330
1A
100
AcDbPlotSettings
  1

  2
\\Fdlsv03\FDLPR059
  4
Letter
  6

 40
7.143749713897705
 41
5.027085304260253
 42
7.14373779296875
 43
5.027069091796875
 44
215.8999938964844
 45
279.3999938964844
 46
0.0
 47
4.770938533461873
 48
0.0
 49
0.0
140
0.0
141
0.0
142
1.0
143
1.114636483475749
 70
 11956
 72
     0
 73
     1
 74
     1
  7
monochrome.ctb
 75
     0
147
0.8971534799235348
 76
     0
 77
     2
 78
   300
148
0.0093010481555268
149
-0.8301824179829353
100
AcDbLayout
  1
Model
 70
     1
 71
     0
 10
0.0
 20
0.0
 11
12.0
 21
9.0
 12
0.0
 22
0.0
 32
0.0
 14
0.0
 24
0.0
 34
0.0
 15
0.0
 25
0.0
 35
0.0
146
0.0
 13
0.0
 23
0.0
 33
0.0
 16
1.0
 26
0.0
 36
0.0
 17
0.0
 27
1.0
 37
0.0
 76
     0
330
1F
1001
ACAD_PSEXT
1000
\\Fdlsv03\FDLPR059
1000
HP LaserJet 5Si MX
1000
FDL - 4th Floor - Engineering
1000
Formerly FSHPLJ5SI-PCL-ENG
1070
     0
  0
MLINESTYLE
  5
18
102
{ACAD_REACTORS
330
17
102
}
330
17
100
AcDbMlineStyle
  2
STANDARD
 70
     0
  3

 62
   256
 51
90.0
 52
90.0
 71
     2
 49
0.5
 62
   256
  6
BYLAYER
 49
-0.5
 62
   256
  6
BYLAYER
  0
ACDBPLACEHOLDER
  5
F
102
{ACAD_REACTORS
330
E
102
}
330
E
  0
TABLESTYLE
  5
87
102
{ACAD_REACTORS
330
86
102
}
330
86
100
AcDbTableStyle
  3
Standard
 70
     0
 71
     0
 40
0.06
 41
0.06
280
     0
281
     0
  7
Standard
140
0.18
170
     2
 62
     0
 63
     7
283
     0
274
    -2
284
     1
 64
     0
275
    -2
285
     1
 65
     0
276
    -2
286
     1
 66
     0
277
    -2
287
     1
 67
     0
278
    -2
288
     1
 68
     0
279
    -2
289
     1
 69
     0
  7
Standard
140
0.25
170
     5
 62
     0
 63
     7
283
     0
274
    -2
284
     1
 64
     0
275
    -2
285
     1
 65
     0
276
    -2
286
     1
 66
     0
277
    -2
287
     1
 67
     0
278
    -2
288
     1
 68
     0
279
    -2
289
     1
 69
     0
  7
Standard
140
0.18
170
     5
 62
     0
 63
     7
283
     0
274
    -2
284
     1
 64
     0
275
    -2
285
     1
 65
     0
276
    -2
286
     1
 66
     0
277
    -2
287
     1
 67
     0
278
    -2
288
     1
 68
     0
279
    -2
289
     1
 69
     0
  0
DICTIONARYVAR
  5
150
102
{ACAD_REACTORS
330
66
102
}
330
66
100
DictionaryVariables
280
     0
  1
STANDARD
  0
DICTIONARYVAR
  5
67
102
{ACAD_REACTORS
330
66
102
}
330
66
100
DictionaryVariables
280
     0
  1
2
  0
DICTIONARYVAR
  5
6B
102
{ACAD_REACTORS
330
66
102
}
330
66
100
DictionaryVariables
280
     0
  1
1
  0
ENDSEC
  0
EOF
