  0
SECTION
  2
HEADER
  9
$ACADVER
  1
AC1018
  9
$ACADMAINTVER
 70
    76
  9
$DWGCODEPAGE
  3
ANSI_1252
  9
$LASTSAVEDBY
  1
gregory.mumm
  9
$INSBASE
 10
0.0
 20
0.0
 30
0.0
  9
$EXTMIN
 10
-0.0001829992968219
 20
0.0326843471646825
 30
-0.0000000000112498
  9
$EXTMAX
 10
11.40065925163209
 20
8.880111715151127
 30
0.0000000000002956
  9
$LIMMIN
 10
0.0
 20
0.0
  9
$LIMMAX
 10
12.0
 20
9.0
  9
$ORTHOMODE
 70
     0
  9
$REGENMODE
 70
     1
  9
$FILLMODE
 70
     1
  9
$QTEXTMODE
 70
     0
  9
$MIRRTEXT
 70
     0
  9
$LTSCALE
 40
1.0
  9
$ATTMODE
 70
     1
  9
$TEXTSIZE
 40
0.2
  9
$TRACEWID
 40
0.05
  9
$TEXTSTYLE
  7
Standard
  9
$CLAYER
  8
0
  9
$CELTYPE
  6
ByLayer
  9
$CECOLOR
 62
   256
  9
$CELTSCALE
 40
1.0
  9
$DISPSILH
 70
     0
  9
$DIMSCALE
 40
1.0
  9
$DIMASZ
 40
0.18
  9
$DIMEXO
 40
0.0625
  9
$DIMDLI
 40
0.38
  9
$DIMRND
 40
0.0
  9
$DIMDLE
 40
0.0
  9
$DIMEXE
 40
0.18
  9
$DIMTP
 40
0.0
  9
$DIMTM
 40
0.0
  9
$DIMTXT
 40
0.18
  9
$DIMCEN
 40
0.09
  9
$DIMTSZ
 40
0.0
  9
$DIMTOL
 70
     0
  9
$DIMLIM
 70
     0
  9
$DIMTIH
 70
     1
  9
$DIMTOH
 70
     1
  9
$DIMSE1
 70
     0
  9
$DIMSE2
 70
     0
  9
$DIMTAD
 70
     0
  9
$DIMZIN
 70
     0
  9
$DIMBLK
  1

  9
$DIMASO
 70
     1
  9
$DIMSHO
 70
     1
  9
$DIMPOST
  1

  9
$DIMAPOST
  1

  9
$DIMALT
 70
     0
  9
$DIMALTD
 70
     2
  9
$DIMALTF
 40
25.4
  9
$DIMLFAC
 40
1.0
  9
$DIMTOFL
 70
     0
  9
$DIMTVP
 40
0.0
  9
$DIMTIX
 70
     0
  9
$DIMSOXD
 70
     0
  9
$DIMSAH
 70
     0
  9
$DIMBLK1
  1

  9
$DIMBLK2
  1

  9
$DIMSTYLE
  2
Standard
  9
$DIMCLRD
 70
     0
  9
$DIMCLRE
 70
     0
  9
$DIMCLRT
 70
     0
  9
$DIMTFAC
 40
1.0
  9
$DIMGAP
 40
0.09
  9
$DIMJUST
 70
     0
  9
$DIMSD1
 70
     0
  9
$DIMSD2
 70
     0
  9
$DIMTOLJ
 70
     1
  9
$DIMTZIN
 70
     0
  9
$DIMALTZ
 70
     0
  9
$DIMALTTZ
 70
     0
  9
$DIMUPT
 70
     0
  9
$DIMDEC
 70
     4
  9
$DIMTDEC
 70
     4
  9
$DIMALTU
 70
     2
  9
$DIMALTTD
 70
     2
  9
$DIMTXSTY
  7
Standard
  9
$DIMAUNIT
 70
     0
  9
$DIMADEC
 70
     0
  9
$DIMALTRND
 40
0.0
  9
$DIMAZIN
 70
     0
  9
$DIMDSEP
 70
    46
  9
$DIMATFIT
 70
     3
  9
$DIMFRAC
 70
     0
  9
$DIMLDRBLK
  1

  9
$DIMLUNIT
 70
     2
  9
$DIMLWD
 70
    -2
  9
$DIMLWE
 70
    -2
  9
$DIMTMOVE
 70
     0
  9
$LUNITS
 70
     2
  9
$LUPREC
 70
     4
  9
$SKETCHINC
 40
0.1
  9
$FILLETRAD
 40
0.0
  9
$AUNITS
 70
     0
  9
$AUPREC
 70
     0
  9
$MENU
  1
.
  9
$ELEVATION
 40
0.0
  9
$PELEVATION
 40
0.0
  9
$THICKNESS
 40
0.0
  9
$LIMCHECK
 70
     0
  9
$CHAMFERA
 40
0.0
  9
$CHAMFERB
 40
0.0
  9
$CHAMFERC
 40
0.0
  9
$CHAMFERD
 40
0.0
  9
$SKPOLY
 70
     0
  9
$TDCREATE
 40
2454354.552454618
  9
$TDUCREATE
 40
2454354.802454618
  9
$TDUPDATE
 40
2455251.430463866
  9
$TDUUPDATE
 40
2455251.680463866
  9
$TDINDWG
 40
0.0659673264
  9
$TDUSRTIMER
 40
0.0659671412
  9
$USRTIMER
 70
     1
  9
$ANGBASE
 50
0.0
  9
$ANGDIR
 70
     0
  9
$PDMODE
 70
     0
  9
$PDSIZE
 40
0.0
  9
$PLINEWID
 40
0.0
  9
$SPLFRAME
 70
     0
  9
$SPLINETYPE
 70
     6
  9
$SPLINESEGS
 70
     8
  9
$HANDSEED
  5
C41
  9
$SURFTAB1
 70
     6
  9
$SURFTAB2
 70
     6
  9
$SURFTYPE
 70
     6
  9
$SURFU
 70
     6
  9
$SURFV
 70
     6
  9
$UCSBASE
  2

  9
$UCSNAME
  2

  9
$UCSORG
 10
0.0
 20
0.0
 30
0.0
  9
$UCSXDIR
 10
1.0
 20
0.0
 30
0.0
  9
$UCSYDIR
 10
0.0
 20
1.0
 30
0.0
  9
$UCSORTHOREF
  2

  9
$UCSORTHOVIEW
 70
     0
  9
$UCSORGTOP
 10
0.0
 20
0.0
 30
0.0
  9
$UCSORGBOTTOM
 10
0.0
 20
0.0
 30
0.0
  9
$UCSORGLEFT
 10
0.0
 20
0.0
 30
0.0
  9
$UCSORGRIGHT
 10
0.0
 20
0.0
 30
0.0
  9
$UCSORGFRONT
 10
0.0
 20
0.0
 30
0.0
  9
$UCSORGBACK
 10
0.0
 20
0.0
 30
0.0
  9
$PUCSBASE
  2

  9
$PUCSNAME
  2

  9
$PUCSORG
 10
0.0
 20
0.0
 30
0.0
  9
$PUCSXDIR
 10
1.0
 20
0.0
 30
0.0
  9
$PUCSYDIR
 10
0.0
 20
1.0
 30
0.0
  9
$PUCSORTHOREF
  2

  9
$PUCSORTHOVIEW
 70
     0
  9
$PUCSORGTOP
 10
0.0
 20
0.0
 30
0.0
  9
$PUCSORGBOTTOM
 10
0.0
 20
0.0
 30
0.0
  9
$PUCSORGLEFT
 10
0.0
 20
0.0
 30
0.0
  9
$PUCSORGRIGHT
 10
0.0
 20
0.0
 30
0.0
  9
$PUCSORGFRONT
 10
0.0
 20
0.0
 30
0.0
  9
$PUCSORGBACK
 10
0.0
 20
0.0
 30
0.0
  9
$USERI1
 70
     0
  9
$USERI2
 70
     0
  9
$USERI3
 70
     0
  9
$USERI4
 70
     0
  9
$USERI5
 70
     0
  9
$USERR1
 40
0.0
  9
$USERR2
 40
0.0
  9
$USERR3
 40
0.0
  9
$USERR4
 40
0.0
  9
$USERR5
 40
0.0
  9
$WORLDVIEW
 70
     1
  9
$SHADEDGE
 70
     3
  9
$SHADEDIF
 70
    70
  9
$TILEMODE
 70
     1
  9
$MAXACTVP
 70
    64
  9
$PINSBASE
 10
0.0
 20
0.0
 30
0.0
  9
$PLIMCHECK
 70
     0
  9
$PEXTMIN
 10
0.0
 20
0.0
 30
0.0
  9
$PEXTMAX
 10
0.0
 20
0.0
 30
0.0
  9
$PLIMMIN
 10
0.0
 20
0.0
  9
$PLIMMAX
 10
12.0
 20
9.0
  9
$UNITMODE
 70
     0
  9
$VISRETAIN
 70
     1
  9
$PLINEGEN
 70
     0
  9
$PSLTSCALE
 70
     1
  9
$TREEDEPTH
 70
  3020
  9
$CMLSTYLE
  2
Standard
  9
$CMLJUST
 70
     0
  9
$CMLSCALE
 40
1.0
  9
$PROXYGRAPHICS
 70
     1
  9
$MEASUREMENT
 70
     0
  9
$CELWEIGHT
370
    -1
  9
$ENDCAPS
280
     0
  9
$JOINSTYLE
280
     0
  9
$LWDISPLAY
290
     0
  9
$INSUNITS
 70
     1
  9
$HYPERLINKBASE
  1

  9
$STYLESHEET
  1
monochrome.ctb
  9
$XEDIT
290
     1
  9
$CEPSNTYPE
380
     0
  9
$PSTYLEMODE
290
     1
  9
$FINGERPRINTGUID
  2
{75015E83-7B11-443E-B6AE-42B628D33456}
  9
$VERSIONGUID
  2
{7ABA09D2-6414-4732-8701-B1057B6F6C11}
  9
$EXTNAMES
290
     1
  9
$PSVPSCALE
 40
0.0
  9
$OLESTARTUP
290
     0
  9
$SORTENTS
280
   127
  9
$INDEXCTL
280
     0
  9
$HIDETEXT
280
     1
  9
$XCLIPFRAME
290
     0
  9
$HALOGAP
280
     0
  9
$OBSCOLOR
 70
   257
  9
$OBSLTYPE
280
     0
  9
$INTERSECTIONDISPLAY
280
     0
  9
$INTERSECTIONCOLOR
 70
   257
  9
$DIMASSOC
280
     2
  9
$PROJECTNAME
  1

  0
ENDSEC
  0
SECTION
  2
CLASSES
  0
CLASS
  1
ACDBDICTIONARYWDFLT
  2
AcDbDictionaryWithDefault
  3
ObjectDBX Classes
 90
        0
 91
        1
280
     0
281
     0
  0
CLASS
  1
DICTIONARYVAR
  2
AcDbDictionaryVar
  3
ObjectDBX Classes
 90
        0
 91
        3
280
     0
281
     0
  0
CLASS
  1
TABLESTYLE
  2
AcDbTableStyle
  3
ObjectDBX Classes
 90
     2047
 91
        1
280
     0
281
     0
  0
CLASS
  1
SORTENTSTABLE
  2
AcDbSortentsTable
  3
ObjectDBX Classes
 90
        0
 91
        2
280
     0
281
     0
  0
CLASS
  1
DIMASSOC
  2
AcDbDimAssoc
  3
"AcDbDimAssoc|Product Desc:     AcDim ARX App For Dimension|Company:          Autodesk, Inc.|WEB Address:      www.autodesk.com"
 90
        0
 91
        3
280
     0
281
     0
  0
ENDSEC
  0
SECTION
  2
TABLES
  0
TABLE
  2
VPORT
  5
8
330
0
100
AcDbSymbolTable
 70
     3
  0
VPORT
  5
C40
330
8
100
AcDbSymbolTableRecord
100
AcDbViewportTableRecord
  2
*Active
 70
     0
 10
0.0
 20
0.0
 11
1.0
 21
1.0
 12
5.700238126167636
 22
4.456398031157904
 13
0.0
 23
0.0
 14
0.0625
 24
0.0625
 15
0.5
 25
0.5
 16
0.0
 26
0.0
 36
1.0
 17
0.0
 27
0.0
 37
0.0
 40
8.932498784986314
 41
1.730337078651685
 42
50.0
 43
0.0
 44
0.0
 50
0.0
 51
0.0
 71
     0
 72
  1000
 73
     1
 74
     3
 75
     0
 76
     0
 77
     0
 78
     0
281
     0
 65
     1
110
0.0
120
0.0
130
0.0
111
1.0
121
0.0
131
0.0
112
0.0
122
1.0
132
0.0
 79
     0
146
0.0
  0
ENDTAB
  0
TABLE
  2
LTYPE
  5
5
330
0
100
AcDbSymbolTable
 70
    19
  0
LTYPE
  5
14
330
5
100
AcDbSymbolTableRecord
100
AcDbLinetypeTableRecord
  2
ByBlock
 70
     0
  3

 72
    65
 73
     0
 40
0.0
  0
LTYPE
  5
15
330
5
100
AcDbSymbolTableRecord
100
AcDbLinetypeTableRecord
  2
ByLayer
 70
     0
  3

 72
    65
 73
     0
 40
0.0
  0
LTYPE
  5
16
330
5
100
AcDbSymbolTableRecord
100
AcDbLinetypeTableRecord
  2
Continuous
 70
     0
  3
Solid line
 72
    65
 73
     0
 40
0.0
  0
LTYPE
  5
8F
330
5
100
AcDbSymbolTableRecord
100
AcDbLinetypeTableRecord
  2
MS
 70
     0
  3
MEDIUM_SOLID
 72
    65
 73
     0
 40
0.0
  0
LTYPE
  5
90
330
5
100
AcDbSymbolTableRecord
100
AcDbLinetypeTableRecord
  2
AM_ISO02W050
 70
     0
  3
__ __ __ __ __ __ __ __ __ __ __ __ __ __ __
 72
    65
 73
     2
 40
7.5
 49
6.0
 74
     0
 49
-1.5
 74
     0
  0
LTYPE
  5
91
330
5
100
AcDbSymbolTableRecord
100
AcDbLinetypeTableRecord
  2
AM_ISO08W050
 70
     0
  3
____ . ____ . ____ . ____ . ____ . ____ . ____
 72
    65
 73
     4
 40
18.0
 49
12.0
 74
     0
 49
-1.5
 74
     0
 49
3.0
 74
     0
 49
-1.5
 74
     0
  0
LTYPE
  5
92
330
5
100
AcDbSymbolTableRecord
100
AcDbLinetypeTableRecord
  2
AM_ISO09W050
 70
     0
  3
_____ . . _____ . . _____ . . ____ .. ____
 72
    65
 73
     6
 40
22.5
 49
12.0
 74
     0
 49
-1.5
 74
     0
 49
3.0
 74
     0
 49
-1.5
 74
     0
 49
3.0
 74
     0
 49
-1.5
 74
     0
  0
LTYPE
  5
93
330
5
100
AcDbSymbolTableRecord
100
AcDbLinetypeTableRecord
  2
Amconstr
 70
     0
  3
_______________________
 72
    65
 73
     2
 40
9999.0
 49
9999.0
 74
     0
 49
0.0
 74
     0
  0
LTYPE
  5
94
330
5
100
AcDbSymbolTableRecord
100
AcDbLinetypeTableRecord
  2
AM_ISO08W050x2
 70
     0
  3
__ . __ . __ . __ . __ . __
 72
    65
 73
     4
 40
9.0
 49
6.0
 74
     0
 49
-0.75
 74
     0
 49
1.5
 74
     0
 49
-0.75
 74
     0
  0
LTYPE
  5
95
330
5
100
AcDbSymbolTableRecord
100
AcDbLinetypeTableRecord
  2
AM_ISO02W050x2
 70
     0
  3
 _ _ _ _ _ _ _ _ _ _ _ _
 72
    65
 73
     2
 40
3.75
 49
3.0
 74
     0
 49
-0.75
 74
     0
  0
LTYPE
  5
96
330
5
100
AcDbSymbolTableRecord
100
AcDbLinetypeTableRecord
  2
Amzigzag
 70
     0
  3
/\/-/\/-/\/-/\/-/\/-/\/
 72
    65
 73
     2
 40
11.0001
 49
0.0001
 74
     4
 75
   135
340
A3
 46
0.04
 50
0.0
 44
0.0
 45
0.0
 49
-11.0
 74
     0
  0
LTYPE
  5
97
330
5
100
AcDbSymbolTableRecord
100
AcDbLinetypeTableRecord
  2
HIDDEN
 70
     0
  3
Hidden __ __ __ __ __ __ __ __ __ __ __ __ __ _
 72
    65
 73
     2
 40
0.375
 49
0.25
 74
     0
 49
-0.125
 74
     0
  0
LTYPE
  5
98
330
5
100
AcDbSymbolTableRecord
100
AcDbLinetypeTableRecord
  2
CENTER
 70
     0
  3
Center ____ _ ____ _ ____ _ ____ _ ____ _ ____
 72
    65
 73
     4
 40
2.0
 49
1.25
 74
     0
 49
-0.25
 74
     0
 49
0.25
 74
     0
 49
-0.25
 74
     0
  0
LTYPE
  5
99
330
5
100
AcDbSymbolTableRecord
100
AcDbLinetypeTableRecord
  2
PHANTOM2
 70
     0
  3
Phantom (.5x) ___ _ _ ___ _ _ ___ _ _ ___ _ _
 72
    65
 73
     6
 40
1.25
 49
0.625
 74
     0
 49
-0.125
 74
     0
 49
0.125
 74
     0
 49
-0.125
 74
     0
 49
0.125
 74
     0
 49
-0.125
 74
     0
  0
LTYPE
  5
9A
330
5
100
AcDbSymbolTableRecord
100
AcDbLinetypeTableRecord
  2
CENTER2
 70
     0
  3
Center (.5x) ___ _ ___ _ ___ _ ___ _ ___ _ ___
 72
    65
 73
     4
 40
1.125
 49
0.75
 74
     0
 49
-0.125
 74
     0
 49
0.125
 74
     0
 49
-0.125
 74
     0
  0
LTYPE
  5
9B
330
5
100
AcDbSymbolTableRecord
100
AcDbLinetypeTableRecord
  2
HIDDEN2
 70
     0
  3
Hidden (.5x) _ _ _ _ _ _ _ _ _ _ _ _ _ _ _ _ _
 72
    65
 73
     2
 40
0.1875
 49
0.125
 74
     0
 49
-0.0625
 74
     0
  0
LTYPE
  5
9C
330
5
100
AcDbSymbolTableRecord
100
AcDbLinetypeTableRecord
  2
Amzigzag2
 70
     0
  3
/\/-/\/-/\/-/\/-/\/-/\/
 72
    65
 73
     2
 40
0.4401
 49
0.0001
 74
     4
 75
   135
340
A3
 46
0.0016
 50
0.0
 44
0.0
 45
0.0
 49
-0.4400000000000001
 74
     0
  0
LTYPE
  5
9D
330
5
100
AcDbSymbolTableRecord
100
AcDbLinetypeTableRecord
  2
ACANSTGB
 70
     0
  3
__ . . __ . .
 72
    65
 73
     6
 40
0.35433070866
 49
0.15748031496
 74
     0
 49
-0.03937007874
 74
     0
 49
0.03937007874
 74
     0
 49
-0.03937007874
 74
     0
 49
0.03937007874
 74
     0
 49
-0.03937007874
 74
     0
  0
LTYPE
  5
9E
330
5
100
AcDbSymbolTableRecord
100
AcDbLinetypeTableRecord
  2
ACANSTGL
 70
     0
  3
_ _ _ _ _
 72
    65
 73
     2
 40
0.11811023622
 49
0.07874015748
 74
     0
 49
-0.03937007874
 74
     0
  0
LTYPE
  5
A0A
330
5
100
AcDbSymbolTableRecord
100
AcDbLinetypeTableRecord
  2
L5
 70
     0
  3
L5
 72
    65
 73
     0
 40
0.0
  0
LTYPE
  5
A0B
330
5
100
AcDbSymbolTableRecord
100
AcDbLinetypeTableRecord
  2
L0
 70
     0
  3
L0
 72
    65
 73
     0
 40
0.0
  0
ENDTAB
  0
TABLE
  2
LAYER
  5
2
330
0
100
AcDbSymbolTable
 70
     5
  0
LAYER
  5
10
330
2
100
AcDbSymbolTableRecord
100
AcDbLayerTableRecord
  2
0
 70
     0
 62
     7
  6
Continuous
370
    -3
390
F
  0
LAYER
  5
9F
330
2
100
AcDbSymbolTableRecord
100
AcDbLayerTableRecord
  2
BORDER
 70
     0
 62
    15
  6
Continuous
370
    -3
390
F
  0
LAYER
  5
A0
330
2
100
AcDbSymbolTableRecord
100
AcDbLayerTableRecord
  2
Title Block
 70
     0
 62
     2
  6
Continuous
370
    -3
390
F
  0
LAYER
  5
15A
330
2
100
AcDbSymbolTableRecord
100
AcDbLayerTableRecord
  2
2
 70
     0
 62
     2
  6
Continuous
370
    -3
390
F
  0
LAYER
  5
9B1
330
2
100
AcDbSymbolTableRecord
100
AcDbLayerTableRecord
  2
Defpoints
 70
     0
 62
     7
  6
Continuous
290
     0
370
    -3
390
F
  0
ENDTAB
  0
TABLE
  2
STYLE
  5
3
330
0
100
AcDbSymbolTable
 70
     9
  0
STYLE
  5
11
330
3
100
AcDbSymbolTableRecord
100
AcDbTextStyleTableRecord
  2
Standard
 70
     0
 40
0.0
 41
1.0
 50
0.0
 71
     0
 42
0.2
  3
txt
  4

  0
STYLE
  5
A1
330
3
100
AcDbSymbolTableRecord
100
AcDbTextStyleTableRecord
  2
AE
 70
     0
 40
0.0
 41
1.0
 50
0.0
 71
     0
 42
0.16408998
  3
MIGRATOR
  4

  0
STYLE
  5
A2
330
3
100
AcDbSymbolTableRecord
100
AcDbTextStyleTableRecord
  2

 70
     1
 40
0.0
 41
1.0
 50
0.0
 71
     0
 42
1.0
  3
symtb128
  4

  0
STYLE
  5
A3
330
3
100
AcDbSymbolTableRecord
100
AcDbTextStyleTableRecord
  2

 70
     1
 40
0.0
 41
1.0
 50
0.0
 71
     0
 42
2.5
  3
ltypeshp.shx
  4

  0
STYLE
  5
A4
330
3
100
AcDbSymbolTableRecord
100
AcDbTextStyleTableRecord
  2
ACANSTS
 70
     0
 40
1.0
 41
1.0
 50
0.0
 71
     0
 42
2.5
  3
romans.shx
  4

  0
STYLE
  5
A5
330
3
100
AcDbSymbolTableRecord
100
AcDbTextStyleTableRecord
  2
ACANSGDT
 70
     0
 40
0.0
 41
1.0
 50
0.0
 71
     0
 42
2.5
  3
amgdtans.shx
  4

  0
STYLE
  5
15B
330
3
100
AcDbSymbolTableRecord
100
AcDbTextStyleTableRecord
  2
ROMANS
 70
     0
 40
0.1
 41
1.0
 50
0.0
 71
     0
 42
0.1
  3
romans
  4

  0
STYLE
  5
15C
330
3
100
AcDbSymbolTableRecord
100
AcDbTextStyleTableRecord
  2
ROMAND
 70
     0
 40
0.1
 41
1.0
 50
15.0
 71
     0
 42
0.1
  3
romand
  4

  0
STYLE
  5
A0C
330
3
100
AcDbSymbolTableRecord
100
AcDbTextStyleTableRecord
  2
SIMPLEX
 70
     0
 40
0.0938
 41
1.0
 50
0.0
 71
     0
 42
0.0938
  3
C:\ACADWIN\FONTS\SIMPLEX.SHX
  4

  0
ENDTAB
  0
TABLE
  2
VIEW
  5
6
330
0
100
AcDbSymbolTable
 70
     0
  0
ENDTAB
  0
TABLE
  2
UCS
  5
7
330
0
100
AcDbSymbolTable
 70
     0
  0
ENDTAB
  0
TABLE
  2
APPID
  5
9
330
0
100
AcDbSymbolTable
 70
     7
  0
APPID
  5
12
330
9
100
AcDbSymbolTableRecord
100
AcDbRegAppTableRecord
  2
ACAD
 70
     0
  0
APPID
  5
AD
330
9
100
AcDbSymbolTableRecord
100
AcDbRegAppTableRecord
  2
GENIUS_GENBLLY_14
 70
     0
  0
APPID
  5
AE
330
9
100
AcDbSymbolTableRecord
100
AcDbRegAppTableRecord
  2
GENIUS_GENTRA_14
 70
     0
  0
APPID
  5
AF
330
9
100
AcDbSymbolTableRecord
100
AcDbRegAppTableRecord
  2
MCAD_NO_VIS
 70
     0
  0
APPID
  5
B0
330
9
100
AcDbSymbolTableRecord
100
AcDbRegAppTableRecord
  2
ACAD_TEMP_GRAPHIC
 70
     0
  0
APPID
  5
B1
330
9
100
AcDbSymbolTableRecord
100
AcDbRegAppTableRecord
  2
ACATTRIBSERVICES
 70
     0
  0
APPID
  5
A0D
330
9
100
AcDbSymbolTableRecord
100
AcDbRegAppTableRecord
  2
ACAD_PSEXT
 70
     0
  0
ENDTAB
  0
TABLE
  2
DIMSTYLE
  5
A
330
0
100
AcDbSymbolTable
 70
     8
100
AcDbDimStyleTable
 71
     1
340
27
  0
DIMSTYLE
105
27
102
{ACAD_REACTORS
330
BBB
330
BDF
330
BFA
102
}
330
A
100
AcDbSymbolTableRecord
100
AcDbDimStyleTableRecord
  2
Standard
 70
     0
340
11
  0
DIMSTYLE
105
A6
330
A
100
AcDbSymbolTableRecord
100
AcDbDimStyleTableRecord
  2
GEN-ANSI
 70
     0
  3
<>
  4
mm
 41
0.14
 42
0.125
 43
0.5
 44
0.125
 47
0.1
 48
0.1
 73
     0
 74
     0
 77
     1
 78
     7
140
0.12
141
0.0
146
0.71
147
0.06
176
   256
177
   256
178
     2
274
     4
340
11
  0
DIMSTYLE
105
A7
330
A
100
AcDbSymbolTableRecord
100
AcDbDimStyleTableRecord
  2
AM_ANSI
 70
     0
  4
mm
 41
0.1
 42
0.05
 43
0.5
 44
0.1
 47
0.1
 48
0.1
 78
     7
 79
     2
140
0.12
141
0.0
146
0.71
147
0.06
176
   256
177
   256
178
     2
274
     4
284
     7
340
11
371
    -1
372
    -1
  0
DIMSTYLE
105
A8
330
A
100
AcDbSymbolTableRecord
100
AcDbDimStyleTableRecord
  2
AM_ANSI$3
 70
     0
  4
mm
 41
0.1
 42
0.05
 43
0.5
 44
0.1
 47
0.1
 48
0.1
 78
     7
 79
     2
140
0.12
141
0.0
146
0.71
147
0.06
176
   256
177
   256
178
     2
274
     4
284
     7
288
     1
289
     0
340
11
371
    -1
372
    -1
  0
DIMSTYLE
105
A9
330
A
100
AcDbSymbolTableRecord
100
AcDbDimStyleTableRecord
  2
AM_ANSI$4
 70
     0
  4
mm
 41
0.1
 42
0.05
 43
0.5
 44
0.1
 47
0.1
 48
0.1
 78
     7
 79
     2
140
0.12
141
0.0
146
0.71
147
0.06
176
   256
177
   256
178
     2
274
     4
284
     7
288
     1
289
     0
340
11
371
    -1
372
    -1
  0
DIMSTYLE
105
AA
330
A
100
AcDbSymbolTableRecord
100
AcDbDimStyleTableRecord
  2
AM_ANSI$7
 70
     0
  4
mm
 41
0.1
 42
0.05
 43
0.5
 44
0.1
 47
0.1
 48
0.1
 78
     7
 79
     2
140
0.24
141
0.0
146
0.71
147
0.06
176
   256
177
   256
178
     2
274
     4
284
     7
340
11
371
    -1
372
    -1
  0
DIMSTYLE
105
AB
330
A
100
AcDbSymbolTableRecord
100
AcDbDimStyleTableRecord
  2
AM_ANSI$SF
 70
     0
  4
mm
 41
0.1
 42
0.05
 43
0.5
 44
0.1
 47
0.1
 48
0.1
 75
     1
 76
     1
 78
     7
 79
     2
140
0.12
141
0.0
146
0.71
147
0.06
176
   256
177
   256
178
     2
274
     4
284
     7
340
11
371
    -1
372
    -1
  0
DIMSTYLE
105
AC
330
A
100
AcDbSymbolTableRecord
100
AcDbDimStyleTableRecord
  2
AM_ANSI$SH
 70
     0
  4
mm
 41
0.1
 42
0.05
 43
0.5
 44
0.1
 47
0.1
 48
0.1
 75
     1
 76
     1
 78
     7
 79
     2
140
0.12
141
0.0
146
0.71
147
0.06
173
     1
176
   256
177
   256
178
     2
274
     4
284
     7
340
11
343
8B
371
    -1
372
    -1
  0
ENDTAB
  0
TABLE
  2
BLOCK_RECORD
  5
1
330
0
100
AcDbSymbolTable
 70
    11
  0
BLOCK_RECORD
  5
1F
102
{ACAD_XDICTIONARY
360
B76
102
}
330
1
100
AcDbSymbolTableRecord
100
AcDbBlockTableRecord
  2
*Model_Space
340
22
  0
BLOCK_RECORD
  5
58
330
1
100
AcDbSymbolTableRecord
100
AcDbBlockTableRecord
  2
*Paper_Space
340
59
  0
BLOCK_RECORD
  5
5D
330
1
100
AcDbSymbolTableRecord
100
AcDbBlockTableRecord
  2
*Paper_Space0
340
5E
  0
BLOCK_RECORD
  5
8B
330
1
100
AcDbSymbolTableRecord
100
AcDbBlockTableRecord
  2
GENAXEH
340
0
  0
BLOCK_RECORD
  5
B2
102
{ACAD_XDICTIONARY
360
13C
102
}
330
1
100
AcDbSymbolTableRecord
100
AcDbBlockTableRecord
  2
ASSEMBLY_A
340
0
102
{BLKREFS
331
140
102
}
  0
BLOCK_RECORD
  5
BBC
330
1
100
AcDbSymbolTableRecord
100
AcDbBlockTableRecord
  2
*D8
340
0
  0
BLOCK_RECORD
  5
BE0
330
1
100
AcDbSymbolTableRecord
100
AcDbBlockTableRecord
  2
*D9
340
0
  0
BLOCK_RECORD
  5
BFB
330
1
100
AcDbSymbolTableRecord
100
AcDbBlockTableRecord
  2
*D10
340
0
  0
ENDTAB
  0
ENDSEC
  0
SECTION
  2
BLOCKS
  0
BLOCK
  5
20
330
1F
100
AcDbEntity
  8
0
100
AcDbBlockBegin
  2
*Model_Space
 70
     0
 10
0.0
 20
0.0
 30
0.0
  3
*Model_Space
  1

  0
ENDBLK
  5
21
330
1F
100
AcDbEntity
  8
0
100
AcDbBlockEnd
  0
BLOCK
  5
5A
330
58
100
AcDbEntity
 67
     1
  8
0
100
AcDbBlockBegin
  2
*Paper_Space
 70
     0
 10
0.0
 20
0.0
 30
0.0
  3
*Paper_Space
  1

  0
ENDBLK
  5
5B
330
58
100
AcDbEntity
 67
     1
  8
0
100
AcDbBlockEnd
  0
BLOCK
  5
5F
330
5D
100
AcDbEntity
 67
     1
  8
0
100
AcDbBlockBegin
  2
*Paper_Space0
 70
     0
 10
0.0
 20
0.0
 30
0.0
  3
*Paper_Space0
  1

  0
ENDBLK
  5
60
330
5D
100
AcDbEntity
 67
     1
  8
0
100
AcDbBlockEnd
  0
BLOCK
  5
8C
330
8B
100
AcDbEntity
  8
0
100
AcDbBlockBegin
  2
GENAXEH
 70
     0
 10
0.0
 20
0.0
 30
0.0
  3
GENAXEH
  1

  0
LINE
  5
8D
330
8B
100
AcDbEntity
  8
0
100
AcDbLine
 10
-1.0
 20
0.0
 30
0.0
 11
1.0
 21
0.0
 31
0.0
  0
ENDBLK
  5
8E
330
8B
100
AcDbEntity
  8
0
100
AcDbBlockEnd
  0
BLOCK
  5
13E
330
B2
100
AcDbEntity
  8
0
100
AcDbBlockBegin
  2
ASSEMBLY_A
 70
     2
 10
0.0
 20
0.0
 30
0.0
  3
ASSEMBLY_A
  1

  0
LINE
  5
B3
330
B2
100
AcDbEntity
  8
BORDER
 62
    15
100
AcDbLine
 10
11.00000226000001
 20
0.3999656890232614
 30
0.0
 11
11.00000226000001
 21
8.5
 31
0.0
  0
LINE
  5
B4
330
B2
100
AcDbEntity
  8
BORDER
 62
    15
100
AcDbLine
 10
0.400011260000019
 20
0.3999656890232617
 30
0.0
 11
0.400011260000019
 21
8.5
 31
0.0
  0
LINE
  5
B5
330
B2
100
AcDbEntity
  8
BORDER
 62
    15
100
AcDbLine
 10
0.400011260000019
 20
0.3999656890232617
 30
0.0
 11
11.00000226000001
 21
0.3999656890232617
 31
0.0
  0
LINE
  5
B6
330
B2
100
AcDbEntity
  8
BORDER
 62
    15
100
AcDbLine
 10
0.0000022600000076
 20
4.249999854999983
 30
0.0
 11
0.400011260000019
 21
4.249999854999983
 31
0.0
  0
TEXT
  5
B7
330
B2
100
AcDbEntity
  8
Title Block
  6
Continuous
 62
     2
100
AcDbText
 10
6.706697087226764
 20
2.205546537751305
 30
0.0
 40
0.1010611419
  1
DO NOT SCALE
 50
0.09999996
  7
AE
100
AcDbText
  0
TEXT
  5
B8
330
B2
100
AcDbEntity
  8
Title Block
  6
Continuous
 62
     2
100
AcDbText
 10
6.706697087226764
 20
1.996163262564665
 30
0.0
 40
0.1010611419
  1
  DRAWING
 50
0.09999996
  7
AE
100
AcDbText
  0
ATTDEF
  5
B9
330
B2
100
AcDbEntity
  8
Title Block
  6
Continuous
 62
     2
100
AcDbText
 10
5.200002260000005
 20
0.6000000000000001
 30
0.0
 40
0.126326427375
  1

 41
0.8
100
AcDbAttributeDefinition
  3
Drawing Name
  2
GEN-TITLE-DES1{15.54}
 70
     0
1001
GENIUS_GENBLLY_14
1000
BOR5
  0
LINE
  5
BA
330
B2
100
AcDbEntity
  8
Title Block
  6
Continuous
 62
     2
100
AcDbLine
 10
2.250002260000005
 20
2.4
 30
0.0
 11
11.00000226000001
 21
2.4
 31
0.0
  0
LINE
  5
BB
330
B2
100
AcDbEntity
  8
Title Block
  6
Continuous
 62
     2
100
AcDbLine
 10
6.575192215153515
 20
1.7
 30
0.0
 11
11.00000226000001
 21
1.7
 31
0.0
  0
LINE
  5
BC
330
B2
100
AcDbEntity
  8
Title Block
  6
Continuous
 62
     2
100
AcDbLine
 10
6.575192215153515
 20
1.45
 30
0.0
 11
11.00000226000001
 21
1.45
 31
0.0
  0
LINE
  5
BD
330
B2
100
AcDbEntity
  8
Title Block
  6
Continuous
 62
     2
100
AcDbLine
 10
6.575192215153515
 20
1.199999999999999
 30
0.0
 11
11.00000226000001
 21
1.199999999999999
 31
0.0
  0
LINE
  5
BE
330
B2
100
AcDbEntity
  8
Title Block
  6
Continuous
 62
     2
100
AcDbLine
 10
5.099658650318536
 20
0.95
 30
0.0
 11
11.00000226000001
 21
0.95
 31
0.0
  0
ATTDEF
  5
BF
330
B2
100
AcDbEntity
  8
Title Block
  6
Continuous
 62
     2
100
AcDbText
 10
6.925002260000004
 20
1.024999999999999
 30
0.0
 40
0.1010611419
  1

100
AcDbAttributeDefinition
  3
Approved by
  2
GEN-TITLE-APPM{5}
 70
     0
1001
GENIUS_GENBLLY_14
1000
BOR2
1001
GENIUS_GENTRA_14
1002
{
1070
     3
1000
GENTRAPR,%s,(GENMSG gentitus 73)
1000
Approved by
1000
gb
1070
     0
1002
}
  0
ATTDEF
  5
C0
330
B2
100
AcDbEntity
  8
Title Block
  6
Continuous
 62
     2
100
AcDbText
 10
6.925002260000004
 20
1.274999999999999
 30
0.0
 40
0.1010611419
  1

100
AcDbAttributeDefinition
  3
Check by
  2
GEN-TITLE-CHKM{5}
 70
     0
1001
GENIUS_GENBLLY_14
1000
BOR2
  0
ATTDEF
  5
C1
330
B2
100
AcDbEntity
  8
Title Block
  6
Continuous
 62
     2
100
AcDbText
 10
6.925002260000004
 20
1.524999999999999
 30
0.0
 40
0.1010611419
  1

100
AcDbAttributeDefinition
  3
Drawn by
  2
GEN-TITLE-NAME{5}
 70
     0
1001
GENIUS_GENBLLY_14
1000
BOR2
  0
LINE
  5
C2
330
B2
100
AcDbEntity
  8
Title Block
  6
Continuous
 62
     2
100
AcDbLine
 10
2.250002260000005
 20
0.9
 30
0.0
 11
5.099658650318536
 21
0.9
 31
0.0
  0
LINE
  5
C3
330
B2
100
AcDbEntity
  8
Title Block
  6
Continuous
 62
     2
100
AcDbLine
 10
2.250002260000005
 20
1.149999999999999
 30
0.0
 11
5.099658650318536
 21
1.149999999999999
 31
0.0
  0
LINE
  5
C4
330
B2
100
AcDbEntity
  8
Title Block
  6
Continuous
 62
     2
100
AcDbLine
 10
2.250002260000005
 20
2.149999999999999
 30
0.0
 11
5.099658650318536
 21
2.149999999999999
 31
0.0
  0
LINE
  5
C5
330
B2
100
AcDbEntity
  8
Title Block
  6
Continuous
 62
     2
100
AcDbLine
 10
2.250002260000005
 20
1.9
 30
0.0
 11
5.099658650318536
 21
1.9
 31
0.0
  0
LINE
  5
C6
330
B2
100
AcDbEntity
  8
Title Block
  6
Continuous
 62
     2
100
AcDbLine
 10
2.250002260000005
 20
1.649999999999999
 30
0.0
 11
5.099658650318536
 21
1.649999999999999
 31
0.0
  0
LINE
  5
C7
330
B2
100
AcDbEntity
  8
Title Block
  6
Continuous
 62
     2
100
AcDbLine
 10
2.250002260000005
 20
1.399999999999999
 30
0.0
 11
5.099658650318536
 21
1.399999999999999
 31
0.0
  0
LINE
  5
C8
330
B2
100
AcDbEntity
  8
Title Block
  6
Continuous
 62
     2
100
AcDbLine
 10
2.250002260000005
 20
0.65
 30
0.0
 11
5.099658650318536
 21
0.65
 31
0.0
  0
TEXT
  5
C9
330
B2
100
AcDbEntity
  8
Title Block
  6
Continuous
 62
     2
100
AcDbText
 10
2.901376282347399
 20
0.7409580908741999
 30
0.0
 40
0.075937067150492
  1
DATE
 50
0.09999996
  7
AE
100
AcDbText
  0
LINE
  5
CA
330
B2
100
AcDbEntity
  8
BORDER
 62
    15
100
AcDbLine
 10
4.500175324840752
 20
0.1999999999999997
 30
0.0
 11
4.500175324840752
 21
0.3999656890232614
 31
0.0
  0
TEXT
  5
CB
330
B2
100
AcDbEntity
  8
BORDER
  6
Continuous
 62
    15
100
AcDbText
 10
4.471677461536399
 20
0.0599741912456091
 30
0.0
 40
0.0799862356161777
  1
0
 50
0.09999996
  7
AE
100
AcDbText
  0
LINE
  5
CC
330
B2
100
AcDbEntity
  8
BORDER
  6
Continuous
 62
    15
100
AcDbLine
 10
4.580161220298862
 20
0.3399759973137093
 30
0.0
 11
4.580161220298862
 21
0.3999656890232614
 31
0.0
  0
LINE
  5
CD
330
B2
100
AcDbEntity
  8
BORDER
  6
Continuous
 62
    15
100
AcDbLine
 10
4.560165156309787
 20
0.2999828395124902
 30
0.0
 11
4.560165156309787
 21
0.3999656890232614
 31
0.0
  0
LINE
  5
CE
330
B2
100
AcDbEntity
  8
BORDER
  6
Continuous
 62
    15
100
AcDbLine
 10
4.540168092492484
 20
0.2999828395124902
 30
0.0
 11
4.540168092492484
 21
0.3999656890232614
 31
0.0
  0
LINE
  5
CF
330
B2
100
AcDbEntity
  8
BORDER
  6
Continuous
 62
    15
100
AcDbLine
 10
4.520171128658045
 20
0.3399759973137093
 30
0.0
 11
4.520171128658045
 21
0.3999656890232614
 31
0.0
  0
LINE
  5
D0
330
B2
100
AcDbEntity
  8
BORDER
  6
Continuous
 62
    15
100
AcDbLine
 10
4.600157284287936
 20
0.2599896917095519
 30
0.0
 11
4.600157284287936
 21
0.3999656890232614
 31
0.0
  0
LINE
  5
D1
330
B2
100
AcDbEntity
  8
Title Block
  6
Continuous
 62
     2
100
AcDbLine
 10
2.600002260000005
 20
0.65
 30
0.0
 11
2.600002260000005
 21
2.4
 31
0.0
  0
LINE
  5
D2
330
B2
100
AcDbEntity
  8
Title Block
  6
Continuous
 62
     2
100
AcDbLine
 10
2.250002260000005
 20
0.3999656890232619
 30
0.0
 11
2.250002260000005
 21
2.4
 31
0.0
  0
TEXT
  5
D3
330
B2
100
AcDbEntity
  8
Title Block
  6
Continuous
 62
     2
100
AcDbText
 10
2.338244392245041
 20
0.7403498140978244
 30
0.0
 40
0.0771520776612738
  1
NO.
 50
0.09999996
  7
AE
100
AcDbText
  0
LINE
  5
D4
330
B2
100
AcDbEntity
  8
BORDER
  6
Continuous
 62
    15
100
AcDbLine
 10
5.500002260000007
 20
0.1999999999999997
 30
0.0
 11
5.500002260000007
 21
0.3999656890232614
 31
0.0
  0
TEXT
  5
D5
330
B2
100
AcDbEntity
  8
BORDER
  6
Continuous
 62
    15
100
AcDbText
 10
5.271543117131267
 20
0.1199638829551608
 30
0.0
 40
0.0799862356161777
  1
8
 50
0.09999996
  7
AE
100
AcDbText
  0
TEXT
  5
D6
330
B2
100
AcDbEntity
  8
BORDER
  6
Continuous
 62
    15
100
AcDbText
 10
6.071407672915045
 20
0.1199638829551608
 30
0.0
 40
0.0799862356161777
  1
6
 50
0.09999996
  7
AE
100
AcDbText
  0
TEXT
  5
D7
330
B2
100
AcDbEntity
  8
BORDER
  6
Continuous
 62
    15
100
AcDbText
 10
5.671475894937241
 20
0.1199638829551608
 30
0.0
 40
0.0799862356161777
  1
2
 50
0.09999996
  7
AE
100
AcDbText
  0
TEXT
  5
D8
330
B2
100
AcDbEntity
  8
BORDER
  6
Continuous
 62
    15
100
AcDbText
 10
5.471505656695663
 20
0.0599741912456091
 30
0.0
 40
0.0799862356161777
  1
1
 50
0.09999996
  7
AE
100
AcDbText
  0
TEXT
  5
D9
330
B2
100
AcDbEntity
  8
BORDER
  6
Continuous
 62
    15
100
AcDbText
 10
5.871441334003431
 20
0.1199638829551608
 30
0.0
 40
0.0799862356161777
  1
4
 50
0.09999996
  7
AE
100
AcDbText
  0
TEXT
  5
DA
330
B2
100
AcDbEntity
  8
BORDER
  6
Continuous
 62
    15
100
AcDbText
 10
6.271374111809436
 20
0.1199638829551608
 30
0.0
 40
0.0799862356161777
  1
8
 50
0.09999996
  7
AE
100
AcDbText
  0
LINE
  5
DB
330
B2
100
AcDbEntity
  8
BORDER
  6
Continuous
 62
    15
100
AcDbLine
 10
5.380026775910868
 20
0.3399759973137093
 30
0.0
 11
5.380026775910868
 21
0.3999656890232614
 31
0.0
  0
LINE
  5
DC
330
B2
100
AcDbEntity
  8
BORDER
  6
Continuous
 62
    15
100
AcDbLine
 10
5.360030711921794
 20
0.2999828395124902
 30
0.0
 11
5.360030711921794
 21
0.3999656890232614
 31
0.0
  0
LINE
  5
DD
330
B2
100
AcDbEntity
  8
BORDER
  6
Continuous
 62
    15
100
AcDbLine
 10
5.340033748087325
 20
0.2999828395124902
 30
0.0
 11
5.340033748087325
 21
0.3999656890232614
 31
0.0
  0
LINE
  5
DE
330
B2
100
AcDbEntity
  8
BORDER
  6
Continuous
 62
    15
100
AcDbLine
 10
5.32003668427005
 20
0.3399759973137093
 30
0.0
 11
5.32003668427005
 21
0.3999656890232614
 31
0.0
  0
LINE
  5
DF
330
B2
100
AcDbEntity
  8
BORDER
  6
Continuous
 62
    15
100
AcDbLine
 10
5.280043656446478
 20
0.3399759973137093
 30
0.0
 11
5.280043656446478
 21
0.3999656890232614
 31
0.0
  0
LINE
  5
E0
330
B2
100
AcDbEntity
  8
BORDER
  6
Continuous
 62
    15
100
AcDbLine
 10
5.460013931368989
 20
0.2999828395124902
 30
0.0
 11
5.460013931368989
 21
0.3999656890232614
 31
0.0
  0
LINE
  5
E1
330
B2
100
AcDbEntity
  8
BORDER
  6
Continuous
 62
    15
100
AcDbLine
 10
5.440016967534548
 20
0.2999828395124902
 30
0.0
 11
5.440016967534548
 21
0.3999656890232614
 31
0.0
  0
LINE
  5
E2
330
B2
100
AcDbEntity
  8
BORDER
  6
Continuous
 62
    15
100
AcDbLine
 10
5.420019903717246
 20
0.3399759973137093
 30
0.0
 11
5.420019903717246
 21
0.3999656890232614
 31
0.0
  0
LINE
  5
E3
330
B2
100
AcDbEntity
  8
BORDER
  6
Continuous
 62
    15
100
AcDbLine
 10
5.400022839899943
 20
0.2599896917095519
 30
0.0
 11
5.400022839899943
 21
0.3999656890232614
 31
0.0
  0
LINE
  5
E4
330
B2
100
AcDbEntity
  8
BORDER
  6
Continuous
 62
    15
100
AcDbLine
 10
5.300039720435552
 20
0.2599896917095519
 30
0.0
 11
5.300039720435552
 21
0.3999656890232614
 31
0.0
  0
LINE
  5
E5
330
B2
100
AcDbEntity
  8
BORDER
  6
Continuous
 62
    15
100
AcDbLine
 10
5.480009995358091
 20
0.3399759973137093
 30
0.0
 11
5.480009995358091
 21
0.3999656890232614
 31
0.0
  0
LINE
  5
E6
330
B2
100
AcDbEntity
  8
BORDER
  6
Continuous
 62
    15
100
AcDbLine
 10
5.699972498241557
 20
0.2599896917095519
 30
0.0
 11
5.699972498241557
 21
0.3999656890232614
 31
0.0
  0
LINE
  5
E7
330
B2
100
AcDbEntity
  8
BORDER
  6
Continuous
 62
    15
100
AcDbLine
 10
5.899937937307775
 20
0.2599896917095519
 30
0.0
 11
5.899937937307775
 21
0.3999656890232614
 31
0.0
  0
LINE
  5
E8
330
B2
100
AcDbEntity
  8
BORDER
  6
Continuous
 62
    15
100
AcDbLine
 10
6.099904376202193
 20
0.2599896917095519
 30
0.0
 11
6.099904376202193
 21
0.3999656890232614
 31
0.0
  0
LINE
  5
E9
330
B2
100
AcDbEntity
  8
BORDER
  6
Continuous
 62
    15
100
AcDbLine
 10
6.299870715113778
 20
0.2599896917095519
 30
0.0
 11
6.299870715113778
 21
0.3999656890232614
 31
0.0
  0
LINE
  5
EA
330
B2
100
AcDbEntity
  8
BORDER
  6
Continuous
 62
    15
100
AcDbLine
 10
6.499833354661037
 20
0.1999999999999997
 30
0.0
 11
6.499833354661037
 21
0.3999656890232614
 31
0.0
  0
TEXT
  5
EB
330
B2
100
AcDbEntity
  8
BORDER
  6
Continuous
 62
    15
100
AcDbText
 10
6.471333851854957
 20
0.0599741912456091
 30
0.0
 40
0.0799862356161777
  1
2
 50
0.09999996
  7
AE
100
AcDbText
  0
TEXT
  5
EC
330
B2
100
AcDbEntity
  8
BORDER
  6
Continuous
 62
    15
100
AcDbText
 10
4.671643900430845
 20
0.1199638829551608
 30
0.0
 40
0.0799862356161777
  1
2
 50
0.09999996
  7
AE
100
AcDbText
  0
LINE
  5
ED
330
B2
100
AcDbEntity
  8
BORDER
  6
Continuous
 62
    15
100
AcDbLine
 10
4.680144439746086
 20
0.3399759973137093
 30
0.0
 11
4.680144439746086
 21
0.3999656890232614
 31
0.0
  0
LINE
  5
EE
330
B2
100
AcDbEntity
  8
BORDER
  6
Continuous
 62
    15
100
AcDbLine
 10
4.660148375756982
 20
0.2999828395124902
 30
0.0
 11
4.660148375756982
 21
0.3999656890232614
 31
0.0
  0
LINE
  5
EF
330
B2
100
AcDbEntity
  8
BORDER
  6
Continuous
 62
    15
100
AcDbLine
 10
4.640151311939709
 20
0.2999828395124902
 30
0.0
 11
4.640151311939709
 21
0.3999656890232614
 31
0.0
  0
LINE
  5
F0
330
B2
100
AcDbEntity
  8
BORDER
  6
Continuous
 62
    15
100
AcDbLine
 10
4.620154248122434
 20
0.3399759973137093
 30
0.0
 11
4.620154248122434
 21
0.3999656890232614
 31
0.0
  0
LINE
  5
F1
330
B2
100
AcDbEntity
  8
BORDER
  6
Continuous
 62
    15
100
AcDbLine
 10
4.700140503735161
 20
0.2599896917095519
 30
0.0
 11
4.700140503735161
 21
0.3999656890232614
 31
0.0
  0
TEXT
  5
F2
330
B2
100
AcDbEntity
  8
BORDER
  6
Continuous
 62
    15
100
AcDbText
 10
5.07157667823685
 20
0.1199638829551608
 30
0.0
 40
0.0799862356161777
  1
6
 50
0.09999996
  7
AE
100
AcDbText
  0
TEXT
  5
F3
330
B2
100
AcDbEntity
  8
BORDER
  6
Continuous
 62
    15
100
AcDbText
 10
4.871610239342402
 20
0.1199638829551608
 30
0.0
 40
0.0799862356161777
  1
4
 50
0.09999996
  7
AE
100
AcDbText
  0
LINE
  5
F4
330
B2
100
AcDbEntity
  8
BORDER
  6
Continuous
 62
    15
100
AcDbLine
 10
4.780127559210475
 20
0.3399759973137093
 30
0.0
 11
4.780127559210475
 21
0.3999656890232614
 31
0.0
  0
LINE
  5
F5
330
B2
100
AcDbEntity
  8
BORDER
  6
Continuous
 62
    15
100
AcDbLine
 10
4.760131495221372
 20
0.2999828395124902
 30
0.0
 11
4.760131495221372
 21
0.3999656890232614
 31
0.0
  0
LINE
  5
F6
330
B2
100
AcDbEntity
  8
BORDER
  6
Continuous
 62
    15
100
AcDbLine
 10
4.740134531386932
 20
0.2999828395124902
 30
0.0
 11
4.740134531386932
 21
0.3999656890232614
 31
0.0
  0
LINE
  5
F7
330
B2
100
AcDbEntity
  8
BORDER
  6
Continuous
 62
    15
100
AcDbLine
 10
4.720137467569628
 20
0.3399759973137093
 30
0.0
 11
4.720137467569628
 21
0.3999656890232614
 31
0.0
  0
LINE
  5
F8
330
B2
100
AcDbEntity
  8
BORDER
  6
Continuous
 62
    15
100
AcDbLine
 10
5.120070345358437
 20
0.3399759973137093
 30
0.0
 11
5.120070345358437
 21
0.3999656890232614
 31
0.0
  0
LINE
  5
F9
330
B2
100
AcDbEntity
  8
BORDER
  6
Continuous
 62
    15
100
AcDbLine
 10
5.080077217552089
 20
0.3399759973137093
 30
0.0
 11
5.080077217552089
 21
0.3999656890232614
 31
0.0
  0
LINE
  5
FA
330
B2
100
AcDbEntity
  8
BORDER
  6
Continuous
 62
    15
100
AcDbLine
 10
5.060081153562986
 20
0.2999828395124902
 30
0.0
 11
5.060081153562986
 21
0.3999656890232614
 31
0.0
  0
LINE
  5
FB
330
B2
100
AcDbEntity
  8
BORDER
  6
Continuous
 62
    15
100
AcDbLine
 10
5.040084089745711
 20
0.2999828395124902
 30
0.0
 11
5.040084089745711
 21
0.3999656890232614
 31
0.0
  0
LINE
  5
FC
330
B2
100
AcDbEntity
  8
BORDER
  6
Continuous
 62
    15
100
AcDbLine
 10
5.020087125911242
 20
0.3399759973137093
 30
0.0
 11
5.020087125911242
 21
0.3999656890232614
 31
0.0
  0
LINE
  5
FD
330
B2
100
AcDbEntity
  8
BORDER
  6
Continuous
 62
    15
100
AcDbLine
 10
4.980093998104864
 20
0.3399759973137093
 30
0.0
 11
4.980093998104864
 21
0.3999656890232614
 31
0.0
  0
LINE
  5
FE
330
B2
100
AcDbEntity
  8
BORDER
  6
Continuous
 62
    15
100
AcDbLine
 10
4.96009793411579
 20
0.2999828395124902
 30
0.0
 11
4.96009793411579
 21
0.3999656890232614
 31
0.0
  0
LINE
  5
FF
330
B2
100
AcDbEntity
  8
BORDER
  6
Continuous
 62
    15
100
AcDbLine
 10
4.940100970281323
 20
0.2999828395124902
 30
0.0
 11
4.940100970281323
 21
0.3999656890232614
 31
0.0
  0
LINE
  5
100
330
B2
100
AcDbEntity
  8
BORDER
  6
Continuous
 62
    15
100
AcDbLine
 10
4.920103906464047
 20
0.3399759973137093
 30
0.0
 11
4.920103906464047
 21
0.3999656890232614
 31
0.0
  0
LINE
  5
101
330
B2
100
AcDbEntity
  8
BORDER
  6
Continuous
 62
    15
100
AcDbLine
 10
4.88011077865767
 20
0.3399759973137093
 30
0.0
 11
4.88011077865767
 21
0.3999656890232614
 31
0.0
  0
LINE
  5
102
330
B2
100
AcDbEntity
  8
BORDER
  6
Continuous
 62
    15
100
AcDbLine
 10
4.860114714668567
 20
0.2999828395124902
 30
0.0
 11
4.860114714668567
 21
0.3999656890232614
 31
0.0
  0
LINE
  5
103
330
B2
100
AcDbEntity
  8
BORDER
  6
Continuous
 62
    15
100
AcDbLine
 10
4.840117750834126
 20
0.2999828395124902
 30
0.0
 11
4.840117750834126
 21
0.3999656890232614
 31
0.0
  0
LINE
  5
104
330
B2
100
AcDbEntity
  8
BORDER
  6
Continuous
 62
    15
100
AcDbLine
 10
4.820120687016824
 20
0.3399759973137093
 30
0.0
 11
4.820120687016824
 21
0.3999656890232614
 31
0.0
  0
LINE
  5
105
330
B2
100
AcDbEntity
  8
BORDER
  6
Continuous
 62
    15
100
AcDbLine
 10
5.100073281541163
 20
0.2599896917095519
 30
0.0
 11
5.100073281541163
 21
0.3999656890232614
 31
0.0
  0
LINE
  5
106
330
B2
100
AcDbEntity
  8
BORDER
  6
Continuous
 62
    15
100
AcDbLine
 10
5.000090062093939
 20
0.2599896917095519
 30
0.0
 11
5.000090062093939
 21
0.3999656890232614
 31
0.0
  0
LINE
  5
107
330
B2
100
AcDbEntity
  8
BORDER
  6
Continuous
 62
    15
100
AcDbLine
 10
4.900106842646744
 20
0.2599896917095519
 30
0.0
 11
4.900106842646744
 21
0.3999656890232614
 31
0.0
  0
LINE
  5
108
330
B2
100
AcDbEntity
  8
BORDER
  6
Continuous
 62
    15
100
AcDbLine
 10
4.800123723182355
 20
0.2599896917095519
 30
0.0
 11
4.800123723182355
 21
0.3999656890232614
 31
0.0
  0
LINE
  5
109
330
B2
100
AcDbEntity
  8
BORDER
  6
Continuous
 62
    15
100
AcDbLine
 10
5.260047592457404
 20
0.2999828395124902
 30
0.0
 11
5.260047592457404
 21
0.3999656890232614
 31
0.0
  0
LINE
  5
10A
330
B2
100
AcDbEntity
  8
BORDER
  6
Continuous
 62
    15
100
AcDbLine
 10
5.24005052864013
 20
0.2999828395124902
 30
0.0
 11
5.24005052864013
 21
0.3999656890232614
 31
0.0
  0
LINE
  5
10B
330
B2
100
AcDbEntity
  8
BORDER
  6
Continuous
 62
    15
100
AcDbLine
 10
5.220053464822827
 20
0.3399759973137093
 30
0.0
 11
5.220053464822827
 21
0.3999656890232614
 31
0.0
  0
LINE
  5
10C
330
B2
100
AcDbEntity
  8
BORDER
  6
Continuous
 62
    15
100
AcDbLine
 10
5.180060436999283
 20
0.3399759973137093
 30
0.0
 11
5.180060436999283
 21
0.3999656890232614
 31
0.0
  0
LINE
  5
10D
330
B2
100
AcDbEntity
  8
BORDER
  6
Continuous
 62
    15
100
AcDbLine
 10
5.160064373010181
 20
0.2999828395124902
 30
0.0
 11
5.160064373010181
 21
0.3999656890232614
 31
0.0
  0
LINE
  5
10E
330
B2
100
AcDbEntity
  8
BORDER
  6
Continuous
 62
    15
100
AcDbLine
 10
5.140067309192934
 20
0.2999828395124902
 30
0.0
 11
5.140067309192934
 21
0.3999656890232614
 31
0.0
  0
LINE
  5
10F
330
B2
100
AcDbEntity
  8
BORDER
  6
Continuous
 62
    15
100
AcDbLine
 10
5.200056500988358
 20
0.2599896917095519
 30
0.0
 11
5.200056500988358
 21
0.3999656890232614
 31
0.0
  0
TEXT
  5
110
330
B2
100
AcDbEntity
  8
BORDER
  6
Continuous
 62
    15
100
AcDbText
 10
4.703120191722399
 20
0.0329812595588268
 30
0.0
 40
0.0399931278063708
  1
FULL SIZE   50   02
 50
0.09999996
 41
0.7749084200000001
  7
AE
100
AcDbText
  0
TEXT
  5
111
330
B2
100
AcDbEntity
  8
Title Block
  6
Continuous
 62
     2
100
AcDbText
 10
3.373545338500017
 20
0.4900242034427523
 30
0.0
 40
0.075937067150492
  1
REVISION
 50
0.09999996
  7
AE
100
AcDbText
  0
LINE
  5
112
330
B2
100
AcDbEntity
  8
BORDER
  6
Continuous
 62
    15
100
AcDbLine
 10
5.099658650318536
 20
0.3999656890232619
 30
0.0
 11
5.099658650318536
 21
2.4
 31
0.0
  0
LINE
  5
113
330
B2
100
AcDbEntity
  8
Title Block
  6
Continuous
 62
     2
100
AcDbLine
 10
6.575192215153515
 20
1.0
 30
0.0
 11
6.575192215153515
 21
2.4
 31
0.0
  0
TEXT
  5
114
330
B2
100
AcDbEntity
  8
Title Block
  6
Continuous
 62
     2
100
AcDbText
 10
5.150002260000006
 20
0.8
 30
0.0
 40
0.075937067150492
  1
DRAWING NAME
 50
0.09999996
  7
AE
100
AcDbText
  0
TEXT
  5
115
330
B2
100
AcDbEntity
  8
Title Block
  6
Continuous
 62
     2
100
AcDbText
 10
6.600002260000005
 20
0.975
 30
0.0
 40
0.075937067150492
  1
BY
 50
0.09999996
  7
AE
100
AcDbText
  0
TEXT
  5
116
330
B2
100
AcDbEntity
  8
Title Block
  6
Continuous
 62
     2
100
AcDbText
 10
6.610002260000005
 20
1.1
 30
0.0
 40
0.075937067150492
  1
APPD
 50
0.09999996
  7
AE
100
AcDbText
  0
TEXT
  5
117
330
B2
100
AcDbEntity
  8
Title Block
  6
Continuous
 62
     2
100
AcDbText
 10
6.600002260000005
 20
1.349999999999999
 30
0.0
 40
0.075937067150492
  1
CHK
 50
0.09999996
  7
AE
100
AcDbText
  0
TEXT
  5
118
330
B2
100
AcDbEntity
  8
Title Block
  6
Continuous
 62
     2
100
AcDbText
 10
6.60620263256118
 20
1.224999999999999
 30
0.0
 40
0.075937067150492
  1
BY
 50
0.09999996
  7
AE
100
AcDbText
  0
TEXT
  5
119
330
B2
100
AcDbEntity
  8
Title Block
  6
Continuous
 62
     2
100
AcDbText
 10
6.600002260000005
 20
1.474999999999999
 30
0.0
 40
0.075937067150492
  1
BY
 50
0.09999996
  7
AE
100
AcDbText
  0
TEXT
  5
11A
330
B2
100
AcDbEntity
  8
Title Block
  6
Continuous
 62
     2
100
AcDbText
 10
6.600002260000005
 20
1.599999999999999
 30
0.0
 40
0.075937067150492
  1
DR
 50
0.09999996
  7
AE
100
AcDbText
  0
LINE
  5
11B
330
B2
100
AcDbEntity
  8
Title Block
  6
Continuous
 62
     2
100
AcDbLine
 10
3.400002260000006
 20
0.65
 30
0.0
 11
3.400002260000006
 21
2.4
 31
0.0
  0
ATTDEF
  5
11C
330
B2
100
AcDbEntity
  8
Title Block
  6
Continuous
 62
     2
100
AcDbText
 10
8.400002260000006
 20
0.5
 30
0.0
 40
0.196816573850279
  1

 41
0.8
100
AcDbAttributeDefinition
  3
Drawing Number
  2
GEN-TITLE-NR{13.37}
 70
     0
1001
GENIUS_GENBLLY_14
1000
BOR5
  0
ATTDEF
  5
11D
330
B2
100
AcDbEntity
  8
Title Block
  6
Continuous
 62
     2
100
AcDbText
 10
10.00000226
 20
1.024999999999999
 30
0.0
 40
0.11808994431015
  1

 41
0.8
100
AcDbAttributeDefinition
  3
Sheet
  2
GEN-TITLE-SHEET{2.62}
 70
     0
1001
GENIUS_GENBLLY_14
1000
BOR3
  0
ATTDEF
  5
11E
330
B2
100
AcDbEntity
  8
Title Block
  6
Continuous
 62
     2
100
AcDbText
 10
9.925002260000004
 20
1.274999999999999
 30
0.0
 40
0.1010611419
  1

100
AcDbAttributeDefinition
  3
Date
  2
GEN-TITLE-PLOT{5}
 70
     0
1001
GENIUS_GENBLLY_14
1000
BOR2
  0
ATTDEF
  5
11F
330
B2
100
AcDbEntity
  8
Title Block
  6
Continuous
 62
     2
100
AcDbText
 10
10.40000226
 20
1.024999999999999
 30
0.0
 40
0.11808994431015
  1

 41
0.8
100
AcDbAttributeDefinition
  3
Sheet of
  2
GEN-TITLE-SHEET-OF{2.62}
 70
     0
1001
GENIUS_GENBLLY_14
1000
BOR3
  0
LINE
  5
120
330
B2
100
AcDbEntity
  8
Title Block
  6
Continuous
 62
     2
100
AcDbLine
 10
9.526259441263579
 20
0.95
 30
0.0
 11
9.526259441263549
 21
1.449999999999999
 31
0.0
  0
LINE
  5
121
330
B2
100
AcDbEntity
  8
BORDER
  6
Continuous
 62
    15
100
AcDbLine
 10
8.050002260000004
 20
0.3999656890232619
 30
0.0
 11
8.050002260000004
 21
2.4
 31
0.0
  0
TEXT
  5
122
330
B2
100
AcDbEntity
  8
Title Block
  6
Continuous
 62
     2
100
AcDbText
 10
8.100002260000005
 20
0.8
 30
0.0
 40
0.075937067150492
  1
DRAWING NUMBER
 50
0.09999996
  7
AE
100
AcDbText
  0
TEXT
  5
123
330
B2
100
AcDbEntity
  8
Title Block
  6
Continuous
 62
     2
100
AcDbText
 10
8.100002260000005
 20
1.599999999999999
 30
0.0
 40
0.075937067150492
  1
REF
 50
0.09999996
  7
AE
100
AcDbText
  0
TEXT
  5
124
330
B2
100
AcDbEntity
  8
Title Block
  6
Continuous
 62
     2
100
AcDbText
 10
8.100002260000005
 20
1.349999999999999
 30
0.0
 40
0.075937067150492
  1
MACH
 50
0.09999996
  7
AE
100
AcDbText
  0
TEXT
  5
125
330
B2
100
AcDbEntity
  8
Title Block
  6
Continuous
 62
     2
100
AcDbText
 10
8.100002260000005
 20
1.1
 30
0.0
 40
0.075937067150492
  1
MATL
 50
0.09999996
  7
AE
100
AcDbText
  0
ATTDEF
  5
126
330
B2
100
AcDbEntity
  8
Title Block
  6
Continuous
 62
     2
100
AcDbText
 10
8.450002260000005
 20
1.524999999999999
 30
0.0
 40
0.1010611419
  1

100
AcDbAttributeDefinition
  3
Ref. No.
  2
GEN-TITLE-REF{5}
 70
     0
1001
GENIUS_GENBLLY_14
1000
BOR2
  0
ATTDEF
  5
127
330
B2
100
AcDbEntity
  8
Title Block
  6
Continuous
 62
     2
100
AcDbText
 10
8.450002260000005
 20
1.274999999999999
 30
0.0
 40
0.1010611419
  1

100
AcDbAttributeDefinition
  3
Machine
  2
GEN-TITLE-MACH{5}
 70
     0
1001
GENIUS_GENBLLY_14
1000
BOR2
  0
ATTDEF
  5
128
330
B2
100
AcDbEntity
  8
Title Block
  6
Continuous
 62
     2
100
AcDbText
 10
8.450002260000005
 20
1.024999999999999
 30
0.0
 40
0.1010611419
  1

 41
0.8
100
AcDbAttributeDefinition
  3
Material
  2
GEN-TITLE-MAT{11.15}
 70
     0
1001
GENIUS_GENBLLY_14
1000
BOR3
  0
TEXT
  5
129
330
B2
100
AcDbEntity
  8
Title Block
  6
Continuous
 62
     2
100
AcDbText
 10
9.575002260000005
 20
1.1
 30
0.0
 40
0.075937067150492
  1
SHEET   OF
 50
0.09999996
  7
AE
100
AcDbText
  0
TEXT
  5
12A
330
B2
100
AcDbEntity
  8
Title Block
  6
Continuous
 62
     2
100
AcDbText
 10
9.575002260000005
 20
1.349999999999999
 30
0.0
 40
0.075937067150492
  1
DATE
 50
0.09999996
  7
AE
100
AcDbText
  0
LINE
  5
12B
330
B2
100
AcDbEntity
  8
BORDER
 62
    15
100
AcDbLine
 10
11.00000226000001
 20
4.25
 30
0.0
 11
11.40000188000002
 21
4.25
 31
0.0
  0
LINE
  5
12C
330
B2
100
AcDbEntity
  8
BORDER
 62
    15
100
AcDbLine
 10
0.400011260000019
 20
8.5
 30
0.0
 11
11.00000226000001
 21
8.5
 31
0.0
  0
LINE
  5
12D
330
B2
100
AcDbEntity
  8
BORDER
 62
    15
100
AcDbLine
 10
5.500002260000007
 20
8.5
 30
0.0
 11
5.500002260000007
 21
8.880000000000023
 31
0.0
  0
MTEXT
  5
12E
330
B2
100
AcDbEntity
  8
BORDER
  6
Continuous
100
AcDbMText
 10
9.503092053358715
 20
2.25
 30
0.0
 40
0.125
 41
2.663
 71
     2
 72
     5
  1
{\fArial|b0|i0|c0|p34;\C1;DANAHER MOTION}
 73
     1
 44
1.0
1001
ACAD
1000
ACAD_MTEXT_DEFINED_HEIGHT_BEGIN
1070
    46
1040
0.0
1000
ACAD_MTEXT_DEFINED_HEIGHT_END
  0
MTEXT
  5
12F
330
B2
100
AcDbEntity
  8
BORDER
  6
Continuous
100
AcDbMText
 10
9.50413083763949
 20
1.928264837305509
 30
0.0
 40
0.07874
 41
2.862
 71
     5
 72
     1
  1
{\Fromans.shx|c0;\C9;672 South Military Road\PFond du Lac, Wisconsin 54936 U.S.A.}
 73
     1
 44
1.0
  0
TEXT
  5
130
330
B2
100
AcDbEntity
  8
Title Block
  6
Continuous
 62
     2
100
AcDbText
 10
5.11882087560132
 20
2.036049281269597
 30
0.0
 40
0.0645465051491158
  1
of Danaher Motion, is
 50
0.0999999600000013
 41
0.6799434399999999
  7
AE
100
AcDbText
  0
TEXT
  5
131
330
B2
100
AcDbEntity
  8
Title Block
  6
Continuous
 62
     2
100
AcDbText
 10
5.117417134120477
 20
2.144627598463487
 30
0.0
 40
0.0645465051491158
  1
contains proprietary information
 50
0.0999999600000013
 41
0.7005041199999999
  7
AE
100
AcDbText
  0
TEXT
  5
132
330
B2
100
AcDbEntity
  8
Title Block
  6
Continuous
 62
     2
100
AcDbText
 10
5.12248893991202
 20
1.924616885729644
 30
0.0
 40
0.0645465051491158
  1
submitted in confidence on
 50
0.0999999600000013
 41
0.6605569100000001
  7
AE
100
AcDbText
  0
TEXT
  5
133
330
B2
100
AcDbEntity
  8
Title Block
  6
Continuous
 62
     2
100
AcDbText
 10
5.116796757515229
 20
1.81708586876793
 30
0.0
 40
0.0645465051491158
  1
condition that it will not be
 50
0.0999999600000013
 41
0.72234601
  7
AE
100
AcDbText
  0
TEXT
  5
134
330
B2
100
AcDbEntity
  8
Title Block
  6
Continuous
 62
     2
100
AcDbText
 10
5.114171255316859
 20
1.597796107226088
 30
0.0
 40
0.0645465051491158
  1
will be used only for your
 50
0.0999999600000013
 41
0.6799434399999999
  7
AE
100
AcDbText
  0
TEXT
  5
135
330
B2
100
AcDbEntity
  8
Title Block
  6
Continuous
 62
     2
100
AcDbText
 10
5.119489472122936
 20
1.489000640399515
 30
0.0
 40
0.0645465051491158
  1
information, and will not be used
 50
0.0999999600000013
 41
0.6605569100000001
  7
AE
100
AcDbText
  0
TEXT
  5
136
330
B2
100
AcDbEntity
  8
Title Block
  6
Continuous
 62
     2
100
AcDbText
 10
5.117399491933456
 20
1.378476657741246
 30
0.0
 40
0.0645465051491158
  1
or disclosed to anyone except as
 50
0.0999999600000013
 41
0.6799434399999999
  7
AE
100
AcDbText
  0
TEXT
  5
137
330
B2
100
AcDbEntity
  8
Title Block
  6
Continuous
 62
     2
100
AcDbText
 10
5.115407251658092
 20
1.267047562975569
 30
0.0
 40
0.0645465051491158
  1
authorized by specific
 50
0.0999999600000013
 41
0.79688752
  7
AE
100
AcDbText
  0
TEXT
  5
138
330
B2
100
AcDbEntity
  8
Title Block
  6
Continuous
 62
     2
100
AcDbText
 10
5.11777350306262
 20
1.705466828073234
 30
0.0
 40
0.0645465051491158
  1
copied or otherwise reproduced,
 50
0.0999999600000013
 41
0.6799434399999999
  7
AE
100
AcDbText
  0
TEXT
  5
139
330
B2
100
AcDbEntity
  8
Title Block
  6
Continuous
 62
     2
100
AcDbText
 10
5.120512203560588
 20
2.252555955563673
 30
0.0
 40
0.0645465051491158
  1
NOTICE: This drawing or material
 50
0.0999999600000013
 41
0.7005041199999999
  7
AE
100
AcDbText
  0
TEXT
  5
13A
330
B2
100
AcDbEntity
  8
Title Block
  6
Continuous
 62
     2
100
AcDbText
 10
5.120968584433857
 20
1.159697406318199
 30
0.0
 40
0.0645465051491158
  1
written consent of
 50
0.0999999600000013
 41
0.79688752
  7
AE
100
AcDbText
  0
TEXT
  5
13B
330
B2
100
AcDbEntity
  8
Title Block
  6
Continuous
 62
     2
100
AcDbText
 10
5.118752260000006
 20
1.046875
 30
0.0
 40
0.0645465051491158
  1
Danaher Motion
 50
0.0999999600000013
 41
0.79688752
  7
AE
100
AcDbText
  0
ENDBLK
  5
13F
330
B2
100
AcDbEntity
  8
0
100
AcDbBlockEnd
  0
BLOCK
  5
BC7
330
BBC
100
AcDbEntity
  8
0
100
AcDbBlockBegin
  2
*D8
 70
     1
 10
0.0
 20
0.0
 30
0.0
  3
*D8
  1

  0
LINE
  5
BD5
330
BBC
100
AcDbEntity
  8
0
 62
     0
370
    -2
100
AcDbLine
 10
6.663493161095015
 20
6.381576797624749
 30
0.0
 11
6.663493161095015
 21
7.518222321555864
 31
0.0
  0
LINE
  5
BD6
330
BBC
100
AcDbEntity
  8
0
 62
     0
370
    -2
100
AcDbLine
 10
9.776693161095019
 20
6.38157679762475
 30
0.0
 11
9.776693161095019
 21
7.518222321555864
 31
0.0
  0
LINE
  5
BD7
330
BBC
100
AcDbEntity
  8
0
 62
     0
370
    -2
100
AcDbLine
 10
6.843493161095015
 20
7.338222321555864
 30
0.0
 11
7.920093161095018
 21
7.338222321555864
 31
0.0
  0
LINE
  5
BD8
330
BBC
100
AcDbEntity
  8
0
 62
     0
370
    -2
100
AcDbLine
 10
9.59669316109502
 20
7.338222321555864
 30
0.0
 11
8.520093161095019
 21
7.338222321555864
 31
0.0
  0
SOLID
  5
BD9
330
BBC
100
AcDbEntity
  8
0
 62
     0
100
AcDbTrace
 10
6.843493161095015
 20
7.368222321555864
 30
0.0
 11
6.843493161095015
 21
7.308222321555864
 31
0.0
 12
6.663493161095015
 22
7.338222321555864
 32
0.0
 13
6.663493161095015
 23
7.338222321555864
 33
0.0
  0
SOLID
  5
BDA
330
BBC
100
AcDbEntity
  8
0
 62
     0
100
AcDbTrace
 10
9.59669316109502
 20
7.368222321555864
 30
0.0
 11
9.59669316109502
 21
7.308222321555864
 31
0.0
 12
9.776693161095019
 22
7.338222321555864
 32
0.0
 13
9.776693161095019
 23
7.338222321555864
 33
0.0
  0
MTEXT
  5
BDB
330
BBC
100
AcDbEntity
  8
0
 62
     0
100
AcDbMText
 10
8.220093161095018
 20
7.338222321555864
 30
0.0
 40
0.18
 41
0.0
 71
     5
 72
     1
  1
\A1;3.11
 73
     1
 44
1.0
  0
POINT
  5
BDC
330
BBC
100
AcDbEntity
  8
Defpoints
 62
     0
100
AcDbPoint
 10
6.663493161095015
 20
6.319076797624749
 30
0.0
  0
POINT
  5
BDD
330
BBC
100
AcDbEntity
  8
Defpoints
 62
     0
100
AcDbPoint
 10
9.776693161095019
 20
6.31907679762475
 30
0.0
  0
POINT
  5
BDE
330
BBC
100
AcDbEntity
  8
Defpoints
 62
     0
100
AcDbPoint
 10
9.776693161095019
 20
7.338222321555864
 30
0.0
  0
ENDBLK
  5
BC8
330
BBC
100
AcDbEntity
  8
0
100
AcDbBlockEnd
  0
BLOCK
  5
BEB
330
BE0
100
AcDbEntity
  8
0
100
AcDbBlockBegin
  2
*D9
 70
     1
 10
0.0
 20
0.0
 30
0.0
  3
*D9
  1

  0
LINE
  5
C1E
330
BE0
100
AcDbEntity
  8
0
 62
     0
370
    -2
100
AcDbLine
 10
6.600993161095015
 20
6.319076797624749
 30
0.0
 11
5.574742390735196
 21
6.31907679762475
 31
0.0
  0
LINE
  5
C1F
330
BE0
100
AcDbEntity
  8
0
 62
     0
370
    -2
100
AcDbLine
 10
6.600993161095015
 20
3.289076797624748
 30
0.0
 11
5.574742390735195
 21
3.289076797624748
 31
0.0
  0
LINE
  5
C20
330
BE0
100
AcDbEntity
  8
0
 62
     0
370
    -2
100
AcDbLine
 10
5.754742390735196
 20
6.13907679762475
 30
0.0
 11
5.754742390735195
 21
4.984076797624749
 31
0.0
  0
LINE
  5
C21
330
BE0
100
AcDbEntity
  8
0
 62
     0
370
    -2
100
AcDbLine
 10
5.754742390735195
 20
3.469076797624748
 30
0.0
 11
5.754742390735195
 21
4.624076797624749
 31
0.0
  0
SOLID
  5
C22
330
BE0
100
AcDbEntity
  8
0
 62
     0
100
AcDbTrace
 10
5.724742390735196
 20
6.13907679762475
 30
0.0
 11
5.784742390735196
 21
6.13907679762475
 31
0.0
 12
5.754742390735196
 22
6.31907679762475
 32
0.0
 13
5.754742390735196
 23
6.31907679762475
 33
0.0
  0
SOLID
  5
C23
330
BE0
100
AcDbEntity
  8
0
 62
     0
100
AcDbTrace
 10
5.724742390735195
 20
3.469076797624748
 30
0.0
 11
5.784742390735195
 21
3.469076797624748
 31
0.0
 12
5.754742390735195
 22
3.289076797624748
 32
0.0
 13
5.754742390735195
 23
3.289076797624748
 33
0.0
  0
MTEXT
  5
C24
330
BE0
100
AcDbEntity
  8
0
 62
     0
100
AcDbMText
 10
5.754742390735194
 20
4.80407679762475
 30
0.0
 40
0.18
 41
0.0
 71
     5
 72
     1
  1
\A1;3.03
 73
     1
 44
1.0
  0
POINT
  5
C25
330
BE0
100
AcDbEntity
  8
Defpoints
 62
     0
100
AcDbPoint
 10
6.663493161095015
 20
6.319076797624749
 30
0.0
  0
POINT
  5
C26
330
BE0
100
AcDbEntity
  8
Defpoints
 62
     0
100
AcDbPoint
 10
6.663493161095015
 20
3.289076797624748
 30
0.0
  0
POINT
  5
C27
330
BE0
100
AcDbEntity
  8
Defpoints
 62
     0
100
AcDbPoint
 10
5.754742390735195
 20
3.289076797624748
 30
0.0
  0
ENDBLK
  5
BEC
330
BE0
100
AcDbEntity
  8
0
100
AcDbBlockEnd
  0
BLOCK
  5
C06
330
BFB
100
AcDbEntity
  8
0
100
AcDbBlockBegin
  2
*D10
 70
     1
 10
0.0
 20
0.0
 30
0.0
  3
*D10
  1

  0
LINE
  5
C14
330
BFB
100
AcDbEntity
  8
0
 62
     0
370
    -2
100
AcDbLine
 10
1.511673373261402
 20
3.763301054937805
 30
0.0
 11
0.7790386265309259
 21
3.763301054937806
 31
0.0
  0
LINE
  5
C15
330
BFB
100
AcDbEntity
  8
0
 62
     0
370
    -2
100
AcDbLine
 10
1.566253723112744
 20
5.965828155978003
 30
0.0
 11
0.7790386265309265
 21
5.965828155978003
 31
0.0
  0
LINE
  5
C16
330
BFB
100
AcDbEntity
  8
0
 62
     0
370
    -2
100
AcDbLine
 10
0.9590386265309259
 20
3.943301054937806
 30
0.0
 11
0.9590386265309259
 21
4.684564605457905
 31
0.0
  0
LINE
  5
C17
330
BFB
100
AcDbEntity
  8
0
 62
     0
370
    -2
100
AcDbLine
 10
0.9590386265309263
 20
5.785828155978004
 30
0.0
 11
0.9590386265309261
 21
5.044564605457905
 31
0.0
  0
SOLID
  5
C18
330
BFB
100
AcDbEntity
  8
0
 62
     0
100
AcDbTrace
 10
0.9290386265309258
 20
3.943301054937806
 30
0.0
 11
0.9890386265309258
 21
3.943301054937806
 31
0.0
 12
0.9590386265309259
 22
3.763301054937806
 32
0.0
 13
0.9590386265309259
 23
3.763301054937806
 33
0.0
  0
SOLID
  5
C19
330
BFB
100
AcDbEntity
  8
0
 62
     0
100
AcDbTrace
 10
0.9290386265309262
 20
5.785828155978004
 30
0.0
 11
0.9890386265309263
 21
5.785828155978004
 31
0.0
 12
0.9590386265309263
 22
5.965828155978003
 32
0.0
 13
0.9590386265309263
 23
5.965828155978003
 33
0.0
  0
MTEXT
  5
C1A
330
BFB
100
AcDbEntity
  8
0
 62
     0
100
AcDbMText
 10
0.9590386265309252
 20
4.864564605457905
 30
0.0
 40
0.18
 41
0.0
 71
     5
 72
     1
  1
\A1;2.20
 73
     1
 44
1.0
  0
POINT
  5
C1B
330
BFB
100
AcDbEntity
  8
Defpoints
 62
     0
100
AcDbPoint
 10
1.574173373261402
 20
3.763301054937805
 30
0.0
  0
POINT
  5
C1C
330
BFB
100
AcDbEntity
  8
Defpoints
 62
     0
100
AcDbPoint
 10
1.628753723112744
 20
5.965828155978003
 30
0.0
  0
POINT
  5
C1D
330
BFB
100
AcDbEntity
  8
Defpoints
 62
     0
100
AcDbPoint
 10
0.9590386265309263
 20
5.965828155978003
 30
0.0
  0
ENDBLK
  5
C07
330
BFB
100
AcDbEntity
  8
0
100
AcDbBlockEnd
  0
ENDSEC
  0
SECTION
  2
ENTITIES
  0
INSERT
  5
140
330
1F
100
AcDbEntity
  8
0
100
AcDbBlockReference
 66
     1
  2
ASSEMBLY_A
 10
0.0
 20
0.0
 30
0.0
  0
ATTRIB
  5
142
330
140
100
AcDbEntity
  8
Title Block
  6
Continuous
 62
     2
100
AcDbText
 10
5.200002260000005
 20
0.6000000000000001
 30
0.0
 40
0.126326427375
  1
BREAKOUT BOX HD26F
 41
0.8
100
AcDbAttribute
  2
GEN-TITLE-DES1{15.54}
 70
     0
1001
GENIUS_GENBLLY_14
1000
BOR5
  0
ATTRIB
  5
143
330
140
100
AcDbEntity
  8
Title Block
  6
Continuous
 62
     2
100
AcDbText
 10
6.925002260000004
 20
1.024999999999999
 30
0.0
 40
0.1010611419
  1

100
AcDbAttribute
  2
GEN-TITLE-APPM{5}
 70
     0
1001
GENIUS_GENBLLY_14
1000
BOR2
1001
GENIUS_GENTRA_14
1002
{
1070
     3
1000
GENTRAPR,%s,(GENMSG gentitus 73)
1000
Approved by
1000
gb
1070
     0
1002
}
  0
ATTRIB
  5
144
330
140
100
AcDbEntity
  8
Title Block
  6
Continuous
 62
     2
100
AcDbText
 10
6.925002260000004
 20
1.274999999999999
 30
0.0
 40
0.1010611419
  1

100
AcDbAttribute
  2
GEN-TITLE-CHKM{5}
 70
     0
1001
GENIUS_GENBLLY_14
1000
BOR2
  0
ATTRIB
  5
145
330
140
100
AcDbEntity
  8
Title Block
  6
Continuous
 62
     2
100
AcDbText
 10
6.925002260000004
 20
1.524999999999999
 30
0.0
 40
0.1010611419
  1
G. MUMM
100
AcDbAttribute
  2
GEN-TITLE-NAME{5}
 70
     0
1001
GENIUS_GENBLLY_14
1000
BOR2
  0
ATTRIB
  5
146
330
140
100
AcDbEntity
  8
Title Block
  6
Continuous
 62
     2
100
AcDbText
 10
8.400002260000006
 20
0.5
 30
0.0
 40
0.196816573850279
  1
M.1302.8253
 41
0.8
100
AcDbAttribute
  2
GEN-TITLE-NR{13.37}
 70
     0
1001
GENIUS_GENBLLY_14
1000
BOR5
  0
ATTRIB
  5
147
330
140
100
AcDbEntity
  8
Title Block
  6
Continuous
 62
     2
100
AcDbText
 10
10.00000226
 20
1.024999999999999
 30
0.0
 40
0.11808994431015
  1
1
 41
0.8
100
AcDbAttribute
  2
GEN-TITLE-SHEET{2.62}
 70
     0
1001
GENIUS_GENBLLY_14
1000
BOR3
  0
ATTRIB
  5
148
330
140
100
AcDbEntity
  8
Title Block
  6
Continuous
 62
     2
100
AcDbText
 10
9.925002260000004
 20
1.274999999999999
 30
0.0
 40
0.1010611419
  1
11-SEPT-07
100
AcDbAttribute
  2
GEN-TITLE-PLOT{5}
 70
     0
1001
GENIUS_GENBLLY_14
1000
BOR2
  0
ATTRIB
  5
149
330
140
100
AcDbEntity
  8
Title Block
  6
Continuous
 62
     2
100
AcDbText
 10
10.40000226
 20
1.024999999999999
 30
0.0
 40
0.11808994431015
  1
1
 41
0.8
100
AcDbAttribute
  2
GEN-TITLE-SHEET-OF{2.62}
 70
     0
1001
GENIUS_GENBLLY_14
1000
BOR3
  0
ATTRIB
  5
14A
330
140
100
AcDbEntity
  8
Title Block
  6
Continuous
 62
     2
100
AcDbText
 10
8.450002260000005
 20
1.524999999999999
 30
0.0
 40
0.1010611419
  1

100
AcDbAttribute
  2
GEN-TITLE-REF{5}
 70
     0
1001
GENIUS_GENBLLY_14
1000
BOR2
  0
ATTRIB
  5
14B
330
140
100
AcDbEntity
  8
Title Block
  6
Continuous
 62
     2
100
AcDbText
 10
8.450002260000005
 20
1.274999999999999
 30
0.0
 40
0.1010611419
  1

100
AcDbAttribute
  2
GEN-TITLE-MACH{5}
 70
     0
1001
GENIUS_GENBLLY_14
1000
BOR2
  0
ATTRIB
  5
14C
330
140
100
AcDbEntity
  8
Title Block
  6
Continuous
 62
     2
100
AcDbText
 10
8.450002260000005
 20
1.024999999999999
 30
0.0
 40
0.1010611419
  1

 41
0.8
100
AcDbAttribute
  2
GEN-TITLE-MAT{11.15}
 70
     0
1001
GENIUS_GENBLLY_14
1000
BOR3
  0
SEQEND
  5
141
330
140
100
AcDbEntity
  8
0
  0
LINE
  5
58D
330
1F
100
AcDbEntity
  8
0
100
AcDbLine
 10
4.646109182706901
 20
4.4187503347795
 30
0.0
 11
1.545809182706904
 21
4.418750334779499
 31
0.0
  0
LINE
  5
58E
330
1F
100
AcDbEntity
  8
0
100
AcDbLine
 10
4.646109182706901
 20
4.613607499884412
 30
0.0
 11
1.545809182706904
 21
4.613607499884412
 31
0.0
  0
LINE
  5
58F
330
1F
100
AcDbEntity
  8
0
100
AcDbLine
 10
4.646109182706901
 20
4.808464664989327
 30
0.0
 11
1.545809182706904
 21
4.808464664989326
 31
0.0
  0
LINE
  5
590
330
1F
100
AcDbEntity
  8
0
100
AcDbLine
 10
1.545809182706904
 20
4.205987376124404
 30
0.0
 11
4.646109182706901
 21
4.205987376124404
 31
0.0
  0
LINE
  5
591
330
1F
100
AcDbEntity
  8
0
100
AcDbLine
 10
3.837697773861364
 20
3.763301155978004
 30
0.0
 11
4.617744773861367
 21
3.763301155978004
 31
0.0
  0
LINE
  5
592
330
1F
100
AcDbEntity
  8
0
100
AcDbLine
 10
3.837697773861364
 20
3.909939155978004
 30
0.0
 11
4.617744773861367
 21
3.909939155978004
 31
0.0
  0
LINE
  5
593
330
1F
100
AcDbEntity
  8
0
100
AcDbLine
 10
3.837697670162079
 20
3.763301054937805
 30
0.0
 11
4.617744992152402
 21
3.763301054937805
 31
0.0
  0
LINE
  5
594
330
1F
100
AcDbEntity
  8
0
100
AcDbLine
 10
3.837697670162079
 20
3.909938686979993
 30
0.0
 11
4.617744992152402
 21
3.909938686979993
 31
0.0
  0
LINE
  5
595
330
1F
100
AcDbEntity
  8
0
100
AcDbLine
 10
2.354061773861364
 20
3.763301054937804
 30
0.0
 11
2.354061773861364
 21
4.205891155978004
 31
0.0
  0
LINE
  5
596
330
1F
100
AcDbEntity
  8
0
100
AcDbLine
 10
1.574173773861364
 20
3.763301155978004
 30
0.0
 11
1.574173773861364
 21
4.205891155978004
 31
0.0
  0
LINE
  5
597
330
1F
100
AcDbEntity
  8
0
100
AcDbLine
 10
3.837856773861361
 20
3.763301155978004
 30
0.0
 11
3.837856773861361
 21
4.205891155978004
 31
0.0
  0
LINE
  5
599
330
1F
100
AcDbEntity
  8
0
100
AcDbLine
 10
1.574173373261402
 20
3.763301054937805
 30
0.0
 11
1.574173373261402
 21
4.205891167977933
 31
0.0
  0
LINE
  5
59A
330
1F
100
AcDbEntity
  8
0
100
AcDbLine
 10
3.837856944815648
 20
3.763301054937805
 30
0.0
 11
3.837856944815648
 21
4.205891167977933
 31
0.0
  0
TEXT
  5
59B
330
1F
100
AcDbEntity
  8
0
100
AcDbText
 10
2.494996773861362
 20
3.090719155978003
 30
0.0
 40
0.1
  1
D 26 SUB/F 
  7
ROMANS
100
AcDbText
  0
LINE
  5
59C
330
1F
100
AcDbEntity
  8
0
100
AcDbLine
 10
2.35422077386136
 20
3.909939155978004
 30
0.0
 11
1.574173773861364
 21
3.909939155978004
 31
0.0
  0
LINE
  5
59D
330
1F
100
AcDbEntity
  8
0
100
AcDbLine
 10
2.35422077386136
 20
3.763301155978004
 30
0.0
 11
1.574173773861364
 21
3.763301155978004
 31
0.0
  0
TEXT
  5
59E
330
1F
100
AcDbEntity
  8
0
100
AcDbText
 10
2.481841516678159
 20
2.882691696484428
 30
0.0
 40
0.1
  1
PART NO. M.1302.8253
  7
ROMANS
100
AcDbText
  0
LINE
  5
5A0
330
1F
100
AcDbEntity
  8
0
100
AcDbLine
 10
2.354220695251726
 20
3.909938686979993
 30
0.0
 11
1.574173373261402
 21
3.909938686979993
 31
0.0
  0
LINE
  5
5A1
102
{ACAD_REACTORS
330
C13
102
}
330
1F
100
AcDbEntity
  8
0
100
AcDbLine
 10
2.354220695251726
 20
3.763301054937805
 30
0.0
 11
1.574173373261402
 21
3.763301054937805
 31
0.0
  0
LINE
  5
5A2
330
1F
100
AcDbEntity
  8
0
100
AcDbLine
 10
2.328753723112743
 20
5.467737155978003
 30
0.0
 11
2.328753723112743
 21
4.808465155978003
 31
0.0
  0
LINE
  5
5A3
330
1F
100
AcDbEntity
  8
0
100
AcDbLine
 10
2.228753723112745
 20
5.965828155978003
 30
0.0
 11
2.228753723112745
 21
5.467737155978003
 31
0.0
  0
LINE
  5
5A4
330
1F
100
AcDbEntity
  8
0
100
AcDbLine
 10
2.928753723112745
 20
5.467737155978003
 30
0.0
 11
2.928753723112745
 21
4.808465155978003
 31
0.0
  0
LINE
  5
5A5
330
1F
100
AcDbEntity
  8
0
100
AcDbLine
 10
2.828753723112743
 20
5.965828155978003
 30
0.0
 11
2.828753723112743
 21
5.467737155978003
 31
0.0
  0
LINE
  5
5A6
330
1F
100
AcDbEntity
  8
0
100
AcDbLine
 10
3.528753723112746
 20
5.467737155978003
 30
0.0
 11
3.528753723112746
 21
4.808465155978003
 31
0.0
  0
LINE
  5
5A7
330
1F
100
AcDbEntity
  8
0
100
AcDbLine
 10
3.428753723112745
 20
5.965828155978003
 30
0.0
 11
3.428753723112745
 21
5.467737155978003
 31
0.0
  0
LINE
  5
5A9
330
1F
100
AcDbEntity
  8
0
100
AcDbLine
 10
4.02875372311275
 20
5.965828155978003
 30
0.0
 11
4.02875372311275
 21
5.467737155978003
 31
0.0
  0
LINE
  5
5AC
330
1F
100
AcDbEntity
  8
0
100
AcDbLine
 10
4.203208773861362
 20
4.205987155978004
 30
0.0
 11
4.203208773861362
 21
4.808465155978003
 31
0.0
  0
LINE
  5
5AE
330
1F
100
AcDbEntity
  8
0
100
AcDbLine
 10
1.545808773861359
 20
4.205987155978004
 30
0.0
 11
1.545808773861359
 21
4.808465155978003
 31
0.0
  0
TEXT
  5
5AF
330
1F
100
AcDbEntity
  8
0
100
AcDbText
 10
1.694406723112749
 20
5.765427155978004
 30
0.0
 40
0.08
  1
1
  7
ROMANS
100
AcDbText
  0
LINE
  5
5B0
330
1F
100
AcDbEntity
  8
0
100
AcDbLine
 10
1.690820723112743
 20
5.587355155978004
 30
0.0
 11
1.770532723112747
 21
5.587355155978004
 31
0.0
  0
LINE
  5
5B1
330
1F
100
AcDbEntity
  8
0
100
AcDbLine
 10
1.690820723112743
 20
5.634323155978004
 30
0.0
 11
1.690820723112743
 21
5.587355155978004
 31
0.0
  0
LINE
  5
5B2
330
1F
100
AcDbEntity
  8
0
100
AcDbLine
 10
1.770532723112747
 20
5.587355155978004
 30
0.0
 11
1.770532723112747
 21
5.634323155978004
 31
0.0
  0
LINE
  5
5B3
330
1F
100
AcDbEntity
  8
0
100
AcDbLine
 10
1.652315723112742
 20
5.635302155978004
 30
0.0
 11
1.809036723112747
 21
5.635302155978004
 31
0.0
  0
LINE
  5
5B4
330
1F
100
AcDbEntity
  8
0
100
AcDbLine
 10
1.652315723112742
 20
5.411962155978004
 30
0.0
 11
1.652315723112742
 21
5.635302155978004
 31
0.0
  0
LINE
  5
5B5
330
1F
100
AcDbEntity
  8
0
100
AcDbLine
 10
1.809036723112747
 20
5.635302155978004
 30
0.0
 11
1.809036723112747
 21
5.467737155978003
 31
0.0
  0
LINE
  5
5B6
330
1F
100
AcDbEntity
  8
0
100
AcDbLine
 10
1.790649723112746
 20
5.060680155978003
 30
0.0
 11
1.870361723112747
 21
5.060680155978003
 31
0.0
  0
LINE
  5
5B7
330
1F
100
AcDbEntity
  8
0
100
AcDbLine
 10
1.908865723112743
 20
5.108626155978003
 30
0.0
 11
1.908865723112743
 21
4.891398155978004
 31
0.0
  0
LINE
  5
5B8
330
1F
100
AcDbEntity
  8
0
100
AcDbLine
 10
1.790649723112746
 20
5.107648155978004
 30
0.0
 11
1.790649723112746
 21
5.060680155978003
 31
0.0
  0
LINE
  5
5B9
330
1F
100
AcDbEntity
  8
0
100
AcDbLine
 10
1.870361723112747
 20
5.060680155978003
 30
0.0
 11
1.870361723112747
 21
5.107648155978004
 31
0.0
  0
LINE
  5
5BA
330
1F
100
AcDbEntity
  8
0
100
AcDbLine
 10
1.752144723112749
 20
4.891398155978004
 30
0.0
 11
1.752144723112749
 21
5.108626155978003
 31
0.0
  0
LINE
  5
5BB
330
1F
100
AcDbEntity
  8
0
100
AcDbLine
 10
1.908865723112743
 20
4.891398155978004
 30
0.0
 11
1.752144723112749
 21
4.891398155978004
 31
0.0
  0
LINE
  5
5BC
330
1F
100
AcDbEntity
  8
0
100
AcDbLine
 10
1.752144723112749
 20
5.108626155978003
 30
0.0
 11
1.908865723112743
 21
5.108626155978003
 31
0.0
  0
TEXT
  5
5BD
330
1F
100
AcDbEntity
  8
0
100
AcDbText
 10
2.948643723112748
 20
5.273074155978004
 30
0.0
 40
0.08
  1
20
  7
ROMANS
100
AcDbText
  0
TEXT
  5
5BE
330
1F
100
AcDbEntity
  8
0
100
AcDbText
 10
1.894406723112748
 20
5.765427155978004
 30
0.0
 40
0.08
  1
2
  7
ROMANS
100
AcDbText
  0
LINE
  5
5BF
330
1F
100
AcDbEntity
  8
0
100
AcDbLine
 10
1.970532723112746
 20
5.587355155978004
 30
0.0
 11
1.970532723112746
 21
5.634323155978004
 31
0.0
  0
LINE
  5
5C0
330
1F
100
AcDbEntity
  8
0
100
AcDbLine
 10
1.890820723112742
 20
5.634323155978004
 30
0.0
 11
1.890820723112742
 21
5.587355155978004
 31
0.0
  0
LINE
  5
5C1
330
1F
100
AcDbEntity
  8
0
100
AcDbLine
 10
1.852315723112745
 20
5.635302155978004
 30
0.0
 11
2.009036723112746
 21
5.635302155978004
 31
0.0
  0
LINE
  5
5C2
330
1F
100
AcDbEntity
  8
0
100
AcDbLine
 10
1.890820723112742
 20
5.587355155978004
 30
0.0
 11
1.970532723112746
 21
5.587355155978004
 31
0.0
  0
LINE
  5
5C3
330
1F
100
AcDbEntity
  8
0
100
AcDbLine
 10
2.009036723112746
 20
5.635302155978004
 30
0.0
 11
2.009036723112746
 21
5.467737155978003
 31
0.0
  0
LINE
  5
5C4
330
1F
100
AcDbEntity
  8
0
100
AcDbLine
 10
1.852315723112745
 20
5.467737155978003
 30
0.0
 11
1.852315723112745
 21
5.635302155978004
 31
0.0
  0
LINE
  5
5C5
330
1F
100
AcDbEntity
  8
0
100
AcDbLine
 10
1.990649723112746
 20
5.060680155978003
 30
0.0
 11
2.070361723112746
 21
5.060680155978003
 31
0.0
  0
LINE
  5
5C6
330
1F
100
AcDbEntity
  8
0
100
AcDbLine
 10
2.108865723112742
 20
5.108626155978003
 30
0.0
 11
2.108865723112742
 21
4.891398155978004
 31
0.0
  0
LINE
  5
5C7
330
1F
100
AcDbEntity
  8
0
100
AcDbLine
 10
1.990649723112746
 20
5.107648155978004
 30
0.0
 11
1.990649723112746
 21
5.060680155978003
 31
0.0
  0
LINE
  5
5C8
330
1F
100
AcDbEntity
  8
0
100
AcDbLine
 10
2.070361723112746
 20
5.060680155978003
 30
0.0
 11
2.070361723112746
 21
5.107648155978004
 31
0.0
  0
LINE
  5
5C9
330
1F
100
AcDbEntity
  8
0
100
AcDbLine
 10
1.952144723112748
 20
4.891398155978004
 30
0.0
 11
1.952144723112748
 21
5.108626155978003
 31
0.0
  0
LINE
  5
5CA
330
1F
100
AcDbEntity
  8
0
100
AcDbLine
 10
2.108865723112742
 20
4.891398155978004
 30
0.0
 11
1.952144723112748
 21
4.891398155978004
 31
0.0
  0
LINE
  5
5CB
330
1F
100
AcDbEntity
  8
0
100
AcDbLine
 10
1.952144723112748
 20
5.108626155978003
 30
0.0
 11
2.108865723112742
 21
5.108626155978003
 31
0.0
  0
TEXT
  5
5CC
330
1F
100
AcDbEntity
  8
0
100
AcDbText
 10
3.148643723112748
 20
5.273074155978004
 30
0.0
 40
0.08
  1
21
  7
ROMANS
100
AcDbText
  0
TEXT
  5
5CD
330
1F
100
AcDbEntity
  8
0
100
AcDbText
 10
2.094406723112747
 20
5.765427155978004
 30
0.0
 40
0.08
  1
3
  7
ROMANS
100
AcDbText
  0
LINE
  5
5CE
330
1F
100
AcDbEntity
  8
0
100
AcDbLine
 10
2.170532723112749
 20
5.587355155978004
 30
0.0
 11
2.170532723112749
 21
5.634323155978004
 31
0.0
  0
LINE
  5
5CF
330
1F
100
AcDbEntity
  8
0
100
AcDbLine
 10
2.090820723112742
 20
5.634323155978004
 30
0.0
 11
2.090820723112742
 21
5.587355155978004
 31
0.0
  0
LINE
  5
5D0
330
1F
100
AcDbEntity
  8
0
100
AcDbLine
 10
2.052315723112744
 20
5.635302155978004
 30
0.0
 11
2.209036723112745
 21
5.635302155978004
 31
0.0
  0
LINE
  5
5D1
330
1F
100
AcDbEntity
  8
0
100
AcDbLine
 10
2.090820723112742
 20
5.587355155978004
 30
0.0
 11
2.170532723112749
 21
5.587355155978004
 31
0.0
  0
LINE
  5
5D2
330
1F
100
AcDbEntity
  8
0
100
AcDbLine
 10
2.209036723112745
 20
5.635302155978004
 30
0.0
 11
2.209036723112745
 21
5.467737155978003
 31
0.0
  0
LINE
  5
5D3
330
1F
100
AcDbEntity
  8
0
100
AcDbLine
 10
2.052315723112744
 20
5.467737155978003
 30
0.0
 11
2.052315723112744
 21
5.635302155978004
 31
0.0
  0
LINE
  5
5D4
330
1F
100
AcDbEntity
  8
0
100
AcDbLine
 10
2.190649723112745
 20
5.060680155978003
 30
0.0
 11
2.270361723112745
 21
5.060680155978003
 31
0.0
  0
LINE
  5
5D5
330
1F
100
AcDbEntity
  8
0
100
AcDbLine
 10
2.308865723112745
 20
5.108626155978003
 30
0.0
 11
2.308865723112745
 21
4.891398155978004
 31
0.0
  0
LINE
  5
5D6
330
1F
100
AcDbEntity
  8
0
100
AcDbLine
 10
2.190649723112745
 20
5.107648155978004
 30
0.0
 11
2.190649723112745
 21
5.060680155978003
 31
0.0
  0
LINE
  5
5D7
330
1F
100
AcDbEntity
  8
0
100
AcDbLine
 10
2.270361723112745
 20
5.060680155978003
 30
0.0
 11
2.270361723112745
 21
5.107648155978004
 31
0.0
  0
LINE
  5
5D8
330
1F
100
AcDbEntity
  8
0
100
AcDbLine
 10
2.152144723112748
 20
4.891398155978004
 30
0.0
 11
2.152144723112748
 21
5.108626155978003
 31
0.0
  0
LINE
  5
5D9
330
1F
100
AcDbEntity
  8
0
100
AcDbLine
 10
2.308865723112745
 20
4.891398155978004
 30
0.0
 11
2.152144723112748
 21
4.891398155978004
 31
0.0
  0
LINE
  5
5DA
330
1F
100
AcDbEntity
  8
0
100
AcDbLine
 10
2.152144723112748
 20
5.108626155978003
 30
0.0
 11
2.308865723112745
 21
5.108626155978003
 31
0.0
  0
TEXT
  5
5DB
330
1F
100
AcDbEntity
  8
0
100
AcDbText
 10
3.348643723112747
 20
5.273074155978004
 30
0.0
 40
0.08
  1
22
  7
ROMANS
100
AcDbText
  0
TEXT
  5
5DC
330
1F
100
AcDbEntity
  8
0
100
AcDbText
 10
2.294406723112746
 20
5.765427155978004
 30
0.0
 40
0.08
  1
4
  7
ROMANS
100
AcDbText
  0
LINE
  5
5DD
330
1F
100
AcDbEntity
  8
0
100
AcDbLine
 10
2.370532723112749
 20
5.587355155978004
 30
0.0
 11
2.370532723112749
 21
5.634323155978004
 31
0.0
  0
LINE
  5
5DE
330
1F
100
AcDbEntity
  8
0
100
AcDbLine
 10
2.290820723112744
 20
5.634323155978004
 30
0.0
 11
2.290820723112744
 21
5.587355155978004
 31
0.0
  0
LINE
  5
5DF
330
1F
100
AcDbEntity
  8
0
100
AcDbLine
 10
2.252315723112744
 20
5.635302155978004
 30
0.0
 11
2.409036723112745
 21
5.635302155978004
 31
0.0
  0
LINE
  5
5E0
330
1F
100
AcDbEntity
  8
0
100
AcDbLine
 10
2.290820723112744
 20
5.587355155978004
 30
0.0
 11
2.370532723112749
 21
5.587355155978004
 31
0.0
  0
LINE
  5
5E1
330
1F
100
AcDbEntity
  8
0
100
AcDbLine
 10
2.409036723112745
 20
5.635302155978004
 30
0.0
 11
2.409036723112745
 21
5.467737155978003
 31
0.0
  0
LINE
  5
5E2
330
1F
100
AcDbEntity
  8
0
100
AcDbLine
 10
2.252315723112744
 20
5.467737155978003
 30
0.0
 11
2.252315723112744
 21
5.635302155978004
 31
0.0
  0
LINE
  5
5E3
330
1F
100
AcDbEntity
  8
0
100
AcDbLine
 10
2.390649723112748
 20
5.060680155978003
 30
0.0
 11
2.470361723112745
 21
5.060680155978003
 31
0.0
  0
LINE
  5
5E4
330
1F
100
AcDbEntity
  8
0
100
AcDbLine
 10
2.508865723112744
 20
5.108626155978003
 30
0.0
 11
2.508865723112744
 21
4.891398155978004
 31
0.0
  0
LINE
  5
5E5
330
1F
100
AcDbEntity
  8
0
100
AcDbLine
 10
2.390649723112748
 20
5.107648155978004
 30
0.0
 11
2.390649723112748
 21
5.060680155978003
 31
0.0
  0
LINE
  5
5E6
330
1F
100
AcDbEntity
  8
0
100
AcDbLine
 10
2.470361723112745
 20
5.060680155978003
 30
0.0
 11
2.470361723112745
 21
5.107648155978004
 31
0.0
  0
LINE
  5
5E7
330
1F
100
AcDbEntity
  8
0
100
AcDbLine
 10
2.352144723112747
 20
4.891398155978004
 30
0.0
 11
2.352144723112747
 21
5.108626155978003
 31
0.0
  0
LINE
  5
5E8
330
1F
100
AcDbEntity
  8
0
100
AcDbLine
 10
2.508865723112744
 20
4.891398155978004
 30
0.0
 11
2.352144723112747
 21
4.891398155978004
 31
0.0
  0
LINE
  5
5E9
330
1F
100
AcDbEntity
  8
0
100
AcDbLine
 10
2.352144723112747
 20
5.108626155978003
 30
0.0
 11
2.508865723112744
 21
5.108626155978003
 31
0.0
  0
TEXT
  5
5EA
330
1F
100
AcDbEntity
  8
0
100
AcDbText
 10
3.548643723112746
 20
5.273074155978004
 30
0.0
 40
0.08
  1
23
  7
ROMANS
100
AcDbText
  0
TEXT
  5
5EB
330
1F
100
AcDbEntity
  8
0
100
AcDbText
 10
2.494406723112746
 20
5.765427155978004
 30
0.0
 40
0.08
  1
5
  7
ROMANS
100
AcDbText
  0
LINE
  5
5EC
330
1F
100
AcDbEntity
  8
0
100
AcDbLine
 10
2.570532723112748
 20
5.587355155978004
 30
0.0
 11
2.570532723112748
 21
5.634323155978004
 31
0.0
  0
LINE
  5
5ED
330
1F
100
AcDbEntity
  8
0
100
AcDbLine
 10
2.490820723112744
 20
5.634323155978004
 30
0.0
 11
2.490820723112744
 21
5.587355155978004
 31
0.0
  0
LINE
  5
5EE
330
1F
100
AcDbEntity
  8
0
100
AcDbLine
 10
2.452315723112743
 20
5.635302155978004
 30
0.0
 11
2.609036723112748
 21
5.635302155978004
 31
0.0
  0
LINE
  5
5EF
330
1F
100
AcDbEntity
  8
0
100
AcDbLine
 10
2.490820723112744
 20
5.587355155978004
 30
0.0
 11
2.570532723112748
 21
5.587355155978004
 31
0.0
  0
LINE
  5
5F0
330
1F
100
AcDbEntity
  8
0
100
AcDbLine
 10
2.609036723112748
 20
5.635302155978004
 30
0.0
 11
2.609036723112748
 21
5.467737155978003
 31
0.0
  0
LINE
  5
5F1
330
1F
100
AcDbEntity
  8
0
100
AcDbLine
 10
2.452315723112743
 20
5.467737155978003
 30
0.0
 11
2.452315723112743
 21
5.635302155978004
 31
0.0
  0
LINE
  5
5F2
330
1F
100
AcDbEntity
  8
0
100
AcDbLine
 10
2.590649723112747
 20
5.060680155978003
 30
0.0
 11
2.670361723112748
 21
5.060680155978003
 31
0.0
  0
LINE
  5
5F3
330
1F
100
AcDbEntity
  8
0
100
AcDbLine
 10
2.708865723112744
 20
5.108626155978003
 30
0.0
 11
2.708865723112744
 21
4.891398155978004
 31
0.0
  0
LINE
  5
5F4
330
1F
100
AcDbEntity
  8
0
100
AcDbLine
 10
2.590649723112747
 20
5.107648155978004
 30
0.0
 11
2.590649723112747
 21
5.060680155978003
 31
0.0
  0
LINE
  5
5F5
330
1F
100
AcDbEntity
  8
0
100
AcDbLine
 10
2.670361723112748
 20
5.060680155978003
 30
0.0
 11
2.670361723112748
 21
5.107648155978004
 31
0.0
  0
LINE
  5
5F6
330
1F
100
AcDbEntity
  8
0
100
AcDbLine
 10
2.552144723112746
 20
4.891398155978004
 30
0.0
 11
2.552144723112746
 21
5.108626155978003
 31
0.0
  0
LINE
  5
5F7
330
1F
100
AcDbEntity
  8
0
100
AcDbLine
 10
2.708865723112744
 20
4.891398155978004
 30
0.0
 11
2.552144723112746
 21
4.891398155978004
 31
0.0
  0
LINE
  5
5F8
330
1F
100
AcDbEntity
  8
0
100
AcDbLine
 10
2.552144723112746
 20
5.108626155978003
 30
0.0
 11
2.708865723112744
 21
5.108626155978003
 31
0.0
  0
TEXT
  5
5F9
330
1F
100
AcDbEntity
  8
0
100
AcDbText
 10
3.748643723112746
 20
5.273074155978004
 30
0.0
 40
0.08
  1
24
  7
ROMANS
100
AcDbText
  0
TEXT
  5
5FA
330
1F
100
AcDbEntity
  8
0
100
AcDbText
 10
2.694406723112749
 20
5.765427155978004
 30
0.0
 40
0.08
  1
6
  7
ROMANS
100
AcDbText
  0
LINE
  5
5FB
330
1F
100
AcDbEntity
  8
0
100
AcDbLine
 10
2.770532723112747
 20
5.587355155978004
 30
0.0
 11
2.770532723112747
 21
5.634323155978004
 31
0.0
  0
LINE
  5
5FC
330
1F
100
AcDbEntity
  8
0
100
AcDbLine
 10
2.690820723112743
 20
5.634323155978004
 30
0.0
 11
2.690820723112743
 21
5.587355155978004
 31
0.0
  0
LINE
  5
5FD
330
1F
100
AcDbEntity
  8
0
100
AcDbLine
 10
2.652315723112742
 20
5.635302155978004
 30
0.0
 11
2.809036723112747
 21
5.635302155978004
 31
0.0
  0
LINE
  5
5FE
330
1F
100
AcDbEntity
  8
0
100
AcDbLine
 10
2.690820723112743
 20
5.587355155978004
 30
0.0
 11
2.770532723112747
 21
5.587355155978004
 31
0.0
  0
LINE
  5
5FF
330
1F
100
AcDbEntity
  8
0
100
AcDbLine
 10
2.809036723112747
 20
5.635302155978004
 30
0.0
 11
2.809036723112747
 21
5.467737155978003
 31
0.0
  0
LINE
  5
600
330
1F
100
AcDbEntity
  8
0
100
AcDbLine
 10
2.652315723112742
 20
5.467737155978003
 30
0.0
 11
2.652315723112742
 21
5.635302155978004
 31
0.0
  0
LINE
  5
601
330
1F
100
AcDbEntity
  8
0
100
AcDbLine
 10
2.790649723112746
 20
5.060680155978003
 30
0.0
 11
2.870361723112747
 21
5.060680155978003
 31
0.0
  0
LINE
  5
602
330
1F
100
AcDbEntity
  8
0
100
AcDbLine
 10
2.908865723112743
 20
5.108626155978003
 30
0.0
 11
2.908865723112743
 21
4.891398155978004
 31
0.0
  0
LINE
  5
603
330
1F
100
AcDbEntity
  8
0
100
AcDbLine
 10
2.790649723112746
 20
5.107648155978004
 30
0.0
 11
2.790649723112746
 21
5.060680155978003
 31
0.0
  0
LINE
  5
604
330
1F
100
AcDbEntity
  8
0
100
AcDbLine
 10
2.870361723112747
 20
5.060680155978003
 30
0.0
 11
2.870361723112747
 21
5.107648155978004
 31
0.0
  0
LINE
  5
605
330
1F
100
AcDbEntity
  8
0
100
AcDbLine
 10
2.752144723112749
 20
4.891398155978004
 30
0.0
 11
2.752144723112749
 21
5.108626155978003
 31
0.0
  0
LINE
  5
606
330
1F
100
AcDbEntity
  8
0
100
AcDbLine
 10
2.908865723112743
 20
4.891398155978004
 30
0.0
 11
2.752144723112749
 21
4.891398155978004
 31
0.0
  0
LINE
  5
607
330
1F
100
AcDbEntity
  8
0
100
AcDbLine
 10
2.752144723112749
 20
5.108626155978003
 30
0.0
 11
2.908865723112743
 21
5.108626155978003
 31
0.0
  0
TEXT
  5
608
330
1F
100
AcDbEntity
  8
0
100
AcDbText
 10
3.948643723112745
 20
5.273074155978004
 30
0.0
 40
0.08
  1
25
  7
ROMANS
100
AcDbText
  0
TEXT
  5
609
330
1F
100
AcDbEntity
  8
0
100
AcDbText
 10
2.894406723112748
 20
5.765427155978004
 30
0.0
 40
0.08
  1
7
  7
ROMANS
100
AcDbText
  0
LINE
  5
60A
330
1F
100
AcDbEntity
  8
0
100
AcDbLine
 10
2.970532723112746
 20
5.587355155978004
 30
0.0
 11
2.970532723112746
 21
5.634323155978004
 31
0.0
  0
LINE
  5
60B
330
1F
100
AcDbEntity
  8
0
100
AcDbLine
 10
2.890820723112742
 20
5.634323155978004
 30
0.0
 11
2.890820723112742
 21
5.587355155978004
 31
0.0
  0
LINE
  5
60C
330
1F
100
AcDbEntity
  8
0
100
AcDbLine
 10
2.852315723112745
 20
5.635302155978004
 30
0.0
 11
3.009036723112746
 21
5.635302155978004
 31
0.0
  0
LINE
  5
60D
330
1F
100
AcDbEntity
  8
0
100
AcDbLine
 10
2.890820723112742
 20
5.587355155978004
 30
0.0
 11
2.970532723112746
 21
5.587355155978004
 31
0.0
  0
LINE
  5
60E
330
1F
100
AcDbEntity
  8
0
100
AcDbLine
 10
3.009036723112746
 20
5.635302155978004
 30
0.0
 11
3.009036723112746
 21
5.467737155978003
 31
0.0
  0
LINE
  5
60F
330
1F
100
AcDbEntity
  8
0
100
AcDbLine
 10
2.852315723112745
 20
5.467737155978003
 30
0.0
 11
2.852315723112745
 21
5.635302155978004
 31
0.0
  0
LINE
  5
610
330
1F
100
AcDbEntity
  8
0
100
AcDbLine
 10
2.990649723112746
 20
5.060680155978003
 30
0.0
 11
3.070361723112746
 21
5.060680155978003
 31
0.0
  0
LINE
  5
611
330
1F
100
AcDbEntity
  8
0
100
AcDbLine
 10
3.108865723112742
 20
5.108626155978003
 30
0.0
 11
3.108865723112742
 21
4.891398155978004
 31
0.0
  0
LINE
  5
612
330
1F
100
AcDbEntity
  8
0
100
AcDbLine
 10
2.990649723112746
 20
5.107648155978004
 30
0.0
 11
2.990649723112746
 21
5.060680155978003
 31
0.0
  0
LINE
  5
613
330
1F
100
AcDbEntity
  8
0
100
AcDbLine
 10
3.070361723112746
 20
5.060680155978003
 30
0.0
 11
3.070361723112746
 21
5.107648155978004
 31
0.0
  0
LINE
  5
614
330
1F
100
AcDbEntity
  8
0
100
AcDbLine
 10
2.952144723112748
 20
4.891398155978004
 30
0.0
 11
2.952144723112748
 21
5.108626155978003
 31
0.0
  0
LINE
  5
615
330
1F
100
AcDbEntity
  8
0
100
AcDbLine
 10
3.108865723112742
 20
4.891398155978004
 30
0.0
 11
2.952144723112748
 21
4.891398155978004
 31
0.0
  0
LINE
  5
616
330
1F
100
AcDbEntity
  8
0
100
AcDbLine
 10
2.952144723112748
 20
5.108626155978003
 30
0.0
 11
3.108865723112742
 21
5.108626155978003
 31
0.0
  0
TEXT
  5
617
330
1F
100
AcDbEntity
  8
0
100
AcDbText
 10
3.094406723112747
 20
5.765427155978004
 30
0.0
 40
0.08
  1
8
  7
ROMANS
100
AcDbText
  0
LINE
  5
618
330
1F
100
AcDbEntity
  8
0
100
AcDbLine
 10
3.170532723112749
 20
5.587355155978004
 30
0.0
 11
3.170532723112749
 21
5.634323155978004
 31
0.0
  0
LINE
  5
619
330
1F
100
AcDbEntity
  8
0
100
AcDbLine
 10
3.090820723112742
 20
5.634323155978004
 30
0.0
 11
3.090820723112742
 21
5.587355155978004
 31
0.0
  0
LINE
  5
61A
330
1F
100
AcDbEntity
  8
0
100
AcDbLine
 10
3.052315723112744
 20
5.635302155978004
 30
0.0
 11
3.209036723112745
 21
5.635302155978004
 31
0.0
  0
LINE
  5
61B
330
1F
100
AcDbEntity
  8
0
100
AcDbLine
 10
3.090820723112742
 20
5.587355155978004
 30
0.0
 11
3.170532723112749
 21
5.587355155978004
 31
0.0
  0
LINE
  5
61C
330
1F
100
AcDbEntity
  8
0
100
AcDbLine
 10
3.209036723112745
 20
5.635302155978004
 30
0.0
 11
3.209036723112745
 21
5.467737155978003
 31
0.0
  0
LINE
  5
61D
330
1F
100
AcDbEntity
  8
0
100
AcDbLine
 10
3.052315723112744
 20
5.467737155978003
 30
0.0
 11
3.052315723112744
 21
5.635302155978004
 31
0.0
  0
LINE
  5
61E
330
1F
100
AcDbEntity
  8
0
100
AcDbLine
 10
3.190649723112745
 20
5.060680155978003
 30
0.0
 11
3.270361723112745
 21
5.060680155978003
 31
0.0
  0
LINE
  5
61F
330
1F
100
AcDbEntity
  8
0
100
AcDbLine
 10
3.308865723112745
 20
5.108626155978003
 30
0.0
 11
3.308865723112745
 21
4.891398155978004
 31
0.0
  0
LINE
  5
620
330
1F
100
AcDbEntity
  8
0
100
AcDbLine
 10
3.190649723112745
 20
5.107648155978004
 30
0.0
 11
3.190649723112745
 21
5.060680155978003
 31
0.0
  0
LINE
  5
621
330
1F
100
AcDbEntity
  8
0
100
AcDbLine
 10
3.270361723112745
 20
5.060680155978003
 30
0.0
 11
3.270361723112745
 21
5.107648155978004
 31
0.0
  0
LINE
  5
622
330
1F
100
AcDbEntity
  8
0
100
AcDbLine
 10
3.152144723112748
 20
4.891398155978004
 30
0.0
 11
3.152144723112748
 21
5.108626155978003
 31
0.0
  0
LINE
  5
623
330
1F
100
AcDbEntity
  8
0
100
AcDbLine
 10
3.308865723112745
 20
4.891398155978004
 30
0.0
 11
3.152144723112748
 21
4.891398155978004
 31
0.0
  0
LINE
  5
624
330
1F
100
AcDbEntity
  8
0
100
AcDbLine
 10
3.152144723112748
 20
5.108626155978003
 30
0.0
 11
3.308865723112745
 21
5.108626155978003
 31
0.0
  0
TEXT
  5
625
330
1F
100
AcDbEntity
  8
0
100
AcDbText
 10
3.294406723112746
 20
5.765427155978004
 30
0.0
 40
0.08
  1
9
  7
ROMANS
100
AcDbText
  0
LINE
  5
626
330
1F
100
AcDbEntity
  8
0
100
AcDbLine
 10
3.370532723112749
 20
5.587355155978004
 30
0.0
 11
3.370532723112749
 21
5.634323155978004
 31
0.0
  0
LINE
  5
627
330
1F
100
AcDbEntity
  8
0
100
AcDbLine
 10
3.290820723112744
 20
5.634323155978004
 30
0.0
 11
3.290820723112744
 21
5.587355155978004
 31
0.0
  0
LINE
  5
628
330
1F
100
AcDbEntity
  8
0
100
AcDbLine
 10
3.252315723112744
 20
5.635302155978004
 30
0.0
 11
3.409036723112745
 21
5.635302155978004
 31
0.0
  0
LINE
  5
629
330
1F
100
AcDbEntity
  8
0
100
AcDbLine
 10
3.290820723112744
 20
5.587355155978004
 30
0.0
 11
3.370532723112749
 21
5.587355155978004
 31
0.0
  0
LINE
  5
62A
330
1F
100
AcDbEntity
  8
0
100
AcDbLine
 10
3.409036723112745
 20
5.635302155978004
 30
0.0
 11
3.409036723112745
 21
5.467737155978003
 31
0.0
  0
LINE
  5
62B
330
1F
100
AcDbEntity
  8
0
100
AcDbLine
 10
3.252315723112744
 20
5.467737155978003
 30
0.0
 11
3.252315723112744
 21
5.635302155978004
 31
0.0
  0
LINE
  5
62C
330
1F
100
AcDbEntity
  8
0
100
AcDbLine
 10
3.390649723112748
 20
5.060680155978003
 30
0.0
 11
3.470361723112745
 21
5.060680155978003
 31
0.0
  0
LINE
  5
62D
330
1F
100
AcDbEntity
  8
0
100
AcDbLine
 10
3.508865723112744
 20
5.108626155978003
 30
0.0
 11
3.508865723112744
 21
4.891398155978004
 31
0.0
  0
LINE
  5
62E
330
1F
100
AcDbEntity
  8
0
100
AcDbLine
 10
3.390649723112748
 20
5.107648155978004
 30
0.0
 11
3.390649723112748
 21
5.060680155978003
 31
0.0
  0
LINE
  5
62F
330
1F
100
AcDbEntity
  8
0
100
AcDbLine
 10
3.470361723112745
 20
5.060680155978003
 30
0.0
 11
3.470361723112745
 21
5.107648155978004
 31
0.0
  0
LINE
  5
630
330
1F
100
AcDbEntity
  8
0
100
AcDbLine
 10
3.352144723112747
 20
4.891398155978004
 30
0.0
 11
3.352144723112747
 21
5.108626155978003
 31
0.0
  0
LINE
  5
631
330
1F
100
AcDbEntity
  8
0
100
AcDbLine
 10
3.508865723112744
 20
4.891398155978004
 30
0.0
 11
3.352144723112747
 21
4.891398155978004
 31
0.0
  0
LINE
  5
632
330
1F
100
AcDbEntity
  8
0
100
AcDbLine
 10
3.352144723112747
 20
5.108626155978003
 30
0.0
 11
3.508865723112744
 21
5.108626155978003
 31
0.0
  0
TEXT
  5
633
330
1F
100
AcDbEntity
  8
0
100
AcDbText
 10
3.435229723112744
 20
5.765427155978004
 30
0.0
 40
0.08
  1
10
  7
ROMANS
100
AcDbText
  0
LINE
  5
634
330
1F
100
AcDbEntity
  8
0
100
AcDbLine
 10
3.570532723112748
 20
5.587355155978004
 30
0.0
 11
3.570532723112748
 21
5.634323155978004
 31
0.0
  0
LINE
  5
635
330
1F
100
AcDbEntity
  8
0
100
AcDbLine
 10
3.490820723112744
 20
5.634323155978004
 30
0.0
 11
3.490820723112744
 21
5.587355155978004
 31
0.0
  0
LINE
  5
636
330
1F
100
AcDbEntity
  8
0
100
AcDbLine
 10
3.452315723112743
 20
5.635302155978004
 30
0.0
 11
3.609036723112748
 21
5.635302155978004
 31
0.0
  0
LINE
  5
637
330
1F
100
AcDbEntity
  8
0
100
AcDbLine
 10
3.490820723112744
 20
5.587355155978004
 30
0.0
 11
3.570532723112748
 21
5.587355155978004
 31
0.0
  0
LINE
  5
638
330
1F
100
AcDbEntity
  8
0
100
AcDbLine
 10
3.609036723112748
 20
5.635302155978004
 30
0.0
 11
3.609036723112748
 21
5.467737155978003
 31
0.0
  0
LINE
  5
639
330
1F
100
AcDbEntity
  8
0
100
AcDbLine
 10
3.452315723112743
 20
5.467737155978003
 30
0.0
 11
3.452315723112743
 21
5.635302155978004
 31
0.0
  0
LINE
  5
63A
330
1F
100
AcDbEntity
  8
0
100
AcDbLine
 10
3.590649723112747
 20
5.060680155978003
 30
0.0
 11
3.670361723112748
 21
5.060680155978003
 31
0.0
  0
LINE
  5
63B
330
1F
100
AcDbEntity
  8
0
100
AcDbLine
 10
3.708865723112744
 20
5.108626155978003
 30
0.0
 11
3.708865723112744
 21
4.891398155978004
 31
0.0
  0
LINE
  5
63C
330
1F
100
AcDbEntity
  8
0
100
AcDbLine
 10
3.590649723112747
 20
5.107648155978004
 30
0.0
 11
3.590649723112747
 21
5.060680155978003
 31
0.0
  0
LINE
  5
63D
330
1F
100
AcDbEntity
  8
0
100
AcDbLine
 10
3.670361723112748
 20
5.060680155978003
 30
0.0
 11
3.670361723112748
 21
5.107648155978004
 31
0.0
  0
LINE
  5
63E
330
1F
100
AcDbEntity
  8
0
100
AcDbLine
 10
3.552144723112746
 20
4.891398155978004
 30
0.0
 11
3.552144723112746
 21
5.108626155978003
 31
0.0
  0
LINE
  5
63F
330
1F
100
AcDbEntity
  8
0
100
AcDbLine
 10
3.708865723112744
 20
4.891398155978004
 30
0.0
 11
3.552144723112746
 21
4.891398155978004
 31
0.0
  0
LINE
  5
640
330
1F
100
AcDbEntity
  8
0
100
AcDbLine
 10
3.552144723112746
 20
5.108626155978003
 30
0.0
 11
3.708865723112744
 21
5.108626155978003
 31
0.0
  0
TEXT
  5
641
330
1F
100
AcDbEntity
  8
0
100
AcDbText
 10
3.635229723112747
 20
5.765427155978004
 30
0.0
 40
0.08
  1
11
  7
ROMANS
100
AcDbText
  0
LINE
  5
642
330
1F
100
AcDbEntity
  8
0
100
AcDbLine
 10
3.770532723112751
 20
5.587355155978004
 30
0.0
 11
3.770532723112751
 21
5.634323155978004
 31
0.0
  0
LINE
  5
643
330
1F
100
AcDbEntity
  8
0
100
AcDbLine
 10
3.690820723112743
 20
5.634323155978004
 30
0.0
 11
3.690820723112743
 21
5.587355155978004
 31
0.0
  0
LINE
  5
644
330
1F
100
AcDbEntity
  8
0
100
AcDbLine
 10
3.652315723112742
 20
5.635302155978004
 30
0.0
 11
3.809036723112747
 21
5.635302155978004
 31
0.0
  0
LINE
  5
645
330
1F
100
AcDbEntity
  8
0
100
AcDbLine
 10
3.690820723112743
 20
5.587355155978004
 30
0.0
 11
3.770532723112751
 21
5.587355155978004
 31
0.0
  0
LINE
  5
646
330
1F
100
AcDbEntity
  8
0
100
AcDbLine
 10
3.809036723112747
 20
5.635302155978004
 30
0.0
 11
3.809036723112747
 21
5.467737155978003
 31
0.0
  0
LINE
  5
647
330
1F
100
AcDbEntity
  8
0
100
AcDbLine
 10
3.652315723112742
 20
5.467737155978003
 30
0.0
 11
3.652315723112742
 21
5.635302155978004
 31
0.0
  0
LINE
  5
648
330
1F
100
AcDbEntity
  8
0
100
AcDbLine
 10
3.79064972311275
 20
5.060680155978003
 30
0.0
 11
3.870361723112743
 21
5.060680155978003
 31
0.0
  0
LINE
  5
649
330
1F
100
AcDbEntity
  8
0
100
AcDbLine
 10
3.908865723112747
 20
5.108626155978003
 30
0.0
 11
3.908865723112747
 21
4.891398155978004
 31
0.0
  0
LINE
  5
64A
330
1F
100
AcDbEntity
  8
0
100
AcDbLine
 10
3.79064972311275
 20
5.107648155978004
 30
0.0
 11
3.79064972311275
 21
5.060680155978003
 31
0.0
  0
LINE
  5
64B
330
1F
100
AcDbEntity
  8
0
100
AcDbLine
 10
3.870361723112743
 20
5.060680155978003
 30
0.0
 11
3.870361723112743
 21
5.107648155978004
 31
0.0
  0
LINE
  5
64C
330
1F
100
AcDbEntity
  8
0
100
AcDbLine
 10
3.752144723112749
 20
4.891398155978004
 30
0.0
 11
3.752144723112749
 21
5.108626155978003
 31
0.0
  0
LINE
  5
64D
330
1F
100
AcDbEntity
  8
0
100
AcDbLine
 10
3.908865723112747
 20
4.891398155978004
 30
0.0
 11
3.752144723112749
 21
4.891398155978004
 31
0.0
  0
LINE
  5
64E
330
1F
100
AcDbEntity
  8
0
100
AcDbLine
 10
3.752144723112749
 20
5.108626155978003
 30
0.0
 11
3.908865723112747
 21
5.108626155978003
 31
0.0
  0
TEXT
  5
64F
330
1F
100
AcDbEntity
  8
0
100
AcDbText
 10
3.835229723112746
 20
5.765427155978004
 30
0.0
 40
0.08
  1
12
  7
ROMANS
100
AcDbText
  0
LINE
  5
650
330
1F
100
AcDbEntity
  8
0
100
AcDbLine
 10
3.970532723112746
 20
5.587355155978004
 30
0.0
 11
3.970532723112746
 21
5.634323155978004
 31
0.0
  0
LINE
  5
651
330
1F
100
AcDbEntity
  8
0
100
AcDbLine
 10
3.890820723112746
 20
5.634323155978004
 30
0.0
 11
3.890820723112746
 21
5.587355155978004
 31
0.0
  0
LINE
  5
652
330
1F
100
AcDbEntity
  8
0
100
AcDbLine
 10
3.852315723112745
 20
5.635302155978004
 30
0.0
 11
4.009036723112743
 21
5.635302155978004
 31
0.0
  0
LINE
  5
653
330
1F
100
AcDbEntity
  8
0
100
AcDbLine
 10
3.890820723112746
 20
5.587355155978004
 30
0.0
 11
3.970532723112746
 21
5.587355155978004
 31
0.0
  0
LINE
  5
654
330
1F
100
AcDbEntity
  8
0
100
AcDbLine
 10
4.009036723112743
 20
5.635302155978004
 30
0.0
 11
4.009036723112743
 21
5.467737155978003
 31
0.0
  0
LINE
  5
655
330
1F
100
AcDbEntity
  8
0
100
AcDbLine
 10
3.852315723112745
 20
5.467737155978003
 30
0.0
 11
3.852315723112745
 21
5.635302155978004
 31
0.0
  0
LINE
  5
656
330
1F
100
AcDbEntity
  8
0
100
AcDbLine
 10
3.990649723112746
 20
5.060680155978003
 30
0.0
 11
4.070361723112746
 21
5.060680155978003
 31
0.0
  0
LINE
  5
657
330
1F
100
AcDbEntity
  8
0
100
AcDbLine
 10
4.108865723112742
 20
5.108626155978003
 30
0.0
 11
4.108865723112742
 21
4.891398155978004
 31
0.0
  0
LINE
  5
658
330
1F
100
AcDbEntity
  8
0
100
AcDbLine
 10
3.990649723112746
 20
5.107648155978004
 30
0.0
 11
3.990649723112746
 21
5.060680155978003
 31
0.0
  0
LINE
  5
659
330
1F
100
AcDbEntity
  8
0
100
AcDbLine
 10
4.070361723112746
 20
5.060680155978003
 30
0.0
 11
4.070361723112746
 21
5.107648155978004
 31
0.0
  0
LINE
  5
65A
330
1F
100
AcDbEntity
  8
0
100
AcDbLine
 10
3.952144723112745
 20
4.891398155978004
 30
0.0
 11
3.952144723112745
 21
5.108626155978003
 31
0.0
  0
LINE
  5
65B
330
1F
100
AcDbEntity
  8
0
100
AcDbLine
 10
4.108865723112742
 20
4.891398155978004
 30
0.0
 11
3.952144723112745
 21
4.891398155978004
 31
0.0
  0
LINE
  5
65C
330
1F
100
AcDbEntity
  8
0
100
AcDbLine
 10
3.952144723112745
 20
5.108626155978003
 30
0.0
 11
4.108865723112742
 21
5.108626155978003
 31
0.0
  0
TEXT
  5
65D
330
1F
100
AcDbEntity
  8
0
100
AcDbText
 10
4.035229723112749
 20
5.765427155978004
 30
0.0
 40
0.08
  1
13
  7
ROMANS
100
AcDbText
  0
LINE
  5
65E
330
1F
100
AcDbEntity
  8
0
100
AcDbLine
 10
4.170532723112749
 20
5.587355155978004
 30
0.0
 11
4.170532723112749
 21
5.634323155978004
 31
0.0
  0
LINE
  5
65F
330
1F
100
AcDbEntity
  8
0
100
AcDbLine
 10
4.090820723112742
 20
5.634323155978004
 30
0.0
 11
4.090820723112742
 21
5.587355155978004
 31
0.0
  0
LINE
  5
660
330
1F
100
AcDbEntity
  8
0
100
AcDbLine
 10
4.052315723112741
 20
5.635302155978004
 30
0.0
 11
4.209036723112745
 21
5.635302155978004
 31
0.0
  0
LINE
  5
661
330
1F
100
AcDbEntity
  8
0
100
AcDbLine
 10
4.090820723112742
 20
5.587355155978004
 30
0.0
 11
4.170532723112749
 21
5.587355155978004
 31
0.0
  0
LINE
  5
662
330
1F
100
AcDbEntity
  8
0
100
AcDbLine
 10
4.209036723112745
 20
5.635302155978004
 30
0.0
 11
4.209036723112745
 21
5.467737155978003
 31
0.0
  0
LINE
  5
663
330
1F
100
AcDbEntity
  8
0
100
AcDbLine
 10
4.052315723112741
 20
5.467737155978003
 30
0.0
 11
4.052315723112741
 21
5.635302155978004
 31
0.0
  0
LINE
  5
664
330
1F
100
AcDbEntity
  8
0
100
AcDbLine
 10
4.190649723112748
 20
5.060680155978003
 30
0.0
 11
4.270361723112749
 21
5.060680155978003
 31
0.0
  0
LINE
  5
665
330
1F
100
AcDbEntity
  8
0
100
AcDbLine
 10
4.308865723112745
 20
5.108626155978003
 30
0.0
 11
4.308865723112745
 21
4.891398155978004
 31
0.0
  0
LINE
  5
666
330
1F
100
AcDbEntity
  8
0
100
AcDbLine
 10
4.190649723112748
 20
5.107648155978004
 30
0.0
 11
4.190649723112748
 21
5.060680155978003
 31
0.0
  0
LINE
  5
667
330
1F
100
AcDbEntity
  8
0
100
AcDbLine
 10
4.270361723112749
 20
5.060680155978003
 30
0.0
 11
4.270361723112749
 21
5.107648155978004
 31
0.0
  0
LINE
  5
668
330
1F
100
AcDbEntity
  8
0
100
AcDbLine
 10
4.152144723112748
 20
4.891398155978004
 30
0.0
 11
4.152144723112748
 21
5.108626155978003
 31
0.0
  0
LINE
  5
669
330
1F
100
AcDbEntity
  8
0
100
AcDbLine
 10
4.308865723112745
 20
4.891398155978004
 30
0.0
 11
4.152144723112748
 21
4.891398155978004
 31
0.0
  0
LINE
  5
66A
330
1F
100
AcDbEntity
  8
0
100
AcDbLine
 10
4.152144723112748
 20
5.108626155978003
 30
0.0
 11
4.308865723112745
 21
5.108626155978003
 31
0.0
  0
TEXT
  5
66B
330
1F
100
AcDbEntity
  8
0
100
AcDbText
 10
1.749507723112749
 20
5.271481155978004
 30
0.0
 40
0.08
  1
14
  7
ROMANS
100
AcDbText
  0
TEXT
  5
66C
330
1F
100
AcDbEntity
  8
0
100
AcDbText
 10
1.949507723112748
 20
5.271481155978004
 30
0.0
 40
0.08
  1
15
  7
ROMANS
100
AcDbText
  0
TEXT
  5
66D
330
1F
100
AcDbEntity
  8
0
100
AcDbText
 10
2.149507723112748
 20
5.271481155978004
 30
0.0
 40
0.08
  1
16
  7
ROMANS
100
AcDbText
  0
TEXT
  5
66E
330
1F
100
AcDbEntity
  8
0
100
AcDbText
 10
2.349507723112747
 20
5.271481155978004
 30
0.0
 40
0.08
  1
17
  7
ROMANS
100
AcDbText
  0
TEXT
  5
66F
330
1F
100
AcDbEntity
  8
0
100
AcDbText
 10
2.54950772311275
 20
5.271481155978004
 30
0.0
 40
0.08
  1
18
  7
ROMANS
100
AcDbText
  0
LINE
  5
670
330
1F
100
AcDbEntity
  8
0
100
AcDbLine
 10
1.728753723112745
 20
5.467737155978003
 30
0.0
 11
1.728753723112745
 21
4.808465155978003
 31
0.0
  0
LINE
  5
671
330
1F
100
AcDbEntity
  8
0
100
AcDbLine
 10
1.628753723112744
 20
5.965828155978003
 30
0.0
 11
1.628753723112744
 21
4.808465155978003
 31
0.0
  0
LINE
  5
672
330
1F
100
AcDbEntity
  8
0
100
AcDbLine
 10
1.545808773861363
 20
4.205987155978004
 30
0.0
 11
1.545808773861363
 21
4.808465155978003
 31
0.0
  0
TEXT
  5
677
330
1F
100
AcDbEntity
  8
0
100
AcDbText
 10
2.749507723112749
 20
5.271481155978004
 30
0.0
 40
0.08
  1
19
  7
ROMANS
100
AcDbText
  0
LINE
  5
678
330
1F
100
AcDbEntity
  8
0
100
AcDbLine
 10
1.628753723112744
 20
5.711417155978003
 30
0.0
 11
4.228753723112745
 21
5.711417155978003
 31
0.0
  0
LINE
  5
679
330
1F
100
AcDbEntity
  8
0
100
AcDbLine
 10
1.628753723112744
 20
5.907607155978004
 30
0.0
 11
4.228753723112745
 21
5.907607155978004
 31
0.0
  0
LINE
  5
67A
102
{ACAD_REACTORS
330
C13
102
}
330
1F
100
AcDbEntity
  8
0
100
AcDbLine
 10
1.628753723112744
 20
5.965828155978003
 30
0.0
 11
4.228753723112745
 21
5.965828155978003
 31
0.0
  0
LINE
  5
67B
330
1F
100
AcDbEntity
  8
0
100
AcDbLine
 10
1.728753723112745
 20
5.467737155978003
 30
0.0
 11
4.328753723112747
 21
5.467737155978003
 31
0.0
  0
LINE
  5
67C
330
1F
100
AcDbEntity
  8
0
100
AcDbLine
 10
1.652315723112742
 20
5.411962155978004
 30
0.0
 11
4.328753723112747
 21
5.411962155978004
 31
0.0
  0
LINE
  5
67D
330
1F
100
AcDbEntity
  8
0
100
AcDbLine
 10
1.728753723112745
 20
5.220665155978004
 30
0.0
 11
4.328753723112747
 21
5.220665155978004
 31
0.0
  0
LINE
  5
67E
330
1F
100
AcDbEntity
  8
0
100
AcDbLine
 10
2.328753672364129
 20
5.46773736553496
 30
0.0
 11
2.328753672364129
 21
4.808464664989326
 31
0.0
  0
LINE
  5
67F
330
1F
100
AcDbEntity
  8
0
100
AcDbLine
 10
2.228753672364128
 20
5.965827707577433
 30
0.0
 11
2.228753672364128
 21
5.46773736553496
 31
0.0
  0
LINE
  5
680
330
1F
100
AcDbEntity
  8
0
100
AcDbLine
 10
2.92875367236413
 20
5.46773736553496
 30
0.0
 11
2.92875367236413
 21
4.808464664989326
 31
0.0
  0
LINE
  5
681
330
1F
100
AcDbEntity
  8
0
100
AcDbLine
 10
2.828753672364129
 20
5.965827707577433
 30
0.0
 11
2.828753672364129
 21
5.46773736553496
 31
0.0
  0
LINE
  5
682
330
1F
100
AcDbEntity
  8
0
100
AcDbLine
 10
3.528753672364125
 20
5.46773736553496
 30
0.0
 11
3.528753672364132
 21
4.808464664989326
 31
0.0
  0
LINE
  5
683
330
1F
100
AcDbEntity
  8
0
100
AcDbLine
 10
3.42875367236413
 20
5.965827707577433
 30
0.0
 11
3.42875367236413
 21
5.46773736553496
 31
0.0
  0
LINE
  5
684
330
1F
100
AcDbEntity
  8
0
100
AcDbLine
 10
4.12875400755098
 20
5.467737694581479
 30
0.0
 11
4.12875400755098
 21
4.808464994035845
 31
0.0
  0
LINE
  5
688
330
1F
100
AcDbEntity
  8
0
100
AcDbLine
 10
3.760309591552442
 20
4.205986885135728
 30
0.0
 11
3.760309591552442
 21
4.80846417400065
 31
0.0
  0
LINE
  5
68A
330
1F
100
AcDbEntity
  8
0
100
AcDbLine
 10
1.545809182706896
 20
4.205987376124404
 30
0.0
 11
1.545809182706896
 21
4.808464664989326
 31
0.0
  0
TEXT
  5
68B
330
1F
100
AcDbEntity
  8
0
100
AcDbText
 10
1.694406698093736
 20
5.765426936283434
 30
0.0
 40
0.08
  1
1
  7
ROMANS
100
AcDbText
  0
LINE
  5
68C
330
1F
100
AcDbEntity
  8
0
100
AcDbLine
 10
1.690820765130709
 20
5.587355243782941
 30
0.0
 11
1.770532275175796
 21
5.587355243782941
 31
0.0
  0
LINE
  5
68D
330
1F
100
AcDbEntity
  8
0
100
AcDbLine
 10
1.690820765130709
 20
5.634323424340164
 30
0.0
 11
1.690820765130709
 21
5.587355243782941
 31
0.0
  0
LINE
  5
68E
330
1F
100
AcDbEntity
  8
0
100
AcDbLine
 10
1.770532275175796
 20
5.587355243782941
 30
0.0
 11
1.770532275175796
 21
5.634323424340164
 31
0.0
  0
LINE
  5
68F
330
1F
100
AcDbEntity
  8
0
100
AcDbLine
 10
1.652316052651308
 20
5.635301928101773
 30
0.0
 11
1.809036987655197
 21
5.635301928101773
 31
0.0
  0
LINE
  5
690
330
1F
100
AcDbEntity
  8
0
100
AcDbLine
 10
1.652316052651308
 20
5.411962651123259
 30
0.0
 11
1.652316052651308
 21
5.635301928101773
 31
0.0
  0
LINE
  5
691
330
1F
100
AcDbEntity
  8
0
100
AcDbLine
 10
1.809036987655197
 20
5.635301928101773
 30
0.0
 11
1.809036987655197
 21
5.46773736553496
 31
0.0
  0
LINE
  5
692
330
1F
100
AcDbEntity
  8
0
100
AcDbLine
 10
1.790649835775099
 20
5.06067980070569
 30
0.0
 11
1.870361345820185
 21
5.06067980070569
 31
0.0
  0
LINE
  5
693
330
1F
100
AcDbEntity
  8
0
100
AcDbLine
 10
1.908866058299587
 20
5.108626485024522
 30
0.0
 11
1.908866058299587
 21
4.891398649947364
 31
0.0
  0
LINE
  5
694
330
1F
100
AcDbEntity
  8
0
100
AcDbLine
 10
1.790649835775099
 20
5.107647981262912
 30
0.0
 11
1.790649835775099
 21
5.06067980070569
 31
0.0
  0
LINE
  5
695
330
1F
100
AcDbEntity
  8
0
100
AcDbLine
 10
1.870361345820185
 20
5.06067980070569
 30
0.0
 11
1.870361345820185
 21
5.107647981262912
 31
0.0
  0
LINE
  5
696
330
1F
100
AcDbEntity
  8
0
100
AcDbLine
 10
1.752145123295697
 20
4.891398649947364
 30
0.0
 11
1.752145123295697
 21
5.108626485024522
 31
0.0
  0
LINE
  5
697
330
1F
100
AcDbEntity
  8
0
100
AcDbLine
 10
1.908866058299587
 20
4.891398649947364
 30
0.0
 11
1.752145123295697
 21
4.891398649947364
 31
0.0
  0
LINE
  5
698
330
1F
100
AcDbEntity
  8
0
100
AcDbLine
 10
1.752145123295697
 20
5.108626485024522
 30
0.0
 11
1.908866058299587
 21
5.108626485024522
 31
0.0
  0
TEXT
  5
699
330
1F
100
AcDbEntity
  8
0
100
AcDbText
 10
2.948643460615137
 20
5.273074532437265
 30
0.0
 40
0.08
  1
20
  7
ROMANS
100
AcDbText
  0
TEXT
  5
69A
330
1F
100
AcDbEntity
  8
0
100
AcDbText
 10
1.894406698093739
 20
5.765426936283434
 30
0.0
 40
0.08
  1
2
  7
ROMANS
100
AcDbText
  0
LINE
  5
69B
330
1F
100
AcDbEntity
  8
0
100
AcDbLine
 10
1.970532275175791
 20
5.587355243782941
 30
0.0
 11
1.970532275175791
 21
5.634323424340164
 31
0.0
  0
LINE
  5
69C
330
1F
100
AcDbEntity
  8
0
100
AcDbLine
 10
1.890820765130705
 20
5.634323424340164
 30
0.0
 11
1.890820765130705
 21
5.587355243782941
 31
0.0
  0
LINE
  5
69D
330
1F
100
AcDbEntity
  8
0
100
AcDbLine
 10
1.852316052651303
 20
5.635301928101773
 30
0.0
 11
2.009036987655193
 21
5.635301928101773
 31
0.0
  0
LINE
  5
69E
330
1F
100
AcDbEntity
  8
0
100
AcDbLine
 10
1.890820765130705
 20
5.587355243782941
 30
0.0
 11
1.970532275175791
 21
5.587355243782941
 31
0.0
  0
LINE
  5
69F
330
1F
100
AcDbEntity
  8
0
100
AcDbLine
 10
2.009036987655193
 20
5.635301928101773
 30
0.0
 11
2.009036987655193
 21
5.46773736553496
 31
0.0
  0
LINE
  5
6A0
330
1F
100
AcDbEntity
  8
0
100
AcDbLine
 10
1.852316052651303
 20
5.46773736553496
 30
0.0
 11
1.852316052651303
 21
5.635301928101773
 31
0.0
  0
LINE
  5
6A1
330
1F
100
AcDbEntity
  8
0
100
AcDbLine
 10
1.990649835775101
 20
5.06067980070569
 30
0.0
 11
2.070361345820188
 21
5.06067980070569
 31
0.0
  0
LINE
  5
6A2
330
1F
100
AcDbEntity
  8
0
100
AcDbLine
 10
2.108866058299589
 20
5.108626485024522
 30
0.0
 11
2.108866058299589
 21
4.891398649947364
 31
0.0
  0
LINE
  5
6A3
330
1F
100
AcDbEntity
  8
0
100
AcDbLine
 10
1.990649835775101
 20
5.107647981262912
 30
0.0
 11
1.990649835775101
 21
5.06067980070569
 31
0.0
  0
LINE
  5
6A4
330
1F
100
AcDbEntity
  8
0
100
AcDbLine
 10
2.070361345820188
 20
5.06067980070569
 30
0.0
 11
2.070361345820188
 21
5.107647981262912
 31
0.0
  0
LINE
  5
6A5
330
1F
100
AcDbEntity
  8
0
100
AcDbLine
 10
1.9521451232957
 20
4.891398649947364
 30
0.0
 11
1.9521451232957
 21
5.108626485024522
 31
0.0
  0
LINE
  5
6A6
330
1F
100
AcDbEntity
  8
0
100
AcDbLine
 10
2.108866058299589
 20
4.891398649947364
 30
0.0
 11
1.9521451232957
 21
4.891398649947364
 31
0.0
  0
LINE
  5
6A7
330
1F
100
AcDbEntity
  8
0
100
AcDbLine
 10
1.9521451232957
 20
5.108626485024522
 30
0.0
 11
2.108866058299589
 21
5.108626485024522
 31
0.0
  0
TEXT
  5
6A8
330
1F
100
AcDbEntity
  8
0
100
AcDbText
 10
3.148643460615133
 20
5.273074532437265
 30
0.0
 40
0.08
  1
21
  7
ROMANS
100
AcDbText
  0
TEXT
  5
6A9
330
1F
100
AcDbEntity
  8
0
100
AcDbText
 10
2.094406698093735
 20
5.765426936283434
 30
0.0
 40
0.08
  1
3
  7
ROMANS
100
AcDbText
  0
LINE
  5
6AA
330
1F
100
AcDbEntity
  8
0
100
AcDbLine
 10
2.170532275175794
 20
5.587355243782941
 30
0.0
 11
2.170532275175794
 21
5.634323424340164
 31
0.0
  0
LINE
  5
6AB
330
1F
100
AcDbEntity
  8
0
100
AcDbLine
 10
2.090820765130708
 20
5.634323424340164
 30
0.0
 11
2.090820765130708
 21
5.587355243782941
 31
0.0
  0
LINE
  5
6AC
330
1F
100
AcDbEntity
  8
0
100
AcDbLine
 10
2.052316052651306
 20
5.635301928101773
 30
0.0
 11
2.209036987655196
 21
5.635301928101773
 31
0.0
  0
LINE
  5
6AD
330
1F
100
AcDbEntity
  8
0
100
AcDbLine
 10
2.090820765130708
 20
5.587355243782941
 30
0.0
 11
2.170532275175794
 21
5.587355243782941
 31
0.0
  0
LINE
  5
6AE
330
1F
100
AcDbEntity
  8
0
100
AcDbLine
 10
2.209036987655196
 20
5.635301928101773
 30
0.0
 11
2.209036987655196
 21
5.46773736553496
 31
0.0
  0
LINE
  5
6AF
330
1F
100
AcDbEntity
  8
0
100
AcDbLine
 10
2.052316052651306
 20
5.46773736553496
 30
0.0
 11
2.052316052651306
 21
5.635301928101773
 31
0.0
  0
LINE
  5
6B0
330
1F
100
AcDbEntity
  8
0
100
AcDbLine
 10
2.190649835775104
 20
5.06067980070569
 30
0.0
 11
2.270361345820191
 21
5.06067980070569
 31
0.0
  0
LINE
  5
6B1
330
1F
100
AcDbEntity
  8
0
100
AcDbLine
 10
2.308866058299592
 20
5.108626485024522
 30
0.0
 11
2.308866058299592
 21
4.891398649947364
 31
0.0
  0
LINE
  5
6B2
330
1F
100
AcDbEntity
  8
0
100
AcDbLine
 10
2.190649835775104
 20
5.107647981262912
 30
0.0
 11
2.190649835775104
 21
5.06067980070569
 31
0.0
  0
LINE
  5
6B3
330
1F
100
AcDbEntity
  8
0
100
AcDbLine
 10
2.270361345820191
 20
5.06067980070569
 30
0.0
 11
2.270361345820191
 21
5.107647981262912
 31
0.0
  0
LINE
  5
6B4
330
1F
100
AcDbEntity
  8
0
100
AcDbLine
 10
2.152145123295703
 20
4.891398649947364
 30
0.0
 11
2.152145123295703
 21
5.108626485024522
 31
0.0
  0
LINE
  5
6B5
330
1F
100
AcDbEntity
  8
0
100
AcDbLine
 10
2.308866058299592
 20
4.891398649947364
 30
0.0
 11
2.152145123295703
 21
4.891398649947364
 31
0.0
  0
LINE
  5
6B6
330
1F
100
AcDbEntity
  8
0
100
AcDbLine
 10
2.152145123295703
 20
5.108626485024522
 30
0.0
 11
2.308866058299592
 21
5.108626485024522
 31
0.0
  0
TEXT
  5
6B7
330
1F
100
AcDbEntity
  8
0
100
AcDbText
 10
3.348643460615136
 20
5.273074532437265
 30
0.0
 40
0.08
  1
22
  7
ROMANS
100
AcDbText
  0
TEXT
  5
6B8
330
1F
100
AcDbEntity
  8
0
100
AcDbText
 10
2.294406698093737
 20
5.765426936283434
 30
0.0
 40
0.08
  1
4
  7
ROMANS
100
AcDbText
  0
LINE
  5
6B9
330
1F
100
AcDbEntity
  8
0
100
AcDbLine
 10
2.370532275175797
 20
5.587355243782941
 30
0.0
 11
2.370532275175797
 21
5.634323424340164
 31
0.0
  0
LINE
  5
6BA
330
1F
100
AcDbEntity
  8
0
100
AcDbLine
 10
2.290820765130703
 20
5.634323424340164
 30
0.0
 11
2.290820765130703
 21
5.587355243782941
 31
0.0
  0
LINE
  5
6BB
330
1F
100
AcDbEntity
  8
0
100
AcDbLine
 10
2.252316052651302
 20
5.635301928101773
 30
0.0
 11
2.409036987655191
 21
5.635301928101773
 31
0.0
  0
LINE
  5
6BC
330
1F
100
AcDbEntity
  8
0
100
AcDbLine
 10
2.290820765130703
 20
5.587355243782941
 30
0.0
 11
2.370532275175797
 21
5.587355243782941
 31
0.0
  0
LINE
  5
6BD
330
1F
100
AcDbEntity
  8
0
100
AcDbLine
 10
2.409036987655191
 20
5.635301928101773
 30
0.0
 11
2.409036987655191
 21
5.46773736553496
 31
0.0
  0
LINE
  5
6BE
330
1F
100
AcDbEntity
  8
0
100
AcDbLine
 10
2.252316052651302
 20
5.46773736553496
 30
0.0
 11
2.252316052651302
 21
5.635301928101773
 31
0.0
  0
LINE
  5
6BF
330
1F
100
AcDbEntity
  8
0
100
AcDbLine
 10
2.3906498357751
 20
5.06067980070569
 30
0.0
 11
2.470361345820187
 21
5.06067980070569
 31
0.0
  0
LINE
  5
6C0
330
1F
100
AcDbEntity
  8
0
100
AcDbLine
 10
2.508866058299588
 20
5.108626485024522
 30
0.0
 11
2.508866058299588
 21
4.891398649947364
 31
0.0
  0
LINE
  5
6C1
330
1F
100
AcDbEntity
  8
0
100
AcDbLine
 10
2.3906498357751
 20
5.107647981262912
 30
0.0
 11
2.3906498357751
 21
5.06067980070569
 31
0.0
  0
LINE
  5
6C2
330
1F
100
AcDbEntity
  8
0
100
AcDbLine
 10
2.470361345820187
 20
5.06067980070569
 30
0.0
 11
2.470361345820187
 21
5.107647981262912
 31
0.0
  0
LINE
  5
6C3
330
1F
100
AcDbEntity
  8
0
100
AcDbLine
 10
2.352145123295699
 20
4.891398649947364
 30
0.0
 11
2.352145123295699
 21
5.108626485024522
 31
0.0
  0
LINE
  5
6C4
330
1F
100
AcDbEntity
  8
0
100
AcDbLine
 10
2.508866058299588
 20
4.891398649947364
 30
0.0
 11
2.352145123295699
 21
4.891398649947364
 31
0.0
  0
LINE
  5
6C5
330
1F
100
AcDbEntity
  8
0
100
AcDbLine
 10
2.352145123295699
 20
5.108626485024522
 30
0.0
 11
2.508866058299588
 21
5.108626485024522
 31
0.0
  0
TEXT
  5
6C6
330
1F
100
AcDbEntity
  8
0
100
AcDbText
 10
3.548643460615132
 20
5.273074532437265
 30
0.0
 40
0.08
  1
23
  7
ROMANS
100
AcDbText
  0
TEXT
  5
6C7
330
1F
100
AcDbEntity
  8
0
100
AcDbText
 10
2.494406698093733
 20
5.765426936283434
 30
0.0
 40
0.08
  1
5
  7
ROMANS
100
AcDbText
  0
LINE
  5
6C8
330
1F
100
AcDbEntity
  8
0
100
AcDbLine
 10
2.570532275175793
 20
5.587355243782941
 30
0.0
 11
2.570532275175793
 21
5.634323424340164
 31
0.0
  0
LINE
  5
6C9
330
1F
100
AcDbEntity
  8
0
100
AcDbLine
 10
2.490820765130706
 20
5.634323424340164
 30
0.0
 11
2.490820765130706
 21
5.587355243782941
 31
0.0
  0
LINE
  5
6CA
330
1F
100
AcDbEntity
  8
0
100
AcDbLine
 10
2.452316052651305
 20
5.635301928101773
 30
0.0
 11
2.609036987655194
 21
5.635301928101773
 31
0.0
  0
LINE
  5
6CB
330
1F
100
AcDbEntity
  8
0
100
AcDbLine
 10
2.490820765130706
 20
5.587355243782941
 30
0.0
 11
2.570532275175793
 21
5.587355243782941
 31
0.0
  0
LINE
  5
6CC
330
1F
100
AcDbEntity
  8
0
100
AcDbLine
 10
2.609036987655194
 20
5.635301928101773
 30
0.0
 11
2.609036987655194
 21
5.46773736553496
 31
0.0
  0
LINE
  5
6CD
330
1F
100
AcDbEntity
  8
0
100
AcDbLine
 10
2.452316052651305
 20
5.46773736553496
 30
0.0
 11
2.452316052651305
 21
5.635301928101773
 31
0.0
  0
LINE
  5
6CE
330
1F
100
AcDbEntity
  8
0
100
AcDbLine
 10
2.590649835775103
 20
5.06067980070569
 30
0.0
 11
2.67036134582019
 21
5.06067980070569
 31
0.0
  0
LINE
  5
6CF
330
1F
100
AcDbEntity
  8
0
100
AcDbLine
 10
2.708866058299591
 20
5.108626485024522
 30
0.0
 11
2.708866058299591
 21
4.891398649947364
 31
0.0
  0
LINE
  5
6D0
330
1F
100
AcDbEntity
  8
0
100
AcDbLine
 10
2.590649835775103
 20
5.107647981262912
 30
0.0
 11
2.590649835775103
 21
5.06067980070569
 31
0.0
  0
LINE
  5
6D1
330
1F
100
AcDbEntity
  8
0
100
AcDbLine
 10
2.67036134582019
 20
5.06067980070569
 30
0.0
 11
2.67036134582019
 21
5.107647981262912
 31
0.0
  0
LINE
  5
6D2
330
1F
100
AcDbEntity
  8
0
100
AcDbLine
 10
2.552145123295701
 20
4.891398649947364
 30
0.0
 11
2.552145123295701
 21
5.108626485024522
 31
0.0
  0
LINE
  5
6D3
330
1F
100
AcDbEntity
  8
0
100
AcDbLine
 10
2.708866058299591
 20
4.891398649947364
 30
0.0
 11
2.552145123295701
 21
4.891398649947364
 31
0.0
  0
LINE
  5
6D4
330
1F
100
AcDbEntity
  8
0
100
AcDbLine
 10
2.552145123295701
 20
5.108626485024522
 30
0.0
 11
2.708866058299591
 21
5.108626485024522
 31
0.0
  0
TEXT
  5
6D5
330
1F
100
AcDbEntity
  8
0
100
AcDbText
 10
3.748643460615134
 20
5.273074532437265
 30
0.0
 40
0.08
  1
24
  7
ROMANS
100
AcDbText
  0
TEXT
  5
6D6
330
1F
100
AcDbEntity
  8
0
100
AcDbText
 10
2.694406698093736
 20
5.765426936283434
 30
0.0
 40
0.08
  1
6
  7
ROMANS
100
AcDbText
  0
LINE
  5
6D7
330
1F
100
AcDbEntity
  8
0
100
AcDbLine
 10
2.770532275175796
 20
5.587355243782941
 30
0.0
 11
2.770532275175796
 21
5.634323424340164
 31
0.0
  0
LINE
  5
6D8
330
1F
100
AcDbEntity
  8
0
100
AcDbLine
 10
2.690820765130709
 20
5.634323424340164
 30
0.0
 11
2.690820765130709
 21
5.587355243782941
 31
0.0
  0
LINE
  5
6D9
330
1F
100
AcDbEntity
  8
0
100
AcDbLine
 10
2.652316052651308
 20
5.635301928101773
 30
0.0
 11
2.809036987655197
 21
5.635301928101773
 31
0.0
  0
LINE
  5
6DA
330
1F
100
AcDbEntity
  8
0
100
AcDbLine
 10
2.690820765130709
 20
5.587355243782941
 30
0.0
 11
2.770532275175796
 21
5.587355243782941
 31
0.0
  0
LINE
  5
6DB
330
1F
100
AcDbEntity
  8
0
100
AcDbLine
 10
2.809036987655197
 20
5.635301928101773
 30
0.0
 11
2.809036987655197
 21
5.46773736553496
 31
0.0
  0
LINE
  5
6DC
330
1F
100
AcDbEntity
  8
0
100
AcDbLine
 10
2.652316052651308
 20
5.46773736553496
 30
0.0
 11
2.652316052651308
 21
5.635301928101773
 31
0.0
  0
LINE
  5
6DD
330
1F
100
AcDbEntity
  8
0
100
AcDbLine
 10
2.790649835775099
 20
5.06067980070569
 30
0.0
 11
2.870361345820185
 21
5.06067980070569
 31
0.0
  0
LINE
  5
6DE
330
1F
100
AcDbEntity
  8
0
100
AcDbLine
 10
2.908866058299587
 20
5.108626485024522
 30
0.0
 11
2.908866058299587
 21
4.891398649947364
 31
0.0
  0
LINE
  5
6DF
330
1F
100
AcDbEntity
  8
0
100
AcDbLine
 10
2.790649835775099
 20
5.107647981262912
 30
0.0
 11
2.790649835775099
 21
5.06067980070569
 31
0.0
  0
LINE
  5
6E0
330
1F
100
AcDbEntity
  8
0
100
AcDbLine
 10
2.870361345820185
 20
5.06067980070569
 30
0.0
 11
2.870361345820185
 21
5.107647981262912
 31
0.0
  0
LINE
  5
6E1
330
1F
100
AcDbEntity
  8
0
100
AcDbLine
 10
2.752145123295697
 20
4.891398649947364
 30
0.0
 11
2.752145123295697
 21
5.108626485024522
 31
0.0
  0
LINE
  5
6E2
330
1F
100
AcDbEntity
  8
0
100
AcDbLine
 10
2.908866058299587
 20
4.891398649947364
 30
0.0
 11
2.752145123295697
 21
4.891398649947364
 31
0.0
  0
LINE
  5
6E3
330
1F
100
AcDbEntity
  8
0
100
AcDbLine
 10
2.752145123295697
 20
5.108626485024522
 30
0.0
 11
2.908866058299587
 21
5.108626485024522
 31
0.0
  0
TEXT
  5
6E4
330
1F
100
AcDbEntity
  8
0
100
AcDbText
 10
3.948643460615137
 20
5.273074532437265
 30
0.0
 40
0.08
  1
25
  7
ROMANS
100
AcDbText
  0
TEXT
  5
6E5
330
1F
100
AcDbEntity
  8
0
100
AcDbText
 10
2.894406698093739
 20
5.765426936283434
 30
0.0
 40
0.08
  1
7
  7
ROMANS
100
AcDbText
  0
LINE
  5
6E6
330
1F
100
AcDbEntity
  8
0
100
AcDbLine
 10
2.970532275175791
 20
5.587355243782941
 30
0.0
 11
2.970532275175791
 21
5.634323424340164
 31
0.0
  0
LINE
  5
6E7
330
1F
100
AcDbEntity
  8
0
100
AcDbLine
 10
2.890820765130705
 20
5.634323424340164
 30
0.0
 11
2.890820765130705
 21
5.587355243782941
 31
0.0
  0
LINE
  5
6E8
330
1F
100
AcDbEntity
  8
0
100
AcDbLine
 10
2.852316052651303
 20
5.635301928101773
 30
0.0
 11
3.009036987655193
 21
5.635301928101773
 31
0.0
  0
LINE
  5
6E9
330
1F
100
AcDbEntity
  8
0
100
AcDbLine
 10
2.890820765130705
 20
5.587355243782941
 30
0.0
 11
2.970532275175791
 21
5.587355243782941
 31
0.0
  0
LINE
  5
6EA
330
1F
100
AcDbEntity
  8
0
100
AcDbLine
 10
3.009036987655193
 20
5.635301928101773
 30
0.0
 11
3.009036987655193
 21
5.46773736553496
 31
0.0
  0
LINE
  5
6EB
330
1F
100
AcDbEntity
  8
0
100
AcDbLine
 10
2.852316052651303
 20
5.46773736553496
 30
0.0
 11
2.852316052651303
 21
5.635301928101773
 31
0.0
  0
LINE
  5
6EC
330
1F
100
AcDbEntity
  8
0
100
AcDbLine
 10
2.990649835775101
 20
5.06067980070569
 30
0.0
 11
3.070361345820188
 21
5.06067980070569
 31
0.0
  0
LINE
  5
6ED
330
1F
100
AcDbEntity
  8
0
100
AcDbLine
 10
3.108866058299589
 20
5.108626485024522
 30
0.0
 11
3.108866058299589
 21
4.891398649947364
 31
0.0
  0
LINE
  5
6EE
330
1F
100
AcDbEntity
  8
0
100
AcDbLine
 10
2.990649835775101
 20
5.107647981262912
 30
0.0
 11
2.990649835775101
 21
5.06067980070569
 31
0.0
  0
LINE
  5
6EF
330
1F
100
AcDbEntity
  8
0
100
AcDbLine
 10
3.070361345820188
 20
5.06067980070569
 30
0.0
 11
3.070361345820188
 21
5.107647981262912
 31
0.0
  0
LINE
  5
6F0
330
1F
100
AcDbEntity
  8
0
100
AcDbLine
 10
2.9521451232957
 20
4.891398649947364
 30
0.0
 11
2.9521451232957
 21
5.108626485024522
 31
0.0
  0
LINE
  5
6F1
330
1F
100
AcDbEntity
  8
0
100
AcDbLine
 10
3.108866058299589
 20
4.891398649947364
 30
0.0
 11
2.9521451232957
 21
4.891398649947364
 31
0.0
  0
LINE
  5
6F2
330
1F
100
AcDbEntity
  8
0
100
AcDbLine
 10
2.9521451232957
 20
5.108626485024522
 30
0.0
 11
3.108866058299589
 21
5.108626485024522
 31
0.0
  0
TEXT
  5
6F3
330
1F
100
AcDbEntity
  8
0
100
AcDbText
 10
3.094406698093735
 20
5.765426936283434
 30
0.0
 40
0.08
  1
8
  7
ROMANS
100
AcDbText
  0
LINE
  5
6F4
330
1F
100
AcDbEntity
  8
0
100
AcDbLine
 10
3.170532275175794
 20
5.587355243782941
 30
0.0
 11
3.170532275175794
 21
5.634323424340164
 31
0.0
  0
LINE
  5
6F5
330
1F
100
AcDbEntity
  8
0
100
AcDbLine
 10
3.090820765130708
 20
5.634323424340164
 30
0.0
 11
3.090820765130708
 21
5.587355243782941
 31
0.0
  0
LINE
  5
6F6
330
1F
100
AcDbEntity
  8
0
100
AcDbLine
 10
3.052316052651306
 20
5.635301928101773
 30
0.0
 11
3.209036987655196
 21
5.635301928101773
 31
0.0
  0
LINE
  5
6F7
330
1F
100
AcDbEntity
  8
0
100
AcDbLine
 10
3.090820765130708
 20
5.587355243782941
 30
0.0
 11
3.170532275175794
 21
5.587355243782941
 31
0.0
  0
LINE
  5
6F8
330
1F
100
AcDbEntity
  8
0
100
AcDbLine
 10
3.209036987655196
 20
5.635301928101773
 30
0.0
 11
3.209036987655196
 21
5.46773736553496
 31
0.0
  0
LINE
  5
6F9
330
1F
100
AcDbEntity
  8
0
100
AcDbLine
 10
3.052316052651306
 20
5.46773736553496
 30
0.0
 11
3.052316052651306
 21
5.635301928101773
 31
0.0
  0
LINE
  5
6FA
330
1F
100
AcDbEntity
  8
0
100
AcDbLine
 10
3.190649835775104
 20
5.06067980070569
 30
0.0
 11
3.270361345820184
 21
5.06067980070569
 31
0.0
  0
LINE
  5
6FB
330
1F
100
AcDbEntity
  8
0
100
AcDbLine
 10
3.308866058299592
 20
5.108626485024522
 30
0.0
 11
3.308866058299592
 21
4.891398649947364
 31
0.0
  0
LINE
  5
6FC
330
1F
100
AcDbEntity
  8
0
100
AcDbLine
 10
3.190649835775104
 20
5.107647981262912
 30
0.0
 11
3.190649835775104
 21
5.06067980070569
 31
0.0
  0
LINE
  5
6FD
330
1F
100
AcDbEntity
  8
0
100
AcDbLine
 10
3.270361345820184
 20
5.06067980070569
 30
0.0
 11
3.270361345820184
 21
5.107647981262912
 31
0.0
  0
LINE
  5
6FE
330
1F
100
AcDbEntity
  8
0
100
AcDbLine
 10
3.152145123295703
 20
4.891398649947364
 30
0.0
 11
3.152145123295703
 21
5.108626485024522
 31
0.0
  0
LINE
  5
6FF
330
1F
100
AcDbEntity
  8
0
100
AcDbLine
 10
3.308866058299592
 20
4.891398649947364
 30
0.0
 11
3.152145123295703
 21
4.891398649947364
 31
0.0
  0
LINE
  5
700
330
1F
100
AcDbEntity
  8
0
100
AcDbLine
 10
3.152145123295703
 20
5.108626485024522
 30
0.0
 11
3.308866058299592
 21
5.108626485024522
 31
0.0
  0
TEXT
  5
701
330
1F
100
AcDbEntity
  8
0
100
AcDbText
 10
3.294406698093737
 20
5.765426936283434
 30
0.0
 40
0.08
  1
9
  7
ROMANS
100
AcDbText
  0
LINE
  5
702
330
1F
100
AcDbEntity
  8
0
100
AcDbLine
 10
3.370532275175797
 20
5.587355243782941
 30
0.0
 11
3.370532275175797
 21
5.634323424340164
 31
0.0
  0
LINE
  5
703
330
1F
100
AcDbEntity
  8
0
100
AcDbLine
 10
3.29082076513071
 20
5.634323424340164
 30
0.0
 11
3.29082076513071
 21
5.587355243782941
 31
0.0
  0
LINE
  5
704
330
1F
100
AcDbEntity
  8
0
100
AcDbLine
 10
3.252316052651302
 20
5.635301928101773
 30
0.0
 11
3.409036987655191
 21
5.635301928101773
 31
0.0
  0
LINE
  5
705
330
1F
100
AcDbEntity
  8
0
100
AcDbLine
 10
3.29082076513071
 20
5.587355243782941
 30
0.0
 11
3.370532275175797
 21
5.587355243782941
 31
0.0
  0
LINE
  5
706
330
1F
100
AcDbEntity
  8
0
100
AcDbLine
 10
3.409036987655191
 20
5.635301928101773
 30
0.0
 11
3.409036987655191
 21
5.46773736553496
 31
0.0
  0
LINE
  5
707
330
1F
100
AcDbEntity
  8
0
100
AcDbLine
 10
3.252316052651302
 20
5.46773736553496
 30
0.0
 11
3.252316052651302
 21
5.635301928101773
 31
0.0
  0
LINE
  5
708
330
1F
100
AcDbEntity
  8
0
100
AcDbLine
 10
3.3906498357751
 20
5.06067980070569
 30
0.0
 11
3.470361345820187
 21
5.06067980070569
 31
0.0
  0
LINE
  5
709
330
1F
100
AcDbEntity
  8
0
100
AcDbLine
 10
3.508866058299588
 20
5.108626485024522
 30
0.0
 11
3.508866058299588
 21
4.891398649947364
 31
0.0
  0
LINE
  5
70A
330
1F
100
AcDbEntity
  8
0
100
AcDbLine
 10
3.3906498357751
 20
5.107647981262912
 30
0.0
 11
3.3906498357751
 21
5.06067980070569
 31
0.0
  0
LINE
  5
70B
330
1F
100
AcDbEntity
  8
0
100
AcDbLine
 10
3.470361345820187
 20
5.06067980070569
 30
0.0
 11
3.470361345820187
 21
5.107647981262912
 31
0.0
  0
LINE
  5
70C
330
1F
100
AcDbEntity
  8
0
100
AcDbLine
 10
3.352145123295699
 20
4.891398649947364
 30
0.0
 11
3.352145123295699
 21
5.108626485024522
 31
0.0
  0
LINE
  5
70D
330
1F
100
AcDbEntity
  8
0
100
AcDbLine
 10
3.508866058299588
 20
4.891398649947364
 30
0.0
 11
3.352145123295699
 21
4.891398649947364
 31
0.0
  0
LINE
  5
70E
330
1F
100
AcDbEntity
  8
0
100
AcDbLine
 10
3.352145123295699
 20
5.108626485024522
 30
0.0
 11
3.508866058299588
 21
5.108626485024522
 31
0.0
  0
TEXT
  5
70F
330
1F
100
AcDbEntity
  8
0
100
AcDbText
 10
3.435229431259884
 20
5.765426936283434
 30
0.0
 40
0.08
  1
10
  7
ROMANS
100
AcDbText
  0
LINE
  5
710
330
1F
100
AcDbEntity
  8
0
100
AcDbLine
 10
3.570532275175793
 20
5.587355243782941
 30
0.0
 11
3.570532275175793
 21
5.634323424340164
 31
0.0
  0
LINE
  5
711
330
1F
100
AcDbEntity
  8
0
100
AcDbLine
 10
3.490820765130706
 20
5.634323424340164
 30
0.0
 11
3.490820765130706
 21
5.587355243782941
 31
0.0
  0
LINE
  5
712
330
1F
100
AcDbEntity
  8
0
100
AcDbLine
 10
3.452316052651305
 20
5.635301928101773
 30
0.0
 11
3.609036987655194
 21
5.635301928101773
 31
0.0
  0
LINE
  5
713
330
1F
100
AcDbEntity
  8
0
100
AcDbLine
 10
3.490820765130706
 20
5.587355243782941
 30
0.0
 11
3.570532275175793
 21
5.587355243782941
 31
0.0
  0
LINE
  5
714
330
1F
100
AcDbEntity
  8
0
100
AcDbLine
 10
3.609036987655194
 20
5.635301928101773
 30
0.0
 11
3.609036987655194
 21
5.46773736553496
 31
0.0
  0
LINE
  5
715
330
1F
100
AcDbEntity
  8
0
100
AcDbLine
 10
3.452316052651305
 20
5.46773736553496
 30
0.0
 11
3.452316052651305
 21
5.635301928101773
 31
0.0
  0
LINE
  5
716
330
1F
100
AcDbEntity
  8
0
100
AcDbLine
 10
3.590649835775103
 20
5.06067980070569
 30
0.0
 11
3.67036134582019
 21
5.06067980070569
 31
0.0
  0
LINE
  5
717
330
1F
100
AcDbEntity
  8
0
100
AcDbLine
 10
3.708866058299591
 20
5.108626485024522
 30
0.0
 11
3.708866058299591
 21
4.891398649947364
 31
0.0
  0
LINE
  5
718
330
1F
100
AcDbEntity
  8
0
100
AcDbLine
 10
3.590649835775103
 20
5.107647981262912
 30
0.0
 11
3.590649835775103
 21
5.06067980070569
 31
0.0
  0
LINE
  5
719
330
1F
100
AcDbEntity
  8
0
100
AcDbLine
 10
3.67036134582019
 20
5.06067980070569
 30
0.0
 11
3.67036134582019
 21
5.107647981262912
 31
0.0
  0
LINE
  5
71A
330
1F
100
AcDbEntity
  8
0
100
AcDbLine
 10
3.552145123295701
 20
4.891398649947364
 30
0.0
 11
3.552145123295701
 21
5.108626485024522
 31
0.0
  0
LINE
  5
71B
330
1F
100
AcDbEntity
  8
0
100
AcDbLine
 10
3.708866058299591
 20
4.891398649947364
 30
0.0
 11
3.552145123295701
 21
4.891398649947364
 31
0.0
  0
LINE
  5
71C
330
1F
100
AcDbEntity
  8
0
100
AcDbLine
 10
3.552145123295701
 20
5.108626485024522
 30
0.0
 11
3.708866058299591
 21
5.108626485024522
 31
0.0
  0
TEXT
  5
71D
330
1F
100
AcDbEntity
  8
0
100
AcDbText
 10
3.635229431259887
 20
5.765426936283434
 30
0.0
 40
0.08
  1
11
  7
ROMANS
100
AcDbText
  0
LINE
  5
71E
330
1F
100
AcDbEntity
  8
0
100
AcDbLine
 10
3.770532275175796
 20
5.587355243782941
 30
0.0
 11
3.770532275175796
 21
5.634323424340164
 31
0.0
  0
LINE
  5
71F
330
1F
100
AcDbEntity
  8
0
100
AcDbLine
 10
3.690820765130709
 20
5.634323424340164
 30
0.0
 11
3.690820765130709
 21
5.587355243782941
 31
0.0
  0
LINE
  5
720
330
1F
100
AcDbEntity
  8
0
100
AcDbLine
 10
3.652316052651308
 20
5.635301928101773
 30
0.0
 11
3.809036987655197
 21
5.635301928101773
 31
0.0
  0
LINE
  5
721
330
1F
100
AcDbEntity
  8
0
100
AcDbLine
 10
3.690820765130709
 20
5.587355243782941
 30
0.0
 11
3.770532275175796
 21
5.587355243782941
 31
0.0
  0
LINE
  5
722
330
1F
100
AcDbEntity
  8
0
100
AcDbLine
 10
3.809036987655197
 20
5.635301928101773
 30
0.0
 11
3.809036987655197
 21
5.46773736553496
 31
0.0
  0
LINE
  5
723
330
1F
100
AcDbEntity
  8
0
100
AcDbLine
 10
3.652316052651308
 20
5.46773736553496
 30
0.0
 11
3.652316052651308
 21
5.635301928101773
 31
0.0
  0
LINE
  5
724
330
1F
100
AcDbEntity
  8
0
100
AcDbLine
 10
3.790649835775099
 20
5.06067980070569
 30
0.0
 11
3.870361345820185
 21
5.06067980070569
 31
0.0
  0
LINE
  5
725
330
1F
100
AcDbEntity
  8
0
100
AcDbLine
 10
3.908866058299587
 20
5.108626485024522
 30
0.0
 11
3.908866058299587
 21
4.891398649947364
 31
0.0
  0
LINE
  5
726
330
1F
100
AcDbEntity
  8
0
100
AcDbLine
 10
3.790649835775099
 20
5.107647981262912
 30
0.0
 11
3.790649835775099
 21
5.06067980070569
 31
0.0
  0
LINE
  5
727
330
1F
100
AcDbEntity
  8
0
100
AcDbLine
 10
3.870361345820185
 20
5.06067980070569
 30
0.0
 11
3.870361345820185
 21
5.107647981262912
 31
0.0
  0
LINE
  5
728
330
1F
100
AcDbEntity
  8
0
100
AcDbLine
 10
3.752145123295697
 20
4.891398649947364
 30
0.0
 11
3.752145123295697
 21
5.108626485024522
 31
0.0
  0
LINE
  5
729
330
1F
100
AcDbEntity
  8
0
100
AcDbLine
 10
3.908866058299587
 20
4.891398649947364
 30
0.0
 11
3.752145123295697
 21
4.891398649947364
 31
0.0
  0
LINE
  5
72A
330
1F
100
AcDbEntity
  8
0
100
AcDbLine
 10
3.752145123295697
 20
5.108626485024522
 30
0.0
 11
3.908866058299587
 21
5.108626485024522
 31
0.0
  0
TEXT
  5
72B
330
1F
100
AcDbEntity
  8
0
100
AcDbText
 10
3.835229431259882
 20
5.765426936283434
 30
0.0
 40
0.08
  1
12
  7
ROMANS
100
AcDbText
  0
LINE
  5
72C
330
1F
100
AcDbEntity
  8
0
100
AcDbLine
 10
3.970532275175791
 20
5.587355243782941
 30
0.0
 11
3.970532275175791
 21
5.634323424340164
 31
0.0
  0
LINE
  5
72D
330
1F
100
AcDbEntity
  8
0
100
AcDbLine
 10
3.890820765130705
 20
5.634323424340164
 30
0.0
 11
3.890820765130705
 21
5.587355243782941
 31
0.0
  0
LINE
  5
72E
330
1F
100
AcDbEntity
  8
0
100
AcDbLine
 10
3.852316052651303
 20
5.635301928101773
 30
0.0
 11
4.009036987655193
 21
5.635301928101773
 31
0.0
  0
LINE
  5
72F
330
1F
100
AcDbEntity
  8
0
100
AcDbLine
 10
3.890820765130705
 20
5.587355243782941
 30
0.0
 11
3.970532275175791
 21
5.587355243782941
 31
0.0
  0
LINE
  5
730
330
1F
100
AcDbEntity
  8
0
100
AcDbLine
 10
4.009036987655193
 20
5.635301928101773
 30
0.0
 11
4.009036987655193
 21
5.46773736553496
 31
0.0
  0
LINE
  5
731
330
1F
100
AcDbEntity
  8
0
100
AcDbLine
 10
3.852316052651303
 20
5.46773736553496
 30
0.0
 11
3.852316052651303
 21
5.635301928101773
 31
0.0
  0
LINE
  5
732
330
1F
100
AcDbEntity
  8
0
100
AcDbLine
 10
3.990649835775101
 20
5.06067980070569
 30
0.0
 11
4.070361345820188
 21
5.06067980070569
 31
0.0
  0
LINE
  5
733
330
1F
100
AcDbEntity
  8
0
100
AcDbLine
 10
4.108866058299589
 20
5.108626485024522
 30
0.0
 11
4.108866058299589
 21
4.891398649947364
 31
0.0
  0
LINE
  5
734
330
1F
100
AcDbEntity
  8
0
100
AcDbLine
 10
3.990649835775101
 20
5.107647981262912
 30
0.0
 11
3.990649835775101
 21
5.06067980070569
 31
0.0
  0
LINE
  5
735
330
1F
100
AcDbEntity
  8
0
100
AcDbLine
 10
4.070361345820188
 20
5.06067980070569
 30
0.0
 11
4.070361345820188
 21
5.107647981262912
 31
0.0
  0
LINE
  5
736
330
1F
100
AcDbEntity
  8
0
100
AcDbLine
 10
3.9521451232957
 20
4.891398649947364
 30
0.0
 11
3.9521451232957
 21
5.108626485024522
 31
0.0
  0
LINE
  5
737
330
1F
100
AcDbEntity
  8
0
100
AcDbLine
 10
4.108866058299589
 20
4.891398649947364
 30
0.0
 11
3.9521451232957
 21
4.891398649947364
 31
0.0
  0
LINE
  5
738
330
1F
100
AcDbEntity
  8
0
100
AcDbLine
 10
3.9521451232957
 20
5.108626485024522
 30
0.0
 11
4.108866058299589
 21
5.108626485024522
 31
0.0
  0
TEXT
  5
739
330
1F
100
AcDbEntity
  8
0
100
AcDbText
 10
4.035229431259885
 20
5.765426936283434
 30
0.0
 40
0.08
  1
13
  7
ROMANS
100
AcDbText
  0
LINE
  5
73A
330
1F
100
AcDbEntity
  8
0
100
AcDbLine
 10
4.170532275175794
 20
5.587355243782941
 30
0.0
 11
4.170532275175794
 21
5.634323424340164
 31
0.0
  0
LINE
  5
73B
330
1F
100
AcDbEntity
  8
0
100
AcDbLine
 10
4.090820765130708
 20
5.634323424340164
 30
0.0
 11
4.090820765130708
 21
5.587355243782941
 31
0.0
  0
LINE
  5
73C
330
1F
100
AcDbEntity
  8
0
100
AcDbLine
 10
4.052316052651306
 20
5.635301928101773
 30
0.0
 11
4.209036987655196
 21
5.635301928101773
 31
0.0
  0
LINE
  5
73D
330
1F
100
AcDbEntity
  8
0
100
AcDbLine
 10
4.090820765130708
 20
5.587355243782941
 30
0.0
 11
4.170532275175794
 21
5.587355243782941
 31
0.0
  0
LINE
  5
73E
330
1F
100
AcDbEntity
  8
0
100
AcDbLine
 10
4.209036987655196
 20
5.635301928101773
 30
0.0
 11
4.209036987655196
 21
5.46773736553496
 31
0.0
  0
LINE
  5
73F
330
1F
100
AcDbEntity
  8
0
100
AcDbLine
 10
4.052316052651306
 20
5.46773736553496
 30
0.0
 11
4.052316052651306
 21
5.635301928101773
 31
0.0
  0
LINE
  5
740
330
1F
100
AcDbEntity
  8
0
100
AcDbLine
 10
4.190649835775104
 20
5.06067980070569
 30
0.0
 11
4.270361345820191
 21
5.06067980070569
 31
0.0
  0
LINE
  5
741
330
1F
100
AcDbEntity
  8
0
100
AcDbLine
 10
4.308866058299592
 20
5.108626485024522
 30
0.0
 11
4.308866058299592
 21
4.891398649947364
 31
0.0
  0
LINE
  5
742
330
1F
100
AcDbEntity
  8
0
100
AcDbLine
 10
4.190649835775104
 20
5.107647981262912
 30
0.0
 11
4.190649835775104
 21
5.06067980070569
 31
0.0
  0
LINE
  5
743
330
1F
100
AcDbEntity
  8
0
100
AcDbLine
 10
4.270361345820191
 20
5.06067980070569
 30
0.0
 11
4.270361345820191
 21
5.107647981262912
 31
0.0
  0
LINE
  5
744
330
1F
100
AcDbEntity
  8
0
100
AcDbLine
 10
4.152145123295703
 20
4.891398649947364
 30
0.0
 11
4.152145123295703
 21
5.108626485024522
 31
0.0
  0
LINE
  5
745
330
1F
100
AcDbEntity
  8
0
100
AcDbLine
 10
4.308866058299592
 20
4.891398649947364
 30
0.0
 11
4.152145123295703
 21
4.891398649947364
 31
0.0
  0
LINE
  5
746
330
1F
100
AcDbEntity
  8
0
100
AcDbLine
 10
4.152145123295703
 20
5.108626485024522
 30
0.0
 11
4.308866058299592
 21
5.108626485024522
 31
0.0
  0
TEXT
  5
747
330
1F
100
AcDbEntity
  8
0
100
AcDbText
 10
1.749507465963745
 20
5.271481511579864
 30
0.0
 40
0.08
  1
14
  7
ROMANS
100
AcDbText
  0
TEXT
  5
748
330
1F
100
AcDbEntity
  8
0
100
AcDbText
 10
1.949507465963748
 20
5.271481511579864
 30
0.0
 40
0.08
  1
15
  7
ROMANS
100
AcDbText
  0
TEXT
  5
749
330
1F
100
AcDbEntity
  8
0
100
AcDbText
 10
2.14950746596375
 20
5.271481511579864
 30
0.0
 40
0.08
  1
16
  7
ROMANS
100
AcDbText
  0
TEXT
  5
74A
330
1F
100
AcDbEntity
  8
0
100
AcDbText
 10
2.349507465963746
 20
5.271481511579864
 30
0.0
 40
0.08
  1
17
  7
ROMANS
100
AcDbText
  0
TEXT
  5
74B
330
1F
100
AcDbEntity
  8
0
100
AcDbText
 10
2.549507465963749
 20
5.271481511579864
 30
0.0
 40
0.08
  1
18
  7
ROMANS
100
AcDbText
  0
LINE
  5
74C
330
1F
100
AcDbEntity
  8
0
100
AcDbLine
 10
1.728753672364128
 20
5.46773736553496
 30
0.0
 11
1.728753672364128
 21
4.808464664989319
 31
0.0
  0
LINE
  5
74D
330
1F
100
AcDbEntity
  8
0
100
AcDbLine
 10
1.628753672364126
 20
5.965827707577437
 30
0.0
 11
1.628753672364126
 21
4.808464664989326
 31
0.0
  0
LINE
  5
74E
330
1F
100
AcDbEntity
  8
0
100
AcDbLine
 10
1.988709591552442
 20
4.205987376124404
 30
0.0
 11
1.988709591552442
 21
4.808464664989326
 31
0.0
  0
TEXT
  5
753
330
1F
100
AcDbEntity
  8
0
100
AcDbText
 10
2.749507465963745
 20
5.271481511579864
 30
0.0
 40
0.08
  1
19
  7
ROMANS
100
AcDbText
  0
LINE
  5
754
330
1F
100
AcDbEntity
  8
0
100
AcDbLine
 10
1.628753672364126
 20
5.711416729559141
 30
0.0
 11
4.42875340782168
 21
5.711416729559142
 31
0.0
  0
LINE
  5
755
330
1F
100
AcDbEntity
  8
0
100
AcDbLine
 10
1.628753672364126
 20
5.907606733761712
 30
0.0
 11
4.42875340782168
 21
5.907606733761707
 31
0.0
  0
LINE
  5
756
330
1F
100
AcDbEntity
  8
0
100
AcDbLine
 10
1.628753672364126
 20
5.965827707577437
 30
0.0
 11
4.42875340782168
 21
5.965827707577433
 31
0.0
  0
LINE
  5
757
330
1F
100
AcDbEntity
  8
0
100
AcDbLine
 10
1.728753672364128
 20
5.46773736553496
 30
0.0
 11
4.528753672364132
 21
5.467737365534959
 31
0.0
  0
LINE
  5
758
330
1F
100
AcDbEntity
  8
0
100
AcDbLine
 10
1.652316052651308
 20
5.411962651123259
 30
0.0
 11
4.528753672364132
 21
5.411962651123256
 31
0.0
  0
LINE
  5
759
330
1F
100
AcDbEntity
  8
0
100
AcDbLine
 10
1.728753672364128
 20
5.22066516572873
 30
0.0
 11
4.528753672364132
 21
5.220665165728731
 31
0.0
  0
LINE
  5
75A
330
1F
100
AcDbEntity
  8
0
100
AcDbLine
 10
4.617744773861367
 20
3.763301155978004
 30
0.0
 11
4.617744773861367
 21
4.205891155978004
 31
0.0
  0
LINE
  5
75B
330
1F
100
AcDbEntity
  8
0
100
AcDbLine
 10
4.617744992152402
 20
3.763301054937805
 30
0.0
 11
4.617744992152402
 21
4.205891167977933
 31
0.0
  0
LINE
  5
75C
330
1F
100
AcDbEntity
  8
0
100
AcDbLine
 10
4.646108773861357
 20
4.205987155978004
 30
0.0
 11
4.646108773861357
 21
4.808465155978003
 31
0.0
  0
LINE
  5
75D
330
1F
100
AcDbEntity
  8
0
100
AcDbLine
 10
4.646109182706901
 20
4.205987376124404
 30
0.0
 11
4.646109182706901
 21
4.808464664989326
 31
0.0
  0
LINE
  5
75F
102
{ACAD_REACTORS
330
BD4
102
}
330
1F
100
AcDbEntity
  8
0
100
AcDbLine
 10
6.663493161095015
 20
6.319076797624749
 30
0.0
 11
9.776693161095019
 21
6.31907679762475
 31
0.0
  0
LINE
  5
760
330
1F
100
AcDbEntity
  8
0
100
AcDbLine
 10
6.663493161095014
 20
6.192076945656612
 30
0.0
 11
9.776693161095016
 21
6.192076945656611
 31
0.0
  0
LINE
  5
762
330
1F
100
AcDbEntity
  8
0
100
AcDbLine
 10
9.676692943653563
 20
5.025599797624748
 30
0.0
 11
8.400854161095015
 21
5.025599797624748
 31
0.0
  0
LINE
  5
763
330
1F
100
AcDbEntity
  8
0
100
AcDbLine
 10
8.560803161095019
 20
4.634056797624747
 30
0.0
 11
9.515802917269923
 21
4.634056797624747
 31
0.0
  0
LINE
  5
764
330
1F
100
AcDbEntity
  8
0
100
AcDbLine
 10
8.560803161095019
 20
4.982056797624748
 30
0.0
 11
9.515802917269923
 21
4.982056797624748
 31
0.0
  0
LINE
  5
765
330
1F
100
AcDbEntity
  8
0
100
AcDbLine
 10
8.400854161095015
 20
4.590512797624748
 30
0.0
 11
9.676692943653563
 21
4.590512797624748
 31
0.0
  0
LINE
  5
766
330
1F
100
AcDbEntity
  8
0
100
AcDbLine
 10
6.663493161095015
 20
3.416076797624748
 30
0.0
 11
9.776693161095018
 21
3.416076797624749
 31
0.0
  0
LINE
  5
767
330
1F
100
AcDbEntity
  8
0
100
AcDbLine
 10
6.663493161095015
 20
3.289076797624748
 30
0.0
 11
9.776693161095019
 21
3.289076797624748
 31
0.0
  0
LINE
  5
76E
330
1F
100
AcDbEntity
  8
0
100
AcDbLine
 10
6.708493161095017
 20
5.682076797624748
 30
0.0
 11
6.708493161095017
 21
6.192076797624748
 31
0.0
  0
LINE
  5
76F
102
{ACAD_REACTORS
330
BD4
330
BF8
102
}
330
1F
100
AcDbEntity
  8
0
100
AcDbLine
 10
6.663493161095015
 20
3.289076797624748
 30
0.0
 11
6.663493161095015
 21
6.319076797624749
 31
0.0
  0
LINE
  5
770
330
1F
100
AcDbEntity
  8
0
100
AcDbLine
 10
6.708492943653567
 20
5.682076945656611
 30
0.0
 11
6.708492943653567
 21
6.192076945656612
 31
0.0
  0
LINE
  5
773
330
1F
100
AcDbEntity
  8
0
100
AcDbLine
 10
8.560803161095019
 20
4.590512797624748
 30
0.0
 11
8.560803161095019
 21
5.025599797624748
 31
0.0
  0
LINE
  5
774
330
1F
100
AcDbEntity
  8
0
100
AcDbLine
 10
8.400854161095015
 20
5.025599797624748
 30
0.0
 11
8.400854161095015
 21
4.590512797624748
 31
0.0
  0
LINE
  5
775
330
1F
100
AcDbEntity
  8
0
100
AcDbLine
 10
8.664692161095015
 20
3.289076797624748
 30
0.0
 11
8.664692161095015
 21
3.416076797624748
 31
0.0
  0
LINE
  5
776
330
1F
100
AcDbEntity
  8
0
100
AcDbLine
 10
9.333793161095016
 20
3.289076797624748
 30
0.0
 11
9.333793161095016
 21
3.416076797624748
 31
0.0
  0
LINE
  5
778
330
1F
100
AcDbEntity
  8
0
100
AcDbLine
 10
6.708493161095017
 20
3.416076797624748
 30
0.0
 11
6.708493161095017
 21
3.921123797624748
 31
0.0
  0
LINE
  5
779
330
1F
100
AcDbEntity
  8
0
100
AcDbLine
 10
6.763493161095016
 20
3.921123797624748
 30
0.0
 11
6.708493161095017
 21
3.921123797624748
 31
0.0
  0
LINE
  5
77A
330
1F
100
AcDbEntity
  8
0
100
AcDbLine
 10
6.763493161095016
 20
3.921123797624748
 30
0.0
 11
6.763493161095016
 21
5.682076797624748
 31
0.0
  0
LINE
  5
77B
330
1F
100
AcDbEntity
  8
0
100
AcDbLine
 10
6.763493161095016
 20
5.682076797624748
 30
0.0
 11
6.708493161095017
 21
5.682076797624748
 31
0.0
  0
CIRCLE
  5
77C
330
1F
100
AcDbEntity
  8
0
100
AcDbCircle
 10
9.363677104748585
 20
3.690682797624749
 30
0.0
 40
0.075
  0
CIRCLE
  5
77D
330
1F
100
AcDbEntity
  8
0
100
AcDbCircle
 10
9.363236104748583
 20
3.690065797624747
 30
0.0
 40
0.06629
  0
LINE
  5
77E
330
1F
100
AcDbEntity
  8
0
100
AcDbLine
 10
9.323074104748581
 20
3.637326797624748
 30
0.0
 11
9.418643104748586
 21
3.726459797624748
 31
0.0
  0
LINE
  5
77F
330
1F
100
AcDbEntity
  8
0
100
AcDbLine
 10
9.307434104748583
 20
3.654281797624747
 30
0.0
 11
9.402817104748582
 21
3.743242797624748
 31
0.0
  0
LINE
  5
780
330
1F
100
AcDbEntity
  8
0
100
AcDbLine
 10
9.22307410474858
 20
4.078313797624748
 30
0.0
 11
9.318643104748584
 21
4.167446797624748
 31
0.0
  0
LINE
  5
781
330
1F
100
AcDbEntity
  8
0
100
AcDbLine
 10
9.207434104748589
 20
4.095268797624747
 30
0.0
 11
9.30281710474858
 21
4.184229797624748
 31
0.0
  0
CIRCLE
  5
782
330
1F
100
AcDbEntity
  8
0
100
AcDbCircle
 10
9.263677104748584
 20
4.131669797624748
 30
0.0
 40
0.075
  0
CIRCLE
  5
783
330
1F
100
AcDbEntity
  8
0
100
AcDbCircle
 10
9.263236104748582
 20
4.131052797624748
 30
0.0
 40
0.06629
  0
CIRCLE
  5
784
330
1F
100
AcDbEntity
  8
0
100
AcDbCircle
 10
9.164077104748589
 20
3.690682797624749
 30
0.0
 40
0.075
  0
CIRCLE
  5
785
330
1F
100
AcDbEntity
  8
0
100
AcDbCircle
 10
9.163636104748579
 20
3.690065797624747
 30
0.0
 40
0.06629
  0
LINE
  5
786
330
1F
100
AcDbEntity
  8
0
100
AcDbLine
 10
9.123474104748584
 20
3.637326797624748
 30
0.0
 11
9.219043104748582
 21
3.726459797624748
 31
0.0
  0
LINE
  5
787
330
1F
100
AcDbEntity
  8
0
100
AcDbLine
 10
9.107834104748587
 20
3.654281797624747
 30
0.0
 11
9.203217104748585
 21
3.743242797624748
 31
0.0
  0
LINE
  5
788
330
1F
100
AcDbEntity
  8
0
100
AcDbLine
 10
9.023474104748583
 20
4.078313797624748
 30
0.0
 11
9.11904310474858
 21
4.167446797624748
 31
0.0
  0
LINE
  5
789
330
1F
100
AcDbEntity
  8
0
100
AcDbLine
 10
9.007834104748585
 20
4.095268797624747
 30
0.0
 11
9.103217104748583
 21
4.184229797624748
 31
0.0
  0
CIRCLE
  5
78A
330
1F
100
AcDbEntity
  8
0
100
AcDbCircle
 10
9.064077104748587
 20
4.131669797624748
 30
0.0
 40
0.075
  0
CIRCLE
  5
78B
330
1F
100
AcDbEntity
  8
0
100
AcDbCircle
 10
9.063636104748585
 20
4.131052797624748
 30
0.0
 40
0.06629
  0
CIRCLE
  5
78C
330
1F
100
AcDbEntity
  8
0
100
AcDbCircle
 10
8.964477104748585
 20
3.690682797624749
 30
0.0
 40
0.075
  0
CIRCLE
  5
78D
330
1F
100
AcDbEntity
  8
0
100
AcDbCircle
 10
8.964036104748583
 20
3.690065797624747
 30
0.0
 40
0.06629
  0
LINE
  5
78E
330
1F
100
AcDbEntity
  8
0
100
AcDbLine
 10
8.923874104748581
 20
3.637326797624748
 30
0.0
 11
9.019443104748585
 21
3.726459797624748
 31
0.0
  0
LINE
  5
78F
330
1F
100
AcDbEntity
  8
0
100
AcDbLine
 10
8.90823410474859
 20
3.654281797624747
 30
0.0
 11
9.003617104748581
 21
3.743242797624748
 31
0.0
  0
LINE
  5
790
330
1F
100
AcDbEntity
  8
0
100
AcDbLine
 10
8.823874104748583
 20
4.078313797624748
 30
0.0
 11
8.919443104748584
 21
4.167446797624748
 31
0.0
  0
LINE
  5
791
330
1F
100
AcDbEntity
  8
0
100
AcDbLine
 10
8.808234104748585
 20
4.095268797624747
 30
0.0
 11
8.90361710474858
 21
4.184229797624748
 31
0.0
  0
CIRCLE
  5
792
330
1F
100
AcDbEntity
  8
0
100
AcDbCircle
 10
8.864477104748587
 20
4.131669797624748
 30
0.0
 40
0.075
  0
CIRCLE
  5
793
330
1F
100
AcDbEntity
  8
0
100
AcDbCircle
 10
8.864036104748581
 20
4.131052797624748
 30
0.0
 40
0.06629
  0
CIRCLE
  5
794
330
1F
100
AcDbEntity
  8
0
100
AcDbCircle
 10
8.764877104748585
 20
3.690682797624749
 30
0.0
 40
0.075
  0
CIRCLE
  5
795
330
1F
100
AcDbEntity
  8
0
100
AcDbCircle
 10
8.764436104748583
 20
3.690065797624747
 30
0.0
 40
0.06629
  0
LINE
  5
796
330
1F
100
AcDbEntity
  8
0
100
AcDbLine
 10
8.724274104748584
 20
3.637326797624748
 30
0.0
 11
8.819843104748585
 21
3.726459797624748
 31
0.0
  0
LINE
  5
797
330
1F
100
AcDbEntity
  8
0
100
AcDbLine
 10
8.708634104748586
 20
3.654281797624747
 30
0.0
 11
8.804017104748581
 21
3.743242797624748
 31
0.0
  0
LINE
  5
798
330
1F
100
AcDbEntity
  8
0
100
AcDbLine
 10
8.624274104748582
 20
4.078313797624748
 30
0.0
 11
8.719843104748584
 21
4.167446797624748
 31
0.0
  0
LINE
  5
799
330
1F
100
AcDbEntity
  8
0
100
AcDbLine
 10
8.608634104748585
 20
4.095268797624747
 30
0.0
 11
8.704017104748583
 21
4.184229797624748
 31
0.0
  0
CIRCLE
  5
79A
330
1F
100
AcDbEntity
  8
0
100
AcDbCircle
 10
8.664877104748587
 20
4.131669797624748
 30
0.0
 40
0.075
  0
CIRCLE
  5
79B
330
1F
100
AcDbEntity
  8
0
100
AcDbCircle
 10
8.664436104748581
 20
4.131052797624748
 30
0.0
 40
0.06629
  0
CIRCLE
  5
79C
330
1F
100
AcDbEntity
  8
0
100
AcDbCircle
 10
8.565277104748584
 20
3.690682797624749
 30
0.0
 40
0.075
  0
CIRCLE
  5
79D
330
1F
100
AcDbEntity
  8
0
100
AcDbCircle
 10
8.564836104748582
 20
3.690065797624747
 30
0.0
 40
0.06629
  0
LINE
  5
79E
330
1F
100
AcDbEntity
  8
0
100
AcDbLine
 10
8.524674104748584
 20
3.637326797624748
 30
0.0
 11
8.620243104748585
 21
3.726459797624748
 31
0.0
  0
LINE
  5
79F
330
1F
100
AcDbEntity
  8
0
100
AcDbLine
 10
8.509034104748586
 20
3.654281797624747
 30
0.0
 11
8.604417104748581
 21
3.743242797624748
 31
0.0
  0
LINE
  5
7A0
330
1F
100
AcDbEntity
  8
0
100
AcDbLine
 10
8.424674104748582
 20
4.078313797624748
 30
0.0
 11
8.520243104748583
 21
4.167446797624748
 31
0.0
  0
LINE
  5
7A1
330
1F
100
AcDbEntity
  8
0
100
AcDbLine
 10
8.409034104748588
 20
4.095268797624747
 30
0.0
 11
8.504417104748583
 21
4.184229797624748
 31
0.0
  0
CIRCLE
  5
7A2
330
1F
100
AcDbEntity
  8
0
100
AcDbCircle
 10
8.465277104748587
 20
4.131669797624748
 30
0.0
 40
0.075
  0
CIRCLE
  5
7A3
330
1F
100
AcDbEntity
  8
0
100
AcDbCircle
 10
8.464836104748581
 20
4.131052797624748
 30
0.0
 40
0.06629
  0
CIRCLE
  5
7A4
330
1F
100
AcDbEntity
  8
0
100
AcDbCircle
 10
8.365677104748584
 20
3.690682797624749
 30
0.0
 40
0.075
  0
CIRCLE
  5
7A5
330
1F
100
AcDbEntity
  8
0
100
AcDbCircle
 10
8.365236104748582
 20
3.690065797624747
 30
0.0
 40
0.06629
  0
LINE
  5
7A6
330
1F
100
AcDbEntity
  8
0
100
AcDbLine
 10
8.325074104748583
 20
3.637326797624748
 30
0.0
 11
8.420643104748585
 21
3.726459797624748
 31
0.0
  0
LINE
  5
7A7
330
1F
100
AcDbEntity
  8
0
100
AcDbLine
 10
8.309434104748586
 20
3.654281797624747
 30
0.0
 11
8.404817104748584
 21
3.743242797624748
 31
0.0
  0
LINE
  5
7A8
330
1F
100
AcDbEntity
  8
0
100
AcDbLine
 10
8.225074104748582
 20
4.078313797624748
 30
0.0
 11
8.320643104748583
 21
4.167446797624748
 31
0.0
  0
LINE
  5
7A9
330
1F
100
AcDbEntity
  8
0
100
AcDbLine
 10
8.209434104748588
 20
4.095268797624747
 30
0.0
 11
8.304817104748583
 21
4.184229797624748
 31
0.0
  0
CIRCLE
  5
7AA
330
1F
100
AcDbEntity
  8
0
100
AcDbCircle
 10
8.265677104748586
 20
4.131669797624748
 30
0.0
 40
0.075
  0
CIRCLE
  5
7AB
330
1F
100
AcDbEntity
  8
0
100
AcDbCircle
 10
8.265236104748584
 20
4.131052797624748
 30
0.0
 40
0.06629
  0
CIRCLE
  5
7AC
330
1F
100
AcDbEntity
  8
0
100
AcDbCircle
 10
8.166077104748588
 20
3.690682797624749
 30
0.0
 40
0.075
  0
CIRCLE
  5
7AD
330
1F
100
AcDbEntity
  8
0
100
AcDbCircle
 10
8.165636104748582
 20
3.690065797624747
 30
0.0
 40
0.06629
  0
LINE
  5
7AE
330
1F
100
AcDbEntity
  8
0
100
AcDbLine
 10
8.125474104748583
 20
3.637326797624748
 30
0.0
 11
8.221043104748584
 21
3.726459797624748
 31
0.0
  0
LINE
  5
7AF
330
1F
100
AcDbEntity
  8
0
100
AcDbLine
 10
8.109834104748586
 20
3.654281797624747
 30
0.0
 11
8.205217104748584
 21
3.743242797624748
 31
0.0
  0
LINE
  5
7B0
330
1F
100
AcDbEntity
  8
0
100
AcDbLine
 10
8.025474104748582
 20
4.078313797624748
 30
0.0
 11
8.121043104748583
 21
4.167446797624748
 31
0.0
  0
LINE
  5
7B1
330
1F
100
AcDbEntity
  8
0
100
AcDbLine
 10
8.009834104748588
 20
4.095268797624747
 30
0.0
 11
8.105217104748582
 21
4.184229797624748
 31
0.0
  0
CIRCLE
  5
7B2
330
1F
100
AcDbEntity
  8
0
100
AcDbCircle
 10
8.066077104748586
 20
4.131669797624748
 30
0.0
 40
0.075
  0
CIRCLE
  5
7B3
330
1F
100
AcDbEntity
  8
0
100
AcDbCircle
 10
8.065636104748584
 20
4.131052797624748
 30
0.0
 40
0.06629
  0
CIRCLE
  5
7B4
330
1F
100
AcDbEntity
  8
0
100
AcDbCircle
 10
7.966477104748588
 20
3.690682797624749
 30
0.0
 40
0.075
  0
CIRCLE
  5
7B5
330
1F
100
AcDbEntity
  8
0
100
AcDbCircle
 10
7.966036104748583
 20
3.690065797624747
 30
0.0
 40
0.06629
  0
LINE
  5
7B6
330
1F
100
AcDbEntity
  8
0
100
AcDbLine
 10
7.925874104748584
 20
3.637326797624748
 30
0.0
 11
8.021443104748584
 21
3.726459797624748
 31
0.0
  0
LINE
  5
7B7
330
1F
100
AcDbEntity
  8
0
100
AcDbLine
 10
7.910234104748586
 20
3.654281797624747
 30
0.0
 11
8.005617104748584
 21
3.743242797624748
 31
0.0
  0
LINE
  5
7B8
330
1F
100
AcDbEntity
  8
0
100
AcDbLine
 10
7.825874104748582
 20
4.078313797624748
 30
0.0
 11
7.921443104748584
 21
4.167446797624748
 31
0.0
  0
LINE
  5
7B9
330
1F
100
AcDbEntity
  8
0
100
AcDbLine
 10
7.810234104748588
 20
4.095268797624747
 30
0.0
 11
7.905617104748583
 21
4.184229797624748
 31
0.0
  0
CIRCLE
  5
7BA
330
1F
100
AcDbEntity
  8
0
100
AcDbCircle
 10
7.866477104748587
 20
4.131669797624748
 30
0.0
 40
0.075
  0
CIRCLE
  5
7BB
330
1F
100
AcDbEntity
  8
0
100
AcDbCircle
 10
7.866036104748585
 20
4.131052797624748
 30
0.0
 40
0.06629
  0
CIRCLE
  5
7BC
330
1F
100
AcDbEntity
  8
0
100
AcDbCircle
 10
7.766877104748588
 20
3.690682797624749
 30
0.0
 40
0.075
  0
CIRCLE
  5
7BD
330
1F
100
AcDbEntity
  8
0
100
AcDbCircle
 10
7.766436104748582
 20
3.690065797624747
 30
0.0
 40
0.06629
  0
LINE
  5
7BE
330
1F
100
AcDbEntity
  8
0
100
AcDbLine
 10
7.726274104748584
 20
3.637326797624748
 30
0.0
 11
7.821843104748585
 21
3.726459797624748
 31
0.0
  0
LINE
  5
7BF
330
1F
100
AcDbEntity
  8
0
100
AcDbLine
 10
7.710634104748586
 20
3.654281797624747
 30
0.0
 11
7.806017104748584
 21
3.743242797624748
 31
0.0
  0
LINE
  5
7C0
330
1F
100
AcDbEntity
  8
0
100
AcDbLine
 10
7.626274104748582
 20
4.078313797624748
 30
0.0
 11
7.721843104748583
 21
4.167446797624748
 31
0.0
  0
LINE
  5
7C1
330
1F
100
AcDbEntity
  8
0
100
AcDbLine
 10
7.610634104748588
 20
4.095268797624747
 30
0.0
 11
7.706017104748583
 21
4.184229797624748
 31
0.0
  0
CIRCLE
  5
7C2
330
1F
100
AcDbEntity
  8
0
100
AcDbCircle
 10
7.666877104748587
 20
4.131669797624748
 30
0.0
 40
0.075
  0
CIRCLE
  5
7C3
330
1F
100
AcDbEntity
  8
0
100
AcDbCircle
 10
7.666436104748584
 20
4.131052797624748
 30
0.0
 40
0.06629
  0
CIRCLE
  5
7C4
330
1F
100
AcDbEntity
  8
0
100
AcDbCircle
 10
7.567277104748588
 20
3.690682797624749
 30
0.0
 40
0.075
  0
CIRCLE
  5
7C5
330
1F
100
AcDbEntity
  8
0
100
AcDbCircle
 10
7.566836104748582
 20
3.690065797624747
 30
0.0
 40
0.06629
  0
LINE
  5
7C6
330
1F
100
AcDbEntity
  8
0
100
AcDbLine
 10
7.526674104748583
 20
3.637326797624748
 30
0.0
 11
7.622243104748585
 21
3.726459797624748
 31
0.0
  0
LINE
  5
7C7
330
1F
100
AcDbEntity
  8
0
100
AcDbLine
 10
7.511034104748586
 20
3.654281797624747
 30
0.0
 11
7.606417104748584
 21
3.743242797624748
 31
0.0
  0
LINE
  5
7C8
330
1F
100
AcDbEntity
  8
0
100
AcDbLine
 10
7.426674104748586
 20
4.078313797624748
 30
0.0
 11
7.522243104748583
 21
4.167446797624748
 31
0.0
  0
LINE
  5
7C9
330
1F
100
AcDbEntity
  8
0
100
AcDbLine
 10
7.411034104748588
 20
4.095268797624747
 30
0.0
 11
7.506417104748583
 21
4.184229797624748
 31
0.0
  0
CIRCLE
  5
7CA
330
1F
100
AcDbEntity
  8
0
100
AcDbCircle
 10
7.467277104748586
 20
4.131669797624748
 30
0.0
 40
0.075
  0
CIRCLE
  5
7CB
330
1F
100
AcDbEntity
  8
0
100
AcDbCircle
 10
7.466836104748584
 20
4.131052797624748
 30
0.0
 40
0.06629
  0
CIRCLE
  5
7CC
330
1F
100
AcDbEntity
  8
0
100
AcDbCircle
 10
7.367677104748588
 20
3.690682797624749
 30
0.0
 40
0.075
  0
CIRCLE
  5
7CD
330
1F
100
AcDbEntity
  8
0
100
AcDbCircle
 10
7.367236104748582
 20
3.690065797624747
 30
0.0
 40
0.06629
  0
LINE
  5
7CE
330
1F
100
AcDbEntity
  8
0
100
AcDbLine
 10
7.327074104748583
 20
3.637326797624748
 30
0.0
 11
7.422643104748584
 21
3.726459797624748
 31
0.0
  0
LINE
  5
7CF
330
1F
100
AcDbEntity
  8
0
100
AcDbLine
 10
7.311434104748589
 20
3.654281797624747
 30
0.0
 11
7.406817104748584
 21
3.743242797624748
 31
0.0
  0
LINE
  5
7D0
330
1F
100
AcDbEntity
  8
0
100
AcDbLine
 10
7.227074104748585
 20
4.078313797624748
 30
0.0
 11
7.322643104748583
 21
4.167446797624748
 31
0.0
  0
LINE
  5
7D1
330
1F
100
AcDbEntity
  8
0
100
AcDbLine
 10
7.211434104748588
 20
4.095268797624747
 30
0.0
 11
7.306817104748582
 21
4.184229797624748
 31
0.0
  0
CIRCLE
  5
7D2
330
1F
100
AcDbEntity
  8
0
100
AcDbCircle
 10
7.267677104748586
 20
4.131669797624748
 30
0.0
 40
0.075
  0
CIRCLE
  5
7D3
330
1F
100
AcDbEntity
  8
0
100
AcDbCircle
 10
7.267236104748584
 20
4.131052797624748
 30
0.0
 40
0.06629
  0
CIRCLE
  5
7D4
330
1F
100
AcDbEntity
  8
0
100
AcDbCircle
 10
7.168077104748587
 20
3.690682797624749
 30
0.0
 40
0.075
  0
CIRCLE
  5
7D5
330
1F
100
AcDbEntity
  8
0
100
AcDbCircle
 10
7.167636104748585
 20
3.690065797624747
 30
0.0
 40
0.06629
  0
LINE
  5
7D6
330
1F
100
AcDbEntity
  8
0
100
AcDbLine
 10
7.127474104748583
 20
3.637326797624748
 30
0.0
 11
7.223043104748584
 21
3.726459797624748
 31
0.0
  0
LINE
  5
7D7
330
1F
100
AcDbEntity
  8
0
100
AcDbLine
 10
7.111834104748589
 20
3.654281797624747
 30
0.0
 11
7.207217104748584
 21
3.743242797624748
 31
0.0
  0
LINE
  5
7D8
330
1F
100
AcDbEntity
  8
0
100
AcDbLine
 10
7.027474104748585
 20
4.078313797624748
 30
0.0
 11
7.123043104748583
 21
4.167446797624748
 31
0.0
  0
LINE
  5
7D9
330
1F
100
AcDbEntity
  8
0
100
AcDbLine
 10
7.011834104748587
 20
4.095268797624747
 30
0.0
 11
7.107217104748582
 21
4.184229797624748
 31
0.0
  0
CIRCLE
  5
7DA
330
1F
100
AcDbEntity
  8
0
100
AcDbCircle
 10
7.068077104748586
 20
4.131669797624748
 30
0.0
 40
0.075
  0
CIRCLE
  5
7DB
330
1F
100
AcDbEntity
  8
0
100
AcDbCircle
 10
7.067636104748584
 20
4.131052797624748
 30
0.0
 40
0.06629
  0
LINE
  5
7DC
330
1F
100
AcDbEntity
  8
0
100
AcDbLine
 10
9.449246104748585
 20
3.873869797624749
 30
0.0
 11
9.449246104748585
 21
3.819452797624748
 31
0.0
  0
LINE
  5
7DD
330
1F
100
AcDbEntity
  8
0
100
AcDbLine
 10
6.77292810474858
 20
4.361841797624748
 30
0.0
 11
9.370054104748579
 21
4.361841797624748
 31
0.0
  0
LINE
  5
7DE
330
1F
100
AcDbEntity
  8
0
100
AcDbLine
 10
9.223131104748585
 20
4.323070797624747
 30
0.0
 11
9.325202104748587
 21
4.323070797624747
 31
0.0
  0
LINE
  5
7DF
330
1F
100
AcDbEntity
  8
0
100
AcDbLine
 10
9.023131104748582
 20
4.323070797624747
 30
0.0
 11
9.125202104748584
 21
4.323070797624747
 31
0.0
  0
LINE
  5
7E0
330
1F
100
AcDbEntity
  8
0
100
AcDbLine
 10
9.249246104748589
 20
3.873869797624749
 30
0.0
 11
9.249246104748589
 21
3.819452797624748
 31
0.0
  0
LINE
  5
7E1
330
1F
100
AcDbEntity
  8
0
100
AcDbLine
 10
9.298975104748581
 20
3.819452797624748
 30
0.0
 11
9.298975104748581
 21
3.873869797624749
 31
0.0
  0
LINE
  5
7E2
330
1F
100
AcDbEntity
  8
0
100
AcDbLine
 10
9.370054104748579
 20
3.934360797624748
 30
0.0
 11
9.370054104748579
 21
3.931793797624749
 31
0.0
  0
LINE
  5
7E3
330
1F
100
AcDbEntity
  8
0
100
AcDbLine
 10
9.049246104748586
 20
3.873869797624749
 30
0.0
 11
9.049246104748586
 21
3.819452797624748
 31
0.0
  0
LINE
  5
7E4
330
1F
100
AcDbEntity
  8
0
100
AcDbLine
 10
9.098975104748586
 20
3.819452797624748
 30
0.0
 11
9.098975104748586
 21
3.873869797624749
 31
0.0
  0
LINE
  5
7E5
330
1F
100
AcDbEntity
  8
0
100
AcDbLine
 10
9.098975104748586
 20
3.873869797624749
 30
0.0
 11
9.249246104748589
 21
3.873869797624749
 31
0.0
  0
LINE
  5
7E6
330
1F
100
AcDbEntity
  8
0
100
AcDbLine
 10
8.823131104748583
 20
4.323070797624747
 30
0.0
 11
8.925202104748588
 21
4.323070797624747
 31
0.0
  0
LINE
  5
7E7
330
1F
100
AcDbEntity
  8
0
100
AcDbLine
 10
8.625490104748585
 20
4.323070797624747
 30
0.0
 11
8.727561104748584
 21
4.323070797624747
 31
0.0
  0
LINE
  5
7E8
330
1F
100
AcDbEntity
  8
0
100
AcDbLine
 10
8.851605104748582
 20
3.873869797624749
 30
0.0
 11
8.851605104748582
 21
3.819452797624748
 31
0.0
  0
LINE
  5
7E9
330
1F
100
AcDbEntity
  8
0
100
AcDbLine
 10
8.898975104748583
 20
3.819452797624748
 30
0.0
 11
8.898975104748583
 21
3.873869797624749
 31
0.0
  0
LINE
  5
7EA
330
1F
100
AcDbEntity
  8
0
100
AcDbLine
 10
8.701334104748585
 20
3.819452797624748
 30
0.0
 11
8.701334104748585
 21
3.873869797624749
 31
0.0
  0
LINE
  5
7EB
330
1F
100
AcDbEntity
  8
0
100
AcDbLine
 10
8.651605104748583
 20
3.873869797624749
 30
0.0
 11
8.651605104748583
 21
3.819452797624748
 31
0.0
  0
LINE
  5
7EC
330
1F
100
AcDbEntity
  8
0
100
AcDbLine
 10
8.701334104748585
 20
3.873869797624749
 30
0.0
 11
8.851605104748582
 21
3.873869797624749
 31
0.0
  0
LINE
  5
7ED
330
1F
100
AcDbEntity
  8
0
100
AcDbLine
 10
8.898975104748583
 20
3.873869797624749
 30
0.0
 11
9.049246104748586
 21
3.873869797624749
 31
0.0
  0
LINE
  5
7EE
330
1F
100
AcDbEntity
  8
0
100
AcDbLine
 10
6.77292810474858
 20
3.931793797624749
 30
0.0
 11
9.670055002820685
 21
3.931793797624748
 31
0.0
  0
LINE
  5
7EF
330
1F
100
AcDbEntity
  8
0
100
AcDbLine
 10
6.77292810474858
 20
4.259883797624748
 30
0.0
 11
9.369925104748585
 21
4.259883797624748
 31
0.0
  0
LINE
  5
7F0
330
1F
100
AcDbEntity
  8
0
100
AcDbLine
 10
6.77292810474858
 20
4.034351797624747
 30
0.0
 11
9.369925104748585
 21
4.034351797624747
 31
0.0
  0
LINE
  5
7F1
330
1F
100
AcDbEntity
  8
0
100
AcDbLine
 10
8.625490104748585
 20
4.362087797624749
 30
0.0
 11
8.625490104748585
 21
4.323070797624747
 31
0.0
  0
LINE
  5
7F2
330
1F
100
AcDbEntity
  8
0
100
AcDbLine
 10
8.727561104748584
 20
4.323070797624747
 30
0.0
 11
8.727561104748584
 21
4.362087797624749
 31
0.0
  0
LINE
  5
7F3
330
1F
100
AcDbEntity
  8
0
100
AcDbLine
 10
9.171154104748577
 20
4.361841797624748
 30
0.0
 11
9.171154104748577
 21
3.934360797624748
 31
0.0
  0
LINE
  5
7F4
330
1F
100
AcDbEntity
  8
0
100
AcDbLine
 10
8.925202104748588
 20
4.323070797624747
 30
0.0
 11
8.925202104748588
 21
4.362087797624749
 31
0.0
  0
LINE
  5
7F5
330
1F
100
AcDbEntity
  8
0
100
AcDbLine
 10
8.823131104748583
 20
4.362087797624749
 30
0.0
 11
8.823131104748583
 21
4.323070797624747
 31
0.0
  0
LINE
  5
7F6
330
1F
100
AcDbEntity
  8
0
100
AcDbLine
 10
9.125202104748584
 20
4.323070797624747
 30
0.0
 11
9.125202104748584
 21
4.362087797624749
 31
0.0
  0
LINE
  5
7F7
330
1F
100
AcDbEntity
  8
0
100
AcDbLine
 10
9.023131104748582
 20
4.362087797624749
 30
0.0
 11
9.023131104748582
 21
4.323070797624747
 31
0.0
  0
LINE
  5
7F8
330
1F
100
AcDbEntity
  8
0
100
AcDbLine
 10
9.325202104748587
 20
4.323070797624747
 30
0.0
 11
9.325202104748587
 21
4.362087797624749
 31
0.0
  0
LINE
  5
7F9
330
1F
100
AcDbEntity
  8
0
100
AcDbLine
 10
9.223131104748585
 20
4.362087797624749
 30
0.0
 11
9.223131104748585
 21
4.323070797624747
 31
0.0
  0
LINE
  5
7FA
330
1F
100
AcDbEntity
  8
0
100
AcDbLine
 10
8.576498104748583
 20
3.935244797624747
 30
0.0
 11
8.576498104748583
 21
4.361778797624747
 31
0.0
  0
LINE
  5
7FC
330
1F
100
AcDbEntity
  8
0
100
AcDbLine
 10
9.298975104748581
 20
3.873869797624749
 30
0.0
 11
9.449246104748585
 21
3.873869797624749
 31
0.0
  0
LINE
  5
7FD
330
1F
100
AcDbEntity
  8
0
100
AcDbLine
 10
6.872928104748582
 20
3.818896797624748
 30
0.0
 11
9.467166104748582
 21
3.818896797624748
 31
0.0
  0
LINE
  5
7FE
330
1F
100
AcDbEntity
  8
0
100
AcDbLine
 10
6.872928104748582
 20
3.490806797624749
 30
0.0
 11
9.47005410474858
 21
3.490806797624749
 31
0.0
  0
LINE
  5
7FF
330
1F
100
AcDbEntity
  8
0
100
AcDbLine
 10
6.872928104748582
 20
3.593364797624747
 30
0.0
 11
9.467166104748582
 21
3.593364797624747
 31
0.0
  0
LINE
  5
800
330
1F
100
AcDbEntity
  8
0
100
AcDbLine
 10
9.271154104748585
 20
3.929087797624749
 30
0.0
 11
9.271154104748585
 21
3.490806797624749
 31
0.0
  0
LINE
  5
802
330
1F
100
AcDbEntity
  8
0
100
AcDbLine
 10
8.676498104748581
 20
3.489637797624748
 30
0.0
 11
8.676498104748581
 21
3.930545797624748
 31
0.0
  0
LINE
  5
803
330
1F
100
AcDbEntity
  8
0
100
AcDbLine
 10
8.425490104748586
 20
4.323070797624747
 30
0.0
 11
8.527561104748581
 21
4.323070797624747
 31
0.0
  0
LINE
  5
804
330
1F
100
AcDbEntity
  8
0
100
AcDbLine
 10
8.225490104748587
 20
4.323070797624747
 30
0.0
 11
8.327561104748582
 21
4.323070797624747
 31
0.0
  0
LINE
  5
805
330
1F
100
AcDbEntity
  8
0
100
AcDbLine
 10
8.501334104748586
 20
3.819452797624748
 30
0.0
 11
8.501334104748586
 21
3.873869797624749
 31
0.0
  0
LINE
  5
806
330
1F
100
AcDbEntity
  8
0
100
AcDbLine
 10
8.451605104748583
 20
3.873869797624749
 30
0.0
 11
8.451605104748583
 21
3.819452797624748
 31
0.0
  0
LINE
  5
807
330
1F
100
AcDbEntity
  8
0
100
AcDbLine
 10
8.301334104748587
 20
3.819452797624748
 30
0.0
 11
8.301334104748587
 21
3.873869797624749
 31
0.0
  0
LINE
  5
808
330
1F
100
AcDbEntity
  8
0
100
AcDbLine
 10
8.251605104748584
 20
3.873869797624749
 30
0.0
 11
8.251605104748584
 21
3.819452797624748
 31
0.0
  0
LINE
  5
809
330
1F
100
AcDbEntity
  8
0
100
AcDbLine
 10
8.301334104748587
 20
3.873869797624749
 30
0.0
 11
8.451605104748583
 21
3.873869797624749
 31
0.0
  0
LINE
  5
80A
330
1F
100
AcDbEntity
  8
0
100
AcDbLine
 10
8.025490104748588
 20
4.323070797624747
 30
0.0
 11
8.127561104748583
 21
4.323070797624747
 31
0.0
  0
LINE
  5
80B
330
1F
100
AcDbEntity
  8
0
100
AcDbLine
 10
7.825490104748586
 20
4.323070797624747
 30
0.0
 11
7.927561104748584
 21
4.323070797624747
 31
0.0
  0
LINE
  5
80C
330
1F
100
AcDbEntity
  8
0
100
AcDbLine
 10
8.101334104748588
 20
3.819452797624748
 30
0.0
 11
8.101334104748588
 21
3.873869797624749
 31
0.0
  0
LINE
  5
80D
330
1F
100
AcDbEntity
  8
0
100
AcDbLine
 10
8.051605104748581
 20
3.873869797624749
 30
0.0
 11
8.051605104748581
 21
3.819452797624748
 31
0.0
  0
LINE
  5
80E
330
1F
100
AcDbEntity
  8
0
100
AcDbLine
 10
7.901334104748589
 20
3.819452797624748
 30
0.0
 11
7.901334104748589
 21
3.873869797624749
 31
0.0
  0
LINE
  5
80F
330
1F
100
AcDbEntity
  8
0
100
AcDbLine
 10
7.851605104748583
 20
3.873869797624749
 30
0.0
 11
7.851605104748583
 21
3.819452797624748
 31
0.0
  0
LINE
  5
810
330
1F
100
AcDbEntity
  8
0
100
AcDbLine
 10
7.901334104748589
 20
3.873869797624749
 30
0.0
 11
8.051605104748581
 21
3.873869797624749
 31
0.0
  0
LINE
  5
811
330
1F
100
AcDbEntity
  8
0
100
AcDbLine
 10
8.101334104748588
 20
3.873869797624749
 30
0.0
 11
8.251605104748584
 21
3.873869797624749
 31
0.0
  0
LINE
  5
812
330
1F
100
AcDbEntity
  8
0
100
AcDbLine
 10
8.425490104748586
 20
4.362087797624749
 30
0.0
 11
8.425490104748586
 21
4.323070797624747
 31
0.0
  0
LINE
  5
813
330
1F
100
AcDbEntity
  8
0
100
AcDbLine
 10
8.527561104748581
 20
4.323070797624747
 30
0.0
 11
8.527561104748581
 21
4.362087797624749
 31
0.0
  0
LINE
  5
814
330
1F
100
AcDbEntity
  8
0
100
AcDbLine
 10
8.225490104748587
 20
4.362087797624749
 30
0.0
 11
8.225490104748587
 21
4.323070797624747
 31
0.0
  0
LINE
  5
815
330
1F
100
AcDbEntity
  8
0
100
AcDbLine
 10
8.327561104748582
 20
4.323070797624747
 30
0.0
 11
8.327561104748582
 21
4.362087797624749
 31
0.0
  0
LINE
  5
816
330
1F
100
AcDbEntity
  8
0
100
AcDbLine
 10
8.025490104748588
 20
4.362087797624749
 30
0.0
 11
8.025490104748588
 21
4.323070797624747
 31
0.0
  0
LINE
  5
817
330
1F
100
AcDbEntity
  8
0
100
AcDbLine
 10
8.127561104748583
 20
4.323070797624747
 30
0.0
 11
8.127561104748583
 21
4.362087797624749
 31
0.0
  0
LINE
  5
818
330
1F
100
AcDbEntity
  8
0
100
AcDbLine
 10
7.825490104748586
 20
4.362087797624749
 30
0.0
 11
7.825490104748586
 21
4.323070797624747
 31
0.0
  0
LINE
  5
819
330
1F
100
AcDbEntity
  8
0
100
AcDbLine
 10
7.927561104748584
 20
4.323070797624747
 30
0.0
 11
7.927561104748584
 21
4.362087797624749
 31
0.0
  0
LINE
  5
81A
330
1F
100
AcDbEntity
  8
0
100
AcDbLine
 10
7.727561104748585
 20
4.323070797624747
 30
0.0
 11
7.727561104748585
 21
4.362087797624749
 31
0.0
  0
LINE
  5
81B
330
1F
100
AcDbEntity
  8
0
100
AcDbLine
 10
7.975308104748585
 20
3.935244797624747
 30
0.0
 11
7.975308104748585
 21
4.361778797624747
 31
0.0
  0
LINE
  5
81C
330
1F
100
AcDbEntity
  8
0
100
AcDbLine
 10
7.425490104748587
 20
4.323070797624747
 30
0.0
 11
7.527561104748582
 21
4.323070797624747
 31
0.0
  0
LINE
  5
81D
330
1F
100
AcDbEntity
  8
0
100
AcDbLine
 10
7.701334104748586
 20
3.819452797624748
 30
0.0
 11
7.701334104748586
 21
3.873869797624749
 31
0.0
  0
LINE
  5
81E
330
1F
100
AcDbEntity
  8
0
100
AcDbLine
 10
7.651605104748584
 20
3.873869797624749
 30
0.0
 11
7.651605104748584
 21
3.819452797624748
 31
0.0
  0
LINE
  5
81F
330
1F
100
AcDbEntity
  8
0
100
AcDbLine
 10
7.501334104748587
 20
3.819452797624748
 30
0.0
 11
7.501334104748587
 21
3.873869797624749
 31
0.0
  0
LINE
  5
820
330
1F
100
AcDbEntity
  8
0
100
AcDbLine
 10
7.451605104748584
 20
3.873869797624749
 30
0.0
 11
7.451605104748584
 21
3.819452797624748
 31
0.0
  0
LINE
  5
821
330
1F
100
AcDbEntity
  8
0
100
AcDbLine
 10
7.301334104748588
 20
3.873869797624749
 30
0.0
 11
7.451605104748584
 21
3.873869797624749
 31
0.0
  0
LINE
  5
822
330
1F
100
AcDbEntity
  8
0
100
AcDbLine
 10
7.301334104748588
 20
3.819452797624748
 30
0.0
 11
7.301334104748588
 21
3.873869797624749
 31
0.0
  0
LINE
  5
823
330
1F
100
AcDbEntity
  8
0
100
AcDbLine
 10
7.501334104748587
 20
3.873869797624749
 30
0.0
 11
7.651605104748584
 21
3.873869797624749
 31
0.0
  0
LINE
  5
824
330
1F
100
AcDbEntity
  8
0
100
AcDbLine
 10
7.022080104748583
 20
4.323070797624747
 30
0.0
 11
7.124151104748585
 21
4.323070797624747
 31
0.0
  0
LINE
  5
825
330
1F
100
AcDbEntity
  8
0
100
AcDbLine
 10
7.097924104748583
 20
3.873869797624749
 30
0.0
 11
7.248195104748586
 21
3.873869797624749
 31
0.0
  0
LINE
  5
826
330
1F
100
AcDbEntity
  8
0
100
AcDbLine
 10
7.097924104748583
 20
3.819452797624748
 30
0.0
 11
7.097924104748583
 21
3.873869797624749
 31
0.0
  0
LINE
  5
827
330
1F
100
AcDbEntity
  8
0
100
AcDbLine
 10
7.248195104748586
 20
3.873869797624749
 30
0.0
 11
7.248195104748586
 21
3.819452797624748
 31
0.0
  0
LINE
  5
828
330
1F
100
AcDbEntity
  8
0
100
AcDbLine
 10
6.897924104748583
 20
3.873869797624749
 30
0.0
 11
7.048195104748587
 21
3.873869797624749
 31
0.0
  0
LINE
  5
829
330
1F
100
AcDbEntity
  8
0
100
AcDbLine
 10
6.897924104748583
 20
3.819452797624748
 30
0.0
 11
6.897924104748583
 21
3.873869797624749
 31
0.0
  0
LINE
  5
82A
330
1F
100
AcDbEntity
  8
0
100
AcDbLine
 10
7.048195104748587
 20
3.873869797624749
 30
0.0
 11
7.048195104748587
 21
3.819452797624748
 31
0.0
  0
LINE
  5
82B
330
1F
100
AcDbEntity
  8
0
100
AcDbLine
 10
7.225490104748588
 20
4.323070797624747
 30
0.0
 11
7.327561104748583
 21
4.323070797624747
 31
0.0
  0
LINE
  5
82C
330
1F
100
AcDbEntity
  8
0
100
AcDbLine
 10
7.371293104748585
 20
4.361841797624748
 30
0.0
 11
7.371293104748585
 21
3.934360797624748
 31
0.0
  0
LINE
  5
82D
330
1F
100
AcDbEntity
  8
0
100
AcDbLine
 10
6.924151104748585
 20
4.323070797624747
 30
0.0
 11
6.924151104748585
 21
4.362087797624749
 31
0.0
  0
LINE
  5
82E
330
1F
100
AcDbEntity
  8
0
100
AcDbLine
 10
7.124151104748585
 20
4.323070797624747
 30
0.0
 11
7.124151104748585
 21
4.362087797624749
 31
0.0
  0
LINE
  5
82F
330
1F
100
AcDbEntity
  8
0
100
AcDbLine
 10
7.022080104748583
 20
4.362087797624749
 30
0.0
 11
7.022080104748583
 21
4.323070797624747
 31
0.0
  0
LINE
  5
830
330
1F
100
AcDbEntity
  8
0
100
AcDbLine
 10
7.625490104748586
 20
4.362087797624749
 30
0.0
 11
7.625490104748586
 21
4.323070797624747
 31
0.0
  0
LINE
  5
831
330
1F
100
AcDbEntity
  8
0
100
AcDbLine
 10
7.425490104748587
 20
4.362087797624749
 30
0.0
 11
7.425490104748587
 21
4.323070797624747
 31
0.0
  0
LINE
  5
832
330
1F
100
AcDbEntity
  8
0
100
AcDbLine
 10
7.527561104748582
 20
4.323070797624747
 30
0.0
 11
7.527561104748582
 21
4.362087797624749
 31
0.0
  0
LINE
  5
833
330
1F
100
AcDbEntity
  8
0
100
AcDbLine
 10
7.327561104748583
 20
4.323070797624747
 30
0.0
 11
7.327561104748583
 21
4.362087797624749
 31
0.0
  0
LINE
  5
834
330
1F
100
AcDbEntity
  8
0
100
AcDbLine
 10
7.225490104748588
 20
4.362087797624749
 30
0.0
 11
7.225490104748588
 21
4.323070797624747
 31
0.0
  0
LINE
  5
835
330
1F
100
AcDbEntity
  8
0
100
AcDbLine
 10
7.625490104748586
 20
4.323070797624747
 30
0.0
 11
7.727561104748585
 21
4.323070797624747
 31
0.0
  0
LINE
  5
836
330
1F
100
AcDbEntity
  8
0
100
AcDbLine
 10
7.701334104748586
 20
3.873869797624749
 30
0.0
 11
7.851605104748583
 21
3.873869797624749
 31
0.0
  0
CIRCLE
  5
837
330
1F
100
AcDbEntity
  8
0
100
AcDbCircle
 10
6.968477104748587
 20
3.690682797624749
 30
0.0
 40
0.075
  0
CIRCLE
  5
838
330
1F
100
AcDbEntity
  8
0
100
AcDbCircle
 10
6.968036104748585
 20
3.690065797624747
 30
0.0
 40
0.06629
  0
LINE
  5
839
330
1F
100
AcDbEntity
  8
0
100
AcDbLine
 10
6.912234104748589
 20
3.654281797624747
 30
0.0
 11
7.007617104748583
 21
3.743242797624748
 31
0.0
  0
LINE
  5
83A
330
1F
100
AcDbEntity
  8
0
100
AcDbLine
 10
6.927874104748583
 20
3.637326797624748
 30
0.0
 11
7.023443104748584
 21
3.726459797624748
 31
0.0
  0
LINE
  5
83B
330
1F
100
AcDbEntity
  8
0
100
AcDbLine
 10
6.872928104748582
 20
3.490806797624749
 30
0.0
 11
6.872928104748582
 21
3.930545797624748
 31
0.0
  0
LINE
  5
83C
330
1F
100
AcDbEntity
  8
0
100
AcDbLine
 10
8.075308104748586
 20
3.489637797624748
 30
0.0
 11
8.075308104748586
 21
3.930545797624748
 31
0.0
  0
LINE
  5
83D
330
1F
100
AcDbEntity
  8
0
100
AcDbLine
 10
7.470238104748585
 20
3.931249797624747
 30
0.0
 11
7.470238104748585
 21
3.491147797624748
 31
0.0
  0
LINE
  5
83E
330
1F
100
AcDbEntity
  8
0
100
AcDbLine
 10
6.77292810474858
 20
3.931793797624749
 30
0.0
 11
6.77292810474858
 21
4.361841797624748
 31
0.0
  0
LINE
  5
83F
330
1F
100
AcDbEntity
  8
0
100
AcDbLine
 10
6.822080104748583
 20
4.362087797624749
 30
0.0
 11
6.822080104748583
 21
4.323070797624747
 31
0.0
  0
LINE
  5
840
330
1F
100
AcDbEntity
  8
0
100
AcDbLine
 10
6.827874104748585
 20
4.078313797624748
 30
0.0
 11
6.923443104748582
 21
4.167446797624748
 31
0.0
  0
LINE
  5
841
330
1F
100
AcDbEntity
  8
0
100
AcDbLine
 10
6.812234104748587
 20
4.095268797624747
 30
0.0
 11
6.907617104748582
 21
4.184229797624748
 31
0.0
  0
CIRCLE
  5
842
330
1F
100
AcDbEntity
  8
0
100
AcDbCircle
 10
6.868036104748584
 20
4.131052797624748
 30
0.0
 40
0.06629
  0
CIRCLE
  5
843
330
1F
100
AcDbEntity
  8
0
100
AcDbCircle
 10
6.868477104748586
 20
4.131669797624748
 30
0.0
 40
0.075
  0
LINE
  5
844
330
1F
100
AcDbEntity
  8
0
100
AcDbLine
 10
6.822080104748583
 20
4.323070797624747
 30
0.0
 11
6.924151104748585
 21
4.323070797624747
 31
0.0
  0
LINE
  5
845
330
1F
100
AcDbEntity
  8
0
100
AcDbLine
 10
8.501334104748586
 20
3.873869797624749
 30
0.0
 11
8.651605104748583
 21
3.873869797624749
 31
0.0
  0
ARC
  5
846
330
1F
100
AcDbEntity
  8
0
100
AcDbCircle
 10
9.101612161095015
 20
6.102010797624748
 30
0.0
 40
0.04
100
AcDbArc
 50
0.0
 51
90.0
  0
TEXT
  5
847
330
1F
100
AcDbEntity
  8
0
100
AcDbText
 10
8.814257161095017
 20
6.015750797624749
 30
0.0
 40
0.1
  1
26
  7
ROMANS
100
AcDbText
  0
LINE
  5
848
330
1F
100
AcDbEntity
  8
0
100
AcDbLine
 10
9.091887161095012
 20
5.833382797624748
 30
0.0
 11
9.130467161095015
 21
5.907418797624748
 31
0.0
  0
LINE
  5
849
330
1F
100
AcDbEntity
  8
0
100
AcDbLine
 10
9.130467161095015
 20
5.907418797624748
 30
0.0
 11
9.091762161095015
 21
5.980448797624749
 31
0.0
  0
CIRCLE
  5
84A
330
1F
100
AcDbEntity
  8
0
100
AcDbCircle
 10
9.040682161095016
 20
5.907418797624748
 30
0.0
 40
0.034
  0
LINE
  5
84C
330
1F
100
AcDbEntity
  8
0
100
AcDbLine
 10
8.98909716109502
 20
5.980494797624746
 30
0.0
 11
8.950415161095019
 21
5.907169797624748
 31
0.0
  0
LINE
  5
84D
330
1F
100
AcDbEntity
  8
0
100
AcDbLine
 10
8.950415161095019
 20
5.907169797624748
 30
0.0
 11
8.98909716109502
 21
5.833382797624748
 31
0.0
  0
LINE
  5
852
330
1F
100
AcDbEntity
  8
0
100
AcDbLine
 10
9.091887161095012
 20
5.833382797624748
 30
0.0
 11
8.98909716109502
 21
5.833382797624748
 31
0.0
  0
LINE
  5
853
330
1F
100
AcDbEntity
  8
0
100
AcDbLine
 10
9.092204161095015
 20
5.980494797624746
 30
0.0
 11
8.98909716109502
 21
5.980494797624746
 31
0.0
  0
ARC
  5
854
330
1F
100
AcDbEntity
  8
0
100
AcDbCircle
 10
9.101612161095015
 20
5.712328797624749
 30
0.0
 40
0.04
100
AcDbArc
 50
270.0
 51
0.0
  0
LINE
  5
856
330
1F
100
AcDbEntity
  8
0
100
AcDbLine
 10
9.141612161095014
 20
5.712328797624749
 30
0.0
 11
9.141612161095014
 21
6.102010797624748
 31
0.0
  0
ARC
  5
86F
330
1F
100
AcDbEntity
  8
0
100
AcDbCircle
 10
7.404526161095017
 20
6.102010797624748
 30
0.0
 40
0.04
100
AcDbArc
 50
90.0
 51
180.0
  0
CIRCLE
  5
870
330
1F
100
AcDbEntity
  8
0
100
AcDbCircle
 10
7.464520161095016
 20
5.907418797624748
 30
0.0
 40
0.034
  0
LINE
  5
871
330
1F
100
AcDbEntity
  8
0
100
AcDbLine
 10
7.554305161095015
 20
5.907418797624748
 30
0.0
 11
7.515600161095015
 21
5.980448797624749
 31
0.0
  0
LINE
  5
872
330
1F
100
AcDbEntity
  8
0
100
AcDbLine
 10
7.515725161095016
 20
5.833382797624748
 30
0.0
 11
7.554305161095015
 21
5.907418797624748
 31
0.0
  0
LINE
  5
873
330
1F
100
AcDbEntity
  8
0
100
AcDbLine
 10
7.516042161095015
 20
5.980494797624746
 30
0.0
 11
7.412935161095013
 21
5.980494797624746
 31
0.0
  0
LINE
  5
874
330
1F
100
AcDbEntity
  8
0
100
AcDbLine
 10
7.515725161095016
 20
5.833382797624748
 30
0.0
 11
7.412935161095013
 21
5.833382797624748
 31
0.0
  0
TEXT
  5
875
330
1F
100
AcDbEntity
  8
0
100
AcDbText
 10
7.522061161095013
 20
6.00728979762475
 30
0.0
 40
0.1
  1
19
  7
ROMANS
100
AcDbText
  0
LINE
  5
876
330
1F
100
AcDbEntity
  8
0
100
AcDbLine
 10
7.374253161095019
 20
5.907169797624748
 30
0.0
 11
7.412935161095013
 21
5.833382797624748
 31
0.0
  0
LINE
  5
877
330
1F
100
AcDbEntity
  8
0
100
AcDbLine
 10
7.412935161095013
 20
5.980494797624746
 30
0.0
 11
7.374253161095019
 21
5.907169797624748
 31
0.0
  0
TEXT
  5
878
330
1F
100
AcDbEntity
  8
0
100
AcDbText
 10
7.639885161095016
 20
5.516142797624748
 30
0.0
 40
0.1
  1
1
  7
ROMANS
100
AcDbText
  0
ARC
  5
879
330
1F
100
AcDbEntity
  8
0
100
AcDbCircle
 10
7.404526161095017
 20
5.712328797624749
 30
0.0
 40
0.04
100
AcDbArc
 50
180.0
 51
270.0
  0
LINE
  5
87A
330
1F
100
AcDbEntity
  8
0
100
AcDbLine
 10
7.364526161095017
 20
6.102010797624748
 30
0.0
 11
7.364526161095017
 21
5.712328797624749
 31
0.0
  0
LINE
  5
883
330
1F
100
AcDbEntity
  8
0
100
AcDbLine
 10
8.560802917269921
 20
4.590513193639996
 30
0.0
 11
8.560802917269921
 21
5.025599784323372
 31
0.0
  0
LINE
  5
884
330
1F
100
AcDbEntity
  8
0
100
AcDbLine
 10
8.400853793833451
 20
5.025599784323372
 30
0.0
 11
8.400853793833451
 21
4.590513193639996
 31
0.0
  0
LINE
  5
885
330
1F
100
AcDbEntity
  8
0
100
AcDbLine
 10
8.664692569940552
 20
3.289076945656614
 30
0.0
 11
8.664692569940552
 21
3.416076945656609
 31
0.0
  0
LINE
  5
887
330
1F
100
AcDbEntity
  8
0
100
AcDbLine
 10
7.106393161095017
 20
3.28907694565661
 30
0.0
 11
7.106393161095017
 21
3.416076945656609
 31
0.0
  0
LINE
  5
888
330
1F
100
AcDbEntity
  8
0
100
AcDbLine
 10
6.708492943653567
 20
3.416076945656612
 30
0.0
 11
6.708492943653567
 21
3.921123650001224
 31
0.0
  0
LINE
  5
889
330
1F
100
AcDbEntity
  8
0
100
AcDbLine
 10
6.763492943653567
 20
3.921123650001224
 30
0.0
 11
6.708492943653567
 21
3.921123650001224
 31
0.0
  0
LINE
  5
88A
330
1F
100
AcDbEntity
  8
0
100
AcDbLine
 10
6.763492943653567
 20
3.921123650001224
 30
0.0
 11
6.763492943653567
 21
5.682076945656611
 31
0.0
  0
LINE
  5
88B
330
1F
100
AcDbEntity
  8
0
100
AcDbLine
 10
6.763492943653567
 20
5.682076945656611
 30
0.0
 11
6.708492943653567
 21
5.682076945656611
 31
0.0
  0
CIRCLE
  5
88C
330
1F
100
AcDbEntity
  8
0
100
AcDbCircle
 10
9.36367745209321
 20
3.690682523881104
 30
0.0
 40
0.075
  0
CIRCLE
  5
88D
330
1F
100
AcDbEntity
  8
0
100
AcDbCircle
 10
9.363236461423976
 20
3.690065542863127
 30
0.0
 40
0.0662902360756252
  0
LINE
  5
88E
330
1F
100
AcDbEntity
  8
0
100
AcDbLine
 10
9.323074184036048
 20
3.637326687415004
 30
0.0
 11
9.418642868029177
 21
3.726459574050419
 31
0.0
  0
LINE
  5
88F
330
1F
100
AcDbEntity
  8
0
100
AcDbLine
 10
9.307433649525233
 20
3.65428228444308
 30
0.0
 11
9.402817038787897
 21
3.74324235448719
 31
0.0
  0
LINE
  5
890
330
1F
100
AcDbEntity
  8
0
100
AcDbLine
 10
9.223074184036068
 20
4.078313685689231
 30
0.0
 11
9.318642868029154
 21
4.16744657232461
 31
0.0
  0
LINE
  5
891
330
1F
100
AcDbEntity
  8
0
100
AcDbLine
 10
9.207433649525253
 20
4.095269282717307
 30
0.0
 11
9.302817038787882
 21
4.184229352761381
 31
0.0
  0
CIRCLE
  5
892
330
1F
100
AcDbEntity
  8
0
100
AcDbCircle
 10
9.263677452093208
 20
4.131669522155313
 30
0.0
 40
0.075
  0
CIRCLE
  5
893
330
1F
100
AcDbEntity
  8
0
100
AcDbCircle
 10
9.263236461423975
 20
4.131052541137336
 30
0.0
 40
0.0662902360756252
  0
CIRCLE
  5
894
330
1F
100
AcDbEntity
  8
0
100
AcDbCircle
 10
9.164077452093206
 20
3.690682523881104
 30
0.0
 40
0.075
  0
CIRCLE
  5
895
330
1F
100
AcDbEntity
  8
0
100
AcDbCircle
 10
9.163636461423973
 20
3.690065542863127
 30
0.0
 40
0.0662902360756252
  0
LINE
  5
896
330
1F
100
AcDbEntity
  8
0
100
AcDbLine
 10
9.123474184036052
 20
3.637326687415004
 30
0.0
 11
9.219042868029173
 21
3.726459574050419
 31
0.0
  0
LINE
  5
897
330
1F
100
AcDbEntity
  8
0
100
AcDbLine
 10
9.107833649525229
 20
3.65428228444308
 30
0.0
 11
9.203217038787901
 21
3.74324235448719
 31
0.0
  0
LINE
  5
898
330
1F
100
AcDbEntity
  8
0
100
AcDbLine
 10
9.023474184036071
 20
4.078313685689231
 30
0.0
 11
9.119042868029158
 21
4.16744657232461
 31
0.0
  0
LINE
  5
899
330
1F
100
AcDbEntity
  8
0
100
AcDbLine
 10
9.007833649525249
 20
4.095269282717307
 30
0.0
 11
9.103217038787878
 21
4.184229352761381
 31
0.0
  0
CIRCLE
  5
89A
330
1F
100
AcDbEntity
  8
0
100
AcDbCircle
 10
9.064077452093204
 20
4.131669522155313
 30
0.0
 40
0.075
  0
CIRCLE
  5
89B
330
1F
100
AcDbEntity
  8
0
100
AcDbCircle
 10
9.063636461423971
 20
4.131052541137336
 30
0.0
 40
0.0662902360756252
  0
CIRCLE
  5
89C
330
1F
100
AcDbEntity
  8
0
100
AcDbCircle
 10
8.964477452093209
 20
3.690682523881104
 30
0.0
 40
0.075
  0
CIRCLE
  5
89D
330
1F
100
AcDbEntity
  8
0
100
AcDbCircle
 10
8.964036461423976
 20
3.690065542863127
 30
0.0
 40
0.0662902360756252
  0
LINE
  5
89E
330
1F
100
AcDbEntity
  8
0
100
AcDbLine
 10
8.923874184036055
 20
3.637326687415004
 30
0.0
 11
9.019442868029177
 21
3.726459574050419
 31
0.0
  0
LINE
  5
89F
330
1F
100
AcDbEntity
  8
0
100
AcDbLine
 10
8.908233649525232
 20
3.65428228444308
 30
0.0
 11
9.003617038787897
 21
3.74324235448719
 31
0.0
  0
LINE
  5
8A0
330
1F
100
AcDbEntity
  8
0
100
AcDbLine
 10
8.823874184036075
 20
4.078313685689231
 30
0.0
 11
8.919442868029161
 21
4.16744657232461
 31
0.0
  0
LINE
  5
8A1
330
1F
100
AcDbEntity
  8
0
100
AcDbLine
 10
8.808233649525252
 20
4.095269282717307
 30
0.0
 11
8.903617038787881
 21
4.184229352761381
 31
0.0
  0
CIRCLE
  5
8A2
330
1F
100
AcDbEntity
  8
0
100
AcDbCircle
 10
8.864477452093208
 20
4.131669522155313
 30
0.0
 40
0.075
  0
CIRCLE
  5
8A3
330
1F
100
AcDbEntity
  8
0
100
AcDbCircle
 10
8.864036461423975
 20
4.131052541137336
 30
0.0
 40
0.0662902360756252
  0
CIRCLE
  5
8A4
330
1F
100
AcDbEntity
  8
0
100
AcDbCircle
 10
8.764877452093205
 20
3.690682523881104
 30
0.0
 40
0.075
  0
CIRCLE
  5
8A5
330
1F
100
AcDbEntity
  8
0
100
AcDbCircle
 10
8.764436461423972
 20
3.690065542863127
 30
0.0
 40
0.0662902360756252
  0
LINE
  5
8A6
330
1F
100
AcDbEntity
  8
0
100
AcDbLine
 10
8.724274184036051
 20
3.637326687415004
 30
0.0
 11
8.819842868029173
 21
3.726459574050419
 31
0.0
  0
LINE
  5
8A7
330
1F
100
AcDbEntity
  8
0
100
AcDbLine
 10
8.708633649525229
 20
3.65428228444308
 30
0.0
 11
8.8040170387879
 21
3.74324235448719
 31
0.0
  0
LINE
  5
8A8
330
1F
100
AcDbEntity
  8
0
100
AcDbLine
 10
8.624274184036071
 20
4.078313685689231
 30
0.0
 11
8.719842868029157
 21
4.16744657232461
 31
0.0
  0
LINE
  5
8A9
330
1F
100
AcDbEntity
  8
0
100
AcDbLine
 10
8.608633649525248
 20
4.095269282717307
 30
0.0
 11
8.704017038787878
 21
4.184229352761381
 31
0.0
  0
CIRCLE
  5
8AA
330
1F
100
AcDbEntity
  8
0
100
AcDbCircle
 10
8.664877452093211
 20
4.131669522155313
 30
0.0
 40
0.075
  0
CIRCLE
  5
8AB
330
1F
100
AcDbEntity
  8
0
100
AcDbCircle
 10
8.664436461423978
 20
4.131052541137336
 30
0.0
 40
0.0662902360756252
  0
CIRCLE
  5
8AC
330
1F
100
AcDbEntity
  8
0
100
AcDbCircle
 10
8.565277452093209
 20
3.690682523881104
 30
0.0
 40
0.075
  0
CIRCLE
  5
8AD
330
1F
100
AcDbEntity
  8
0
100
AcDbCircle
 10
8.564836461423976
 20
3.690065542863127
 30
0.0
 40
0.0662902360756252
  0
LINE
  5
8AE
330
1F
100
AcDbEntity
  8
0
100
AcDbLine
 10
8.524674184036054
 20
3.637326687415004
 30
0.0
 11
8.620242868029176
 21
3.726459574050419
 31
0.0
  0
LINE
  5
8AF
330
1F
100
AcDbEntity
  8
0
100
AcDbLine
 10
8.509033649525232
 20
3.65428228444308
 30
0.0
 11
8.604417038787897
 21
3.74324235448719
 31
0.0
  0
LINE
  5
8B0
330
1F
100
AcDbEntity
  8
0
100
AcDbLine
 10
8.424674184036074
 20
4.078313685689231
 30
0.0
 11
8.520242868029161
 21
4.16744657232461
 31
0.0
  0
LINE
  5
8B1
330
1F
100
AcDbEntity
  8
0
100
AcDbLine
 10
8.409033649525252
 20
4.095269282717307
 30
0.0
 11
8.504417038787881
 21
4.184229352761381
 31
0.0
  0
CIRCLE
  5
8B2
330
1F
100
AcDbEntity
  8
0
100
AcDbCircle
 10
8.465277452093207
 20
4.131669522155313
 30
0.0
 40
0.075
  0
CIRCLE
  5
8B3
330
1F
100
AcDbEntity
  8
0
100
AcDbCircle
 10
8.464836461423974
 20
4.131052541137336
 30
0.0
 40
0.0662902360756252
  0
CIRCLE
  5
8B4
330
1F
100
AcDbEntity
  8
0
100
AcDbCircle
 10
8.365677452093205
 20
3.690682523881104
 30
0.0
 40
0.075
  0
CIRCLE
  5
8B5
330
1F
100
AcDbEntity
  8
0
100
AcDbCircle
 10
8.365236461423972
 20
3.690065542863127
 30
0.0
 40
0.0662902360756252
  0
LINE
  5
8B6
330
1F
100
AcDbEntity
  8
0
100
AcDbLine
 10
8.325074184036051
 20
3.637326687415004
 30
0.0
 11
8.420642868029172
 21
3.726459574050419
 31
0.0
  0
LINE
  5
8B7
330
1F
100
AcDbEntity
  8
0
100
AcDbLine
 10
8.309433649525228
 20
3.65428228444308
 30
0.0
 11
8.4048170387879
 21
3.74324235448719
 31
0.0
  0
LINE
  5
8B8
330
1F
100
AcDbEntity
  8
0
100
AcDbLine
 10
8.225074184036071
 20
4.078313685689231
 30
0.0
 11
8.320642868029157
 21
4.16744657232461
 31
0.0
  0
LINE
  5
8B9
330
1F
100
AcDbEntity
  8
0
100
AcDbLine
 10
8.209433649525248
 20
4.095269282717307
 30
0.0
 11
8.304817038787877
 21
4.184229352761381
 31
0.0
  0
CIRCLE
  5
8BA
330
1F
100
AcDbEntity
  8
0
100
AcDbCircle
 10
8.265677452093211
 20
4.131669522155313
 30
0.0
 40
0.075
  0
CIRCLE
  5
8BB
330
1F
100
AcDbEntity
  8
0
100
AcDbCircle
 10
8.265236461423977
 20
4.131052541137336
 30
0.0
 40
0.0662902360756252
  0
CIRCLE
  5
8BC
330
1F
100
AcDbEntity
  8
0
100
AcDbCircle
 10
8.166077452093208
 20
3.690682523881104
 30
0.0
 40
0.075
  0
CIRCLE
  5
8BD
330
1F
100
AcDbEntity
  8
0
100
AcDbCircle
 10
8.165636461423975
 20
3.690065542863127
 30
0.0
 40
0.0662902360756252
  0
LINE
  5
8BE
330
1F
100
AcDbEntity
  8
0
100
AcDbLine
 10
8.125474184036054
 20
3.637326687415004
 30
0.0
 11
8.221042868029176
 21
3.726459574050419
 31
0.0
  0
LINE
  5
8BF
330
1F
100
AcDbEntity
  8
0
100
AcDbLine
 10
8.109833649525231
 20
3.65428228444308
 30
0.0
 11
8.205217038787896
 21
3.74324235448719
 31
0.0
  0
LINE
  5
8C0
330
1F
100
AcDbEntity
  8
0
100
AcDbLine
 10
8.025474184036074
 20
4.078313685689231
 30
0.0
 11
8.12104286802916
 21
4.16744657232461
 31
0.0
  0
LINE
  5
8C1
330
1F
100
AcDbEntity
  8
0
100
AcDbLine
 10
8.009833649525251
 20
4.095269282717307
 30
0.0
 11
8.105217038787881
 21
4.184229352761381
 31
0.0
  0
CIRCLE
  5
8C2
330
1F
100
AcDbEntity
  8
0
100
AcDbCircle
 10
8.066077452093207
 20
4.131669522155313
 30
0.0
 40
0.075
  0
CIRCLE
  5
8C3
330
1F
100
AcDbEntity
  8
0
100
AcDbCircle
 10
8.065636461423974
 20
4.131052541137336
 30
0.0
 40
0.0662902360756252
  0
CIRCLE
  5
8C4
330
1F
100
AcDbEntity
  8
0
100
AcDbCircle
 10
7.966477452093205
 20
3.690682523881104
 30
0.0
 40
0.075
  0
CIRCLE
  5
8C5
330
1F
100
AcDbEntity
  8
0
100
AcDbCircle
 10
7.966036461423972
 20
3.690065542863127
 30
0.0
 40
0.0662902360756252
  0
LINE
  5
8C6
330
1F
100
AcDbEntity
  8
0
100
AcDbLine
 10
7.925874184036051
 20
3.637326687415004
 30
0.0
 11
8.021442868029179
 21
3.726459574050419
 31
0.0
  0
LINE
  5
8C7
330
1F
100
AcDbEntity
  8
0
100
AcDbLine
 10
7.910233649525229
 20
3.65428228444308
 30
0.0
 11
8.005617038787899
 21
3.74324235448719
 31
0.0
  0
LINE
  5
8C8
330
1F
100
AcDbEntity
  8
0
100
AcDbLine
 10
7.825874184036071
 20
4.078313685689231
 30
0.0
 11
7.921442868029157
 21
4.16744657232461
 31
0.0
  0
LINE
  5
8C9
330
1F
100
AcDbEntity
  8
0
100
AcDbLine
 10
7.810233649525248
 20
4.095269282717307
 30
0.0
 11
7.905617038787878
 21
4.184229352761381
 31
0.0
  0
CIRCLE
  5
8CA
330
1F
100
AcDbEntity
  8
0
100
AcDbCircle
 10
7.866477452093211
 20
4.131669522155313
 30
0.0
 40
0.075
  0
CIRCLE
  5
8CB
330
1F
100
AcDbEntity
  8
0
100
AcDbCircle
 10
7.866036461423978
 20
4.131052541137336
 30
0.0
 40
0.0662902360756252
  0
CIRCLE
  5
8CC
330
1F
100
AcDbEntity
  8
0
100
AcDbCircle
 10
7.766877452093209
 20
3.690682523881104
 30
0.0
 40
0.075
  0
CIRCLE
  5
8CD
330
1F
100
AcDbEntity
  8
0
100
AcDbCircle
 10
7.766436461423976
 20
3.690065542863127
 30
0.0
 40
0.0662902360756252
  0
LINE
  5
8CE
330
1F
100
AcDbEntity
  8
0
100
AcDbLine
 10
7.726274184036054
 20
3.637326687415004
 30
0.0
 11
7.821842868029176
 21
3.726459574050419
 31
0.0
  0
LINE
  5
8CF
330
1F
100
AcDbEntity
  8
0
100
AcDbLine
 10
7.710633649525232
 20
3.65428228444308
 30
0.0
 11
7.806017038787897
 21
3.74324235448719
 31
0.0
  0
LINE
  5
8D0
330
1F
100
AcDbEntity
  8
0
100
AcDbLine
 10
7.626274184036074
 20
4.078313685689231
 30
0.0
 11
7.721842868029161
 21
4.16744657232461
 31
0.0
  0
LINE
  5
8D1
330
1F
100
AcDbEntity
  8
0
100
AcDbLine
 10
7.610633649525252
 20
4.095269282717307
 30
0.0
 11
7.706017038787881
 21
4.184229352761381
 31
0.0
  0
CIRCLE
  5
8D2
330
1F
100
AcDbEntity
  8
0
100
AcDbCircle
 10
7.666877452093207
 20
4.131669522155313
 30
0.0
 40
0.075
  0
CIRCLE
  5
8D3
330
1F
100
AcDbEntity
  8
0
100
AcDbCircle
 10
7.666436461423974
 20
4.131052541137336
 30
0.0
 40
0.0662902360756252
  0
CIRCLE
  5
8D4
330
1F
100
AcDbEntity
  8
0
100
AcDbCircle
 10
7.567277452093205
 20
3.690682523881104
 30
0.0
 40
0.075
  0
CIRCLE
  5
8D5
330
1F
100
AcDbEntity
  8
0
100
AcDbCircle
 10
7.566836461423972
 20
3.690065542863127
 30
0.0
 40
0.0662902360756252
  0
LINE
  5
8D6
330
1F
100
AcDbEntity
  8
0
100
AcDbLine
 10
7.526674184036051
 20
3.637326687415004
 30
0.0
 11
7.62224286802918
 21
3.726459574050419
 31
0.0
  0
LINE
  5
8D7
330
1F
100
AcDbEntity
  8
0
100
AcDbLine
 10
7.511033649525228
 20
3.65428228444308
 30
0.0
 11
7.6064170387879
 21
3.74324235448719
 31
0.0
  0
LINE
  5
8D8
330
1F
100
AcDbEntity
  8
0
100
AcDbLine
 10
7.426674184036071
 20
4.078313685689231
 30
0.0
 11
7.522242868029157
 21
4.16744657232461
 31
0.0
  0
LINE
  5
8D9
330
1F
100
AcDbEntity
  8
0
100
AcDbLine
 10
7.411033649525248
 20
4.095269282717307
 30
0.0
 11
7.506417038787877
 21
4.184229352761381
 31
0.0
  0
CIRCLE
  5
8DA
330
1F
100
AcDbEntity
  8
0
100
AcDbCircle
 10
7.467277452093211
 20
4.131669522155313
 30
0.0
 40
0.075
  0
CIRCLE
  5
8DB
330
1F
100
AcDbEntity
  8
0
100
AcDbCircle
 10
7.466836461423977
 20
4.131052541137336
 30
0.0
 40
0.0662902360756252
  0
CIRCLE
  5
8DC
330
1F
100
AcDbEntity
  8
0
100
AcDbCircle
 10
7.367677452093208
 20
3.690682523881104
 30
0.0
 40
0.075
  0
CIRCLE
  5
8DD
330
1F
100
AcDbEntity
  8
0
100
AcDbCircle
 10
7.367236461423975
 20
3.690065542863127
 30
0.0
 40
0.0662902360756252
  0
LINE
  5
8DE
330
1F
100
AcDbEntity
  8
0
100
AcDbLine
 10
7.327074184036054
 20
3.637326687415004
 30
0.0
 11
7.422642868029176
 21
3.726459574050419
 31
0.0
  0
LINE
  5
8DF
330
1F
100
AcDbEntity
  8
0
100
AcDbLine
 10
7.311433649525231
 20
3.65428228444308
 30
0.0
 11
7.406817038787903
 21
3.74324235448719
 31
0.0
  0
LINE
  5
8E0
330
1F
100
AcDbEntity
  8
0
100
AcDbLine
 10
7.227074184036074
 20
4.078313685689231
 30
0.0
 11
7.32264286802916
 21
4.16744657232461
 31
0.0
  0
LINE
  5
8E1
330
1F
100
AcDbEntity
  8
0
100
AcDbLine
 10
7.211433649525251
 20
4.095269282717307
 30
0.0
 11
7.306817038787881
 21
4.184229352761381
 31
0.0
  0
CIRCLE
  5
8E2
330
1F
100
AcDbEntity
  8
0
100
AcDbCircle
 10
7.267677452093207
 20
4.131669522155313
 30
0.0
 40
0.075
  0
CIRCLE
  5
8E3
330
1F
100
AcDbEntity
  8
0
100
AcDbCircle
 10
7.267236461423974
 20
4.131052541137336
 30
0.0
 40
0.0662902360756252
  0
CIRCLE
  5
8E4
330
1F
100
AcDbEntity
  8
0
100
AcDbCircle
 10
7.168077452093212
 20
3.690682523881104
 30
0.0
 40
0.075
  0
CIRCLE
  5
8E5
330
1F
100
AcDbEntity
  8
0
100
AcDbCircle
 10
7.167636461423978
 20
3.690065542863127
 30
0.0
 40
0.0662902360756252
  0
LINE
  5
8E6
330
1F
100
AcDbEntity
  8
0
100
AcDbLine
 10
7.12747418403605
 20
3.637326687415004
 30
0.0
 11
7.223042868029179
 21
3.726459574050419
 31
0.0
  0
LINE
  5
8E7
330
1F
100
AcDbEntity
  8
0
100
AcDbLine
 10
7.111833649525235
 20
3.65428228444308
 30
0.0
 11
7.207217038787899
 21
3.74324235448719
 31
0.0
  0
LINE
  5
8E8
330
1F
100
AcDbEntity
  8
0
100
AcDbLine
 10
7.02747418403607
 20
4.078313685689231
 30
0.0
 11
7.123042868029156
 21
4.16744657232461
 31
0.0
  0
LINE
  5
8E9
330
1F
100
AcDbEntity
  8
0
100
AcDbLine
 10
7.011833649525248
 20
4.095269282717307
 30
0.0
 11
7.107217038787884
 21
4.184229352761381
 31
0.0
  0
CIRCLE
  5
8EA
330
1F
100
AcDbEntity
  8
0
100
AcDbCircle
 10
7.06807745209321
 20
4.131669522155313
 30
0.0
 40
0.075
  0
CIRCLE
  5
8EB
330
1F
100
AcDbEntity
  8
0
100
AcDbCircle
 10
7.067636461423977
 20
4.131052541137336
 30
0.0
 40
0.0662902360756252
  0
LINE
  5
8EC
330
1F
100
AcDbEntity
  8
0
100
AcDbLine
 10
9.449246542106688
 20
3.873870058771707
 30
0.0
 11
9.449246542106688
 21
3.819452571208184
 31
0.0
  0
LINE
  5
8ED
330
1F
100
AcDbEntity
  8
0
100
AcDbLine
 10
6.772927922335786
 20
4.361841653575694
 30
0.0
 11
9.570054565462589
 21
4.361841653575686
 31
0.0
  0
LINE
  5
8EE
330
1F
100
AcDbEntity
  8
0
100
AcDbLine
 10
9.223131304569211
 20
4.323071017432859
 30
0.0
 11
9.325202132799294
 21
4.323071017432859
 31
0.0
  0
LINE
  5
8EF
330
1F
100
AcDbEntity
  8
0
100
AcDbLine
 10
9.023131304569208
 20
4.323071017432859
 30
0.0
 11
9.125202132799298
 21
4.323071017432859
 31
0.0
  0
LINE
  5
8F0
330
1F
100
AcDbEntity
  8
0
100
AcDbLine
 10
9.249246542106686
 20
3.873870058771707
 30
0.0
 11
9.249246542106686
 21
3.819452571208184
 31
0.0
  0
LINE
  5
8F1
330
1F
100
AcDbEntity
  8
0
100
AcDbLine
 10
9.298975600545734
 20
3.819452571208184
 30
0.0
 11
9.298975600545734
 21
3.873870058771707
 31
0.0
  0
LINE
  5
8F2
330
1F
100
AcDbEntity
  8
0
100
AcDbLine
 10
9.370054565462584
 20
3.934360902498251
 30
0.0
 11
9.370054565462584
 21
3.931794039877335
 31
0.0
  0
LINE
  5
8F3
330
1F
100
AcDbEntity
  8
0
100
AcDbLine
 10
9.04924654210669
 20
3.873870058771707
 30
0.0
 11
9.04924654210669
 21
3.819452571208184
 31
0.0
  0
LINE
  5
8F4
330
1F
100
AcDbEntity
  8
0
100
AcDbLine
 10
9.098975600545731
 20
3.819452571208184
 30
0.0
 11
9.098975600545731
 21
3.873870058771707
 31
0.0
  0
LINE
  5
8F5
330
1F
100
AcDbEntity
  8
0
100
AcDbLine
 10
9.098975600545731
 20
3.873870058771707
 30
0.0
 11
9.249246542106686
 21
3.873870058771707
 31
0.0
  0
LINE
  5
8F6
330
1F
100
AcDbEntity
  8
0
100
AcDbLine
 10
8.823131304569212
 20
4.323071017432859
 30
0.0
 11
8.925202132799295
 21
4.323071017432859
 31
0.0
  0
LINE
  5
8F7
330
1F
100
AcDbEntity
  8
0
100
AcDbLine
 10
8.62549016708434
 20
4.323071017432859
 30
0.0
 11
8.727560995314423
 21
4.323071017432859
 31
0.0
  0
LINE
  5
8F8
330
1F
100
AcDbEntity
  8
0
100
AcDbLine
 10
8.851605404621817
 20
3.873870058771707
 30
0.0
 11
8.851605404621817
 21
3.819452571208184
 31
0.0
  0
LINE
  5
8F9
330
1F
100
AcDbEntity
  8
0
100
AcDbLine
 10
8.898975600545728
 20
3.819452571208184
 30
0.0
 11
8.898975600545728
 21
3.873870058771707
 31
0.0
  0
LINE
  5
8FA
330
1F
100
AcDbEntity
  8
0
100
AcDbLine
 10
8.701334463060863
 20
3.819452571208184
 30
0.0
 11
8.701334463060863
 21
3.873870058771707
 31
0.0
  0
LINE
  5
8FB
330
1F
100
AcDbEntity
  8
0
100
AcDbLine
 10
8.651605404621815
 20
3.873870058771707
 30
0.0
 11
8.651605404621815
 21
3.819452571208184
 31
0.0
  0
LINE
  5
8FC
330
1F
100
AcDbEntity
  8
0
100
AcDbLine
 10
8.701334463060863
 20
3.873870058771707
 30
0.0
 11
8.851605404621817
 21
3.873870058771707
 31
0.0
  0
LINE
  5
8FD
330
1F
100
AcDbEntity
  8
0
100
AcDbLine
 10
8.898975600545728
 20
3.873870058771707
 30
0.0
 11
9.04924654210669
 21
3.873870058771707
 31
0.0
  0
LINE
  5
8FE
330
1F
100
AcDbEntity
  8
0
100
AcDbLine
 10
6.772927922335786
 20
3.931794039877331
 30
0.0
 11
9.670055002820685
 21
3.931794039877331
 31
0.0
  0
LINE
  5
8FF
330
1F
100
AcDbEntity
  8
0
100
AcDbLine
 10
6.772927922335786
 20
4.259883576888785
 30
0.0
 11
9.570054565462589
 21
4.259883576888786
 31
0.0
  0
LINE
  5
900
330
1F
100
AcDbEntity
  8
0
100
AcDbLine
 10
6.772927922335786
 20
4.034352137502509
 30
0.0
 11
9.570054565462589
 21
4.034352137502505
 31
0.0
  0
LINE
  5
901
330
1F
100
AcDbEntity
  8
0
100
AcDbLine
 10
8.62549016708434
 20
4.362087329270856
 30
0.0
 11
8.62549016708434
 21
4.323071017432859
 31
0.0
  0
LINE
  5
902
330
1F
100
AcDbEntity
  8
0
100
AcDbLine
 10
8.727560995314423
 20
4.323071017432859
 30
0.0
 11
8.727560995314423
 21
4.362087329270856
 31
0.0
  0
LINE
  5
904
330
1F
100
AcDbEntity
  8
0
100
AcDbLine
 10
8.925202132799295
 20
4.323071017432859
 30
0.0
 11
8.925202132799295
 21
4.362087329270856
 31
0.0
  0
LINE
  5
905
330
1F
100
AcDbEntity
  8
0
100
AcDbLine
 10
8.823131304569212
 20
4.362087329270856
 30
0.0
 11
8.823131304569212
 21
4.323071017432859
 31
0.0
  0
LINE
  5
906
330
1F
100
AcDbEntity
  8
0
100
AcDbLine
 10
9.125202132799298
 20
4.323071017432859
 30
0.0
 11
9.125202132799298
 21
4.362087329270856
 31
0.0
  0
LINE
  5
907
330
1F
100
AcDbEntity
  8
0
100
AcDbLine
 10
9.023131304569208
 20
4.362087329270856
 30
0.0
 11
9.023131304569208
 21
4.323071017432859
 31
0.0
  0
LINE
  5
908
330
1F
100
AcDbEntity
  8
0
100
AcDbLine
 10
9.325202132799294
 20
4.323071017432859
 30
0.0
 11
9.325202132799294
 21
4.362087329270856
 31
0.0
  0
LINE
  5
909
330
1F
100
AcDbEntity
  8
0
100
AcDbLine
 10
9.223131304569211
 20
4.362087329270856
 30
0.0
 11
9.223131304569211
 21
4.323071017432859
 31
0.0
  0
LINE
  5
90A
330
1F
100
AcDbEntity
  8
0
100
AcDbLine
 10
8.57649814840354
 20
3.935245080503435
 30
0.0
 11
8.57649814840354
 21
4.361778306041451
 31
0.0
  0
LINE
  5
90C
330
1F
100
AcDbEntity
  8
0
100
AcDbLine
 10
9.298975600545734
 20
3.873870058771707
 30
0.0
 11
9.449246542106688
 21
3.873870058771707
 31
0.0
  0
LINE
  5
90D
330
1F
100
AcDbEntity
  8
0
100
AcDbLine
 10
6.87292792233578
 20
3.818896578614577
 30
0.0
 11
9.670055002820685
 21
3.81889657861458
 31
0.0
  0
LINE
  5
90E
330
1F
100
AcDbEntity
  8
0
100
AcDbLine
 10
6.872927922335787
 20
3.490807041603126
 30
0.0
 11
9.670055002820685
 21
3.490807041603123
 31
0.0
  0
LINE
  5
90F
330
1F
100
AcDbEntity
  8
0
100
AcDbLine
 10
6.872927922335787
 20
3.593365139228293
 30
0.0
 11
9.670055002820685
 21
3.593365139228296
 31
0.0
  0
LINE
  5
912
330
1F
100
AcDbEntity
  8
0
100
AcDbLine
 10
8.676498148403535
 20
3.489637729511567
 30
0.0
 11
8.676498148403535
 21
3.930545385726741
 31
0.0
  0
LINE
  5
913
330
1F
100
AcDbEntity
  8
0
100
AcDbLine
 10
8.425490167084337
 20
4.323071017432859
 30
0.0
 11
8.527560995314427
 21
4.323071017432859
 31
0.0
  0
LINE
  5
914
330
1F
100
AcDbEntity
  8
0
100
AcDbLine
 10
8.225490167084341
 20
4.323071017432859
 30
0.0
 11
8.327560995314424
 21
4.323071017432859
 31
0.0
  0
LINE
  5
915
330
1F
100
AcDbEntity
  8
0
100
AcDbLine
 10
8.50133446306086
 20
3.819452571208184
 30
0.0
 11
8.50133446306086
 21
3.873870058771707
 31
0.0
  0
LINE
  5
916
330
1F
100
AcDbEntity
  8
0
100
AcDbLine
 10
8.451605404621819
 20
3.873870058771707
 30
0.0
 11
8.451605404621819
 21
3.819452571208184
 31
0.0
  0
LINE
  5
917
330
1F
100
AcDbEntity
  8
0
100
AcDbLine
 10
8.301334463060864
 20
3.819452571208184
 30
0.0
 11
8.301334463060864
 21
3.873870058771707
 31
0.0
  0
LINE
  5
918
330
1F
100
AcDbEntity
  8
0
100
AcDbLine
 10
8.251605404621816
 20
3.873870058771707
 30
0.0
 11
8.251605404621816
 21
3.819452571208184
 31
0.0
  0
LINE
  5
919
330
1F
100
AcDbEntity
  8
0
100
AcDbLine
 10
8.301334463060864
 20
3.873870058771707
 30
0.0
 11
8.451605404621819
 21
3.873870058771707
 31
0.0
  0
LINE
  5
91A
330
1F
100
AcDbEntity
  8
0
100
AcDbLine
 10
8.025490167084338
 20
4.323071017432859
 30
0.0
 11
8.127560995314428
 21
4.323071017432859
 31
0.0
  0
LINE
  5
91B
330
1F
100
AcDbEntity
  8
0
100
AcDbLine
 10
7.825490167084343
 20
4.323071017432859
 30
0.0
 11
7.927560995314427
 21
4.323071017432859
 31
0.0
  0
LINE
  5
91C
330
1F
100
AcDbEntity
  8
0
100
AcDbLine
 10
8.101334463060862
 20
3.819452571208184
 30
0.0
 11
8.101334463060862
 21
3.873870058771707
 31
0.0
  0
LINE
  5
91D
330
1F
100
AcDbEntity
  8
0
100
AcDbLine
 10
8.05160540462182
 20
3.873870058771707
 30
0.0
 11
8.05160540462182
 21
3.819452571208184
 31
0.0
  0
LINE
  5
91E
330
1F
100
AcDbEntity
  8
0
100
AcDbLine
 10
7.90133446306086
 20
3.819452571208184
 30
0.0
 11
7.90133446306086
 21
3.873870058771707
 31
0.0
  0
LINE
  5
91F
330
1F
100
AcDbEntity
  8
0
100
AcDbLine
 10
7.851605404621818
 20
3.873870058771707
 30
0.0
 11
7.851605404621818
 21
3.819452571208184
 31
0.0
  0
LINE
  5
920
330
1F
100
AcDbEntity
  8
0
100
AcDbLine
 10
7.90133446306086
 20
3.873870058771707
 30
0.0
 11
8.05160540462182
 21
3.873870058771707
 31
0.0
  0
LINE
  5
921
330
1F
100
AcDbEntity
  8
0
100
AcDbLine
 10
8.101334463060862
 20
3.873870058771707
 30
0.0
 11
8.251605404621816
 21
3.873870058771707
 31
0.0
  0
LINE
  5
922
330
1F
100
AcDbEntity
  8
0
100
AcDbLine
 10
8.425490167084337
 20
4.362087329270856
 30
0.0
 11
8.425490167084337
 21
4.323071017432859
 31
0.0
  0
LINE
  5
923
330
1F
100
AcDbEntity
  8
0
100
AcDbLine
 10
8.527560995314427
 20
4.323071017432859
 30
0.0
 11
8.527560995314427
 21
4.362087329270856
 31
0.0
  0
LINE
  5
924
330
1F
100
AcDbEntity
  8
0
100
AcDbLine
 10
8.225490167084341
 20
4.362087329270856
 30
0.0
 11
8.225490167084341
 21
4.323071017432859
 31
0.0
  0
LINE
  5
925
330
1F
100
AcDbEntity
  8
0
100
AcDbLine
 10
8.327560995314424
 20
4.323071017432859
 30
0.0
 11
8.327560995314424
 21
4.362087329270856
 31
0.0
  0
LINE
  5
926
330
1F
100
AcDbEntity
  8
0
100
AcDbLine
 10
8.025490167084338
 20
4.362087329270856
 30
0.0
 11
8.025490167084338
 21
4.323071017432859
 31
0.0
  0
LINE
  5
927
330
1F
100
AcDbEntity
  8
0
100
AcDbLine
 10
8.127560995314428
 20
4.323071017432859
 30
0.0
 11
8.127560995314428
 21
4.362087329270856
 31
0.0
  0
LINE
  5
928
330
1F
100
AcDbEntity
  8
0
100
AcDbLine
 10
7.825490167084343
 20
4.362087329270856
 30
0.0
 11
7.825490167084343
 21
4.323071017432859
 31
0.0
  0
LINE
  5
929
330
1F
100
AcDbEntity
  8
0
100
AcDbLine
 10
7.927560995314427
 20
4.323071017432859
 30
0.0
 11
7.927560995314427
 21
4.362087329270856
 31
0.0
  0
LINE
  5
92A
330
1F
100
AcDbEntity
  8
0
100
AcDbLine
 10
7.727560995314424
 20
4.323071017432859
 30
0.0
 11
7.727560995314424
 21
4.362087329270856
 31
0.0
  0
LINE
  5
92B
330
1F
100
AcDbEntity
  8
0
100
AcDbLine
 10
7.975308073047618
 20
3.935245080503435
 30
0.0
 11
7.975308073047618
 21
4.361778306041451
 31
0.0
  0
LINE
  5
92C
330
1F
100
AcDbEntity
  8
0
100
AcDbLine
 10
7.425490167084338
 20
4.323071017432859
 30
0.0
 11
7.527560995314428
 21
4.323071017432859
 31
0.0
  0
LINE
  5
92D
330
1F
100
AcDbEntity
  8
0
100
AcDbLine
 10
7.701334463060864
 20
3.819452571208184
 30
0.0
 11
7.701334463060864
 21
3.873870058771707
 31
0.0
  0
LINE
  5
92E
330
1F
100
AcDbEntity
  8
0
100
AcDbLine
 10
7.651605404621816
 20
3.873870058771707
 30
0.0
 11
7.651605404621816
 21
3.819452571208184
 31
0.0
  0
LINE
  5
92F
330
1F
100
AcDbEntity
  8
0
100
AcDbLine
 10
7.501334463060861
 20
3.819452571208184
 30
0.0
 11
7.501334463060861
 21
3.873870058771707
 31
0.0
  0
LINE
  5
930
330
1F
100
AcDbEntity
  8
0
100
AcDbLine
 10
7.45160540462182
 20
3.873870058771707
 30
0.0
 11
7.45160540462182
 21
3.819452571208184
 31
0.0
  0
LINE
  5
931
330
1F
100
AcDbEntity
  8
0
100
AcDbLine
 10
7.301334463060858
 20
3.873870058771707
 30
0.0
 11
7.45160540462182
 21
3.873870058771707
 31
0.0
  0
LINE
  5
932
330
1F
100
AcDbEntity
  8
0
100
AcDbLine
 10
7.301334463060858
 20
3.819452571208184
 30
0.0
 11
7.301334463060858
 21
3.873870058771707
 31
0.0
  0
LINE
  5
933
330
1F
100
AcDbEntity
  8
0
100
AcDbLine
 10
7.501334463060861
 20
3.873870058771707
 30
0.0
 11
7.651605404621816
 21
3.873870058771707
 31
0.0
  0
LINE
  5
934
330
1F
100
AcDbEntity
  8
0
100
AcDbLine
 10
7.022080036943823
 20
4.323071017432859
 30
0.0
 11
7.124150865173906
 21
4.323071017432859
 31
0.0
  0
LINE
  5
935
330
1F
100
AcDbEntity
  8
0
100
AcDbLine
 10
7.097924332920347
 20
3.873870058771707
 30
0.0
 11
7.248195274481301
 21
3.873870058771707
 31
0.0
  0
LINE
  5
936
330
1F
100
AcDbEntity
  8
0
100
AcDbLine
 10
7.097924332920347
 20
3.819452571208184
 30
0.0
 11
7.097924332920347
 21
3.873870058771707
 31
0.0
  0
LINE
  5
937
330
1F
100
AcDbEntity
  8
0
100
AcDbLine
 10
7.248195274481301
 20
3.873870058771707
 30
0.0
 11
7.248195274481301
 21
3.819452571208184
 31
0.0
  0
LINE
  5
938
330
1F
100
AcDbEntity
  8
0
100
AcDbLine
 10
6.897924332920344
 20
3.873870058771707
 30
0.0
 11
7.048195274481298
 21
3.873870058771707
 31
0.0
  0
LINE
  5
939
330
1F
100
AcDbEntity
  8
0
100
AcDbLine
 10
6.897924332920344
 20
3.819452571208184
 30
0.0
 11
6.897924332920344
 21
3.873870058771707
 31
0.0
  0
LINE
  5
93A
330
1F
100
AcDbEntity
  8
0
100
AcDbLine
 10
7.048195274481298
 20
3.873870058771707
 30
0.0
 11
7.048195274481298
 21
3.819452571208184
 31
0.0
  0
LINE
  5
93B
330
1F
100
AcDbEntity
  8
0
100
AcDbLine
 10
7.225490167084342
 20
4.323071017432859
 30
0.0
 11
7.327560995314425
 21
4.323071017432859
 31
0.0
  0
LINE
  5
93C
330
1F
100
AcDbEntity
  8
0
100
AcDbLine
 10
7.371292756487062
 20
4.361841653575691
 30
0.0
 11
7.371292756487062
 21
3.934360902498251
 31
0.0
  0
LINE
  5
93D
330
1F
100
AcDbEntity
  8
0
100
AcDbLine
 10
6.924150865173911
 20
4.323071017432859
 30
0.0
 11
6.924150865173911
 21
4.362087329270856
 31
0.0
  0
LINE
  5
93E
330
1F
100
AcDbEntity
  8
0
100
AcDbLine
 10
7.124150865173906
 20
4.323071017432859
 30
0.0
 11
7.124150865173906
 21
4.362087329270856
 31
0.0
  0
LINE
  5
93F
330
1F
100
AcDbEntity
  8
0
100
AcDbLine
 10
7.022080036943823
 20
4.362087329270856
 30
0.0
 11
7.022080036943823
 21
4.323071017432859
 31
0.0
  0
LINE
  5
940
330
1F
100
AcDbEntity
  8
0
100
AcDbLine
 10
7.625490167084341
 20
4.362087329270856
 30
0.0
 11
7.625490167084341
 21
4.323071017432859
 31
0.0
  0
LINE
  5
941
330
1F
100
AcDbEntity
  8
0
100
AcDbLine
 10
7.425490167084338
 20
4.362087329270856
 30
0.0
 11
7.425490167084338
 21
4.323071017432859
 31
0.0
  0
LINE
  5
942
330
1F
100
AcDbEntity
  8
0
100
AcDbLine
 10
7.527560995314428
 20
4.323071017432859
 30
0.0
 11
7.527560995314428
 21
4.362087329270856
 31
0.0
  0
LINE
  5
943
330
1F
100
AcDbEntity
  8
0
100
AcDbLine
 10
7.327560995314425
 20
4.323071017432859
 30
0.0
 11
7.327560995314425
 21
4.362087329270856
 31
0.0
  0
LINE
  5
944
330
1F
100
AcDbEntity
  8
0
100
AcDbLine
 10
7.225490167084342
 20
4.362087329270856
 30
0.0
 11
7.225490167084342
 21
4.323071017432859
 31
0.0
  0
LINE
  5
945
330
1F
100
AcDbEntity
  8
0
100
AcDbLine
 10
7.625490167084341
 20
4.323071017432859
 30
0.0
 11
7.727560995314424
 21
4.323071017432859
 31
0.0
  0
LINE
  5
946
330
1F
100
AcDbEntity
  8
0
100
AcDbLine
 10
7.701334463060864
 20
3.873870058771707
 30
0.0
 11
7.851605404621818
 21
3.873870058771707
 31
0.0
  0
CIRCLE
  5
947
330
1F
100
AcDbEntity
  8
0
100
AcDbCircle
 10
6.968477452093208
 20
3.690682523881104
 30
0.0
 40
0.075
  0
CIRCLE
  5
948
330
1F
100
AcDbEntity
  8
0
100
AcDbCircle
 10
6.968036461423975
 20
3.690065542863127
 30
0.0
 40
0.0662902360756252
  0
LINE
  5
949
330
1F
100
AcDbEntity
  8
0
100
AcDbLine
 10
6.912233649525231
 20
3.65428228444308
 30
0.0
 11
7.007617038787903
 21
3.74324235448719
 31
0.0
  0
LINE
  5
94A
330
1F
100
AcDbEntity
  8
0
100
AcDbLine
 10
6.927874184036054
 20
3.637326687415004
 30
0.0
 11
7.023442868029175
 21
3.726459574050419
 31
0.0
  0
LINE
  5
94B
330
1F
100
AcDbEntity
  8
0
100
AcDbLine
 10
6.872927922335787
 20
3.490807041603126
 30
0.0
 11
6.87292792233578
 21
3.930545385726741
 31
0.0
  0
LINE
  5
94C
330
1F
100
AcDbEntity
  8
0
100
AcDbLine
 10
8.075308073047619
 20
3.489637729511567
 30
0.0
 11
8.075308073047619
 21
3.930545385726741
 31
0.0
  0
LINE
  5
94D
330
1F
100
AcDbEntity
  8
0
100
AcDbLine
 10
7.470237869066932
 20
3.931250047823734
 30
0.0
 11
7.470237869066932
 21
3.491147727061882
 31
0.0
  0
LINE
  5
94E
330
1F
100
AcDbEntity
  8
0
100
AcDbLine
 10
6.772927922335786
 20
3.931794039877331
 30
0.0
 11
6.772927922335786
 21
4.361841653575694
 31
0.0
  0
LINE
  5
94F
330
1F
100
AcDbEntity
  8
0
100
AcDbLine
 10
6.822080036943821
 20
4.362087329270856
 30
0.0
 11
6.822080036943821
 21
4.323071017432859
 31
0.0
  0
LINE
  5
950
330
1F
100
AcDbEntity
  8
0
100
AcDbLine
 10
6.827874184036073
 20
4.078313685689231
 30
0.0
 11
6.92344286802916
 21
4.16744657232461
 31
0.0
  0
LINE
  5
951
330
1F
100
AcDbEntity
  8
0
100
AcDbLine
 10
6.812233649525251
 20
4.095269282717307
 30
0.0
 11
6.90761703878788
 21
4.184229352761381
 31
0.0
  0
CIRCLE
  5
952
330
1F
100
AcDbEntity
  8
0
100
AcDbCircle
 10
6.868036461423973
 20
4.131052541137336
 30
0.0
 40
0.0662902360756252
  0
CIRCLE
  5
953
330
1F
100
AcDbEntity
  8
0
100
AcDbCircle
 10
6.868477452093206
 20
4.131669522155313
 30
0.0
 40
0.075
  0
LINE
  5
954
330
1F
100
AcDbEntity
  8
0
100
AcDbLine
 10
6.822080036943821
 20
4.323071017432859
 30
0.0
 11
6.924150865173911
 21
4.323071017432859
 31
0.0
  0
LINE
  5
955
330
1F
100
AcDbEntity
  8
0
100
AcDbLine
 10
8.50133446306086
 20
3.873870058771707
 30
0.0
 11
8.651605404621815
 21
3.873870058771707
 31
0.0
  0
ARC
  5
956
330
1F
100
AcDbEntity
  8
0
100
AcDbCircle
 10
9.101612107391542
 20
6.102010350235701
 30
0.0
 40
0.04
100
AcDbArc
 50
0.0000000000001018
 51
90.0
  0
LINE
  5
958
330
1F
100
AcDbEntity
  8
0
100
AcDbLine
 10
9.091887322807874
 20
5.833382348588472
 30
0.0
 11
9.130467361220109
 21
5.907418758518744
 31
0.0
  0
LINE
  5
959
330
1F
100
AcDbEntity
  8
0
100
AcDbLine
 10
9.130467361220109
 20
5.907418758518744
 30
0.0
 11
9.091762501085415
 21
5.980449114700732
 31
0.0
  0
CIRCLE
  5
95A
330
1F
100
AcDbEntity
  8
0
100
AcDbCircle
 10
9.040682188118093
 20
5.907418758518744
 30
0.0
 40
0.034
  0
LINE
  5
95C
330
1F
100
AcDbEntity
  8
0
100
AcDbLine
 10
8.989096754626995
 20
5.980494844416565
 30
0.0
 11
8.950415472392602
 21
5.907169447449582
 31
0.0
  0
LINE
  5
95D
330
1F
100
AcDbEntity
  8
0
100
AcDbLine
 10
8.950415472392602
 20
5.907169447449582
 30
0.0
 11
8.989096754626995
 21
5.833382348588472
 31
0.0
  0
LINE
  5
962
330
1F
100
AcDbEntity
  8
0
100
AcDbLine
 10
9.091887322807874
 20
5.833382348588472
 30
0.0
 11
8.989096754626995
 21
5.833382348588472
 31
0.0
  0
LINE
  5
963
330
1F
100
AcDbEntity
  8
0
100
AcDbLine
 10
9.092204481543721
 20
5.980494844416565
 30
0.0
 11
8.989096754626995
 21
5.980494844416565
 31
0.0
  0
ARC
  5
964
330
1F
100
AcDbEntity
  8
0
100
AcDbCircle
 10
9.101612107391542
 20
5.712328544663463
 30
0.0
 40
0.04
100
AcDbArc
 50
270.0
 51
0.0
  0
TEXT
  5
965
330
1F
100
AcDbEntity
  8
0
100
AcDbText
 10
8.723960854149378
 20
5.52669496397246
 30
0.0
 40
0.1
  1
9
  7
ROMANS
100
AcDbText
  0
LINE
  5
966
330
1F
100
AcDbEntity
  8
0
100
AcDbLine
 10
9.141612107391541
 20
5.712328544663463
 30
0.0
 11
9.141612107391541
 21
6.102010350235701
 31
0.0
  0
ARC
  5
97F
330
1F
100
AcDbEntity
  8
0
100
AcDbCircle
 10
7.40452624067073
 20
6.102010350235701
 30
0.0
 40
0.04
100
AcDbArc
 50
90.0
 51
180.0
  0
CIRCLE
  5
980
330
1F
100
AcDbEntity
  8
0
100
AcDbCircle
 10
7.464520099806502
 20
5.907418758518744
 30
0.0
 40
0.034
  0
LINE
  5
981
330
1F
100
AcDbEntity
  8
0
100
AcDbLine
 10
7.554305272908518
 20
5.907418758518744
 30
0.0
 11
7.515600412773824
 21
5.980449114700732
 31
0.0
  0
LINE
  5
982
330
1F
100
AcDbEntity
  8
0
100
AcDbLine
 10
7.515725234496283
 20
5.833382348588472
 30
0.0
 11
7.554305272908518
 21
5.907418758518744
 31
0.0
  0
LINE
  5
983
330
1F
100
AcDbEntity
  8
0
100
AcDbLine
 10
7.51604239323213
 20
5.980494844416565
 30
0.0
 11
7.412934666315404
 21
5.980494844416565
 31
0.0
  0
LINE
  5
984
330
1F
100
AcDbEntity
  8
0
100
AcDbLine
 10
7.515725234496283
 20
5.833382348588472
 30
0.0
 11
7.412934666315404
 21
5.833382348588472
 31
0.0
  0
LINE
  5
986
330
1F
100
AcDbEntity
  8
0
100
AcDbLine
 10
7.374253384081011
 20
5.907169447449582
 30
0.0
 11
7.412934666315404
 21
5.833382348588472
 31
0.0
  0
LINE
  5
987
330
1F
100
AcDbEntity
  8
0
100
AcDbLine
 10
7.412934666315404
 20
5.980494844416565
 30
0.0
 11
7.374253384081011
 21
5.907169447449582
 31
0.0
  0
ARC
  5
989
330
1F
100
AcDbEntity
  8
0
100
AcDbCircle
 10
7.40452624067073
 20
5.712328544663463
 30
0.0
 40
0.04
100
AcDbArc
 50
180.0
 51
270.0
  0
LINE
  5
98A
330
1F
100
AcDbEntity
  8
0
100
AcDbLine
 10
7.364526240670731
 20
6.102010350235701
 30
0.0
 11
7.364526240670731
 21
5.712328544663463
 31
0.0
  0
LINE
  5
992
330
1F
100
AcDbEntity
  8
0
100
AcDbLine
 10
9.333793161095016
 20
6.192076797624748
 30
0.0
 11
9.333793161095016
 21
6.319076797624749
 31
0.0
  0
LINE
  5
993
330
1F
100
AcDbEntity
  8
0
100
AcDbLine
 10
8.664692161095015
 20
6.192076797624748
 30
0.0
 11
8.664692161095015
 21
6.319076797624749
 31
0.0
  0
LINE
  5
996
330
1F
100
AcDbEntity
  8
0
100
AcDbLine
 10
8.664692569940552
 20
6.192076945656614
 30
0.0
 11
8.664692569940552
 21
6.319076945656609
 31
0.0
  0
LINE
  5
997
330
1F
100
AcDbEntity
  8
0
100
AcDbLine
 10
7.106393161095017
 20
6.19207694565661
 30
0.0
 11
7.106393161095017
 21
6.319076945656609
 31
0.0
  0
LINE
  5
998
330
1F
100
AcDbEntity
  8
0
100
AcDbLine
 10
9.731693161095016
 20
5.682076797624748
 30
0.0
 11
9.731693161095016
 21
6.192076797624748
 31
0.0
  0
LINE
  5
999
330
1F
100
AcDbEntity
  8
0
100
AcDbLine
 10
9.776693161095018
 20
3.289076797624748
 30
0.0
 11
9.776693161095018
 21
6.319076797624749
 31
0.0
  0
LINE
  5
99A
330
1F
100
AcDbEntity
  8
0
100
AcDbLine
 10
9.731692943653563
 20
5.682076945656611
 30
0.0
 11
9.731692943653563
 21
6.192076945656612
 31
0.0
  0
LINE
  5
99E
330
1F
100
AcDbEntity
  8
0
100
AcDbLine
 10
9.515803161095021
 20
4.590512797624748
 30
0.0
 11
9.515803161095021
 21
5.025599797624748
 31
0.0
  0
LINE
  5
99F
330
1F
100
AcDbEntity
  8
0
100
AcDbLine
 10
9.675803161095018
 20
4.590512797624748
 30
0.0
 11
9.675803161095018
 21
5.025599797624748
 31
0.0
  0
LINE
  5
9A0
330
1F
100
AcDbEntity
  8
0
100
AcDbLine
 10
9.676693161095016
 20
3.926076797624748
 30
0.0
 11
9.731693161095016
 21
3.926076797624748
 31
0.0
  0
LINE
  5
9A1
330
1F
100
AcDbEntity
  8
0
100
AcDbLine
 10
9.676693161095016
 20
5.682076797624748
 30
0.0
 11
9.731693161095016
 21
5.682076797624748
 31
0.0
  0
LINE
  5
9A2
330
1F
100
AcDbEntity
  8
0
100
AcDbLine
 10
9.731693161095016
 20
3.416076797624748
 30
0.0
 11
9.731693161095016
 21
3.926076797624748
 31
0.0
  0
LINE
  5
9A3
330
1F
100
AcDbEntity
  8
0
100
AcDbLine
 10
9.676693161095016
 20
3.926076797624748
 30
0.0
 11
9.676693161095016
 21
5.682076797624748
 31
0.0
  0
LINE
  5
9A4
330
1F
100
AcDbEntity
  8
0
100
AcDbLine
 10
9.776573161095015
 20
3.405612797624748
 30
0.0
 11
9.776573161095015
 21
3.406488797624749
 31
0.0
  0
LINE
  5
9A5
330
1F
100
AcDbEntity
  8
0
100
AcDbLine
 10
9.776573161095015
 20
3.405612797624748
 30
0.0
 11
9.776573161095015
 21
3.405861797624748
 31
0.0
  0
LINE
  5
9A8
330
1F
100
AcDbEntity
  8
0
100
AcDbLine
 10
9.515802917269923
 20
4.590513193639996
 30
0.0
 11
9.515802917269923
 21
5.025599784323372
 31
0.0
  0
LINE
  5
9A9
330
1F
100
AcDbEntity
  8
0
100
AcDbLine
 10
9.675802917269919
 20
4.590513193639996
 30
0.0
 11
9.675802917269919
 21
5.025599784323379
 31
0.0
  0
LINE
  5
9AA
330
1F
100
AcDbEntity
  8
0
100
AcDbLine
 10
9.676692943653563
 20
3.926076945656614
 30
0.0
 11
9.731692943653563
 21
3.926076945656614
 31
0.0
  0
LINE
  5
9AB
330
1F
100
AcDbEntity
  8
0
100
AcDbLine
 10
9.676692943653563
 20
5.682076945656611
 30
0.0
 11
9.731692943653563
 21
5.682076945656611
 31
0.0
  0
LINE
  5
9AC
330
1F
100
AcDbEntity
  8
0
100
AcDbLine
 10
9.731692943653563
 20
3.416076945656612
 30
0.0
 11
9.731692943653563
 21
3.926076945656614
 31
0.0
  0
LINE
  5
9AD
330
1F
100
AcDbEntity
  8
0
100
AcDbLine
 10
9.676692943653563
 20
3.926076945656614
 30
0.0
 11
9.676692943653563
 21
5.682076945656611
 31
0.0
  0
LINE
  5
9AE
330
1F
100
AcDbEntity
  8
0
100
AcDbLine
 10
9.776573335781151
 20
3.405612781934568
 30
0.0
 11
9.776573335781151
 21
3.406488907761247
 31
0.0
  0
LINE
  5
9AF
330
1F
100
AcDbEntity
  8
0
100
AcDbLine
 10
9.776573335781151
 20
3.405612781934568
 30
0.0
 11
9.776573335781151
 21
3.405861551721489
 31
0.0
  0
LWPOLYLINE
  5
A92
330
1F
100
AcDbEntity
  8
0
  6
L0
 62
     2
100
AcDbPolyline
 90
        2
 70
     0
 43
0.0
 10
8.638285558348037
 20
6.085656803429579
 10
7.909998558348029
 20
6.085656803429579
  0
LWPOLYLINE
  5
A93
330
1F
100
AcDbEntity
  8
0
  6
L0
 62
     2
100
AcDbPolyline
 90
        2
 70
     0
 43
0.0
 10
8.638285558348037
 20
6.068656803429583
 10
7.909998558348029
 20
6.068656803429583
  0
LWPOLYLINE
  5
A94
330
1F
100
AcDbEntity
  8
0
  6
L0
 62
     2
100
AcDbPolyline
 90
        2
 70
     0
 43
0.0
 10
8.665350558348031
 20
5.717656803429584
 10
7.879924558348015
 20
5.717656803429584
  0
LWPOLYLINE
  5
A95
330
1F
100
AcDbEntity
  8
0
  6
L0
 62
     2
100
AcDbPolyline
 90
        2
 70
     0
 43
0.0
 10
8.665350558348031
 20
5.734656803429579
 10
7.879924558348015
 20
5.734657803429605
  0
LWPOLYLINE
  5
A96
330
1F
100
AcDbEntity
  8
0
  6
L0
 62
     2
100
AcDbPolyline
 90
        2
 70
     0
 43
0.0
 10
8.665350558348031
 20
5.717656803429584
 42
0.4623840000000001
 10
8.765034558348027
 20
5.834909803429588
  0
LWPOLYLINE
  5
A97
330
1F
100
AcDbEntity
  8
0
  6
L0
 62
     2
100
AcDbPolyline
 90
        2
 70
     0
 43
0.0
 10
8.665350558348031
 20
5.734656803429579
 42
0.4623850000000001
 10
8.748256558348039
 20
5.832173803429589
  0
LWPOLYLINE
  5
A98
330
1F
100
AcDbEntity
  8
0
  6
L0
 62
     2
100
AcDbPolyline
 90
        2
 70
     0
 43
0.0
 10
8.737969558348034
 20
6.000909803429585
 42
0.367631
 10
8.638285558348037
 20
6.085656803429579
  0
LWPOLYLINE
  5
A99
330
1F
100
AcDbEntity
  8
0
  6
L0
 62
     2
100
AcDbPolyline
 90
        2
 70
     0
 43
0.0
 10
8.721190558348048
 20
5.998173803429586
 42
0.367631
 10
8.638285558348037
 20
6.068656803429583
  0
LWPOLYLINE
  5
A9A
330
1F
100
AcDbEntity
  8
0
  6
L0
 62
     2
100
AcDbPolyline
 90
        2
 70
     0
 43
0.0
 10
8.765034558348027
 20
5.834909803429588
 10
8.737969558348034
 20
6.000909803429585
  0
LWPOLYLINE
  5
A9B
330
1F
100
AcDbEntity
  8
0
  6
L0
 62
     2
100
AcDbPolyline
 90
        2
 70
     0
 43
0.0
 10
8.748255558348041
 20
5.832173803429589
 10
8.721190558348048
 20
5.998173803429586
  0
LWPOLYLINE
  5
A9C
330
1F
100
AcDbEntity
  8
0
  6
L0
 62
     2
100
AcDbPolyline
 90
        2
 70
     0
 43
0.0
 10
7.780542558348024
 20
5.836661803429599
 42
0.467738
 10
7.879924558348015
 20
5.717656803429584
  0
LWPOLYLINE
  5
A9D
330
1F
100
AcDbEntity
  8
0
  6
L0
 62
     2
100
AcDbPolyline
 90
        2
 70
     0
 43
0.0
 10
7.797269558348027
 20
5.833631803429604
 42
0.467737
 10
7.879924558348015
 20
5.734656803429579
  0
LWPOLYLINE
  5
A9E
330
1F
100
AcDbEntity
  8
0
  6
L0
 62
     2
100
AcDbPolyline
 90
        2
 70
     0
 43
0.0
 10
7.780542558348024
 20
5.836661803429599
 10
7.810616558348037
 20
6.002661803429596
  0
LWPOLYLINE
  5
A9F
330
1F
100
AcDbEntity
  8
0
  6
L0
 62
     2
100
AcDbPolyline
 90
        2
 70
     0
 43
0.0
 10
7.797269558348027
 20
5.833631803429604
 10
7.827344558348038
 20
5.999631803429601
  0
LWPOLYLINE
  5
AA0
330
1F
100
AcDbEntity
  8
0
  6
L0
 62
     2
100
AcDbPolyline
 90
        2
 70
     0
 43
0.0
 10
7.909998558348029
 20
6.085656803429579
 42
0.362643
 10
7.810616558348037
 20
6.002661803429596
  0
LWPOLYLINE
  5
AA1
330
1F
100
AcDbEntity
  8
0
  6
L0
 62
     2
100
AcDbPolyline
 90
        2
 70
     0
 43
0.0
 10
7.909998558348029
 20
6.068656803429583
 42
0.362643
 10
7.82734355834804
 20
5.999630803429603
  0
CIRCLE
  5
AA2
330
1F
100
AcDbEntity
  8
0
100
AcDbCircle
 10
8.202313334562298
 20
5.984263856265961
 30
0.0
 40
0.02077621
  0
CIRCLE
  5
AA3
330
1F
100
AcDbEntity
  8
0
100
AcDbCircle
 10
8.202313334562298
 20
5.806880416265961
 30
0.0
 40
0.02077621
  0
CIRCLE
  5
AA4
330
1F
100
AcDbEntity
  8
0
100
AcDbCircle
 10
8.180140404562301
 20
5.895572136265961
 30
0.0
 40
0.02077621
  0
CIRCLE
  5
AA5
330
1F
100
AcDbEntity
  8
0
100
AcDbCircle
 10
8.0069493345623
 20
5.984263856265961
 30
0.0
 40
0.02077621
  0
CIRCLE
  5
AA6
330
1F
100
AcDbEntity
  8
0
100
AcDbCircle
 10
8.104631334562306
 20
5.984263856265961
 30
0.0
 40
0.02077621
  0
CIRCLE
  5
AA7
330
1F
100
AcDbEntity
  8
0
100
AcDbCircle
 10
7.909267334562294
 20
5.984263856265961
 30
0.0
 40
0.02077621
  0
CIRCLE
  5
AA8
330
1F
100
AcDbEntity
  8
0
100
AcDbCircle
 10
8.0069493345623
 20
5.806880416265961
 30
0.0
 40
0.02077621
  0
CIRCLE
  5
AA9
330
1F
100
AcDbEntity
  8
0
100
AcDbCircle
 10
7.984776404562303
 20
5.895572136265961
 30
0.0
 40
0.02077621
  0
CIRCLE
  5
AAA
330
1F
100
AcDbEntity
  8
0
100
AcDbCircle
 10
8.104631334562306
 20
5.806880416265961
 30
0.0
 40
0.02077621
  0
CIRCLE
  5
AAB
330
1F
100
AcDbEntity
  8
0
100
AcDbCircle
 10
8.082458404562295
 20
5.895572136265961
 30
0.0
 40
0.02077621
  0
CIRCLE
  5
AAC
330
1F
100
AcDbEntity
  8
0
100
AcDbCircle
 10
7.909267334562294
 20
5.806880416265961
 30
0.0
 40
0.02077621
  0
CIRCLE
  5
AAD
330
1F
100
AcDbEntity
  8
0
100
AcDbCircle
 10
7.887094404562297
 20
5.895572136265961
 30
0.0
 40
0.02077621
  0
CIRCLE
  5
AAE
330
1F
100
AcDbEntity
  8
0
100
AcDbCircle
 10
8.495359334562301
 20
5.984263856265961
 30
0.0
 40
0.02077621
  0
CIRCLE
  5
AAF
330
1F
100
AcDbEntity
  8
0
100
AcDbCircle
 10
8.299995334562304
 20
5.984263856265961
 30
0.0
 40
0.02077621
  0
CIRCLE
  5
AB0
330
1F
100
AcDbEntity
  8
0
100
AcDbCircle
 10
8.39767733456231
 20
5.984263856265961
 30
0.0
 40
0.02077621
  0
CIRCLE
  5
AB1
330
1F
100
AcDbEntity
  8
0
100
AcDbCircle
 10
8.495359334562301
 20
5.806880416265961
 30
0.0
 40
0.02077621
  0
CIRCLE
  5
AB2
330
1F
100
AcDbEntity
  8
0
100
AcDbCircle
 10
8.299995334562304
 20
5.806880416265961
 30
0.0
 40
0.02077621
  0
CIRCLE
  5
AB3
330
1F
100
AcDbEntity
  8
0
100
AcDbCircle
 10
8.277822404562307
 20
5.895572136265961
 30
0.0
 40
0.02077621
  0
CIRCLE
  5
AB4
330
1F
100
AcDbEntity
  8
0
100
AcDbCircle
 10
8.39767733456231
 20
5.806880416265961
 30
0.0
 40
0.02077621
  0
CIRCLE
  5
AB5
330
1F
100
AcDbEntity
  8
0
100
AcDbCircle
 10
8.375504404562299
 20
5.895572136265961
 30
0.0
 40
0.02077621
  0
CIRCLE
  5
AB6
330
1F
100
AcDbEntity
  8
0
100
AcDbCircle
 10
8.473186404562291
 20
5.895572136265961
 30
0.0
 40
0.02077621
  0
CIRCLE
  5
AB7
330
1F
100
AcDbEntity
  8
0
100
AcDbCircle
 10
8.593041334562308
 20
5.984263856265961
 30
0.0
 40
0.02077621
  0
CIRCLE
  5
AB8
330
1F
100
AcDbEntity
  8
0
100
AcDbCircle
 10
8.593041334562308
 20
5.806880416265961
 30
0.0
 40
0.02077621
  0
CIRCLE
  5
AB9
330
1F
100
AcDbEntity
  8
0
100
AcDbCircle
 10
8.570868404562297
 20
5.895572136265961
 30
0.0
 40
0.02077621
  0
CIRCLE
  5
ABA
330
1F
100
AcDbEntity
  8
0
100
AcDbCircle
 10
8.668550404562303
 20
5.895572136265961
 30
0.0
 40
0.02077621
  0
CIRCLE
  5
ABB
330
1F
100
AcDbEntity
  8
0
100
AcDbCircle
 10
8.690723334562299
 20
5.80688041626596
 30
0.0
 40
0.02077621
  0
LINE
  5
ABC
330
1F
100
AcDbEntity
  8
0
100
AcDbLine
 10
7.404526161095017
 20
6.142010797624748
 30
0.0
 11
9.101612161095015
 21
6.142010797624748
 31
0.0
  0
LINE
  5
ABD
330
1F
100
AcDbEntity
  8
0
100
AcDbLine
 10
9.101612107391542
 20
5.672328544663463
 30
0.0
 11
7.404526161095017
 21
5.672328797624749
 31
0.0
  0
LINE
  5
B12
330
1F
100
AcDbEntity
  8
0
100
AcDbLine
 10
4.52875372311275
 20
5.467737155978003
 30
0.0
 11
4.52875372311275
 21
4.808465155978003
 31
0.0
  0
LINE
  5
B13
330
1F
100
AcDbEntity
  8
0
100
AcDbLine
 10
4.390649723112751
 20
5.060680155978003
 30
0.0
 11
4.470361723112752
 21
5.060680155978003
 31
0.0
  0
LINE
  5
B14
330
1F
100
AcDbEntity
  8
0
100
AcDbLine
 10
4.508865723112748
 20
5.108626155978003
 30
0.0
 11
4.508865723112748
 21
4.891398155978004
 31
0.0
  0
LINE
  5
B15
330
1F
100
AcDbEntity
  8
0
100
AcDbLine
 10
4.390649723112751
 20
5.107648155978004
 30
0.0
 11
4.390649723112751
 21
5.060680155978003
 31
0.0
  0
LINE
  5
B16
330
1F
100
AcDbEntity
  8
0
100
AcDbLine
 10
4.470361723112752
 20
5.060680155978003
 30
0.0
 11
4.470361723112752
 21
5.107648155978004
 31
0.0
  0
LINE
  5
B17
330
1F
100
AcDbEntity
  8
0
100
AcDbLine
 10
4.352144723112751
 20
4.891398155978004
 30
0.0
 11
4.352144723112751
 21
5.108626155978003
 31
0.0
  0
LINE
  5
B18
330
1F
100
AcDbEntity
  8
0
100
AcDbLine
 10
4.508865723112748
 20
4.891398155978004
 30
0.0
 11
4.352144723112751
 21
4.891398155978004
 31
0.0
  0
LINE
  5
B19
330
1F
100
AcDbEntity
  8
0
100
AcDbLine
 10
4.352144723112751
 20
5.108626155978003
 30
0.0
 11
4.508865723112748
 21
5.108626155978003
 31
0.0
  0
LINE
  5
B1A
330
1F
100
AcDbEntity
  8
0
100
AcDbLine
 10
4.424475723112749
 20
5.371685155978004
 30
0.0
 11
4.424475723112749
 21
5.304889155978004
 31
0.0
  0
LINE
  5
B1B
330
1F
100
AcDbEntity
  8
0
100
AcDbLine
 10
4.418495723112748
 20
5.254889155978004
 30
0.0
 11
4.43045572311275
 21
5.254889155978004
 31
0.0
  0
LINE
  5
B1C
330
1F
100
AcDbEntity
  8
0
100
AcDbLine
 10
4.396485723112746
 20
5.279889155978004
 30
0.0
 11
4.452465723112744
 21
5.279889155978004
 31
0.0
  0
LINE
  5
B1D
330
1F
100
AcDbEntity
  8
0
100
AcDbLine
 10
4.374475723112752
 20
5.304889155978004
 30
0.0
 11
4.474475723112753
 21
5.304889155978004
 31
0.0
  0
LINE
  5
B1E
330
1F
100
AcDbEntity
  8
0
100
AcDbLine
 10
4.528753672364132
 20
5.46773736553496
 30
0.0
 11
4.528753672364132
 21
4.808464664989326
 31
0.0
  0
LINE
  5
B1F
330
1F
100
AcDbEntity
  8
0
100
AcDbLine
 10
4.390649835775107
 20
5.06067980070569
 30
0.0
 11
4.470361345820194
 21
5.06067980070569
 31
0.0
  0
LINE
  5
B20
330
1F
100
AcDbEntity
  8
0
100
AcDbLine
 10
4.508866058299595
 20
5.108626485024522
 30
0.0
 11
4.508866058299595
 21
4.891398649947364
 31
0.0
  0
LINE
  5
B21
330
1F
100
AcDbEntity
  8
0
100
AcDbLine
 10
4.390649835775107
 20
5.107647981262912
 30
0.0
 11
4.390649835775107
 21
5.06067980070569
 31
0.0
  0
LINE
  5
B22
330
1F
100
AcDbEntity
  8
0
100
AcDbLine
 10
4.470361345820194
 20
5.06067980070569
 30
0.0
 11
4.470361345820194
 21
5.107647981262912
 31
0.0
  0
LINE
  5
B23
330
1F
100
AcDbEntity
  8
0
100
AcDbLine
 10
4.352145123295706
 20
4.891398649947364
 30
0.0
 11
4.352145123295706
 21
5.108626485024522
 31
0.0
  0
LINE
  5
B24
330
1F
100
AcDbEntity
  8
0
100
AcDbLine
 10
4.508866058299595
 20
4.891398649947364
 30
0.0
 11
4.352145123295706
 21
4.891398649947364
 31
0.0
  0
LINE
  5
B25
330
1F
100
AcDbEntity
  8
0
100
AcDbLine
 10
4.352145123295706
 20
5.108626485024522
 30
0.0
 11
4.508866058299595
 21
5.108626485024522
 31
0.0
  0
LINE
  5
B26
330
1F
100
AcDbEntity
  8
0
100
AcDbLine
 10
4.424475726103665
 20
5.371685540383529
 30
0.0
 11
4.424475726103665
 21
5.304889380105729
 31
0.0
  0
LINE
  5
B27
330
1F
100
AcDbEntity
  8
0
100
AcDbLine
 10
4.418495367424888
 20
5.254889380105728
 30
0.0
 11
4.430456084782434
 21
5.254889380105728
 31
0.0
  0
LINE
  5
B28
330
1F
100
AcDbEntity
  8
0
100
AcDbLine
 10
4.396485546764274
 20
5.27988938010573
 30
0.0
 11
4.452465905443048
 21
5.279889380105728
 31
0.0
  0
LINE
  5
B29
330
1F
100
AcDbEntity
  8
0
100
AcDbLine
 10
4.374475726103661
 20
5.304889380105729
 30
0.0
 11
4.474475726103662
 21
5.304889380105729
 31
0.0
  0
TEXT
  5
B2A
330
1F
100
AcDbEntity
  8
0
100
AcDbText
 10
4.148643795801987
 20
5.273074861483784
 30
0.0
 40
0.08
  1
26
  7
ROMANS
100
AcDbText
  0
LINE
  5
B2C
330
1F
100
AcDbEntity
  8
0
100
AcDbLine
 10
4.428753458570298
 20
5.965828383854234
 30
0.0
 11
4.428753458570298
 21
5.467737383854234
 31
0.0
  0
LINE
  5
B2E
330
1F
100
AcDbEntity
  8
0
100
AcDbLine
 10
4.370532458570302
 20
5.587355383854235
 30
0.0
 11
4.370532458570302
 21
5.634323383854234
 31
0.0
  0
LINE
  5
B2F
330
1F
100
AcDbEntity
  8
0
100
AcDbLine
 10
4.290820458570294
 20
5.634323383854234
 30
0.0
 11
4.290820458570294
 21
5.587355383854235
 31
0.0
  0
LINE
  5
B30
330
1F
100
AcDbEntity
  8
0
100
AcDbLine
 10
4.252315458570294
 20
5.635302383854234
 30
0.0
 11
4.409036458570298
 21
5.635302383854234
 31
0.0
  0
LINE
  5
B31
330
1F
100
AcDbEntity
  8
0
100
AcDbLine
 10
4.290820458570294
 20
5.587355383854235
 30
0.0
 11
4.370532458570302
 21
5.587355383854235
 31
0.0
  0
LINE
  5
B32
330
1F
100
AcDbEntity
  8
0
100
AcDbLine
 10
4.409036458570298
 20
5.635302383854234
 30
0.0
 11
4.409036458570298
 21
5.467737383854234
 31
0.0
  0
LINE
  5
B33
330
1F
100
AcDbEntity
  8
0
100
AcDbLine
 10
4.252315458570294
 20
5.467737383854234
 30
0.0
 11
4.252315458570294
 21
5.635302383854234
 31
0.0
  0
LINE
  5
B34
330
1F
100
AcDbEntity
  8
0
100
AcDbLine
 10
4.42875340782168
 20
5.965827935453664
 30
0.0
 11
4.42875340782168
 21
5.46773759341119
 31
0.0
  0
LINE
  5
B36
330
1F
100
AcDbEntity
  8
0
100
AcDbLine
 10
4.370532010633347
 20
5.587355471659171
 30
0.0
 11
4.370532010633347
 21
5.634323652216395
 31
0.0
  0
LINE
  5
B37
330
1F
100
AcDbEntity
  8
0
100
AcDbLine
 10
4.29082050058826
 20
5.634323652216395
 30
0.0
 11
4.29082050058826
 21
5.587355471659171
 31
0.0
  0
LINE
  5
B38
330
1F
100
AcDbEntity
  8
0
100
AcDbLine
 10
4.252315788108859
 20
5.635302155978004
 30
0.0
 11
4.409036723112748
 21
5.635302155978004
 31
0.0
  0
LINE
  5
B39
330
1F
100
AcDbEntity
  8
0
100
AcDbLine
 10
4.29082050058826
 20
5.587355471659171
 30
0.0
 11
4.370532010633347
 21
5.587355471659171
 31
0.0
  0
LINE
  5
B3A
330
1F
100
AcDbEntity
  8
0
100
AcDbLine
 10
4.409036723112748
 20
5.635302155978004
 30
0.0
 11
4.409036723112748
 21
5.46773759341119
 31
0.0
  0
LINE
  5
B3B
330
1F
100
AcDbEntity
  8
0
100
AcDbLine
 10
4.252315788108859
 20
5.46773759341119
 30
0.0
 11
4.252315788108859
 21
5.635302155978004
 31
0.0
  0
LINE
  5
B3C
330
1F
100
AcDbEntity
  8
0
100
AcDbLine
 10
4.324646123383452
 20
5.864928145318001
 30
0.0
 11
4.324646123383452
 21
5.798132145318001
 31
0.0
  0
LINE
  5
B3D
330
1F
100
AcDbEntity
  8
0
100
AcDbLine
 10
4.318666123383451
 20
5.748132145318002
 30
0.0
 11
4.330626123383453
 21
5.748132145318002
 31
0.0
  0
LINE
  5
B3E
330
1F
100
AcDbEntity
  8
0
100
AcDbLine
 10
4.296656123383449
 20
5.773132145318002
 30
0.0
 11
4.352636123383447
 21
5.773132145318002
 31
0.0
  0
LINE
  5
B3F
330
1F
100
AcDbEntity
  8
0
100
AcDbLine
 10
4.274646123383455
 20
5.798132145318001
 30
0.0
 11
4.374646123383456
 21
5.798132145318001
 31
0.0
  0
LINE
  5
B40
330
1F
100
AcDbEntity
  8
0
100
AcDbLine
 10
4.324646126374368
 20
5.864928529723527
 30
0.0
 11
4.324646126374368
 21
5.798132369445727
 31
0.0
  0
LINE
  5
B41
330
1F
100
AcDbEntity
  8
0
100
AcDbLine
 10
4.318665767695591
 20
5.748132369445726
 30
0.0
 11
4.330626485053137
 21
5.748132369445726
 31
0.0
  0
LINE
  5
B42
330
1F
100
AcDbEntity
  8
0
100
AcDbLine
 10
4.296655947034977
 20
5.773132369445728
 30
0.0
 11
4.352636305713751
 21
5.773132369445726
 31
0.0
  0
LINE
  5
B43
330
1F
100
AcDbEntity
  8
0
100
AcDbLine
 10
4.274646126374364
 20
5.798132369445727
 30
0.0
 11
4.374646126374365
 21
5.798132369445727
 31
0.0
  0
LINE
  5
B78
330
1F
100
AcDbEntity
  8
0
100
AcDbLine
 10
9.776693161095018
 20
3.289076797624748
 30
0.0
 11
9.776693161095018
 21
6.319076797624749
 31
0.0
  0
LINE
  5
B85
330
1F
100
AcDbEntity
  8
0
100
AcDbLine
 10
9.423074104748582
 20
4.078313797624748
 30
0.0
 11
9.518643104748587
 21
4.167446797624748
 31
0.0
  0
LINE
  5
B86
330
1F
100
AcDbEntity
  8
0
100
AcDbLine
 10
9.407434104748592
 20
4.095268797624747
 30
0.0
 11
9.502817104748583
 21
4.184229797624748
 31
0.0
  0
CIRCLE
  5
B87
330
1F
100
AcDbEntity
  8
0
100
AcDbCircle
 10
9.463677104748587
 20
4.131669797624748
 30
0.0
 40
0.075
  0
CIRCLE
  5
B88
330
1F
100
AcDbEntity
  8
0
100
AcDbCircle
 10
9.463236104748585
 20
4.131052797624748
 30
0.0
 40
0.06629
  0
LINE
  5
B89
330
1F
100
AcDbEntity
  8
0
100
AcDbLine
 10
9.423131104748588
 20
4.323070797624747
 30
0.0
 11
9.52520210474859
 21
4.323070797624747
 31
0.0
  0
LINE
  5
B8A
330
1F
100
AcDbEntity
  8
0
100
AcDbLine
 10
9.570054104748582
 20
3.934360797624748
 30
0.0
 11
9.570054104748582
 21
3.931793797624749
 31
0.0
  0
LINE
  5
B8B
330
1F
100
AcDbEntity
  8
0
100
AcDbLine
 10
9.52520210474859
 20
4.323070797624747
 30
0.0
 11
9.52520210474859
 21
4.362087797624749
 31
0.0
  0
LINE
  5
B8C
330
1F
100
AcDbEntity
  8
0
100
AcDbLine
 10
9.423131104748588
 20
4.362087797624749
 30
0.0
 11
9.423131104748588
 21
4.323070797624747
 31
0.0
  0
LINE
  5
B8D
330
1F
100
AcDbEntity
  8
0
100
AcDbLine
 10
9.570054104748582
 20
4.361841797624748
 30
0.0
 11
9.570054104748582
 21
3.934360797624748
 31
0.0
  0
LINE
  5
B8E
330
1F
100
AcDbEntity
  8
0
100
AcDbLine
 10
9.423074184036071
 20
4.078313685689231
 30
0.0
 11
9.518642868029157
 21
4.16744657232461
 31
0.0
  0
LINE
  5
B8F
330
1F
100
AcDbEntity
  8
0
100
AcDbLine
 10
9.407433649525255
 20
4.095269282717307
 30
0.0
 11
9.502817038787885
 21
4.184229352761381
 31
0.0
  0
CIRCLE
  5
B90
330
1F
100
AcDbEntity
  8
0
100
AcDbCircle
 10
9.463677452093211
 20
4.131669522155313
 30
0.0
 40
0.075
  0
CIRCLE
  5
B91
330
1F
100
AcDbEntity
  8
0
100
AcDbCircle
 10
9.463236461423978
 20
4.131052541137336
 30
0.0
 40
0.0662902360756252
  0
LINE
  5
B92
330
1F
100
AcDbEntity
  8
0
100
AcDbLine
 10
9.423131304569213
 20
4.323071017432859
 30
0.0
 11
9.525202132799297
 21
4.323071017432859
 31
0.0
  0
LINE
  5
B93
330
1F
100
AcDbEntity
  8
0
100
AcDbLine
 10
9.570054565462587
 20
3.934360902498251
 30
0.0
 11
9.570054565462587
 21
3.931794039877335
 31
0.0
  0
LINE
  5
B94
330
1F
100
AcDbEntity
  8
0
100
AcDbLine
 10
9.525202132799297
 20
4.323071017432859
 30
0.0
 11
9.525202132799297
 21
4.362087329270856
 31
0.0
  0
LINE
  5
B95
330
1F
100
AcDbEntity
  8
0
100
AcDbLine
 10
9.423131304569213
 20
4.362087329270856
 30
0.0
 11
9.423131304569213
 21
4.323071017432859
 31
0.0
  0
LINE
  5
B96
330
1F
100
AcDbEntity
  8
0
100
AcDbLine
 10
9.570054565462587
 20
4.361841653575687
 30
0.0
 11
9.570054565462587
 21
3.934360902498251
 31
0.0
  0
CIRCLE
  5
BA9
330
1F
100
AcDbEntity
  8
0
100
AcDbCircle
 10
9.563677542106685
 20
3.690683058771707
 30
0.0
 40
0.075
  0
CIRCLE
  5
BAA
330
1F
100
AcDbEntity
  8
0
100
AcDbCircle
 10
9.563236542106682
 20
3.690066058771705
 30
0.0
 40
0.06629
  0
LINE
  5
BAB
330
1F
100
AcDbEntity
  8
0
100
AcDbLine
 10
9.52307454210668
 20
3.637327058771706
 30
0.0
 11
9.618643542106685
 21
3.726460058771706
 31
0.0
  0
LINE
  5
BAC
330
1F
100
AcDbEntity
  8
0
100
AcDbLine
 10
9.507434542106683
 20
3.654282058771705
 30
0.0
 11
9.602817542106681
 21
3.743243058771707
 31
0.0
  0
LINE
  5
BAD
330
1F
100
AcDbEntity
  8
0
100
AcDbLine
 10
9.649246542106684
 20
3.873870058771707
 30
0.0
 11
9.649246542106684
 21
3.819453058771706
 31
0.0
  0
LINE
  5
BAE
330
1F
100
AcDbEntity
  8
0
100
AcDbLine
 10
9.498975542106681
 20
3.819453058771706
 30
0.0
 11
9.498975542106681
 21
3.873870058771707
 31
0.0
  0
LINE
  5
BAF
330
1F
100
AcDbEntity
  8
0
100
AcDbLine
 10
9.570054542106678
 20
3.934361058771706
 30
0.0
 11
9.570054542106678
 21
3.931794058771707
 31
0.0
  0
LINE
  5
BB0
330
1F
100
AcDbEntity
  8
0
100
AcDbLine
 10
9.498975542106681
 20
3.873870058771707
 30
0.0
 11
9.649246542106684
 21
3.873870058771707
 31
0.0
  0
LINE
  5
BB1
330
1F
100
AcDbEntity
  8
0
100
AcDbLine
 10
9.670054542106679
 20
3.931794058771707
 30
0.0
 11
9.670054542106679
 21
3.490807058771707
 31
0.0
  0
CIRCLE
  5
BB2
330
1F
100
AcDbEntity
  8
0
100
AcDbCircle
 10
9.563677889451309
 20
3.690682785028062
 30
0.0
 40
0.075
  0
CIRCLE
  5
BB3
330
1F
100
AcDbEntity
  8
0
100
AcDbCircle
 10
9.563236898782076
 20
3.690065804010085
 30
0.0
 40
0.0662902360756252
  0
LINE
  5
BB4
330
1F
100
AcDbEntity
  8
0
100
AcDbLine
 10
9.523074621394147
 20
3.637326948561963
 30
0.0
 11
9.618643305387276
 21
3.726459835197378
 31
0.0
  0
LINE
  5
BB5
330
1F
100
AcDbEntity
  8
0
100
AcDbLine
 10
9.507434086883332
 20
3.654282545590039
 30
0.0
 11
9.602817476145997
 21
3.743242615634148
 31
0.0
  0
LINE
  5
BB6
330
1F
100
AcDbEntity
  8
0
100
AcDbLine
 10
9.649246979464788
 20
3.873870319918665
 30
0.0
 11
9.649246979464788
 21
3.819452832355143
 31
0.0
  0
LINE
  5
BB7
330
1F
100
AcDbEntity
  8
0
100
AcDbLine
 10
9.498976037903833
 20
3.819452832355143
 30
0.0
 11
9.498976037903833
 21
3.873870319918665
 31
0.0
  0
LINE
  5
BB8
330
1F
100
AcDbEntity
  8
0
100
AcDbLine
 10
9.570055002820684
 20
3.93436116364521
 30
0.0
 11
9.570055002820684
 21
3.931794301024293
 31
0.0
  0
LINE
  5
BB9
330
1F
100
AcDbEntity
  8
0
100
AcDbLine
 10
9.498976037903833
 20
3.873870319918665
 30
0.0
 11
9.649246979464788
 21
3.873870319918665
 31
0.0
  0
DIMENSION
  5
BBB
102
{ACAD_XDICTIONARY
360
BC9
102
}
102
{ACAD_REACTORS
330
BD4
102
}
330
1F
100
AcDbEntity
  8
0
100
AcDbDimension
  2
*D8
 10
9.776693161095019
 20
7.338222321555864
 30
0.0
 11
8.220093161095018
 21
7.338222321555864
 31
0.0
 70
    32
 71
     5
 42
3.113200000000004
  3
Standard
100
AcDbAlignedDimension
 13
6.663493161095015
 23
6.319076797624749
 33
0.0
 14
9.776693161095019
 24
6.31907679762475
 34
0.0
100
AcDbRotatedDimension
1001
ACAD
1000
DSTYLE
1002
{
1070
   271
1070
     2
1002
}
  0
DIMENSION
  5
BDF
102
{ACAD_XDICTIONARY
360
BED
102
}
102
{ACAD_REACTORS
330
BF8
102
}
330
1F
100
AcDbEntity
  8
0
100
AcDbDimension
  2
*D9
 10
5.754742390735195
 20
3.289076797624748
 30
0.0
 11
5.754742390735194
 21
4.80407679762475
 31
0.0
 70
    32
 71
     5
 42
3.030000000000001
  3
Standard
100
AcDbAlignedDimension
 13
6.663493161095015
 23
6.319076797624749
 33
0.0
 14
6.663493161095015
 24
3.289076797624748
 34
0.0
 50
90.0
100
AcDbRotatedDimension
1001
ACAD
1000
DSTYLE
1002
{
1070
   271
1070
     2
1002
}
  0
DIMENSION
  5
BFA
102
{ACAD_XDICTIONARY
360
C08
102
}
102
{ACAD_REACTORS
330
C13
102
}
330
1F
100
AcDbEntity
  8
0
100
AcDbDimension
  2
*D10
 10
0.9590386265309263
 20
5.965828155978003
 30
0.0
 11
0.9590386265309252
 21
4.864564605457905
 31
0.0
 70
    32
 71
     5
 42
2.202527101040197
  3
Standard
100
AcDbAlignedDimension
 13
1.574173373261402
 23
3.763301054937805
 33
0.0
 14
1.628753723112744
 24
5.965828155978003
 34
0.0
 50
90.0
100
AcDbRotatedDimension
1001
ACAD
1000
DSTYLE
1002
{
1070
   271
1070
     2
1002
}
  0
ENDSEC
  0
SECTION
  2
OBJECTS
  0
DICTIONARY
  5
C
330
0
100
AcDbDictionary
281
     1
  3
ACAD_COLOR
350
73
  3
ACAD_GROUP
350
D
  3
ACAD_LAYOUT
350
1A
  3
ACAD_MATERIAL
350
72
  3
ACAD_MLINESTYLE
350
17
  3
ACAD_PLOTSETTINGS
350
19
  3
ACAD_PLOTSTYLENAME
350
E
  3
ACAD_TABLESTYLE
350
86
  3
AcDbVariableDictionary
350
66
  0
DICTIONARY
  5
B76
330
1F
100
AcDbDictionary
280
     1
281
     1
  3
ACAD_SORTENTS
360
B77
  0
DICTIONARY
  5
13C
330
B2
100
AcDbDictionary
280
     1
281
     1
  3
ACAD_SORTENTS
360
13D
  0
DICTIONARY
  5
BC9
330
BBB
100
AcDbDictionary
280
     1
281
     1
  3
ACAD_DIMASSOC
360
BD4
  0
DICTIONARY
  5
BED
330
BDF
100
AcDbDictionary
280
     1
281
     1
  3
ACAD_DIMASSOC
360
BF8
  0
DICTIONARY
  5
C08
330
BFA
100
AcDbDictionary
280
     1
281
     1
  3
ACAD_DIMASSOC
360
C13
  0
DICTIONARY
  5
73
102
{ACAD_REACTORS
330
C
102
}
330
C
100
AcDbDictionary
281
     1
  0
DICTIONARY
  5
D
102
{ACAD_REACTORS
330
C
102
}
330
C
100
AcDbDictionary
281
     1
  0
DICTIONARY
  5
1A
102
{ACAD_REACTORS
330
C
102
}
330
C
100
AcDbDictionary
281
     1
  3
Layout1
350
59
  3
Layout2
350
5E
  3
Model
350
22
  0
DICTIONARY
  5
72
102
{ACAD_REACTORS
330
C
102
}
330
C
100
AcDbDictionary
281
     1
  0
DICTIONARY
  5
17
102
{ACAD_REACTORS
330
C
102
}
330
C
100
AcDbDictionary
281
     1
  3
Standard
350
18
  0
DICTIONARY
  5
19
102
{ACAD_REACTORS
330
C
102
}
330
C
100
AcDbDictionary
281
     1
  0
ACDBDICTIONARYWDFLT
  5
E
102
{ACAD_REACTORS
330
C
102
}
330
C
100
AcDbDictionary
281
     1
  3
Normal
350
F
100
AcDbDictionaryWithDefault
340
F
  0
DICTIONARY
  5
86
102
{ACAD_REACTORS
330
C
102
}
330
C
100
AcDbDictionary
281
     1
  3
Standard
350
87
  0
DICTIONARY
  5
66
102
{ACAD_REACTORS
330
C
102
}
330
C
100
AcDbDictionary
281
     1
  3
CTABLESTYLE
350
150
  3
DIMASSOC
350
67
  3
HIDETEXT
350
6B
  0
SORTENTSTABLE
  5
B77
102
{ACAD_REACTORS
330
B76
102
}
330
B76
100
AcDbSortentsTable
330
1F
331
909
  5
90B
331
920
  5
922
331
8CB
  5
8CD
331
8EA
  5
8EC
331
8AC
  5
8AE
331
838
  5
83A
331
7C4
  5
7C6
331
78E
  5
790
331
7E3
  5
7E5
331
76F
  5
770
331
802
  5
804
331
8A5
  5
8A7
331
921
  5
923
331
940
  5
942
331
8EB
  5
8ED
331
90A
  5
90C
331
8AD
  5
8AF
331
887
  5
889
331
839
  5
83B
331
7E4
  5
7E6
331
803
  5
805
331
8A6
  5
8A8
331
7C5
  5
7C7
331
78F
  5
791
331
8CC
  5
8CE
331
941
  5
943
331
922
  5
924
331
8CD
  5
8CF
331
8EC
  5
8EE
331
8A7
  5
8A9
331
888
  5
88A
331
83A
  5
83C
331
7C6
  5
7C8
331
7E5
  5
7E7
331
804
  5
806
331
8AE
  5
8B0
331
923
  5
925
331
942
  5
944
331
8ED
  5
8EF
331
90C
  5
90E
331
889
  5
88B
331
83B
  5
83D
331
7E6
  5
7E8
331
805
  5
807
331
8AF
  5
8B1
331
7C7
  5
7C9
331
8CE
  5
8D0
331
9A8
  5
9AB
331
943
  5
945
331
962
  5
964
331
90D
  5
90F
331
924
  5
926
331
8B0
  5
8B2
331
8CF
  5
8D1
331
88A
  5
88C
331
806
  5
808
331
7E7
  5
7E9
331
83C
  5
83E
331
8EE
  5
8F0
331
963
  5
965
331
992
  5
994
331
925
  5
927
331
944
  5
946
331
8EF
  5
8F1
331
90E
  5
910
331
9A9
  5
9AC
331
88B
  5
88D
331
83D
  5
83F
331
807
  5
809
331
8B1
  5
8B3
331
8D0
  5
8D2
331
9AA
  5
9AD
331
945
  5
947
331
964
  5
966
331
90F
  5
911
331
926
  5
928
331
8B2
  5
8B4
331
8D1
  5
8D3
331
88C
  5
88E
331
83E
  5
840
331
8F0
  5
8F2
331
993
  5
995
331
AA8
  5
AAB
331
965
  5
97F
331
927
  5
929
331
8D2
  5
8D4
331
8F1
  5
8F3
331
88D
  5
88F
331
83F
  5
841
331
8B3
  5
8B5
331
946
  5
948
331
9AB
  5
9AE
331
AA9
  5
AAC
331
9AC
  5
9AF
331
947
  5
949
331
966
  5
980
331
928
  5
92A
331
8B4
  5
8B6
331
8D3
  5
8D5
331
86F
  5
871
331
88E
  5
890
331
8F2
  5
8F4
331
AAA
  5
AAD
331
996
  5
998
331
929
  5
92B
331
948
  5
94A
331
8D4
  5
8D6
331
8F3
  5
8F5
331
88F
  5
891
331
8B5
  5
8B7
331
912
  5
914
331
9AD
  5
9E5
331
AAB
  5
AAE
331
B30
  5
B33
331
997
  5
999
331
949
  5
94B
331
9AE
  5
A92
331
8F4
  5
8F6
331
913
  5
915
331
8B6
  5
8B8
331
8D5
  5
8D7
331
92A
  5
92C
331
B12
  5
B15
331
9AF
  5
A93
331
998
  5
99A
331
AAC
  5
AAF
331
92B
  5
92D
331
94A
  5
94C
331
8D6
  5
8D8
331
8F5
  5
8F7
331
8B7
  5
8B9
331
914
  5
916
331
B31
  5
B34
331
B13
  5
B16
331
999
  5
99E
331
AAD
  5
AB0
331
94B
  5
94D
331
B32
  5
B36
331
8F6
  5
8F8
331
915
  5
917
331
8B8
  5
8BA
331
8D7
  5
8D9
331
92C
  5
92E
331
B33
  5
B37
331
B14
  5
B17
331
99A
  5
9A0
331
AAE
  5
AB1
331
916
  5
918
331
92D
  5
92F
331
8D8
  5
8DA
331
8F7
  5
8F9
331
8B9
  5
8BB
331
94C
  5
94E
331
B15
  5
B18
331
AAF
  5
AB2
331
94D
  5
94F
331
B34
  5
B38
331
8F8
  5
8FA
331
917
  5
919
331
8BA
  5
8BC
331
8D9
  5
8DB
331
92E
  5
930
331
AB0
  5
AB3
331
B16
  5
B19
331
918
  5
91A
331
92F
  5
931
331
8DA
  5
8DC
331
8F9
  5
8FB
331
8BB
  5
8BD
331
94E
  5
950
331
B17
  5
B1A
331
B36
  5
B39
331
AB1
  5
AB4
331
930
  5
932
331
94F
  5
951
331
8FA
  5
8FC
331
919
  5
91B
331
8BC
  5
8BE
331
8DB
  5
8DD
331
A92
  5
A95
331
B37
  5
B3A
331
AB2
  5
AB5
331
A93
  5
A96
331
97F
  5
981
331
99E
  5
9A1
331
B18
  5
B1B
331
91A
  5
91C
331
931
  5
933
331
8DC
  5
8DE
331
8FB
  5
8FD
331
8BD
  5
8BF
331
950
  5
952
331
590
  5
590
331
B19
  5
B1C
331
B38
  5
B3B
331
A94
  5
A97
331
99F
  5
9A2
331
AB3
  5
AB6
331
932
  5
934
331
951
  5
953
331
8FC
  5
8FE
331
91B
  5
91D
331
8BE
  5
8C0
331
8DD
  5
8DF
331
980
  5
982
331
5B0
  5
5B0
331
B39
  5
B3C
331
591
  5
591
331
AB4
  5
AB7
331
A95
  5
A98
331
952
  5
954
331
981
  5
983
331
91C
  5
91E
331
933
  5
935
331
8DE
  5
8E0
331
8FD
  5
8FF
331
9A0
  5
9A3
331
8BF
  5
8C1
331
B1A
  5
B1D
331
5C8
  5
5C8
331
592
  5
592
331
B1B
  5
B1E
331
B3A
  5
B3D
331
A96
  5
A99
331
9A1
  5
9A4
331
AB5
  5
AB8
331
5B1
  5
5B1
331
934
  5
936
331
953
  5
955
331
8FE
  5
900
331
91D
  5
91F
331
8C0
  5
8C2
331
8DF
  5
8E1
331
982
  5
984
331
5E8
  5
5E8
331
5B2
  5
5B2
331
5C9
  5
5C9
331
B1C
  5
B1F
331
B3B
  5
B3E
331
AB6
  5
AB9
331
A97
  5
A9A
331
593
  5
593
331
954
  5
956
331
983
  5
986
331
91E
  5
920
331
935
  5
937
331
8C1
  5
8C3
331
8E0
  5
8E2
331
8FF
  5
901
331
9A2
  5
9A5
331
608
  5
608
331
5CA
  5
5CA
331
5E9
  5
5E9
331
594
  5
594
331
B1D
  5
B20
331
B3C
  5
B3F
331
A98
  5
A9B
331
984
  5
987
331
9A3
  5
9A8
331
936
  5
938
331
955
  5
958
331
900
  5
902
331
91F
  5
921
331
AB7
  5
ABA
331
5B3
  5
5B3
331
8C2
  5
8C4
331
8E1
  5
8E3
331
628
  5
628
331
5EA
  5
5EA
331
609
  5
609
331
5B4
  5
5B4
331
5CB
  5
5CB
331
B1E
  5
B21
331
B3D
  5
B40
331
AB8
  5
ABB
331
A99
  5
A9C
331
595
  5
595
331
956
  5
959
331
937
  5
939
331
8C3
  5
8C5
331
8E2
  5
8E4
331
901
  5
903
331
9A4
  5
9A9
331
60A
  5
60A
331
629
  5
629
331
5CC
  5
5CC
331
5EB
  5
5EB
331
596
  5
596
331
B1F
  5
B22
331
B3E
  5
B41
331
A9A
  5
A9D
331
986
  5
989
331
938
  5
93A
331
8E3
  5
8E5
331
902
  5
904
331
9A5
  5
9AA
331
8C4
  5
8C6
331
AB9
  5
ABC
331
5B5
  5
5B5
331
640
  5
640
331
62A
  5
62A
331
641
  5
641
331
5EC
  5
5EC
331
60B
  5
60B
331
597
  5
597
331
B20
  5
B23
331
B3F
  5
B42
331
ABA
  5
ABD
331
5B6
  5
5B6
331
958
  5
95A
331
987
  5
98A
331
A9B
  5
A9E
331
8C5
  5
8C7
331
8E4
  5
8E6
331
939
  5
93B
331
5CD
  5
5CD
331
660
  5
660
331
642
  5
642
331
661
  5
661
331
60C
  5
60C
331
62B
  5
62B
331
5CE
  5
5CE
331
5ED
  5
5ED
331
680
  5
680
331
B21
  5
B24
331
B40
  5
B43
331
A9C
  5
A9F
331
93A
  5
93C
331
8E5
  5
8E7
331
904
  5
906
331
8C6
  5
8C8
331
959
  5
95C
331
ABB
  5
B12
331
5B7
  5
5B7
331
681
  5
681
331
6A0
  5
6A0
331
62C
  5
62C
331
643
  5
643
331
5EE
  5
5EE
331
60D
  5
60D
331
599
  5
599
331
B22
  5
B25
331
B41
  5
B45
331
ABC
  5
B13
331
5B8
  5
5B8
331
95A
  5
95D
331
989
  5
992
331
A9D
  5
AA0
331
905
  5
907
331
8C7
  5
8C9
331
8E6
  5
8E8
331
93B
  5
93D
331
5CF
  5
5CF
331
662
  5
662
331
6B8
  5
6B8
331
6A1
  5
6A1
331
644
  5
644
331
663
  5
663
331
60E
  5
60E
331
62D
  5
62D
331
5B9
  5
5B9
331
5D0
  5
5D0
331
59A
  5
59A
331
5EF
  5
5EF
331
682
  5
682
331
B23
  5
B26
331
B42
  5
B75
331
98A
  5
993
331
A9E
  5
AA1
331
93C
  5
93E
331
8E7
  5
8E9
331
906
  5
908
331
ABD
  5
B14
331
6B9
  5
6B9
331
6D8
  5
6D8
331
664
  5
664
331
683
  5
683
331
62E
  5
62E
331
645
  5
645
331
5F0
  5
5F0
331
60F
  5
60F
331
6A2
  5
6A2
331
59B
  5
59B
331
B24
  5
B27
331
B43
  5
B78
331
5BA
  5
5BA
331
95C
  5
962
331
A9F
  5
AA2
331
907
  5
909
331
93D
  5
93F
331
5D1
  5
5D1
331
6D9
  5
6D9
331
6F8
  5
6F8
331
6BA
  5
6BA
331
6A3
  5
6A3
331
646
  5
646
331
665
  5
665
331
610
  5
610
331
62F
  5
62F
331
5BB
  5
5BB
331
5D2
  5
5D2
331
59C
  5
59C
331
AA0
  5
AA3
331
B25
  5
B28
331
93E
  5
940
331
95D
  5
963
331
5F1
  5
5F1
331
684
  5
684
331
6F9
  5
6F9
331
718
  5
718
331
6BB
  5
6BB
331
6DA
  5
6DA
331
666
  5
666
331
630
  5
630
331
647
  5
647
331
5D3
  5
5D3
331
5F2
  5
5F2
331
59D
  5
59D
331
B26
  5
B29
331
5BC
  5
5BC
331
611
  5
611
331
AA1
  5
AA4
331
6A4
  5
6A4
331
93F
  5
941
331
719
  5
719
331
730
  5
730
331
6DB
  5
6DB
331
6FA
  5
6FA
331
6BC
  5
6BC
331
6A5
  5
6A5
331
648
  5
648
331
667
  5
667
331
612
  5
612
331
631
  5
631
331
5BD
  5
5BD
331
5D4
  5
5D4
331
59E
  5
59E
331
AA2
  5
AA5
331
B27
  5
B2A
331
5F3
  5
5F3
331
731
  5
731
331
6FB
  5
6FB
331
71A
  5
71A
331
6BD
  5
6BD
331
6DC
  5
6DC
331
668
  5
668
331
632
  5
632
331
649
  5
649
331
5D5
  5
5D5
331
5F4
  5
5F4
331
B28
  5
B2C
331
5BE
  5
5BE
331
613
  5
613
331
AA3
  5
AA6
331
6A6
  5
6A6
331
770
  5
774
331
71B
  5
71B
331
732
  5
732
331
6DD
  5
6DD
331
6FC
  5
6FC
331
6BE
  5
6BE
331
688
  5
688
331
6A7
  5
6A7
331
64A
  5
64A
331
669
  5
669
331
5F5
  5
5F5
331
614
  5
614
331
5BF
  5
5BF
331
5D6
  5
5D6
331
5A0
  5
5A0
331
633
  5
633
331
AA4
  5
AA7
331
B29
  5
B2E
331
733
  5
733
331
790
  5
792
331
6FD
  5
6FD
331
71C
  5
71C
331
6BF
  5
6BF
331
6DE
  5
6DE
331
6A8
  5
6A8
331
66A
  5
66A
331
634
  5
634
331
64B
  5
64B
331
5D7
  5
5D7
331
5F6
  5
5F6
331
5A1
  5
5A1
331
AA5
  5
AA8
331
B2A
  5
B2F
331
5C0
  5
5C0
331
615
  5
615
331
7A8
  5
7AA
331
753
  5
753
331
71D
  5
71D
331
734
  5
734
331
6DF
  5
6DF
331
6FE
  5
6FE
331
791
  5
793
331
6C0
  5
6C0
331
68A
  5
68A
331
6A9
  5
6A9
331
B78
  5
99F
331
64C
  5
64C
331
66B
  5
66B
331
5F7
  5
5F7
331
616
  5
616
331
5C1
  5
5C1
331
5D8
  5
5D8
331
AA6
  5
AA9
331
5A2
  5
5A2
331
635
  5
635
331
7C8
  5
7CA
331
792
  5
794
331
7A9
  5
7AB
331
735
  5
735
331
754
  5
754
331
6FF
  5
6FF
331
71E
  5
71E
331
6C1
  5
6C1
331
6E0
  5
6E0
331
773
  5
775
331
6AA
  5
6AA
331
66C
  5
66C
331
68B
  5
68B
331
617
  5
617
331
636
  5
636
331
5D9
  5
5D9
331
5F8
  5
5F8
331
5A3
  5
5A3
331
AA7
  5
AAA
331
B2C
  5
B30
331
5C2
  5
5C2
331
64D
  5
64D
331
7E8
  5
7EA
331
7AA
  5
7AC
331
7C9
  5
7CB
331
755
  5
755
331
774
  5
776
331
71F
  5
71F
331
736
  5
736
331
6C2
  5
6C2
331
6E1
  5
6E1
331
700
  5
700
331
793
  5
795
331
68C
  5
68C
331
6AB
  5
6AB
331
64E
  5
64E
331
66D
  5
66D
331
5F9
  5
5F9
331
618
  5
618
331
5C3
  5
5C3
331
5DA
  5
5DA
331
5A4
  5
5A4
331
637
  5
637
331
808
  5
80A
331
7CA
  5
7CC
331
7E9
  5
7EB
331
775
  5
777
331
794
  5
796
331
737
  5
737
331
756
  5
756
331
701
  5
701
331
720
  5
720
331
7AB
  5
7AD
331
6C3
  5
6C3
331
6E2
  5
6E2
331
6AC
  5
6AC
331
66E
  5
66E
331
68D
  5
68D
331
619
  5
619
331
638
  5
638
331
5DB
  5
5DB
331
5FA
  5
5FA
331
5A5
  5
5A5
331
B2E
  5
B31
331
5C4
  5
5C4
331
64F
  5
64F
331
820
  5
822
331
7EA
  5
7EC
331
809
  5
80B
331
7AC
  5
7AE
331
7CB
  5
7CD
331
757
  5
757
331
776
  5
778
331
721
  5
721
331
738
  5
738
331
6C4
  5
6C4
331
6E3
  5
6E3
331
702
  5
702
331
795
  5
797
331
68E
  5
68E
331
6AD
  5
6AD
331
639
  5
639
331
650
  5
650
331
5FB
  5
5FB
331
61A
  5
61A
331
5C5
  5
5C5
331
5DC
  5
5DC
331
66F
  5
66F
331
B2F
  5
B32
331
140
  5
140
331
5A6
  5
5A6
331
80A
  5
80C
331
821
  5
823
331
7CC
  5
7CE
331
7EB
  5
7ED
331
796
  5
798
331
739
  5
739
331
758
  5
758
331
6E4
  5
6E4
331
703
  5
703
331
6C5
  5
6C5
331
722
  5
722
331
7AD
  5
7AF
331
840
  5
842
331
6AE
  5
6AE
331
670
  5
670
331
68F
  5
68F
331
61B
  5
61B
331
63A
  5
63A
331
5DD
  5
5DD
331
5FC
  5
5FC
331
5A7
  5
5A7
331
5C6
  5
5C6
331
651
  5
651
331
822
  5
824
331
841
  5
843
331
7EC
  5
7EE
331
80B
  5
80D
331
797
  5
799
331
7AE
  5
7B0
331
759
  5
759
331
778
  5
77A
331
723
  5
723
331
73A
  5
73A
331
7CD
  5
7CF
331
870
  5
872
331
6C6
  5
6C6
331
6E5
  5
6E5
331
704
  5
704
331
690
  5
690
331
6AF
  5
6AF
331
63B
  5
63B
331
652
  5
652
331
5FD
  5
5FD
331
61C
  5
61C
331
5C7
  5
5C7
331
5DE
  5
5DE
331
671
  5
671
331
842
  5
844
331
871
  5
873
331
80C
  5
80E
331
823
  5
825
331
7CE
  5
7D0
331
7ED
  5
7EF
331
890
  5
892
331
779
  5
77B
331
798
  5
79A
331
73B
  5
73B
331
75A
  5
75A
331
6E6
  5
6E6
331
705
  5
705
331
6C7
  5
6C7
331
724
  5
724
331
7AF
  5
7B1
331
6B0
  5
6B0
331
653
  5
653
331
672
  5
672
331
61D
  5
61D
331
63C
  5
63C
331
5DF
  5
5DF
331
5A9
  5
5A9
331
5FE
  5
5FE
331
691
  5
691
331
891
  5
893
331
824
  5
826
331
843
  5
845
331
7EE
  5
7F0
331
80D
  5
80F
331
799
  5
79B
331
7B0
  5
7B2
331
75B
  5
75B
331
77A
  5
77C
331
706
  5
706
331
725
  5
725
331
6C8
  5
6C8
331
6E7
  5
6E7
331
73C
  5
73C
331
7CF
  5
7D1
331
872
  5
874
331
692
  5
692
331
63D
  5
63D
331
654
  5
654
331
5FF
  5
5FF
331
61E
  5
61E
331
6B1
  5
6B1
331
5E0
  5
5E0
331
844
  5
846
331
873
  5
875
331
80E
  5
810
331
825
  5
827
331
7B1
  5
7B3
331
7D0
  5
7D2
331
77B
  5
77D
331
79A
  5
79C
331
73D
  5
73D
331
75C
  5
75C
331
7EF
  5
7F1
331
892
  5
894
331
6E8
  5
6E8
331
707
  5
707
331
6C9
  5
6C9
331
726
  5
726
331
6B2
  5
6B2
331
655
  5
655
331
61F
  5
61F
331
63E
  5
63E
331
5E1
  5
5E1
331
600
  5
600
331
693
  5
693
331
874
  5
876
331
893
  5
895
331
826
  5
828
331
845
  5
847
331
7F0
  5
7F2
331
80F
  5
811
331
79B
  5
79D
331
7B2
  5
7B4
331
75D
  5
75D
331
77C
  5
77E
331
708
  5
708
331
727
  5
727
331
6CA
  5
6CA
331
6E9
  5
6E9
331
73E
  5
73E
331
7D1
  5
7D3
331
694
  5
694
331
63F
  5
63F
331
656
  5
656
331
601
  5
601
331
620
  5
620
331
6B3
  5
6B3
331
5AC
  5
5AC
331
58D
  5
58D
331
5E2
  5
5E2
331
846
  5
848
331
875
  5
877
331
810
  5
812
331
827
  5
829
331
7B3
  5
7B5
331
7D2
  5
7D4
331
77D
  5
77F
331
728
  5
728
331
73F
  5
73F
331
6EA
  5
6EA
331
709
  5
709
331
79C
  5
79E
331
6CB
  5
6CB
331
7F1
  5
7F3
331
894
  5
896
331
6B4
  5
6B4
331
657
  5
657
331
621
  5
621
331
58E
  5
58E
331
5E3
  5
5E3
331
602
  5
602
331
695
  5
695
331
876
  5
878
331
895
  5
897
331
828
  5
82A
331
847
  5
849
331
7D3
  5
7D5
331
7F2
  5
7F4
331
79D
  5
79F
331
7B4
  5
7B6
331
75F
  5
75F
331
77E
  5
780
331
811
  5
813
331
70A
  5
70A
331
729
  5
729
331
6CC
  5
6CC
331
6EB
  5
6EB
331
740
  5
740
331
677
  5
677
331
696
  5
696
331
658
  5
658
331
5E4
  5
5E4
331
5AE
  5
5AE
331
603
  5
603
331
58F
  5
58F
331
622
  5
622
331
6B5
  5
6B5
331
896
  5
898
331
848
  5
84A
331
877
  5
879
331
812
  5
814
331
829
  5
82B
331
7B5
  5
7B7
331
7D4
  5
7D6
331
77F
  5
781
331
79E
  5
7A0
331
72A
  5
72A
331
741
  5
741
331
6EC
  5
6EC
331
70B
  5
70B
331
6CD
  5
6CD
331
760
  5
760
331
7F3
  5
7F5
331
697
  5
697
331
6B6
  5
6B6
331
659
  5
659
331
623
  5
623
331
678
  5
678
331
5E5
  5
5E5
331
5AF
  5
5AF
331
604
  5
604
331
878
  5
87A
331
897
  5
899
331
82A
  5
82C
331
849
  5
84C
331
7D5
  5
7D7
331
7F4
  5
7F6
331
79F
  5
7A1
331
7B6
  5
7B8
331
742
  5
742
331
70C
  5
70C
331
72B
  5
72B
331
6CE
  5
6CE
331
6ED
  5
6ED
331
780
  5
782
331
813
  5
815
331
679
  5
679
331
698
  5
698
331
65A
  5
65A
331
5E6
  5
5E6
331
605
  5
605
331
624
  5
624
331
6B7
  5
6B7
331
898
  5
89A
331
84A
  5
84D
331
879
  5
883
331
7F5
  5
7F7
331
814
  5
816
331
7B7
  5
7B9
331
7D6
  5
7D8
331
781
  5
783
331
7A0
  5
7A2
331
82B
  5
82D
331
72C
  5
72C
331
743
  5
743
331
6EE
  5
6EE
331
70D
  5
70D
331
6CF
  5
6CF
331
762
  5
762
331
699
  5
699
331
65B
  5
65B
331
606
  5
606
331
625
  5
625
331
5E7
  5
5E7
331
67A
  5
67A
331
87A
  5
884
331
82C
  5
82E
331
899
  5
89B
331
7D7
  5
7D9
331
7F6
  5
7F8
331
7A1
  5
7A3
331
7B8
  5
7BA
331
744
  5
744
331
763
  5
763
331
70E
  5
70E
331
72D
  5
72D
331
6D0
  5
6D0
331
6EF
  5
6EF
331
782
  5
784
331
815
  5
817
331
67B
  5
67B
331
69A
  5
69A
331
65C
  5
65C
331
607
  5
607
331
626
  5
626
331
89A
  5
89C
331
84C
  5
852
331
7F7
  5
7F9
331
816
  5
818
331
7B9
  5
7BB
331
7D8
  5
7DA
331
764
  5
764
331
783
  5
785
331
72E
  5
72E
331
745
  5
745
331
6F0
  5
6F0
331
70F
  5
70F
331
7A2
  5
7A4
331
82D
  5
82F
331
6D1
  5
6D1
331
69B
  5
69B
331
65D
  5
65D
331
627
  5
627
331
67C
  5
67C
331
89B
  5
89D
331
817
  5
819
331
82E
  5
830
331
7D9
  5
7DB
331
7F8
  5
7FA
331
7A3
  5
7A5
331
7BA
  5
7BC
331
84D
  5
853
331
746
  5
746
331
765
  5
765
331
710
  5
710
331
72F
  5
72F
331
6D2
  5
6D2
331
6F1
  5
6F1
331
784
  5
786
331
67D
  5
67D
331
69C
  5
69C
331
65E
  5
65E
331
89C
  5
89E
331
7F9
  5
7FB
331
818
  5
81A
331
7BB
  5
7BD
331
7DA
  5
7DC
331
766
  5
766
331
785
  5
787
331
747
  5
747
331
6D3
  5
6D3
331
6F2
  5
6F2
331
711
  5
711
331
7A4
  5
7A6
331
82F
  5
831
331
69D
  5
69D
331
65F
  5
65F
331
67E
  5
67E
331
819
  5
81B
331
830
  5
832
331
7DB
  5
7DD
331
7FA
  5
7FC
331
89D
  5
89F
331
786
  5
788
331
7A5
  5
7A7
331
748
  5
748
331
712
  5
712
331
767
  5
767
331
7BC
  5
7BE
331
6D4
  5
6D4
331
6F3
  5
6F3
331
67F
  5
67F
331
69E
  5
69E
331
831
  5
833
331
89E
  5
8A0
331
81A
  5
81C
331
7BD
  5
7BF
331
7DC
  5
7DE
331
787
  5
789
331
749
  5
749
331
6D5
  5
6D5
331
6F4
  5
6F4
331
713
  5
713
331
7A6
  5
7A8
331
69F
  5
69F
331
81B
  5
81D
331
832
  5
834
331
7DD
  5
7DF
331
7FC
  5
7FE
331
89F
  5
8A1
331
788
  5
78A
331
74A
  5
74A
331
6F5
  5
6F5
331
714
  5
714
331
7A7
  5
7A9
331
6D6
  5
6D6
331
7BE
  5
7C0
331
8A0
  5
8A2
331
833
  5
835
331
852
  5
854
331
7FD
  5
7FF
331
81C
  5
81E
331
7BF
  5
7C1
331
789
  5
78B
331
74B
  5
74B
331
7DE
  5
7E0
331
6D7
  5
6D7
331
6F6
  5
6F6
331
715
  5
715
331
8A8
  5
8AA
331
853
  5
856
331
81D
  5
81F
331
834
  5
836
331
7DF
  5
7E1
331
7FE
  5
800
331
8A1
  5
8A3
331
78A
  5
78C
331
74C
  5
74C
331
6F7
  5
6F7
331
716
  5
716
331
7C0
  5
7C2
331
8A9
  5
8AB
331
8A2
  5
8A4
331
8C8
  5
8CA
331
835
  5
837
331
854
  5
86F
331
7FF
  5
801
331
81E
  5
820
331
7C1
  5
7C3
331
78B
  5
78D
331
717
  5
717
331
74D
  5
74D
331
7E0
  5
7E2
331
883
  5
885
331
8C9
  5
8CB
331
8E8
  5
8EA
331
8AA
  5
8AC
331
884
  5
886
331
81F
  5
821
331
836
  5
838
331
7C2
  5
7C4
331
78C
  5
78E
331
74E
  5
74E
331
7E1
  5
7E3
331
800
  5
802
331
8A3
  5
8A5
331
8E9
  5
8EB
331
908
  5
90A
331
8AB
  5
8AD
331
885
  5
887
331
8A4
  5
8A6
331
837
  5
839
331
856
  5
870
331
8CA
  5
8CC
331
7C3
  5
7C5
331
76E
  5
76F
331
78D
  5
78F
331
7E2
  5
7E4
  0
SORTENTSTABLE
  5
13D
102
{ACAD_REACTORS
330
13C
102
}
330
13C
100
AcDbSortentsTable
330
B2
331
129
  5
128
331
127
  5
126
331
125
  5
124
331
12C
  5
12B
331
123
  5
122
331
121
  5
12D
331
12A
  5
129
331
128
  5
127
331
126
  5
125
331
12D
  5
12C
331
124
  5
123
331
12B
  5
12A
331
122
  5
121
  0
DIMASSOC
  5
BD4
102
{ACAD_REACTORS
330
BC9
102
}
330
BC9
100
AcDbDimAssoc
330
BBB
 90
        3
 70
     0
 71
     0
  1
AcDbOsnapPointRef
 72
     1
331
76F
 73
     2
 91
        0
 40
1.0
 10
0.0
 20
0.0
 30
2.000000000000000E+50
 75
     0
  1
AcDbOsnapPointRef
 72
     1
331
75F
 73
     2
 91
        0
 40
0.9999999999999998
 10
0.0
 20
0.0
 30
2.000000000000000E+50
 75
     0
  0
DIMASSOC
  5
BF8
102
{ACAD_REACTORS
330
BED
102
}
330
BED
100
AcDbDimAssoc
330
BDF
 90
        3
 70
     0
 71
     0
  1
AcDbOsnapPointRef
 72
     1
331
76F
 73
     2
 91
        0
 40
1.0
 10
0.0
 20
0.0
 30
2.000000000000000E+50
 75
     0
  1
AcDbOsnapPointRef
 72
    13
331
76F
 73
     2
 91
        0
 40
0.0
 10
0.0
 20
0.0
 30
2.000000000000000E+50
 75
     0
  0
DIMASSOC
  5
C13
102
{ACAD_REACTORS
330
C08
102
}
330
C08
100
AcDbDimAssoc
330
BFA
 90
        3
 70
     0
 71
     0
  1
AcDbOsnapPointRef
 72
     1
331
5A1
 73
     2
 91
        0
 40
1.0
 10
0.0
 20
0.0
 30
2.000000000000000E+50
 75
     0
  1
AcDbOsnapPointRef
 72
    13
331
67A
 73
     2
 91
        0
 40
0.0
 10
0.0
 20
0.0
 30
2.000000000000000E+50
 75
     0
  0
LAYOUT
  5
59
102
{ACAD_REACTORS
330
1A
102
}
330
1A
100
AcDbPlotSettings
  1

  2
None
  4

  6

 40
0.0
 41
0.0
 42
0.0
 43
0.0
 44
0.0
 45
0.0
 46
0.0
 47
0.0
 48
0.0
 49
0.0
140
0.0
141
0.0
142
1.0
143
1.0
 70
   688
 72
     0
 73
     0
 74
     5
  7
monochrome.ctb
 75
    16
147
1.0
 76
     0
 77
     2
 78
   300
148
0.0
149
0.0
100
AcDbLayout
  1
Layout1
 70
     1
 71
     1
 10
0.0
 20
0.0
 11
12.0
 21
9.0
 12
0.0
 22
0.0
 32
0.0
 14
0.0
 24
0.0
 34
0.0
 15
0.0
 25
0.0
 35
0.0
146
0.0
 13
0.0
 23
0.0
 33
0.0
 16
1.0
 26
0.0
 36
0.0
 17
0.0
 27
1.0
 37
0.0
 76
     0
330
58
  0
LAYOUT
  5
5E
102
{ACAD_REACTORS
330
1A
102
}
330
1A
100
AcDbPlotSettings
  1

  2
None
  4

  6

 40
0.0
 41
0.0
 42
0.0
 43
0.0
 44
0.0
 45
0.0
 46
0.0
 47
0.0
 48
0.0
 49
0.0
140
0.0
141
0.0
142
1.0
143
1.0
 70
   688
 72
     0
 73
     0
 74
     5
  7
monochrome.ctb
 75
    16
147
1.0
 76
     0
 77
     2
 78
   300
148
0.0
149
0.0
100
AcDbLayout
  1
Layout2
 70
     1
 71
     2
 10
0.0
 20
0.0
 11
12.0
 21
9.0
 12
0.0
 22
0.0
 32
0.0
 14
0.0
 24
0.0
 34
0.0
 15
0.0
 25
0.0
 35
0.0
146
0.0
 13
0.0
 23
0.0
 33
0.0
 16
1.0
 26
0.0
 36
0.0
 17
0.0
 27
1.0
 37
0.0
 76
     0
330
5D
  0
LAYOUT
  5
22
102
{ACAD_REACTORS
330
1A
102
}
330
1A
100
AcDbPlotSettings
  1

  2
\\Fdlsv03\FDLPR059
  4
Letter
  6

 40
7.143749713897705
 41
5.027085304260253
 42
7.14373779296875
 43
5.027069091796875
 44
215.8999938964844
 45
279.3999938964844
 46
0.0
 47
4.766974542048541
 48
0.0
 49
0.0
140
0.0
141
0.0
142
1.0
143
1.114636483475749
 70
 11956
 72
     0
 73
     1
 74
     1
  7
monochrome.ctb
 75
     0
147
0.8971534799235348
 76
     0
 77
     2
 78
   300
148
0.0186023801347695
149
-0.8301824179829353
100
AcDbLayout
  1
Model
 70
     1
 71
     0
 10
0.0
 20
0.0
 11
12.0
 21
9.0
 12
0.0
 22
0.0
 32
0.0
 14
0.0
 24
0.0
 34
0.0
 15
0.0
 25
0.0
 35
0.0
146
0.0
 13
0.0
 23
0.0
 33
0.0
 16
1.0
 26
0.0
 36
0.0
 17
0.0
 27
1.0
 37
0.0
 76
     0
330
1F
1001
ACAD_PSEXT
1000
\\Fdlsv03\FDLPR059
1000
HP LaserJet 5Si MX
1000
FDL - 4th Floor - Engineering
1000
Formerly FSHPLJ5SI-PCL-ENG
1070
     0
  0
MLINESTYLE
  5
18
102
{ACAD_REACTORS
330
17
102
}
330
17
100
AcDbMlineStyle
  2
STANDARD
 70
     0
  3

 62
   256
 51
90.0
 52
90.0
 71
     2
 49
0.5
 62
   256
  6
BYLAYER
 49
-0.5
 62
   256
  6
BYLAYER
  0
ACDBPLACEHOLDER
  5
F
102
{ACAD_REACTORS
330
E
102
}
330
E
  0
TABLESTYLE
  5
87
102
{ACAD_REACTORS
330
86
102
}
330
86
100
AcDbTableStyle
  3
Standard
 70
     0
 71
     0
 40
0.06
 41
0.06
280
     0
281
     0
  7
Standard
140
0.18
170
     2
 62
     0
 63
     7
283
     0
274
    -2
284
     1
 64
     0
275
    -2
285
     1
 65
     0
276
    -2
286
     1
 66
     0
277
    -2
287
     1
 67
     0
278
    -2
288
     1
 68
     0
279
    -2
289
     1
 69
     0
  7
Standard
140
0.25
170
     5
 62
     0
 63
     7
283
     0
274
    -2
284
     1
 64
     0
275
    -2
285
     1
 65
     0
276
    -2
286
     1
 66
     0
277
    -2
287
     1
 67
     0
278
    -2
288
     1
 68
     0
279
    -2
289
     1
 69
     0
  7
Standard
140
0.18
170
     5
 62
     0
 63
     7
283
     0
274
    -2
284
     1
 64
     0
275
    -2
285
     1
 65
     0
276
    -2
286
     1
 66
     0
277
    -2
287
     1
 67
     0
278
    -2
288
     1
 68
     0
279
    -2
289
     1
 69
     0
  0
DICTIONARYVAR
  5
150
102
{ACAD_REACTORS
330
66
102
}
330
66
100
DictionaryVariables
280
     0
  1
STANDARD
  0
DICTIONARYVAR
  5
67
102
{ACAD_REACTORS
330
66
102
}
330
66
100
DictionaryVariables
280
     0
  1
2
  0
DICTIONARYVAR
  5
6B
102
{ACAD_REACTORS
330
66
102
}
330
66
100
DictionaryVariables
280
     0
  1
1
  0
ENDSEC
  0
EOF
