  0
SECTION
  2
HEADER
  9
$ACADVER
  1
AC1018
  9
$ACADMAINTVER
 70
    76
  9
$DWGCODEPAGE
  3
ANSI_1252
  9
$LASTSAVEDBY
  1
gregory.mumm
  9
$INSBASE
 10
0.0
 20
0.0
 30
0.0
  9
$EXTMIN
 10
-0.00054918787934
 20
0.0326843471646825
 30
-0.0000000000000058
  9
$EXTMAX
 10
11.40068668866974
 20
8.880111715151127
 30
0.0000000000000104
  9
$LIMMIN
 10
0.0
 20
0.0
  9
$LIMMAX
 10
12.0
 20
9.0
  9
$ORTHOMODE
 70
     0
  9
$REGENMODE
 70
     1
  9
$FILLMODE
 70
     1
  9
$QTEXTMODE
 70
     0
  9
$MIRRTEXT
 70
     0
  9
$LTSCALE
 40
1.0
  9
$ATTMODE
 70
     1
  9
$TEXTSIZE
 40
0.2
  9
$TRACEWID
 40
0.05
  9
$TEXTSTYLE
  7
Standard
  9
$CLAYER
  8
0
  9
$CELTYPE
  6
ByLayer
  9
$CECOLOR
 62
   256
  9
$CELTSCALE
 40
1.0
  9
$DISPSILH
 70
     0
  9
$DIMSCALE
 40
1.0
  9
$DIMASZ
 40
0.18
  9
$DIMEXO
 40
0.0625
  9
$DIMDLI
 40
0.38
  9
$DIMRND
 40
0.0
  9
$DIMDLE
 40
0.0
  9
$DIMEXE
 40
0.18
  9
$DIMTP
 40
0.0
  9
$DIMTM
 40
0.0
  9
$DIMTXT
 40
0.18
  9
$DIMCEN
 40
0.09
  9
$DIMTSZ
 40
0.0
  9
$DIMTOL
 70
     0
  9
$DIMLIM
 70
     0
  9
$DIMTIH
 70
     1
  9
$DIMTOH
 70
     1
  9
$DIMSE1
 70
     0
  9
$DIMSE2
 70
     0
  9
$DIMTAD
 70
     0
  9
$DIMZIN
 70
     0
  9
$DIMBLK
  1

  9
$DIMASO
 70
     1
  9
$DIMSHO
 70
     1
  9
$DIMPOST
  1

  9
$DIMAPOST
  1

  9
$DIMALT
 70
     0
  9
$DIMALTD
 70
     2
  9
$DIMALTF
 40
25.4
  9
$DIMLFAC
 40
1.0
  9
$DIMTOFL
 70
     0
  9
$DIMTVP
 40
0.0
  9
$DIMTIX
 70
     0
  9
$DIMSOXD
 70
     0
  9
$DIMSAH
 70
     0
  9
$DIMBLK1
  1

  9
$DIMBLK2
  1

  9
$DIMSTYLE
  2
Standard
  9
$DIMCLRD
 70
     0
  9
$DIMCLRE
 70
     0
  9
$DIMCLRT
 70
     0
  9
$DIMTFAC
 40
1.0
  9
$DIMGAP
 40
0.09
  9
$DIMJUST
 70
     0
  9
$DIMSD1
 70
     0
  9
$DIMSD2
 70
     0
  9
$DIMTOLJ
 70
     1
  9
$DIMTZIN
 70
     0
  9
$DIMALTZ
 70
     0
  9
$DIMALTTZ
 70
     0
  9
$DIMUPT
 70
     0
  9
$DIMDEC
 70
     4
  9
$DIMTDEC
 70
     4
  9
$DIMALTU
 70
     2
  9
$DIMALTTD
 70
     2
  9
$DIMTXSTY
  7
Standard
  9
$DIMAUNIT
 70
     0
  9
$DIMADEC
 70
     0
  9
$DIMALTRND
 40
0.0
  9
$DIMAZIN
 70
     0
  9
$DIMDSEP
 70
    46
  9
$DIMATFIT
 70
     3
  9
$DIMFRAC
 70
     0
  9
$DIMLDRBLK
  1

  9
$DIMLUNIT
 70
     2
  9
$DIMLWD
 70
    -2
  9
$DIMLWE
 70
    -2
  9
$DIMTMOVE
 70
     0
  9
$LUNITS
 70
     2
  9
$LUPREC
 70
     4
  9
$SKETCHINC
 40
0.1
  9
$FILLETRAD
 40
0.0
  9
$AUNITS
 70
     0
  9
$AUPREC
 70
     0
  9
$MENU
  1
.
  9
$ELEVATION
 40
0.0
  9
$PELEVATION
 40
0.0
  9
$THICKNESS
 40
0.0
  9
$LIMCHECK
 70
     0
  9
$CHAMFERA
 40
0.0
  9
$CHAMFERB
 40
0.0
  9
$CHAMFERC
 40
0.0
  9
$CHAMFERD
 40
0.0
  9
$SKPOLY
 70
     0
  9
$TDCREATE
 40
2454351.274900730
  9
$TDUCREATE
 40
2454351.524900729
  9
$TDUPDATE
 40
2455251.427612176
  9
$TDUUPDATE
 40
2455251.677612176
  9
$TDINDWG
 40
0.0449984606
  9
$TDUSRTIMER
 40
0.0449984606
  9
$USRTIMER
 70
     1
  9
$ANGBASE
 50
0.0
  9
$ANGDIR
 70
     0
  9
$PDMODE
 70
     0
  9
$PDSIZE
 40
0.0
  9
$PLINEWID
 40
0.0
  9
$SPLFRAME
 70
     0
  9
$SPLINETYPE
 70
     6
  9
$SPLINESEGS
 70
     8
  9
$HANDSEED
  5
FAD
  9
$SURFTAB1
 70
     6
  9
$SURFTAB2
 70
     6
  9
$SURFTYPE
 70
     6
  9
$SURFU
 70
     6
  9
$SURFV
 70
     6
  9
$UCSBASE
  2

  9
$UCSNAME
  2

  9
$UCSORG
 10
0.0
 20
0.0
 30
0.0
  9
$UCSXDIR
 10
1.0
 20
0.0
 30
0.0
  9
$UCSYDIR
 10
0.0
 20
1.0
 30
0.0
  9
$UCSORTHOREF
  2

  9
$UCSORTHOVIEW
 70
     0
  9
$UCSORGTOP
 10
0.0
 20
0.0
 30
0.0
  9
$UCSORGBOTTOM
 10
0.0
 20
0.0
 30
0.0
  9
$UCSORGLEFT
 10
0.0
 20
0.0
 30
0.0
  9
$UCSORGRIGHT
 10
0.0
 20
0.0
 30
0.0
  9
$UCSORGFRONT
 10
0.0
 20
0.0
 30
0.0
  9
$UCSORGBACK
 10
0.0
 20
0.0
 30
0.0
  9
$PUCSBASE
  2

  9
$PUCSNAME
  2

  9
$PUCSORG
 10
0.0
 20
0.0
 30
0.0
  9
$PUCSXDIR
 10
1.0
 20
0.0
 30
0.0
  9
$PUCSYDIR
 10
0.0
 20
1.0
 30
0.0
  9
$PUCSORTHOREF
  2

  9
$PUCSORTHOVIEW
 70
     0
  9
$PUCSORGTOP
 10
0.0
 20
0.0
 30
0.0
  9
$PUCSORGBOTTOM
 10
0.0
 20
0.0
 30
0.0
  9
$PUCSORGLEFT
 10
0.0
 20
0.0
 30
0.0
  9
$PUCSORGRIGHT
 10
0.0
 20
0.0
 30
0.0
  9
$PUCSORGFRONT
 10
0.0
 20
0.0
 30
0.0
  9
$PUCSORGBACK
 10
0.0
 20
0.0
 30
0.0
  9
$USERI1
 70
     0
  9
$USERI2
 70
     0
  9
$USERI3
 70
     0
  9
$USERI4
 70
     0
  9
$USERI5
 70
     0
  9
$USERR1
 40
0.0
  9
$USERR2
 40
0.0
  9
$USERR3
 40
0.0
  9
$USERR4
 40
0.0
  9
$USERR5
 40
0.0
  9
$WORLDVIEW
 70
     1
  9
$SHADEDGE
 70
     3
  9
$SHADEDIF
 70
    70
  9
$TILEMODE
 70
     1
  9
$MAXACTVP
 70
    64
  9
$PINSBASE
 10
0.0
 20
0.0
 30
0.0
  9
$PLIMCHECK
 70
     0
  9
$PEXTMIN
 10
0.0
 20
0.0
 30
0.0
  9
$PEXTMAX
 10
0.0
 20
0.0
 30
0.0
  9
$PLIMMIN
 10
0.0
 20
0.0
  9
$PLIMMAX
 10
12.0
 20
9.0
  9
$UNITMODE
 70
     0
  9
$VISRETAIN
 70
     1
  9
$PLINEGEN
 70
     0
  9
$PSLTSCALE
 70
     1
  9
$TREEDEPTH
 70
  3020
  9
$CMLSTYLE
  2
Standard
  9
$CMLJUST
 70
     0
  9
$CMLSCALE
 40
1.0
  9
$PROXYGRAPHICS
 70
     1
  9
$MEASUREMENT
 70
     0
  9
$CELWEIGHT
370
    -1
  9
$ENDCAPS
280
     0
  9
$JOINSTYLE
280
     0
  9
$LWDISPLAY
290
     0
  9
$INSUNITS
 70
     1
  9
$HYPERLINKBASE
  1

  9
$STYLESHEET
  1
monochrome.ctb
  9
$XEDIT
290
     1
  9
$CEPSNTYPE
380
     0
  9
$PSTYLEMODE
290
     1
  9
$FINGERPRINTGUID
  2
{A2C7984E-52BD-47D3-A4C1-4A9BAB15BC4F}
  9
$VERSIONGUID
  2
{0359F8DA-8A06-4B59-823D-07CBD498AF1D}
  9
$EXTNAMES
290
     1
  9
$PSVPSCALE
 40
0.0
  9
$OLESTARTUP
290
     0
  9
$SORTENTS
280
   127
  9
$INDEXCTL
280
     0
  9
$HIDETEXT
280
     1
  9
$XCLIPFRAME
290
     0
  9
$HALOGAP
280
     0
  9
$OBSCOLOR
 70
   257
  9
$OBSLTYPE
280
     0
  9
$INTERSECTIONDISPLAY
280
     0
  9
$INTERSECTIONCOLOR
 70
   257
  9
$DIMASSOC
280
     2
  9
$PROJECTNAME
  1

  0
ENDSEC
  0
SECTION
  2
CLASSES
  0
CLASS
  1
ACDBDICTIONARYWDFLT
  2
AcDbDictionaryWithDefault
  3
ObjectDBX Classes
 90
        0
 91
        1
280
     0
281
     0
  0
CLASS
  1
DICTIONARYVAR
  2
AcDbDictionaryVar
  3
ObjectDBX Classes
 90
        0
 91
        3
280
     0
281
     0
  0
CLASS
  1
TABLESTYLE
  2
AcDbTableStyle
  3
ObjectDBX Classes
 90
     2047
 91
        1
280
     0
281
     0
  0
CLASS
  1
SORTENTSTABLE
  2
AcDbSortentsTable
  3
ObjectDBX Classes
 90
        0
 91
        2
280
     0
281
     0
  0
CLASS
  1
DIMASSOC
  2
AcDbDimAssoc
  3
"AcDbDimAssoc|Product Desc:     AcDim ARX App For Dimension|Company:          Autodesk, Inc.|WEB Address:      www.autodesk.com"
 90
        0
 91
        3
280
     0
281
     0
  0
ENDSEC
  0
SECTION
  2
TABLES
  0
TABLE
  2
VPORT
  5
8
330
0
100
AcDbSymbolTable
 70
     3
  0
VPORT
  5
FAC
330
8
100
AcDbSymbolTableRecord
100
AcDbViewportTableRecord
  2
*Active
 70
     0
 10
0.0
 20
0.0
 11
1.0
 21
1.0
 12
5.7000687503952
 22
4.456398031157904
 13
0.0
 23
0.0
 14
0.125
 24
0.125
 15
0.5
 25
0.5
 16
0.0
 26
0.0
 36
1.0
 17
0.0
 27
0.0
 37
0.0
 40
8.932498784986314
 41
1.730337078651685
 42
50.0
 43
0.0
 44
0.0
 50
0.0
 51
0.0
 71
     0
 72
  1000
 73
     1
 74
     3
 75
     0
 76
     0
 77
     0
 78
     0
281
     0
 65
     1
110
0.0
120
0.0
130
0.0
111
1.0
121
0.0
131
0.0
112
0.0
122
1.0
132
0.0
 79
     0
146
0.0
  0
ENDTAB
  0
TABLE
  2
LTYPE
  5
5
330
0
100
AcDbSymbolTable
 70
    17
  0
LTYPE
  5
14
330
5
100
AcDbSymbolTableRecord
100
AcDbLinetypeTableRecord
  2
ByBlock
 70
     0
  3

 72
    65
 73
     0
 40
0.0
  0
LTYPE
  5
15
330
5
100
AcDbSymbolTableRecord
100
AcDbLinetypeTableRecord
  2
ByLayer
 70
     0
  3

 72
    65
 73
     0
 40
0.0
  0
LTYPE
  5
16
330
5
100
AcDbSymbolTableRecord
100
AcDbLinetypeTableRecord
  2
Continuous
 70
     0
  3
Solid line
 72
    65
 73
     0
 40
0.0
  0
LTYPE
  5
8F
330
5
100
AcDbSymbolTableRecord
100
AcDbLinetypeTableRecord
  2
MS
 70
     0
  3
MEDIUM_SOLID
 72
    65
 73
     0
 40
0.0
  0
LTYPE
  5
90
330
5
100
AcDbSymbolTableRecord
100
AcDbLinetypeTableRecord
  2
AM_ISO02W050
 70
     0
  3
__ __ __ __ __ __ __ __ __ __ __ __ __ __ __
 72
    65
 73
     2
 40
7.5
 49
6.0
 74
     0
 49
-1.5
 74
     0
  0
LTYPE
  5
91
330
5
100
AcDbSymbolTableRecord
100
AcDbLinetypeTableRecord
  2
AM_ISO08W050
 70
     0
  3
____ . ____ . ____ . ____ . ____ . ____ . ____
 72
    65
 73
     4
 40
18.0
 49
12.0
 74
     0
 49
-1.5
 74
     0
 49
3.0
 74
     0
 49
-1.5
 74
     0
  0
LTYPE
  5
92
330
5
100
AcDbSymbolTableRecord
100
AcDbLinetypeTableRecord
  2
AM_ISO09W050
 70
     0
  3
_____ . . _____ . . _____ . . ____ .. ____
 72
    65
 73
     6
 40
22.5
 49
12.0
 74
     0
 49
-1.5
 74
     0
 49
3.0
 74
     0
 49
-1.5
 74
     0
 49
3.0
 74
     0
 49
-1.5
 74
     0
  0
LTYPE
  5
93
330
5
100
AcDbSymbolTableRecord
100
AcDbLinetypeTableRecord
  2
Amconstr
 70
     0
  3
_______________________
 72
    65
 73
     2
 40
9999.0
 49
9999.0
 74
     0
 49
0.0
 74
     0
  0
LTYPE
  5
94
330
5
100
AcDbSymbolTableRecord
100
AcDbLinetypeTableRecord
  2
AM_ISO08W050x2
 70
     0
  3
__ . __ . __ . __ . __ . __
 72
    65
 73
     4
 40
9.0
 49
6.0
 74
     0
 49
-0.75
 74
     0
 49
1.5
 74
     0
 49
-0.75
 74
     0
  0
LTYPE
  5
95
330
5
100
AcDbSymbolTableRecord
100
AcDbLinetypeTableRecord
  2
AM_ISO02W050x2
 70
     0
  3
 _ _ _ _ _ _ _ _ _ _ _ _
 72
    65
 73
     2
 40
3.75
 49
3.0
 74
     0
 49
-0.75
 74
     0
  0
LTYPE
  5
96
330
5
100
AcDbSymbolTableRecord
100
AcDbLinetypeTableRecord
  2
Amzigzag
 70
     0
  3
/\/-/\/-/\/-/\/-/\/-/\/
 72
    65
 73
     2
 40
11.0001
 49
0.0001
 74
     4
 75
   135
340
A3
 46
0.04
 50
0.0
 44
0.0
 45
0.0
 49
-11.0
 74
     0
  0
LTYPE
  5
97
330
5
100
AcDbSymbolTableRecord
100
AcDbLinetypeTableRecord
  2
HIDDEN
 70
     0
  3
Hidden __ __ __ __ __ __ __ __ __ __ __ __ __ _
 72
    65
 73
     2
 40
0.375
 49
0.25
 74
     0
 49
-0.125
 74
     0
  0
LTYPE
  5
98
330
5
100
AcDbSymbolTableRecord
100
AcDbLinetypeTableRecord
  2
CENTER
 70
     0
  3
Center ____ _ ____ _ ____ _ ____ _ ____ _ ____
 72
    65
 73
     4
 40
2.0
 49
1.25
 74
     0
 49
-0.25
 74
     0
 49
0.25
 74
     0
 49
-0.25
 74
     0
  0
LTYPE
  5
99
330
5
100
AcDbSymbolTableRecord
100
AcDbLinetypeTableRecord
  2
PHANTOM2
 70
     0
  3
Phantom (.5x) ___ _ _ ___ _ _ ___ _ _ ___ _ _
 72
    65
 73
     6
 40
1.25
 49
0.625
 74
     0
 49
-0.125
 74
     0
 49
0.125
 74
     0
 49
-0.125
 74
     0
 49
0.125
 74
     0
 49
-0.125
 74
     0
  0
LTYPE
  5
9A
330
5
100
AcDbSymbolTableRecord
100
AcDbLinetypeTableRecord
  2
CENTER2
 70
     0
  3
Center (.5x) ___ _ ___ _ ___ _ ___ _ ___ _ ___
 72
    65
 73
     4
 40
1.125
 49
0.75
 74
     0
 49
-0.125
 74
     0
 49
0.125
 74
     0
 49
-0.125
 74
     0
  0
LTYPE
  5
9B
330
5
100
AcDbSymbolTableRecord
100
AcDbLinetypeTableRecord
  2
HIDDEN2
 70
     0
  3
Hidden (.5x) _ _ _ _ _ _ _ _ _ _ _ _ _ _ _ _ _
 72
    65
 73
     2
 40
0.1875
 49
0.125
 74
     0
 49
-0.0625
 74
     0
  0
LTYPE
  5
9C
330
5
100
AcDbSymbolTableRecord
100
AcDbLinetypeTableRecord
  2
Amzigzag2
 70
     0
  3
/\/-/\/-/\/-/\/-/\/-/\/
 72
    65
 73
     2
 40
0.4401
 49
0.0001
 74
     4
 75
   135
340
A3
 46
0.0016
 50
0.0
 44
0.0
 45
0.0
 49
-0.4400000000000001
 74
     0
  0
LTYPE
  5
9D
330
5
100
AcDbSymbolTableRecord
100
AcDbLinetypeTableRecord
  2
ACANSTGB
 70
     0
  3
__ . . __ . .
 72
    65
 73
     6
 40
0.35433070866
 49
0.15748031496
 74
     0
 49
-0.03937007874
 74
     0
 49
0.03937007874
 74
     0
 49
-0.03937007874
 74
     0
 49
0.03937007874
 74
     0
 49
-0.03937007874
 74
     0
  0
LTYPE
  5
9E
330
5
100
AcDbSymbolTableRecord
100
AcDbLinetypeTableRecord
  2
ACANSTGL
 70
     0
  3
_ _ _ _ _
 72
    65
 73
     2
 40
0.11811023622
 49
0.07874015748
 74
     0
 49
-0.03937007874
 74
     0
  0
ENDTAB
  0
TABLE
  2
LAYER
  5
2
330
0
100
AcDbSymbolTable
 70
     5
  0
LAYER
  5
10
330
2
100
AcDbSymbolTableRecord
100
AcDbLayerTableRecord
  2
0
 70
     0
 62
     7
  6
Continuous
370
    -3
390
F
  0
LAYER
  5
9F
330
2
100
AcDbSymbolTableRecord
100
AcDbLayerTableRecord
  2
BORDER
 70
     0
 62
    15
  6
Continuous
370
    -3
390
F
  0
LAYER
  5
A0
330
2
100
AcDbSymbolTableRecord
100
AcDbLayerTableRecord
  2
Title Block
 70
     0
 62
     2
  6
Continuous
370
    -3
390
F
  0
LAYER
  5
151
330
2
100
AcDbSymbolTableRecord
100
AcDbLayerTableRecord
  2
2
 70
     0
 62
     2
  6
Continuous
370
    -3
390
F
  0
LAYER
  5
549
330
2
100
AcDbSymbolTableRecord
100
AcDbLayerTableRecord
  2
Defpoints
 70
     0
 62
     7
  6
Continuous
290
     0
370
    -3
390
F
  0
ENDTAB
  0
TABLE
  2
STYLE
  5
3
330
0
100
AcDbSymbolTable
 70
     9
  0
STYLE
  5
11
330
3
100
AcDbSymbolTableRecord
100
AcDbTextStyleTableRecord
  2
Standard
 70
     0
 40
0.0
 41
1.0
 50
0.0
 71
     0
 42
0.2
  3
txt
  4

  0
STYLE
  5
A1
330
3
100
AcDbSymbolTableRecord
100
AcDbTextStyleTableRecord
  2
AE
 70
     0
 40
0.0
 41
1.0
 50
0.0
 71
     0
 42
0.16408998
  3
MIGRATOR
  4

  0
STYLE
  5
A2
330
3
100
AcDbSymbolTableRecord
100
AcDbTextStyleTableRecord
  2

 70
     1
 40
0.0
 41
1.0
 50
0.0
 71
     0
 42
1.0
  3
symtb128
  4

  0
STYLE
  5
A3
330
3
100
AcDbSymbolTableRecord
100
AcDbTextStyleTableRecord
  2

 70
     1
 40
0.0
 41
1.0
 50
0.0
 71
     0
 42
2.5
  3
ltypeshp.shx
  4

  0
STYLE
  5
A4
330
3
100
AcDbSymbolTableRecord
100
AcDbTextStyleTableRecord
  2
ACANSTS
 70
     0
 40
1.0
 41
1.0
 50
0.0
 71
     0
 42
2.5
  3
romans.shx
  4

  0
STYLE
  5
A5
330
3
100
AcDbSymbolTableRecord
100
AcDbTextStyleTableRecord
  2
ACANSGDT
 70
     0
 40
0.0
 41
1.0
 50
0.0
 71
     0
 42
2.5
  3
amgdtans.shx
  4

  0
STYLE
  5
152
330
3
100
AcDbSymbolTableRecord
100
AcDbTextStyleTableRecord
  2
ROMANS
 70
     0
 40
0.1
 41
1.0
 50
0.0
 71
     0
 42
0.1
  3
romans
  4

  0
STYLE
  5
153
330
3
100
AcDbSymbolTableRecord
100
AcDbTextStyleTableRecord
  2
ROMAND
 70
     0
 40
0.1
 41
1.0
 50
15.0
 71
     0
 42
0.1
  3
romand
  4

  0
ENDTAB
  0
TABLE
  2
VIEW
  5
6
330
0
100
AcDbSymbolTable
 70
     0
  0
ENDTAB
  0
TABLE
  2
UCS
  5
7
330
0
100
AcDbSymbolTable
 70
     0
  0
ENDTAB
  0
TABLE
  2
APPID
  5
9
330
0
100
AcDbSymbolTable
 70
     7
  0
APPID
  5
12
330
9
100
AcDbSymbolTableRecord
100
AcDbRegAppTableRecord
  2
ACAD
 70
     0
  0
APPID
  5
AD
330
9
100
AcDbSymbolTableRecord
100
AcDbRegAppTableRecord
  2
GENIUS_GENBLLY_14
 70
     0
  0
APPID
  5
AE
330
9
100
AcDbSymbolTableRecord
100
AcDbRegAppTableRecord
  2
GENIUS_GENTRA_14
 70
     0
  0
APPID
  5
AF
330
9
100
AcDbSymbolTableRecord
100
AcDbRegAppTableRecord
  2
MCAD_NO_VIS
 70
     0
  0
APPID
  5
B0
330
9
100
AcDbSymbolTableRecord
100
AcDbRegAppTableRecord
  2
ACAD_TEMP_GRAPHIC
 70
     0
  0
APPID
  5
B1
330
9
100
AcDbSymbolTableRecord
100
AcDbRegAppTableRecord
  2
ACATTRIBSERVICES
 70
     0
  0
APPID
  5
5CA
330
9
100
AcDbSymbolTableRecord
100
AcDbRegAppTableRecord
  2
ACAD_PSEXT
 70
     0
  0
ENDTAB
  0
TABLE
  2
DIMSTYLE
  5
A
330
0
100
AcDbSymbolTable
 70
     9
100
AcDbDimStyleTable
 71
     1
340
27
  0
DIMSTYLE
105
27
102
{ACAD_REACTORS
330
EAE
330
EFF
330
F19
102
}
330
A
100
AcDbSymbolTableRecord
100
AcDbDimStyleTableRecord
  2
Standard
 70
     0
340
11
  0
DIMSTYLE
105
A6
330
A
100
AcDbSymbolTableRecord
100
AcDbDimStyleTableRecord
  2
GEN-ANSI
 70
     0
  3
<>
  4
mm
 41
0.14
 42
0.125
 43
0.5
 44
0.125
 47
0.1
 48
0.1
 73
     0
 74
     0
 77
     1
 78
     7
140
0.12
141
0.0
146
0.71
147
0.06
176
   256
177
   256
178
     2
274
     4
340
11
  0
DIMSTYLE
105
A7
330
A
100
AcDbSymbolTableRecord
100
AcDbDimStyleTableRecord
  2
AM_ANSI
 70
     0
  4
mm
 41
0.1
 42
0.05
 43
0.5
 44
0.1
 47
0.1
 48
0.1
 78
     7
 79
     2
140
0.12
141
0.0
146
0.71
147
0.06
176
   256
177
   256
178
     2
274
     4
284
     7
340
11
371
    -1
372
    -1
  0
DIMSTYLE
105
A8
330
A
100
AcDbSymbolTableRecord
100
AcDbDimStyleTableRecord
  2
AM_ANSI$3
 70
     0
  4
mm
 41
0.1
 42
0.05
 43
0.5
 44
0.1
 47
0.1
 48
0.1
 78
     7
 79
     2
140
0.12
141
0.0
146
0.71
147
0.06
176
   256
177
   256
178
     2
274
     4
284
     7
288
     1
289
     0
340
11
371
    -1
372
    -1
  0
DIMSTYLE
105
A9
330
A
100
AcDbSymbolTableRecord
100
AcDbDimStyleTableRecord
  2
AM_ANSI$4
 70
     0
  4
mm
 41
0.1
 42
0.05
 43
0.5
 44
0.1
 47
0.1
 48
0.1
 78
     7
 79
     2
140
0.12
141
0.0
146
0.71
147
0.06
176
   256
177
   256
178
     2
274
     4
284
     7
288
     1
289
     0
340
11
371
    -1
372
    -1
  0
DIMSTYLE
105
AA
330
A
100
AcDbSymbolTableRecord
100
AcDbDimStyleTableRecord
  2
AM_ANSI$7
 70
     0
  4
mm
 41
0.1
 42
0.05
 43
0.5
 44
0.1
 47
0.1
 48
0.1
 78
     7
 79
     2
140
0.24
141
0.0
146
0.71
147
0.06
176
   256
177
   256
178
     2
274
     4
284
     7
340
11
371
    -1
372
    -1
  0
DIMSTYLE
105
AB
330
A
100
AcDbSymbolTableRecord
100
AcDbDimStyleTableRecord
  2
AM_ANSI$SF
 70
     0
  4
mm
 41
0.1
 42
0.05
 43
0.5
 44
0.1
 47
0.1
 48
0.1
 75
     1
 76
     1
 78
     7
 79
     2
140
0.12
141
0.0
146
0.71
147
0.06
176
   256
177
   256
178
     2
274
     4
284
     7
340
11
371
    -1
372
    -1
  0
DIMSTYLE
105
AC
330
A
100
AcDbSymbolTableRecord
100
AcDbDimStyleTableRecord
  2
AM_ANSI$SH
 70
     0
  4
mm
 41
0.1
 42
0.05
 43
0.5
 44
0.1
 47
0.1
 48
0.1
 75
     1
 76
     1
 78
     7
 79
     2
140
0.12
141
0.0
146
0.71
147
0.06
173
     1
176
   256
177
   256
178
     2
274
     4
284
     7
340
11
343
8B
371
    -1
372
    -1
  0
ENDTAB
  0
TABLE
  2
BLOCK_RECORD
  5
1
330
0
100
AcDbSymbolTable
 70
     8
  0
BLOCK_RECORD
  5
1F
102
{ACAD_XDICTIONARY
360
EAC
102
}
330
1
100
AcDbSymbolTableRecord
100
AcDbBlockTableRecord
  2
*Model_Space
340
22
  0
BLOCK_RECORD
  5
58
330
1
100
AcDbSymbolTableRecord
100
AcDbBlockTableRecord
  2
*Paper_Space
340
59
  0
BLOCK_RECORD
  5
5D
330
1
100
AcDbSymbolTableRecord
100
AcDbBlockTableRecord
  2
*Paper_Space0
340
5E
  0
BLOCK_RECORD
  5
8B
330
1
100
AcDbSymbolTableRecord
100
AcDbBlockTableRecord
  2
GENAXEH
340
0
  0
BLOCK_RECORD
  5
B2
102
{ACAD_XDICTIONARY
360
13C
102
}
330
1
100
AcDbSymbolTableRecord
100
AcDbBlockTableRecord
  2
ASSEMBLY_A
340
0
102
{BLKREFS
331
140
102
}
  0
BLOCK_RECORD
  5
B84
330
1
100
AcDbSymbolTableRecord
100
AcDbBlockTableRecord
  2
A$C1A5C1ECE
340
0
1001
ACAD
1000
DesignCenter Data
1002
{
1070
     1
1070
     0
1002
}
  0
BLOCK_RECORD
  5
EAF
330
1
100
AcDbSymbolTableRecord
100
AcDbBlockTableRecord
  2
*D4
340
0
  0
BLOCK_RECORD
  5
F00
330
1
100
AcDbSymbolTableRecord
100
AcDbBlockTableRecord
  2
*D5
340
0
  0
BLOCK_RECORD
  5
F1A
330
1
100
AcDbSymbolTableRecord
100
AcDbBlockTableRecord
  2
*D6
340
0
  0
ENDTAB
  0
ENDSEC
  0
SECTION
  2
BLOCKS
  0
BLOCK
  5
20
330
1F
100
AcDbEntity
  8
0
100
AcDbBlockBegin
  2
*Model_Space
 70
     0
 10
0.0
 20
0.0
 30
0.0
  3
*Model_Space
  1

  0
ENDBLK
  5
21
330
1F
100
AcDbEntity
  8
0
100
AcDbBlockEnd
  0
BLOCK
  5
5A
330
58
100
AcDbEntity
 67
     1
  8
0
100
AcDbBlockBegin
  2
*Paper_Space
 70
     0
 10
0.0
 20
0.0
 30
0.0
  3
*Paper_Space
  1

  0
ENDBLK
  5
5B
330
58
100
AcDbEntity
 67
     1
  8
0
100
AcDbBlockEnd
  0
BLOCK
  5
5F
330
5D
100
AcDbEntity
 67
     1
  8
0
100
AcDbBlockBegin
  2
*Paper_Space0
 70
     0
 10
0.0
 20
0.0
 30
0.0
  3
*Paper_Space0
  1

  0
ENDBLK
  5
60
330
5D
100
AcDbEntity
 67
     1
  8
0
100
AcDbBlockEnd
  0
BLOCK
  5
8C
330
8B
100
AcDbEntity
  8
0
100
AcDbBlockBegin
  2
GENAXEH
 70
     0
 10
0.0
 20
0.0
 30
0.0
  3
GENAXEH
  1

  0
LINE
  5
8D
330
8B
100
AcDbEntity
  8
0
100
AcDbLine
 10
-1.0
 20
0.0
 30
0.0
 11
1.0
 21
0.0
 31
0.0
  0
ENDBLK
  5
8E
330
8B
100
AcDbEntity
  8
0
100
AcDbBlockEnd
  0
BLOCK
  5
13E
330
B2
100
AcDbEntity
  8
0
100
AcDbBlockBegin
  2
ASSEMBLY_A
 70
     2
 10
0.0
 20
0.0
 30
0.0
  3
ASSEMBLY_A
  1

  0
LINE
  5
B3
330
B2
100
AcDbEntity
  8
BORDER
 62
    15
100
AcDbLine
 10
11.00000226000001
 20
0.3999656890232614
 30
0.0
 11
11.00000226000001
 21
8.5
 31
0.0
  0
LINE
  5
B4
330
B2
100
AcDbEntity
  8
BORDER
 62
    15
100
AcDbLine
 10
0.400011260000019
 20
0.3999656890232617
 30
0.0
 11
0.400011260000019
 21
8.5
 31
0.0
  0
LINE
  5
B5
330
B2
100
AcDbEntity
  8
BORDER
 62
    15
100
AcDbLine
 10
0.400011260000019
 20
0.3999656890232617
 30
0.0
 11
11.00000226000001
 21
0.3999656890232617
 31
0.0
  0
LINE
  5
B6
330
B2
100
AcDbEntity
  8
BORDER
 62
    15
100
AcDbLine
 10
0.0000022600000076
 20
4.249999854999983
 30
0.0
 11
0.400011260000019
 21
4.249999854999983
 31
0.0
  0
TEXT
  5
B7
330
B2
100
AcDbEntity
  8
Title Block
  6
Continuous
 62
     2
100
AcDbText
 10
6.706697087226764
 20
2.205546537751305
 30
0.0
 40
0.1010611419
  1
DO NOT SCALE
 50
0.09999996
  7
AE
100
AcDbText
  0
TEXT
  5
B8
330
B2
100
AcDbEntity
  8
Title Block
  6
Continuous
 62
     2
100
AcDbText
 10
6.706697087226764
 20
1.996163262564665
 30
0.0
 40
0.1010611419
  1
  DRAWING
 50
0.09999996
  7
AE
100
AcDbText
  0
ATTDEF
  5
B9
330
B2
100
AcDbEntity
  8
Title Block
  6
Continuous
 62
     2
100
AcDbText
 10
5.200002260000005
 20
0.6000000000000001
 30
0.0
 40
0.126326427375
  1

 41
0.8
100
AcDbAttributeDefinition
  3
Drawing Name
  2
GEN-TITLE-DES1{15.54}
 70
     0
1001
GENIUS_GENBLLY_14
1000
BOR5
  0
LINE
  5
BA
330
B2
100
AcDbEntity
  8
Title Block
  6
Continuous
 62
     2
100
AcDbLine
 10
2.250002260000005
 20
2.4
 30
0.0
 11
11.00000226000001
 21
2.4
 31
0.0
  0
LINE
  5
BB
330
B2
100
AcDbEntity
  8
Title Block
  6
Continuous
 62
     2
100
AcDbLine
 10
6.575192215153515
 20
1.7
 30
0.0
 11
11.00000226000001
 21
1.7
 31
0.0
  0
LINE
  5
BC
330
B2
100
AcDbEntity
  8
Title Block
  6
Continuous
 62
     2
100
AcDbLine
 10
6.575192215153515
 20
1.45
 30
0.0
 11
11.00000226000001
 21
1.45
 31
0.0
  0
LINE
  5
BD
330
B2
100
AcDbEntity
  8
Title Block
  6
Continuous
 62
     2
100
AcDbLine
 10
6.575192215153515
 20
1.199999999999999
 30
0.0
 11
11.00000226000001
 21
1.199999999999999
 31
0.0
  0
LINE
  5
BE
330
B2
100
AcDbEntity
  8
Title Block
  6
Continuous
 62
     2
100
AcDbLine
 10
5.099658650318536
 20
0.95
 30
0.0
 11
11.00000226000001
 21
0.95
 31
0.0
  0
ATTDEF
  5
BF
330
B2
100
AcDbEntity
  8
Title Block
  6
Continuous
 62
     2
100
AcDbText
 10
6.925002260000004
 20
1.024999999999999
 30
0.0
 40
0.1010611419
  1

100
AcDbAttributeDefinition
  3
Approved by
  2
GEN-TITLE-APPM{5}
 70
     0
1001
GENIUS_GENBLLY_14
1000
BOR2
1001
GENIUS_GENTRA_14
1002
{
1070
     3
1000
GENTRAPR,%s,(GENMSG gentitus 73)
1000
Approved by
1000
gb
1070
     0
1002
}
  0
ATTDEF
  5
C0
330
B2
100
AcDbEntity
  8
Title Block
  6
Continuous
 62
     2
100
AcDbText
 10
6.925002260000004
 20
1.274999999999999
 30
0.0
 40
0.1010611419
  1

100
AcDbAttributeDefinition
  3
Check by
  2
GEN-TITLE-CHKM{5}
 70
     0
1001
GENIUS_GENBLLY_14
1000
BOR2
  0
ATTDEF
  5
C1
330
B2
100
AcDbEntity
  8
Title Block
  6
Continuous
 62
     2
100
AcDbText
 10
6.925002260000004
 20
1.524999999999999
 30
0.0
 40
0.1010611419
  1

100
AcDbAttributeDefinition
  3
Drawn by
  2
GEN-TITLE-NAME{5}
 70
     0
1001
GENIUS_GENBLLY_14
1000
BOR2
  0
LINE
  5
C2
330
B2
100
AcDbEntity
  8
Title Block
  6
Continuous
 62
     2
100
AcDbLine
 10
2.250002260000005
 20
0.9
 30
0.0
 11
5.099658650318536
 21
0.9
 31
0.0
  0
LINE
  5
C3
330
B2
100
AcDbEntity
  8
Title Block
  6
Continuous
 62
     2
100
AcDbLine
 10
2.250002260000005
 20
1.149999999999999
 30
0.0
 11
5.099658650318536
 21
1.149999999999999
 31
0.0
  0
LINE
  5
C4
330
B2
100
AcDbEntity
  8
Title Block
  6
Continuous
 62
     2
100
AcDbLine
 10
2.250002260000005
 20
2.149999999999999
 30
0.0
 11
5.099658650318536
 21
2.149999999999999
 31
0.0
  0
LINE
  5
C5
330
B2
100
AcDbEntity
  8
Title Block
  6
Continuous
 62
     2
100
AcDbLine
 10
2.250002260000005
 20
1.9
 30
0.0
 11
5.099658650318536
 21
1.9
 31
0.0
  0
LINE
  5
C6
330
B2
100
AcDbEntity
  8
Title Block
  6
Continuous
 62
     2
100
AcDbLine
 10
2.250002260000005
 20
1.649999999999999
 30
0.0
 11
5.099658650318536
 21
1.649999999999999
 31
0.0
  0
LINE
  5
C7
330
B2
100
AcDbEntity
  8
Title Block
  6
Continuous
 62
     2
100
AcDbLine
 10
2.250002260000005
 20
1.399999999999999
 30
0.0
 11
5.099658650318536
 21
1.399999999999999
 31
0.0
  0
LINE
  5
C8
330
B2
100
AcDbEntity
  8
Title Block
  6
Continuous
 62
     2
100
AcDbLine
 10
2.250002260000005
 20
0.65
 30
0.0
 11
5.099658650318536
 21
0.65
 31
0.0
  0
TEXT
  5
C9
330
B2
100
AcDbEntity
  8
Title Block
  6
Continuous
 62
     2
100
AcDbText
 10
2.901376282347399
 20
0.7409580908741999
 30
0.0
 40
0.075937067150492
  1
DATE
 50
0.09999996
  7
AE
100
AcDbText
  0
LINE
  5
CA
330
B2
100
AcDbEntity
  8
BORDER
 62
    15
100
AcDbLine
 10
4.500175324840752
 20
0.1999999999999997
 30
0.0
 11
4.500175324840752
 21
0.3999656890232614
 31
0.0
  0
TEXT
  5
CB
330
B2
100
AcDbEntity
  8
BORDER
  6
Continuous
 62
    15
100
AcDbText
 10
4.471677461536399
 20
0.0599741912456091
 30
0.0
 40
0.0799862356161777
  1
0
 50
0.09999996
  7
AE
100
AcDbText
  0
LINE
  5
CC
330
B2
100
AcDbEntity
  8
BORDER
  6
Continuous
 62
    15
100
AcDbLine
 10
4.580161220298862
 20
0.3399759973137093
 30
0.0
 11
4.580161220298862
 21
0.3999656890232614
 31
0.0
  0
LINE
  5
CD
330
B2
100
AcDbEntity
  8
BORDER
  6
Continuous
 62
    15
100
AcDbLine
 10
4.560165156309787
 20
0.2999828395124902
 30
0.0
 11
4.560165156309787
 21
0.3999656890232614
 31
0.0
  0
LINE
  5
CE
330
B2
100
AcDbEntity
  8
BORDER
  6
Continuous
 62
    15
100
AcDbLine
 10
4.540168092492484
 20
0.2999828395124902
 30
0.0
 11
4.540168092492484
 21
0.3999656890232614
 31
0.0
  0
LINE
  5
CF
330
B2
100
AcDbEntity
  8
BORDER
  6
Continuous
 62
    15
100
AcDbLine
 10
4.520171128658045
 20
0.3399759973137093
 30
0.0
 11
4.520171128658045
 21
0.3999656890232614
 31
0.0
  0
LINE
  5
D0
330
B2
100
AcDbEntity
  8
BORDER
  6
Continuous
 62
    15
100
AcDbLine
 10
4.600157284287936
 20
0.2599896917095519
 30
0.0
 11
4.600157284287936
 21
0.3999656890232614
 31
0.0
  0
LINE
  5
D1
330
B2
100
AcDbEntity
  8
Title Block
  6
Continuous
 62
     2
100
AcDbLine
 10
2.600002260000005
 20
0.65
 30
0.0
 11
2.600002260000005
 21
2.4
 31
0.0
  0
LINE
  5
D2
330
B2
100
AcDbEntity
  8
Title Block
  6
Continuous
 62
     2
100
AcDbLine
 10
2.250002260000005
 20
0.3999656890232619
 30
0.0
 11
2.250002260000005
 21
2.4
 31
0.0
  0
TEXT
  5
D3
330
B2
100
AcDbEntity
  8
Title Block
  6
Continuous
 62
     2
100
AcDbText
 10
2.338244392245041
 20
0.7403498140978244
 30
0.0
 40
0.0771520776612738
  1
NO.
 50
0.09999996
  7
AE
100
AcDbText
  0
LINE
  5
D4
330
B2
100
AcDbEntity
  8
BORDER
  6
Continuous
 62
    15
100
AcDbLine
 10
5.500002260000007
 20
0.1999999999999997
 30
0.0
 11
5.500002260000007
 21
0.3999656890232614
 31
0.0
  0
TEXT
  5
D5
330
B2
100
AcDbEntity
  8
BORDER
  6
Continuous
 62
    15
100
AcDbText
 10
5.271543117131267
 20
0.1199638829551608
 30
0.0
 40
0.0799862356161777
  1
8
 50
0.09999996
  7
AE
100
AcDbText
  0
TEXT
  5
D6
330
B2
100
AcDbEntity
  8
BORDER
  6
Continuous
 62
    15
100
AcDbText
 10
6.071407672915045
 20
0.1199638829551608
 30
0.0
 40
0.0799862356161777
  1
6
 50
0.09999996
  7
AE
100
AcDbText
  0
TEXT
  5
D7
330
B2
100
AcDbEntity
  8
BORDER
  6
Continuous
 62
    15
100
AcDbText
 10
5.671475894937241
 20
0.1199638829551608
 30
0.0
 40
0.0799862356161777
  1
2
 50
0.09999996
  7
AE
100
AcDbText
  0
TEXT
  5
D8
330
B2
100
AcDbEntity
  8
BORDER
  6
Continuous
 62
    15
100
AcDbText
 10
5.471505656695663
 20
0.0599741912456091
 30
0.0
 40
0.0799862356161777
  1
1
 50
0.09999996
  7
AE
100
AcDbText
  0
TEXT
  5
D9
330
B2
100
AcDbEntity
  8
BORDER
  6
Continuous
 62
    15
100
AcDbText
 10
5.871441334003431
 20
0.1199638829551608
 30
0.0
 40
0.0799862356161777
  1
4
 50
0.09999996
  7
AE
100
AcDbText
  0
TEXT
  5
DA
330
B2
100
AcDbEntity
  8
BORDER
  6
Continuous
 62
    15
100
AcDbText
 10
6.271374111809436
 20
0.1199638829551608
 30
0.0
 40
0.0799862356161777
  1
8
 50
0.09999996
  7
AE
100
AcDbText
  0
LINE
  5
DB
330
B2
100
AcDbEntity
  8
BORDER
  6
Continuous
 62
    15
100
AcDbLine
 10
5.380026775910868
 20
0.3399759973137093
 30
0.0
 11
5.380026775910868
 21
0.3999656890232614
 31
0.0
  0
LINE
  5
DC
330
B2
100
AcDbEntity
  8
BORDER
  6
Continuous
 62
    15
100
AcDbLine
 10
5.360030711921794
 20
0.2999828395124902
 30
0.0
 11
5.360030711921794
 21
0.3999656890232614
 31
0.0
  0
LINE
  5
DD
330
B2
100
AcDbEntity
  8
BORDER
  6
Continuous
 62
    15
100
AcDbLine
 10
5.340033748087325
 20
0.2999828395124902
 30
0.0
 11
5.340033748087325
 21
0.3999656890232614
 31
0.0
  0
LINE
  5
DE
330
B2
100
AcDbEntity
  8
BORDER
  6
Continuous
 62
    15
100
AcDbLine
 10
5.32003668427005
 20
0.3399759973137093
 30
0.0
 11
5.32003668427005
 21
0.3999656890232614
 31
0.0
  0
LINE
  5
DF
330
B2
100
AcDbEntity
  8
BORDER
  6
Continuous
 62
    15
100
AcDbLine
 10
5.280043656446478
 20
0.3399759973137093
 30
0.0
 11
5.280043656446478
 21
0.3999656890232614
 31
0.0
  0
LINE
  5
E0
330
B2
100
AcDbEntity
  8
BORDER
  6
Continuous
 62
    15
100
AcDbLine
 10
5.460013931368989
 20
0.2999828395124902
 30
0.0
 11
5.460013931368989
 21
0.3999656890232614
 31
0.0
  0
LINE
  5
E1
330
B2
100
AcDbEntity
  8
BORDER
  6
Continuous
 62
    15
100
AcDbLine
 10
5.440016967534548
 20
0.2999828395124902
 30
0.0
 11
5.440016967534548
 21
0.3999656890232614
 31
0.0
  0
LINE
  5
E2
330
B2
100
AcDbEntity
  8
BORDER
  6
Continuous
 62
    15
100
AcDbLine
 10
5.420019903717246
 20
0.3399759973137093
 30
0.0
 11
5.420019903717246
 21
0.3999656890232614
 31
0.0
  0
LINE
  5
E3
330
B2
100
AcDbEntity
  8
BORDER
  6
Continuous
 62
    15
100
AcDbLine
 10
5.400022839899943
 20
0.2599896917095519
 30
0.0
 11
5.400022839899943
 21
0.3999656890232614
 31
0.0
  0
LINE
  5
E4
330
B2
100
AcDbEntity
  8
BORDER
  6
Continuous
 62
    15
100
AcDbLine
 10
5.300039720435552
 20
0.2599896917095519
 30
0.0
 11
5.300039720435552
 21
0.3999656890232614
 31
0.0
  0
LINE
  5
E5
330
B2
100
AcDbEntity
  8
BORDER
  6
Continuous
 62
    15
100
AcDbLine
 10
5.480009995358091
 20
0.3399759973137093
 30
0.0
 11
5.480009995358091
 21
0.3999656890232614
 31
0.0
  0
LINE
  5
E6
330
B2
100
AcDbEntity
  8
BORDER
  6
Continuous
 62
    15
100
AcDbLine
 10
5.699972498241557
 20
0.2599896917095519
 30
0.0
 11
5.699972498241557
 21
0.3999656890232614
 31
0.0
  0
LINE
  5
E7
330
B2
100
AcDbEntity
  8
BORDER
  6
Continuous
 62
    15
100
AcDbLine
 10
5.899937937307775
 20
0.2599896917095519
 30
0.0
 11
5.899937937307775
 21
0.3999656890232614
 31
0.0
  0
LINE
  5
E8
330
B2
100
AcDbEntity
  8
BORDER
  6
Continuous
 62
    15
100
AcDbLine
 10
6.099904376202193
 20
0.2599896917095519
 30
0.0
 11
6.099904376202193
 21
0.3999656890232614
 31
0.0
  0
LINE
  5
E9
330
B2
100
AcDbEntity
  8
BORDER
  6
Continuous
 62
    15
100
AcDbLine
 10
6.299870715113778
 20
0.2599896917095519
 30
0.0
 11
6.299870715113778
 21
0.3999656890232614
 31
0.0
  0
LINE
  5
EA
330
B2
100
AcDbEntity
  8
BORDER
  6
Continuous
 62
    15
100
AcDbLine
 10
6.499833354661037
 20
0.1999999999999997
 30
0.0
 11
6.499833354661037
 21
0.3999656890232614
 31
0.0
  0
TEXT
  5
EB
330
B2
100
AcDbEntity
  8
BORDER
  6
Continuous
 62
    15
100
AcDbText
 10
6.471333851854957
 20
0.0599741912456091
 30
0.0
 40
0.0799862356161777
  1
2
 50
0.09999996
  7
AE
100
AcDbText
  0
TEXT
  5
EC
330
B2
100
AcDbEntity
  8
BORDER
  6
Continuous
 62
    15
100
AcDbText
 10
4.671643900430845
 20
0.1199638829551608
 30
0.0
 40
0.0799862356161777
  1
2
 50
0.09999996
  7
AE
100
AcDbText
  0
LINE
  5
ED
330
B2
100
AcDbEntity
  8
BORDER
  6
Continuous
 62
    15
100
AcDbLine
 10
4.680144439746086
 20
0.3399759973137093
 30
0.0
 11
4.680144439746086
 21
0.3999656890232614
 31
0.0
  0
LINE
  5
EE
330
B2
100
AcDbEntity
  8
BORDER
  6
Continuous
 62
    15
100
AcDbLine
 10
4.660148375756982
 20
0.2999828395124902
 30
0.0
 11
4.660148375756982
 21
0.3999656890232614
 31
0.0
  0
LINE
  5
EF
330
B2
100
AcDbEntity
  8
BORDER
  6
Continuous
 62
    15
100
AcDbLine
 10
4.640151311939709
 20
0.2999828395124902
 30
0.0
 11
4.640151311939709
 21
0.3999656890232614
 31
0.0
  0
LINE
  5
F0
330
B2
100
AcDbEntity
  8
BORDER
  6
Continuous
 62
    15
100
AcDbLine
 10
4.620154248122434
 20
0.3399759973137093
 30
0.0
 11
4.620154248122434
 21
0.3999656890232614
 31
0.0
  0
LINE
  5
F1
330
B2
100
AcDbEntity
  8
BORDER
  6
Continuous
 62
    15
100
AcDbLine
 10
4.700140503735161
 20
0.2599896917095519
 30
0.0
 11
4.700140503735161
 21
0.3999656890232614
 31
0.0
  0
TEXT
  5
F2
330
B2
100
AcDbEntity
  8
BORDER
  6
Continuous
 62
    15
100
AcDbText
 10
5.07157667823685
 20
0.1199638829551608
 30
0.0
 40
0.0799862356161777
  1
6
 50
0.09999996
  7
AE
100
AcDbText
  0
TEXT
  5
F3
330
B2
100
AcDbEntity
  8
BORDER
  6
Continuous
 62
    15
100
AcDbText
 10
4.871610239342402
 20
0.1199638829551608
 30
0.0
 40
0.0799862356161777
  1
4
 50
0.09999996
  7
AE
100
AcDbText
  0
LINE
  5
F4
330
B2
100
AcDbEntity
  8
BORDER
  6
Continuous
 62
    15
100
AcDbLine
 10
4.780127559210475
 20
0.3399759973137093
 30
0.0
 11
4.780127559210475
 21
0.3999656890232614
 31
0.0
  0
LINE
  5
F5
330
B2
100
AcDbEntity
  8
BORDER
  6
Continuous
 62
    15
100
AcDbLine
 10
4.760131495221372
 20
0.2999828395124902
 30
0.0
 11
4.760131495221372
 21
0.3999656890232614
 31
0.0
  0
LINE
  5
F6
330
B2
100
AcDbEntity
  8
BORDER
  6
Continuous
 62
    15
100
AcDbLine
 10
4.740134531386932
 20
0.2999828395124902
 30
0.0
 11
4.740134531386932
 21
0.3999656890232614
 31
0.0
  0
LINE
  5
F7
330
B2
100
AcDbEntity
  8
BORDER
  6
Continuous
 62
    15
100
AcDbLine
 10
4.720137467569628
 20
0.3399759973137093
 30
0.0
 11
4.720137467569628
 21
0.3999656890232614
 31
0.0
  0
LINE
  5
F8
330
B2
100
AcDbEntity
  8
BORDER
  6
Continuous
 62
    15
100
AcDbLine
 10
5.120070345358437
 20
0.3399759973137093
 30
0.0
 11
5.120070345358437
 21
0.3999656890232614
 31
0.0
  0
LINE
  5
F9
330
B2
100
AcDbEntity
  8
BORDER
  6
Continuous
 62
    15
100
AcDbLine
 10
5.080077217552089
 20
0.3399759973137093
 30
0.0
 11
5.080077217552089
 21
0.3999656890232614
 31
0.0
  0
LINE
  5
FA
330
B2
100
AcDbEntity
  8
BORDER
  6
Continuous
 62
    15
100
AcDbLine
 10
5.060081153562986
 20
0.2999828395124902
 30
0.0
 11
5.060081153562986
 21
0.3999656890232614
 31
0.0
  0
LINE
  5
FB
330
B2
100
AcDbEntity
  8
BORDER
  6
Continuous
 62
    15
100
AcDbLine
 10
5.040084089745711
 20
0.2999828395124902
 30
0.0
 11
5.040084089745711
 21
0.3999656890232614
 31
0.0
  0
LINE
  5
FC
330
B2
100
AcDbEntity
  8
BORDER
  6
Continuous
 62
    15
100
AcDbLine
 10
5.020087125911242
 20
0.3399759973137093
 30
0.0
 11
5.020087125911242
 21
0.3999656890232614
 31
0.0
  0
LINE
  5
FD
330
B2
100
AcDbEntity
  8
BORDER
  6
Continuous
 62
    15
100
AcDbLine
 10
4.980093998104864
 20
0.3399759973137093
 30
0.0
 11
4.980093998104864
 21
0.3999656890232614
 31
0.0
  0
LINE
  5
FE
330
B2
100
AcDbEntity
  8
BORDER
  6
Continuous
 62
    15
100
AcDbLine
 10
4.96009793411579
 20
0.2999828395124902
 30
0.0
 11
4.96009793411579
 21
0.3999656890232614
 31
0.0
  0
LINE
  5
FF
330
B2
100
AcDbEntity
  8
BORDER
  6
Continuous
 62
    15
100
AcDbLine
 10
4.940100970281323
 20
0.2999828395124902
 30
0.0
 11
4.940100970281323
 21
0.3999656890232614
 31
0.0
  0
LINE
  5
100
330
B2
100
AcDbEntity
  8
BORDER
  6
Continuous
 62
    15
100
AcDbLine
 10
4.920103906464047
 20
0.3399759973137093
 30
0.0
 11
4.920103906464047
 21
0.3999656890232614
 31
0.0
  0
LINE
  5
101
330
B2
100
AcDbEntity
  8
BORDER
  6
Continuous
 62
    15
100
AcDbLine
 10
4.88011077865767
 20
0.3399759973137093
 30
0.0
 11
4.88011077865767
 21
0.3999656890232614
 31
0.0
  0
LINE
  5
102
330
B2
100
AcDbEntity
  8
BORDER
  6
Continuous
 62
    15
100
AcDbLine
 10
4.860114714668567
 20
0.2999828395124902
 30
0.0
 11
4.860114714668567
 21
0.3999656890232614
 31
0.0
  0
LINE
  5
103
330
B2
100
AcDbEntity
  8
BORDER
  6
Continuous
 62
    15
100
AcDbLine
 10
4.840117750834126
 20
0.2999828395124902
 30
0.0
 11
4.840117750834126
 21
0.3999656890232614
 31
0.0
  0
LINE
  5
104
330
B2
100
AcDbEntity
  8
BORDER
  6
Continuous
 62
    15
100
AcDbLine
 10
4.820120687016824
 20
0.3399759973137093
 30
0.0
 11
4.820120687016824
 21
0.3999656890232614
 31
0.0
  0
LINE
  5
105
330
B2
100
AcDbEntity
  8
BORDER
  6
Continuous
 62
    15
100
AcDbLine
 10
5.100073281541163
 20
0.2599896917095519
 30
0.0
 11
5.100073281541163
 21
0.3999656890232614
 31
0.0
  0
LINE
  5
106
330
B2
100
AcDbEntity
  8
BORDER
  6
Continuous
 62
    15
100
AcDbLine
 10
5.000090062093939
 20
0.2599896917095519
 30
0.0
 11
5.000090062093939
 21
0.3999656890232614
 31
0.0
  0
LINE
  5
107
330
B2
100
AcDbEntity
  8
BORDER
  6
Continuous
 62
    15
100
AcDbLine
 10
4.900106842646744
 20
0.2599896917095519
 30
0.0
 11
4.900106842646744
 21
0.3999656890232614
 31
0.0
  0
LINE
  5
108
330
B2
100
AcDbEntity
  8
BORDER
  6
Continuous
 62
    15
100
AcDbLine
 10
4.800123723182355
 20
0.2599896917095519
 30
0.0
 11
4.800123723182355
 21
0.3999656890232614
 31
0.0
  0
LINE
  5
109
330
B2
100
AcDbEntity
  8
BORDER
  6
Continuous
 62
    15
100
AcDbLine
 10
5.260047592457404
 20
0.2999828395124902
 30
0.0
 11
5.260047592457404
 21
0.3999656890232614
 31
0.0
  0
LINE
  5
10A
330
B2
100
AcDbEntity
  8
BORDER
  6
Continuous
 62
    15
100
AcDbLine
 10
5.24005052864013
 20
0.2999828395124902
 30
0.0
 11
5.24005052864013
 21
0.3999656890232614
 31
0.0
  0
LINE
  5
10B
330
B2
100
AcDbEntity
  8
BORDER
  6
Continuous
 62
    15
100
AcDbLine
 10
5.220053464822827
 20
0.3399759973137093
 30
0.0
 11
5.220053464822827
 21
0.3999656890232614
 31
0.0
  0
LINE
  5
10C
330
B2
100
AcDbEntity
  8
BORDER
  6
Continuous
 62
    15
100
AcDbLine
 10
5.180060436999283
 20
0.3399759973137093
 30
0.0
 11
5.180060436999283
 21
0.3999656890232614
 31
0.0
  0
LINE
  5
10D
330
B2
100
AcDbEntity
  8
BORDER
  6
Continuous
 62
    15
100
AcDbLine
 10
5.160064373010181
 20
0.2999828395124902
 30
0.0
 11
5.160064373010181
 21
0.3999656890232614
 31
0.0
  0
LINE
  5
10E
330
B2
100
AcDbEntity
  8
BORDER
  6
Continuous
 62
    15
100
AcDbLine
 10
5.140067309192934
 20
0.2999828395124902
 30
0.0
 11
5.140067309192934
 21
0.3999656890232614
 31
0.0
  0
LINE
  5
10F
330
B2
100
AcDbEntity
  8
BORDER
  6
Continuous
 62
    15
100
AcDbLine
 10
5.200056500988358
 20
0.2599896917095519
 30
0.0
 11
5.200056500988358
 21
0.3999656890232614
 31
0.0
  0
TEXT
  5
110
330
B2
100
AcDbEntity
  8
BORDER
  6
Continuous
 62
    15
100
AcDbText
 10
4.703120191722399
 20
0.0329812595588268
 30
0.0
 40
0.0399931278063708
  1
FULL SIZE   50   02
 50
0.09999996
 41
0.7749084200000001
  7
AE
100
AcDbText
  0
TEXT
  5
111
330
B2
100
AcDbEntity
  8
Title Block
  6
Continuous
 62
     2
100
AcDbText
 10
3.373545338500017
 20
0.4900242034427523
 30
0.0
 40
0.075937067150492
  1
REVISION
 50
0.09999996
  7
AE
100
AcDbText
  0
LINE
  5
112
330
B2
100
AcDbEntity
  8
BORDER
  6
Continuous
 62
    15
100
AcDbLine
 10
5.099658650318536
 20
0.3999656890232619
 30
0.0
 11
5.099658650318536
 21
2.4
 31
0.0
  0
LINE
  5
113
330
B2
100
AcDbEntity
  8
Title Block
  6
Continuous
 62
     2
100
AcDbLine
 10
6.575192215153515
 20
1.0
 30
0.0
 11
6.575192215153515
 21
2.4
 31
0.0
  0
TEXT
  5
114
330
B2
100
AcDbEntity
  8
Title Block
  6
Continuous
 62
     2
100
AcDbText
 10
5.150002260000006
 20
0.8
 30
0.0
 40
0.075937067150492
  1
DRAWING NAME
 50
0.09999996
  7
AE
100
AcDbText
  0
TEXT
  5
115
330
B2
100
AcDbEntity
  8
Title Block
  6
Continuous
 62
     2
100
AcDbText
 10
6.600002260000005
 20
0.975
 30
0.0
 40
0.075937067150492
  1
BY
 50
0.09999996
  7
AE
100
AcDbText
  0
TEXT
  5
116
330
B2
100
AcDbEntity
  8
Title Block
  6
Continuous
 62
     2
100
AcDbText
 10
6.610002260000005
 20
1.1
 30
0.0
 40
0.075937067150492
  1
APPD
 50
0.09999996
  7
AE
100
AcDbText
  0
TEXT
  5
117
330
B2
100
AcDbEntity
  8
Title Block
  6
Continuous
 62
     2
100
AcDbText
 10
6.600002260000005
 20
1.349999999999999
 30
0.0
 40
0.075937067150492
  1
CHK
 50
0.09999996
  7
AE
100
AcDbText
  0
TEXT
  5
118
330
B2
100
AcDbEntity
  8
Title Block
  6
Continuous
 62
     2
100
AcDbText
 10
6.60620263256118
 20
1.224999999999999
 30
0.0
 40
0.075937067150492
  1
BY
 50
0.09999996
  7
AE
100
AcDbText
  0
TEXT
  5
119
330
B2
100
AcDbEntity
  8
Title Block
  6
Continuous
 62
     2
100
AcDbText
 10
6.600002260000005
 20
1.474999999999999
 30
0.0
 40
0.075937067150492
  1
BY
 50
0.09999996
  7
AE
100
AcDbText
  0
TEXT
  5
11A
330
B2
100
AcDbEntity
  8
Title Block
  6
Continuous
 62
     2
100
AcDbText
 10
6.600002260000005
 20
1.599999999999999
 30
0.0
 40
0.075937067150492
  1
DR
 50
0.09999996
  7
AE
100
AcDbText
  0
LINE
  5
11B
330
B2
100
AcDbEntity
  8
Title Block
  6
Continuous
 62
     2
100
AcDbLine
 10
3.400002260000006
 20
0.65
 30
0.0
 11
3.400002260000006
 21
2.4
 31
0.0
  0
ATTDEF
  5
11C
330
B2
100
AcDbEntity
  8
Title Block
  6
Continuous
 62
     2
100
AcDbText
 10
8.400002260000006
 20
0.5
 30
0.0
 40
0.196816573850279
  1

 41
0.8
100
AcDbAttributeDefinition
  3
Drawing Number
  2
GEN-TITLE-NR{13.37}
 70
     0
1001
GENIUS_GENBLLY_14
1000
BOR5
  0
ATTDEF
  5
11D
330
B2
100
AcDbEntity
  8
Title Block
  6
Continuous
 62
     2
100
AcDbText
 10
10.00000226
 20
1.024999999999999
 30
0.0
 40
0.11808994431015
  1

 41
0.8
100
AcDbAttributeDefinition
  3
Sheet
  2
GEN-TITLE-SHEET{2.62}
 70
     0
1001
GENIUS_GENBLLY_14
1000
BOR3
  0
ATTDEF
  5
11E
330
B2
100
AcDbEntity
  8
Title Block
  6
Continuous
 62
     2
100
AcDbText
 10
9.925002260000004
 20
1.274999999999999
 30
0.0
 40
0.1010611419
  1

100
AcDbAttributeDefinition
  3
Date
  2
GEN-TITLE-PLOT{5}
 70
     0
1001
GENIUS_GENBLLY_14
1000
BOR2
  0
ATTDEF
  5
11F
330
B2
100
AcDbEntity
  8
Title Block
  6
Continuous
 62
     2
100
AcDbText
 10
10.40000226
 20
1.024999999999999
 30
0.0
 40
0.11808994431015
  1

 41
0.8
100
AcDbAttributeDefinition
  3
Sheet of
  2
GEN-TITLE-SHEET-OF{2.62}
 70
     0
1001
GENIUS_GENBLLY_14
1000
BOR3
  0
LINE
  5
120
330
B2
100
AcDbEntity
  8
Title Block
  6
Continuous
 62
     2
100
AcDbLine
 10
9.526259441263579
 20
0.95
 30
0.0
 11
9.526259441263549
 21
1.449999999999999
 31
0.0
  0
LINE
  5
121
330
B2
100
AcDbEntity
  8
BORDER
  6
Continuous
 62
    15
100
AcDbLine
 10
8.050002260000004
 20
0.3999656890232619
 30
0.0
 11
8.050002260000004
 21
2.4
 31
0.0
  0
TEXT
  5
122
330
B2
100
AcDbEntity
  8
Title Block
  6
Continuous
 62
     2
100
AcDbText
 10
8.100002260000005
 20
0.8
 30
0.0
 40
0.075937067150492
  1
DRAWING NUMBER
 50
0.09999996
  7
AE
100
AcDbText
  0
TEXT
  5
123
330
B2
100
AcDbEntity
  8
Title Block
  6
Continuous
 62
     2
100
AcDbText
 10
8.100002260000005
 20
1.599999999999999
 30
0.0
 40
0.075937067150492
  1
REF
 50
0.09999996
  7
AE
100
AcDbText
  0
TEXT
  5
124
330
B2
100
AcDbEntity
  8
Title Block
  6
Continuous
 62
     2
100
AcDbText
 10
8.100002260000005
 20
1.349999999999999
 30
0.0
 40
0.075937067150492
  1
MACH
 50
0.09999996
  7
AE
100
AcDbText
  0
TEXT
  5
125
330
B2
100
AcDbEntity
  8
Title Block
  6
Continuous
 62
     2
100
AcDbText
 10
8.100002260000005
 20
1.1
 30
0.0
 40
0.075937067150492
  1
MATL
 50
0.09999996
  7
AE
100
AcDbText
  0
ATTDEF
  5
126
330
B2
100
AcDbEntity
  8
Title Block
  6
Continuous
 62
     2
100
AcDbText
 10
8.450002260000005
 20
1.524999999999999
 30
0.0
 40
0.1010611419
  1

100
AcDbAttributeDefinition
  3
Ref. No.
  2
GEN-TITLE-REF{5}
 70
     0
1001
GENIUS_GENBLLY_14
1000
BOR2
  0
ATTDEF
  5
127
330
B2
100
AcDbEntity
  8
Title Block
  6
Continuous
 62
     2
100
AcDbText
 10
8.450002260000005
 20
1.274999999999999
 30
0.0
 40
0.1010611419
  1

100
AcDbAttributeDefinition
  3
Machine
  2
GEN-TITLE-MACH{5}
 70
     0
1001
GENIUS_GENBLLY_14
1000
BOR2
  0
ATTDEF
  5
128
330
B2
100
AcDbEntity
  8
Title Block
  6
Continuous
 62
     2
100
AcDbText
 10
8.450002260000005
 20
1.024999999999999
 30
0.0
 40
0.1010611419
  1

 41
0.8
100
AcDbAttributeDefinition
  3
Material
  2
GEN-TITLE-MAT{11.15}
 70
     0
1001
GENIUS_GENBLLY_14
1000
BOR3
  0
TEXT
  5
129
330
B2
100
AcDbEntity
  8
Title Block
  6
Continuous
 62
     2
100
AcDbText
 10
9.575002260000005
 20
1.1
 30
0.0
 40
0.075937067150492
  1
SHEET   OF
 50
0.09999996
  7
AE
100
AcDbText
  0
TEXT
  5
12A
330
B2
100
AcDbEntity
  8
Title Block
  6
Continuous
 62
     2
100
AcDbText
 10
9.575002260000005
 20
1.349999999999999
 30
0.0
 40
0.075937067150492
  1
DATE
 50
0.09999996
  7
AE
100
AcDbText
  0
LINE
  5
12B
330
B2
100
AcDbEntity
  8
BORDER
 62
    15
100
AcDbLine
 10
11.00000226000001
 20
4.25
 30
0.0
 11
11.40000188000002
 21
4.25
 31
0.0
  0
LINE
  5
12C
330
B2
100
AcDbEntity
  8
BORDER
 62
    15
100
AcDbLine
 10
0.400011260000019
 20
8.5
 30
0.0
 11
11.00000226000001
 21
8.5
 31
0.0
  0
LINE
  5
12D
330
B2
100
AcDbEntity
  8
BORDER
 62
    15
100
AcDbLine
 10
5.500002260000007
 20
8.5
 30
0.0
 11
5.500002260000007
 21
8.880000000000023
 31
0.0
  0
MTEXT
  5
12E
330
B2
100
AcDbEntity
  8
BORDER
  6
Continuous
100
AcDbMText
 10
9.503092053358715
 20
2.25
 30
0.0
 40
0.125
 41
2.663
 71
     2
 72
     5
  1
{\fArial|b0|i0|c0|p34;\C1;DANAHER MOTION}
 73
     1
 44
1.0
1001
ACAD
1000
ACAD_MTEXT_DEFINED_HEIGHT_BEGIN
1070
    46
1040
0.0
1000
ACAD_MTEXT_DEFINED_HEIGHT_END
  0
MTEXT
  5
12F
330
B2
100
AcDbEntity
  8
BORDER
  6
Continuous
100
AcDbMText
 10
9.50413083763949
 20
1.928264837305509
 30
0.0
 40
0.07874
 41
2.862
 71
     5
 72
     1
  1
{\Fromans.shx|c0;\C9;672 South Military Road\PFond du Lac, Wisconsin 54936 U.S.A.}
 73
     1
 44
1.0
  0
TEXT
  5
130
330
B2
100
AcDbEntity
  8
Title Block
  6
Continuous
 62
     2
100
AcDbText
 10
5.11882087560132
 20
2.036049281269597
 30
0.0
 40
0.0645465051491158
  1
of Danaher Motion, is
 50
0.0999999600000013
 41
0.6799434399999999
  7
AE
100
AcDbText
  0
TEXT
  5
131
330
B2
100
AcDbEntity
  8
Title Block
  6
Continuous
 62
     2
100
AcDbText
 10
5.117417134120477
 20
2.144627598463487
 30
0.0
 40
0.0645465051491158
  1
contains proprietary information
 50
0.0999999600000013
 41
0.7005041199999999
  7
AE
100
AcDbText
  0
TEXT
  5
132
330
B2
100
AcDbEntity
  8
Title Block
  6
Continuous
 62
     2
100
AcDbText
 10
5.12248893991202
 20
1.924616885729644
 30
0.0
 40
0.0645465051491158
  1
submitted in confidence on
 50
0.0999999600000013
 41
0.6605569100000001
  7
AE
100
AcDbText
  0
TEXT
  5
133
330
B2
100
AcDbEntity
  8
Title Block
  6
Continuous
 62
     2
100
AcDbText
 10
5.116796757515229
 20
1.81708586876793
 30
0.0
 40
0.0645465051491158
  1
condition that it will not be
 50
0.0999999600000013
 41
0.72234601
  7
AE
100
AcDbText
  0
TEXT
  5
134
330
B2
100
AcDbEntity
  8
Title Block
  6
Continuous
 62
     2
100
AcDbText
 10
5.114171255316859
 20
1.597796107226088
 30
0.0
 40
0.0645465051491158
  1
will be used only for your
 50
0.0999999600000013
 41
0.6799434399999999
  7
AE
100
AcDbText
  0
TEXT
  5
135
330
B2
100
AcDbEntity
  8
Title Block
  6
Continuous
 62
     2
100
AcDbText
 10
5.119489472122936
 20
1.489000640399515
 30
0.0
 40
0.0645465051491158
  1
information, and will not be used
 50
0.0999999600000013
 41
0.6605569100000001
  7
AE
100
AcDbText
  0
TEXT
  5
136
330
B2
100
AcDbEntity
  8
Title Block
  6
Continuous
 62
     2
100
AcDbText
 10
5.117399491933456
 20
1.378476657741246
 30
0.0
 40
0.0645465051491158
  1
or disclosed to anyone except as
 50
0.0999999600000013
 41
0.6799434399999999
  7
AE
100
AcDbText
  0
TEXT
  5
137
330
B2
100
AcDbEntity
  8
Title Block
  6
Continuous
 62
     2
100
AcDbText
 10
5.115407251658092
 20
1.267047562975569
 30
0.0
 40
0.0645465051491158
  1
authorized by specific
 50
0.0999999600000013
 41
0.79688752
  7
AE
100
AcDbText
  0
TEXT
  5
138
330
B2
100
AcDbEntity
  8
Title Block
  6
Continuous
 62
     2
100
AcDbText
 10
5.11777350306262
 20
1.705466828073234
 30
0.0
 40
0.0645465051491158
  1
copied or otherwise reproduced,
 50
0.0999999600000013
 41
0.6799434399999999
  7
AE
100
AcDbText
  0
TEXT
  5
139
330
B2
100
AcDbEntity
  8
Title Block
  6
Continuous
 62
     2
100
AcDbText
 10
5.120512203560588
 20
2.252555955563673
 30
0.0
 40
0.0645465051491158
  1
NOTICE: This drawing or material
 50
0.0999999600000013
 41
0.7005041199999999
  7
AE
100
AcDbText
  0
TEXT
  5
13A
330
B2
100
AcDbEntity
  8
Title Block
  6
Continuous
 62
     2
100
AcDbText
 10
5.120968584433857
 20
1.159697406318199
 30
0.0
 40
0.0645465051491158
  1
written consent of
 50
0.0999999600000013
 41
0.79688752
  7
AE
100
AcDbText
  0
TEXT
  5
13B
330
B2
100
AcDbEntity
  8
Title Block
  6
Continuous
 62
     2
100
AcDbText
 10
5.118752260000006
 20
1.046875
 30
0.0
 40
0.0645465051491158
  1
Danaher Motion
 50
0.0999999600000013
 41
0.79688752
  7
AE
100
AcDbText
  0
ENDBLK
  5
13F
330
B2
100
AcDbEntity
  8
0
100
AcDbBlockEnd
  0
BLOCK
  5
E4F
330
B84
100
AcDbEntity
  8
0
100
AcDbBlockBegin
  2
A$C1A5C1ECE
 70
     0
 10
0.0
 20
0.0
 30
0.0
  3
A$C1A5C1ECE
  1

  0
LINE
  5
B85
330
B84
100
AcDbEntity
  8
0
100
AcDbLine
 10
0.7869989769844139
 20
-0.0000001025166244
 30
0.0
 11
0.7869989769844139
 21
0.4274008974833757
 31
0.0
  0
LINE
  5
B86
330
B84
100
AcDbEntity
  8
0
100
AcDbLine
 10
-0.0000000230155877
 20
0.4274008974833757
 30
0.0
 11
-0.0000000230155877
 21
-0.0000001025166244
 31
0.0
  0
LINE
  5
B87
330
B84
100
AcDbEntity
  8
0
100
AcDbLine
 10
2.560105976984413
 20
-0.0000001025166244
 30
0.0
 11
2.560105976984413
 21
0.4274008974833757
 31
0.0
  0
LINE
  5
B88
330
B84
100
AcDbEntity
  8
0
100
AcDbLine
 10
1.773106976984415
 20
0.4274008974833757
 30
0.0
 11
1.773106976984415
 21
-0.0000001025166244
 31
0.0
  0
LINE
  5
B89
330
B84
100
AcDbEntity
  8
0
100
AcDbLine
 10
0.7869989745467834
 20
0.0
 30
0.0
 11
0.7869989745467834
 21
0.4274009571927238
 31
0.0
  0
LINE
  5
B8A
330
B84
100
AcDbEntity
  8
0
100
AcDbLine
 10
0.0
 20
0.4274009571927238
 30
0.0
 11
0.0
 21
0.0
 31
0.0
  0
LINE
  5
B8B
330
B84
100
AcDbEntity
  8
0
100
AcDbLine
 10
2.560105769052555
 20
0.0
 30
0.0
 11
2.560105769052555
 21
0.4274009571927238
 31
0.0
  0
LINE
  5
B8C
330
B84
100
AcDbEntity
  8
0
100
AcDbLine
 10
1.773106794505771
 20
0.4274009571927238
 30
0.0
 11
1.773106794505771
 21
0.0
 31
0.0
  0
LINE
  5
B8D
330
B84
100
AcDbEntity
  8
0
100
AcDbLine
 10
-0.0000000230155877
 20
-0.0000001025166244
 30
0.0
 11
0.7869989769844139
 21
-0.0000001025166244
 31
0.0
  0
LINE
  5
B8E
330
B84
100
AcDbEntity
  8
0
100
AcDbLine
 10
-0.0000000230155877
 20
0.1804838974833756
 30
0.0
 11
0.7869989769844139
 21
0.1804838974833756
 31
0.0
  0
LINE
  5
B8F
330
B84
100
AcDbEntity
  8
0
100
AcDbLine
 10
1.773106976984415
 20
0.1804838974833756
 30
0.0
 11
2.560105976984413
 21
0.1804838974833756
 31
0.0
  0
LINE
  5
B90
330
B84
100
AcDbEntity
  8
0
100
AcDbLine
 10
1.773106976984415
 20
-0.0000001025166244
 30
0.0
 11
2.560105976984413
 21
-0.0000001025166244
 31
0.0
  0
LINE
  5
B91
330
B84
100
AcDbEntity
  8
0
100
AcDbLine
 10
0.0
 20
0.0
 30
0.0
 11
0.7869989745467834
 21
0.0
 31
0.0
  0
LINE
  5
B92
330
B84
100
AcDbEntity
  8
0
100
AcDbLine
 10
0.0
 20
0.1804843106714813
 30
0.0
 11
0.7869989745467834
 21
0.1804843106714795
 31
0.0
  0
LINE
  5
B93
330
B84
100
AcDbEntity
  8
0
100
AcDbLine
 10
1.773106794505771
 20
0.1804843106714813
 30
0.0
 11
2.560105769052555
 21
0.1804843106714795
 31
0.0
  0
LINE
  5
B94
330
B84
100
AcDbEntity
  8
0
100
AcDbLine
 10
1.773106794505771
 20
0.0
 30
0.0
 11
2.560105769052555
 21
0.0
 31
0.0
  0
LINE
  5
B95
330
B84
100
AcDbEntity
  8
0
100
AcDbLine
 10
-0.0495360230155839
 20
1.007326897483375
 30
0.0
 11
-0.0495360230155839
 21
0.4288648974833757
 31
0.0
  0
LINE
  5
B96
330
B84
100
AcDbEntity
  8
0
100
AcDbLine
 10
2.608508976984413
 20
0.8426208974833755
 30
0.0
 11
-0.0495360230155839
 21
0.8426208974833755
 31
0.0
  0
LINE
  5
B97
330
B84
100
AcDbEntity
  8
0
100
AcDbLine
 10
2.608508976984413
 20
0.6110618974833758
 30
0.0
 11
-0.0495360230155839
 21
0.6110618974833758
 31
0.0
  0
LINE
  5
B98
330
B84
100
AcDbEntity
  8
0
100
AcDbLine
 10
-0.0495360230155839
 20
0.4288648974833757
 30
0.0
 11
2.608508976984413
 21
0.4288648974833757
 31
0.0
  0
LINE
  5
B99
330
B84
100
AcDbEntity
  8
0
100
AcDbLine
 10
2.165608976984412
 20
1.007326897483375
 30
0.0
 11
2.165608976984412
 21
0.4288648974833757
 31
0.0
  0
LINE
  5
B9A
330
B84
100
AcDbEntity
  8
0
100
AcDbLine
 10
0.3933639769844142
 20
1.007326897483375
 30
0.0
 11
0.3933639769844142
 21
0.4288648974833757
 31
0.0
  0
LINE
  5
B9B
330
B84
100
AcDbEntity
  8
0
100
AcDbLine
 10
2.608508976984413
 20
1.007326897483375
 30
0.0
 11
2.608508976984413
 21
0.4288648974833757
 31
0.0
  0
LINE
  5
B9C
330
B84
100
AcDbEntity
  8
0
100
AcDbLine
 10
2.603916976984415
 20
0.6110618974833758
 30
0.0
 11
2.596771976984413
 21
0.6110618974833758
 31
0.0
  0
LINE
  5
B9D
330
B84
100
AcDbEntity
  8
0
100
AcDbLine
 10
2.603916976984415
 20
0.8426208974833755
 30
0.0
 11
2.598832976984411
 21
0.8426208974833755
 31
0.0
  0
LINE
  5
B9E
330
B84
100
AcDbEntity
  8
0
100
AcDbLine
 10
2.608508976984413
 20
1.007326897483375
 30
0.0
 11
-0.0495360230155839
 21
1.007326897483375
 31
0.0
  0
LINE
  5
B9F
330
B84
100
AcDbEntity
  8
0
100
AcDbLine
 10
2.007033976984413
 20
1.560150897483375
 30
0.0
 11
2.007033976984413
 21
1.493354897483375
 31
0.0
  0
LINE
  5
BA0
330
B84
100
AcDbEntity
  8
0
100
AcDbLine
 10
2.001053976984415
 20
1.443354897483375
 30
0.0
 11
2.013014976984411
 21
1.443354897483375
 31
0.0
  0
LINE
  5
BA1
330
B84
100
AcDbEntity
  8
0
100
AcDbLine
 10
1.979043976984414
 20
1.468354897483375
 30
0.0
 11
2.035024976984413
 21
1.468354897483375
 31
0.0
  0
LINE
  5
BA2
330
B84
100
AcDbEntity
  8
0
100
AcDbLine
 10
1.957033976984412
 20
1.493354897483375
 30
0.0
 11
2.057033976984413
 21
1.493354897483375
 31
0.0
  0
TEXT
  5
BA3
330
B84
100
AcDbEntity
  8
0
100
AcDbText
 10
1.723932976984411
 20
1.458576897483375
 30
0.0
 40
0.08
  1
15
  7
ROMANS
100
AcDbText
  0
TEXT
  5
BA4
330
B84
100
AcDbEntity
  8
0
100
AcDbText
 10
1.530413976984416
 20
1.458576897483375
 30
0.0
 40
0.08
  1
14
  7
ROMANS
100
AcDbText
  0
TEXT
  5
BA5
330
B84
100
AcDbEntity
  8
0
100
AcDbText
 10
1.320276976984413
 20
1.458576897483375
 30
0.0
 40
0.08
  1
13
  7
ROMANS
100
AcDbText
  0
TEXT
  5
BA6
330
B84
100
AcDbEntity
  8
0
100
AcDbText
 10
1.123430976984412
 20
1.458576897483375
 30
0.0
 40
0.08
  1
12
  7
ROMANS
100
AcDbText
  0
TEXT
  5
BA7
330
B84
100
AcDbEntity
  8
0
100
AcDbText
 10
0.9278209769844139
 20
1.464056897483375
 30
0.0
 40
0.08
  1
11
  7
ROMANS
100
AcDbText
  0
TEXT
  5
BA8
330
B84
100
AcDbEntity
  8
0
100
AcDbText
 10
0.717107976984412
 20
1.458576897483375
 30
0.0
 40
0.08
  1
10
  7
ROMANS
100
AcDbText
  0
TEXT
  5
BA9
330
B84
100
AcDbEntity
  8
0
100
AcDbText
 10
0.5716009769844135
 20
1.458576897483375
 30
0.0
 40
0.08
  1
9
  7
ROMANS
100
AcDbText
  0
TEXT
  5
BAA
330
B84
100
AcDbEntity
  8
0
100
AcDbText
 10
1.868173976984412
 20
1.959768897483376
 30
0.0
 40
0.08
  1
8
  7
ROMANS
100
AcDbText
  0
TEXT
  5
BAB
330
B84
100
AcDbEntity
  8
0
100
AcDbText
 10
1.673665976984413
 20
1.959768897483376
 30
0.0
 40
0.08
  1
7
  7
ROMANS
100
AcDbText
  0
TEXT
  5
BAC
330
B84
100
AcDbEntity
  8
0
100
AcDbText
 10
1.462959976984414
 20
1.959768897483376
 30
0.0
 40
0.08
  1
6
  7
ROMANS
100
AcDbText
  0
TEXT
  5
BAD
330
B84
100
AcDbEntity
  8
0
100
AcDbText
 10
1.269661976984412
 20
1.959768897483376
 30
0.0
 40
0.08
  1
5
  7
ROMANS
100
AcDbText
  0
TEXT
  5
BAE
330
B84
100
AcDbEntity
  8
0
100
AcDbText
 10
1.069506976984413
 20
1.959768897483376
 30
0.0
 40
0.08
  1
4
  7
ROMANS
100
AcDbText
  0
TEXT
  5
BAF
330
B84
100
AcDbEntity
  8
0
100
AcDbText
 10
0.8689199769844151
 20
1.959768897483376
 30
0.0
 40
0.08
  1
3
  7
ROMANS
100
AcDbText
  0
TEXT
  5
BB0
330
B84
100
AcDbEntity
  8
0
100
AcDbText
 10
0.6695629769844125
 20
1.959768897483376
 30
0.0
 40
0.08
  1
2
  7
ROMANS
100
AcDbText
  0
TEXT
  5
BB1
330
B84
100
AcDbEntity
  8
0
100
AcDbText
 10
0.4700779769844133
 20
1.959768897483376
 30
0.0
 40
0.08
  1
1
  7
ROMANS
100
AcDbText
  0
LINE
  5
BB2
330
B84
100
AcDbEntity
  8
0
100
AcDbLine
 10
1.515630976984411
 20
1.647348897483375
 30
0.0
 11
1.515630976984411
 21
1.007326897483375
 31
0.0
  0
LINE
  5
BB3
330
B84
100
AcDbEntity
  8
0
100
AcDbLine
 10
1.410924976984414
 20
2.152745897483375
 30
0.0
 11
1.410924976984414
 21
1.653219897483375
 31
0.0
  0
LINE
  5
BB4
330
B84
100
AcDbEntity
  8
0
100
AcDbLine
 10
0.9150929769844111
 20
1.647348897483375
 30
0.0
 11
0.9150929769844111
 21
1.007326897483375
 31
0.0
  0
LINE
  5
BB5
330
B84
100
AcDbEntity
  8
0
100
AcDbLine
 10
0.8097109769844124
 20
2.152745897483375
 30
0.0
 11
0.8097109769844124
 21
1.653219897483375
 31
0.0
  0
LINE
  5
BB6
330
B84
100
AcDbEntity
  8
0
100
AcDbLine
 10
0.3922189769844131
 20
1.896898897483375
 30
0.0
 11
2.026324976984412
 21
1.896898897483375
 31
0.0
  0
LINE
  5
BB7
330
B84
100
AcDbEntity
  8
0
100
AcDbLine
 10
0.3922189769844131
 20
2.093088897483375
 30
0.0
 11
2.026324976984412
 21
2.093088897483375
 31
0.0
  0
LINE
  5
BB8
330
B84
100
AcDbEntity
  8
0
100
AcDbLine
 10
2.026324976984412
 20
2.151309897483375
 30
0.0
 11
2.026324976984412
 21
1.653219897483375
 31
0.0
  0
LINE
  5
BB9
330
B84
100
AcDbEntity
  8
0
100
AcDbLine
 10
0.3922189769844131
 20
2.151309897483375
 30
0.0
 11
2.026324976984412
 21
2.151309897483375
 31
0.0
  0
LINE
  5
BBA
330
B84
100
AcDbEntity
  8
0
100
AcDbLine
 10
0.4989719769844144
 20
1.406146897483375
 30
0.0
 11
2.131030976984412
 21
1.406146897483375
 31
0.0
  0
LINE
  5
BBB
330
B84
100
AcDbEntity
  8
0
100
AcDbLine
 10
0.4989719769844144
 20
1.597444897483375
 30
0.0
 11
2.131030976984412
 21
1.597444897483375
 31
0.0
  0
LINE
  5
BBC
330
B84
100
AcDbEntity
  8
0
100
AcDbLine
 10
0.4982959769844122
 20
1.600869897483375
 30
0.0
 11
0.4320949769844163
 21
1.600869897483375
 31
0.0
  0
LINE
  5
BBD
330
B84
100
AcDbEntity
  8
0
100
AcDbLine
 10
2.131030976984412
 20
1.653219897483375
 30
0.0
 11
2.131030976984412
 21
1.007326897483375
 31
0.0
  0
LINE
  5
BBE
330
B84
100
AcDbEntity
  8
0
100
AcDbLine
 10
0.4989719769844144
 20
1.653219897483375
 30
0.0
 11
2.131030976984412
 21
1.653219897483375
 31
0.0
  0
LINE
  5
BBF
330
B84
100
AcDbEntity
  8
0
100
AcDbLine
 10
0.4989719769844144
 20
1.007326897483375
 30
0.0
 11
0.4989719769844144
 21
1.653219897483375
 31
0.0
  0
LINE
  5
BC0
330
B84
100
AcDbEntity
  8
0
100
AcDbLine
 10
0.4320949769844163
 20
1.600869897483375
 30
0.0
 11
0.4320949769844163
 21
1.818096897483375
 31
0.0
  0
LINE
  5
BC1
330
B84
100
AcDbEntity
  8
0
100
AcDbLine
 10
0.4320949769844163
 20
1.818096897483375
 30
0.0
 11
0.5888159769844137
 21
1.818096897483375
 31
0.0
  0
LINE
  5
BC2
330
B84
100
AcDbEntity
  8
0
100
AcDbLine
 10
0.5888159769844137
 20
1.818096897483375
 30
0.0
 11
0.5888159769844137
 21
1.653219897483375
 31
0.0
  0
LINE
  5
BC3
330
B84
100
AcDbEntity
  8
0
100
AcDbLine
 10
0.5888159769844137
 20
1.653708897483375
 30
0.0
 11
0.5881399769844116
 21
1.653708897483375
 31
0.0
  0
LINE
  5
BC4
330
B84
100
AcDbEntity
  8
0
100
AcDbLine
 10
0.4705999769844134
 20
1.817118897483375
 30
0.0
 11
0.4705999769844134
 21
1.770150897483375
 31
0.0
  0
LINE
  5
BC5
330
B84
100
AcDbEntity
  8
0
100
AcDbLine
 10
0.4705999769844134
 20
1.770150897483375
 30
0.0
 11
0.550310976984413
 21
1.770150897483375
 31
0.0
  0
LINE
  5
BC6
330
B84
100
AcDbEntity
  8
0
100
AcDbLine
 10
0.550310976984413
 20
1.770150897483375
 30
0.0
 11
0.550310976984413
 21
1.817118897483375
 31
0.0
  0
LINE
  5
BC7
330
B84
100
AcDbEntity
  8
0
100
AcDbLine
 10
0.7503109769844123
 20
1.770150897483375
 30
0.0
 11
0.7503109769844123
 21
1.817118897483375
 31
0.0
  0
LINE
  5
BC8
330
B84
100
AcDbEntity
  8
0
100
AcDbLine
 10
0.6705999769844127
 20
1.770150897483375
 30
0.0
 11
0.7503109769844123
 21
1.770150897483375
 31
0.0
  0
LINE
  5
BC9
330
B84
100
AcDbEntity
  8
0
100
AcDbLine
 10
0.6705999769844127
 20
1.817118897483375
 30
0.0
 11
0.6705999769844127
 21
1.770150897483375
 31
0.0
  0
LINE
  5
BCA
330
B84
100
AcDbEntity
  8
0
100
AcDbLine
 10
0.788815976984413
 20
1.818096897483375
 30
0.0
 11
0.788815976984413
 21
1.653219897483375
 31
0.0
  0
LINE
  5
BCB
330
B84
100
AcDbEntity
  8
0
100
AcDbLine
 10
0.6320949769844156
 20
1.818096897483375
 30
0.0
 11
0.788815976984413
 21
1.818096897483375
 31
0.0
  0
LINE
  5
BCC
330
B84
100
AcDbEntity
  8
0
100
AcDbLine
 10
0.6320949769844156
 20
1.653219897483375
 30
0.0
 11
0.6320949769844156
 21
1.818096897483375
 31
0.0
  0
LINE
  5
BCD
330
B84
100
AcDbEntity
  8
0
100
AcDbLine
 10
0.9503109769844115
 20
1.770150897483375
 30
0.0
 11
0.9503109769844115
 21
1.817118897483375
 31
0.0
  0
LINE
  5
BCE
330
B84
100
AcDbEntity
  8
0
100
AcDbLine
 10
0.8705999769844119
 20
1.770150897483375
 30
0.0
 11
0.9503109769844115
 21
1.770150897483375
 31
0.0
  0
LINE
  5
BCF
330
B84
100
AcDbEntity
  8
0
100
AcDbLine
 10
0.8705999769844119
 20
1.817118897483375
 30
0.0
 11
0.8705999769844119
 21
1.770150897483375
 31
0.0
  0
LINE
  5
BD0
330
B84
100
AcDbEntity
  8
0
100
AcDbLine
 10
0.9888159769844122
 20
1.818096897483375
 30
0.0
 11
0.9888159769844122
 21
1.653219897483375
 31
0.0
  0
LINE
  5
BD1
330
B84
100
AcDbEntity
  8
0
100
AcDbLine
 10
0.8320949769844148
 20
1.818096897483375
 30
0.0
 11
0.9888159769844122
 21
1.818096897483375
 31
0.0
  0
LINE
  5
BD2
330
B84
100
AcDbEntity
  8
0
100
AcDbLine
 10
0.8320949769844148
 20
1.653219897483375
 30
0.0
 11
0.8320949769844148
 21
1.818096897483375
 31
0.0
  0
LINE
  5
BD3
330
B84
100
AcDbEntity
  8
0
100
AcDbLine
 10
1.15031097698441
 20
1.770150897483375
 30
0.0
 11
1.15031097698441
 21
1.817118897483375
 31
0.0
  0
LINE
  5
BD4
330
B84
100
AcDbEntity
  8
0
100
AcDbLine
 10
1.070599976984414
 20
1.770150897483375
 30
0.0
 11
1.15031097698441
 21
1.770150897483375
 31
0.0
  0
LINE
  5
BD5
330
B84
100
AcDbEntity
  8
0
100
AcDbLine
 10
1.070599976984414
 20
1.817118897483375
 30
0.0
 11
1.070599976984414
 21
1.770150897483375
 31
0.0
  0
LINE
  5
BD6
330
B84
100
AcDbEntity
  8
0
100
AcDbLine
 10
1.188815976984415
 20
1.818096897483375
 30
0.0
 11
1.188815976984415
 21
1.653219897483375
 31
0.0
  0
LINE
  5
BD7
330
B84
100
AcDbEntity
  8
0
100
AcDbLine
 10
1.032094976984414
 20
1.818096897483375
 30
0.0
 11
1.188815976984415
 21
1.818096897483375
 31
0.0
  0
LINE
  5
BD8
330
B84
100
AcDbEntity
  8
0
100
AcDbLine
 10
1.032094976984414
 20
1.653219897483375
 30
0.0
 11
1.032094976984414
 21
1.818096897483375
 31
0.0
  0
LINE
  5
BD9
330
B84
100
AcDbEntity
  8
0
100
AcDbLine
 10
1.350310976984413
 20
1.770150897483375
 30
0.0
 11
1.350310976984413
 21
1.817118897483375
 31
0.0
  0
LINE
  5
BDA
330
B84
100
AcDbEntity
  8
0
100
AcDbLine
 10
1.270599976984414
 20
1.770150897483375
 30
0.0
 11
1.350310976984413
 21
1.770150897483375
 31
0.0
  0
LINE
  5
BDB
330
B84
100
AcDbEntity
  8
0
100
AcDbLine
 10
1.270599976984414
 20
1.817118897483375
 30
0.0
 11
1.270599976984414
 21
1.770150897483375
 31
0.0
  0
LINE
  5
BDC
330
B84
100
AcDbEntity
  8
0
100
AcDbLine
 10
1.388815976984414
 20
1.818096897483375
 30
0.0
 11
1.388815976984414
 21
1.653219897483375
 31
0.0
  0
LINE
  5
BDD
330
B84
100
AcDbEntity
  8
0
100
AcDbLine
 10
1.232094976984413
 20
1.818096897483375
 30
0.0
 11
1.388815976984414
 21
1.818096897483375
 31
0.0
  0
LINE
  5
BDE
330
B84
100
AcDbEntity
  8
0
100
AcDbLine
 10
1.232094976984413
 20
1.653219897483375
 30
0.0
 11
1.232094976984413
 21
1.818096897483375
 31
0.0
  0
LINE
  5
BDF
330
B84
100
AcDbEntity
  8
0
100
AcDbLine
 10
1.550310976984413
 20
1.770150897483375
 30
0.0
 11
1.550310976984413
 21
1.817118897483375
 31
0.0
  0
LINE
  5
BE0
330
B84
100
AcDbEntity
  8
0
100
AcDbLine
 10
1.470599976984413
 20
1.770150897483375
 30
0.0
 11
1.550310976984413
 21
1.770150897483375
 31
0.0
  0
LINE
  5
BE1
330
B84
100
AcDbEntity
  8
0
100
AcDbLine
 10
1.470599976984413
 20
1.817118897483375
 30
0.0
 11
1.470599976984413
 21
1.770150897483375
 31
0.0
  0
LINE
  5
BE2
330
B84
100
AcDbEntity
  8
0
100
AcDbLine
 10
1.588815976984413
 20
1.818096897483375
 30
0.0
 11
1.588815976984413
 21
1.653219897483375
 31
0.0
  0
LINE
  5
BE3
330
B84
100
AcDbEntity
  8
0
100
AcDbLine
 10
1.432094976984416
 20
1.818096897483375
 30
0.0
 11
1.588815976984413
 21
1.818096897483375
 31
0.0
  0
LINE
  5
BE4
330
B84
100
AcDbEntity
  8
0
100
AcDbLine
 10
1.432094976984416
 20
1.653219897483375
 30
0.0
 11
1.432094976984416
 21
1.818096897483375
 31
0.0
  0
LINE
  5
BE5
330
B84
100
AcDbEntity
  8
0
100
AcDbLine
 10
1.750310976984412
 20
1.770150897483375
 30
0.0
 11
1.750310976984412
 21
1.817118897483375
 31
0.0
  0
LINE
  5
BE6
330
B84
100
AcDbEntity
  8
0
100
AcDbLine
 10
1.670599976984412
 20
1.770150897483375
 30
0.0
 11
1.750310976984412
 21
1.770150897483375
 31
0.0
  0
LINE
  5
BE7
330
B84
100
AcDbEntity
  8
0
100
AcDbLine
 10
1.670599976984412
 20
1.817118897483375
 30
0.0
 11
1.670599976984412
 21
1.770150897483375
 31
0.0
  0
LINE
  5
BE8
330
B84
100
AcDbEntity
  8
0
100
AcDbLine
 10
1.788815976984412
 20
1.818096897483375
 30
0.0
 11
1.788815976984412
 21
1.653219897483375
 31
0.0
  0
LINE
  5
BE9
330
B84
100
AcDbEntity
  8
0
100
AcDbLine
 10
1.632094976984415
 20
1.818096897483375
 30
0.0
 11
1.788815976984412
 21
1.818096897483375
 31
0.0
  0
LINE
  5
BEA
330
B84
100
AcDbEntity
  8
0
100
AcDbLine
 10
1.632094976984415
 20
1.653219897483375
 30
0.0
 11
1.632094976984415
 21
1.818096897483375
 31
0.0
  0
LINE
  5
BEB
330
B84
100
AcDbEntity
  8
0
100
AcDbLine
 10
1.950310976984411
 20
1.770150897483375
 30
0.0
 11
1.950310976984411
 21
1.817118897483375
 31
0.0
  0
LINE
  5
BEC
330
B84
100
AcDbEntity
  8
0
100
AcDbLine
 10
1.870599976984411
 20
1.770150897483375
 30
0.0
 11
1.950310976984411
 21
1.770150897483375
 31
0.0
  0
LINE
  5
BED
330
B84
100
AcDbEntity
  8
0
100
AcDbLine
 10
1.870599976984411
 20
1.817118897483375
 30
0.0
 11
1.870599976984411
 21
1.770150897483375
 31
0.0
  0
LINE
  5
BEE
330
B84
100
AcDbEntity
  8
0
100
AcDbLine
 10
1.988815976984412
 20
1.818096897483375
 30
0.0
 11
1.988815976984412
 21
1.653219897483375
 31
0.0
  0
LINE
  5
BEF
330
B84
100
AcDbEntity
  8
0
100
AcDbLine
 10
1.832094976984414
 20
1.818096897483375
 30
0.0
 11
1.988815976984412
 21
1.818096897483375
 31
0.0
  0
LINE
  5
BF0
330
B84
100
AcDbEntity
  8
0
100
AcDbLine
 10
1.832094976984414
 20
1.653219897483375
 30
0.0
 11
1.832094976984414
 21
1.818096897483375
 31
0.0
  0
LINE
  5
BF1
330
B84
100
AcDbEntity
  8
0
100
AcDbLine
 10
1.936800976984415
 20
1.076880897483375
 30
0.0
 11
1.936800976984415
 21
1.294108897483375
 31
0.0
  0
LINE
  5
BF2
330
B84
100
AcDbEntity
  8
0
100
AcDbLine
 10
1.936800976984415
 20
1.294108897483375
 30
0.0
 11
2.093521976984412
 21
1.294108897483375
 31
0.0
  0
LINE
  5
BF3
330
B84
100
AcDbEntity
  8
0
100
AcDbLine
 10
2.093521976984412
 20
1.294108897483375
 30
0.0
 11
2.093521976984412
 21
1.076880897483375
 31
0.0
  0
LINE
  5
BF4
330
B84
100
AcDbEntity
  8
0
100
AcDbLine
 10
2.093521976984412
 20
1.076880897483375
 30
0.0
 11
1.936800976984415
 21
1.076880897483375
 31
0.0
  0
LINE
  5
BF5
330
B84
100
AcDbEntity
  8
0
100
AcDbLine
 10
1.975304976984411
 20
1.293129897483375
 30
0.0
 11
1.975304976984411
 21
1.246161897483375
 31
0.0
  0
LINE
  5
BF6
330
B84
100
AcDbEntity
  8
0
100
AcDbLine
 10
1.975304976984411
 20
1.246161897483375
 30
0.0
 11
2.055016976984415
 21
1.246161897483375
 31
0.0
  0
LINE
  5
BF7
330
B84
100
AcDbEntity
  8
0
100
AcDbLine
 10
2.055016976984415
 20
1.246161897483375
 30
0.0
 11
2.055016976984415
 21
1.293129897483375
 31
0.0
  0
LINE
  5
BF8
330
B84
100
AcDbEntity
  8
0
100
AcDbLine
 10
1.736800976984415
 20
1.076880897483375
 30
0.0
 11
1.736800976984415
 21
1.294108897483375
 31
0.0
  0
LINE
  5
BF9
330
B84
100
AcDbEntity
  8
0
100
AcDbLine
 10
1.736800976984415
 20
1.294108897483375
 30
0.0
 11
1.893521976984413
 21
1.294108897483375
 31
0.0
  0
LINE
  5
BFA
330
B84
100
AcDbEntity
  8
0
100
AcDbLine
 10
1.893521976984413
 20
1.294108897483375
 30
0.0
 11
1.893521976984413
 21
1.076880897483375
 31
0.0
  0
LINE
  5
BFB
330
B84
100
AcDbEntity
  8
0
100
AcDbLine
 10
1.893521976984413
 20
1.076880897483375
 30
0.0
 11
1.736800976984415
 21
1.076880897483375
 31
0.0
  0
LINE
  5
BFC
330
B84
100
AcDbEntity
  8
0
100
AcDbLine
 10
1.775304976984411
 20
1.293129897483375
 30
0.0
 11
1.775304976984411
 21
1.246161897483375
 31
0.0
  0
LINE
  5
BFD
330
B84
100
AcDbEntity
  8
0
100
AcDbLine
 10
1.775304976984411
 20
1.246161897483375
 30
0.0
 11
1.855016976984416
 21
1.246161897483375
 31
0.0
  0
LINE
  5
BFE
330
B84
100
AcDbEntity
  8
0
100
AcDbLine
 10
1.855016976984416
 20
1.246161897483375
 30
0.0
 11
1.855016976984416
 21
1.293129897483375
 31
0.0
  0
LINE
  5
BFF
330
B84
100
AcDbEntity
  8
0
100
AcDbLine
 10
1.536800976984412
 20
1.076880897483375
 30
0.0
 11
1.536800976984412
 21
1.294108897483375
 31
0.0
  0
LINE
  5
C00
330
B84
100
AcDbEntity
  8
0
100
AcDbLine
 10
1.536800976984412
 20
1.294108897483375
 30
0.0
 11
1.693521976984413
 21
1.294108897483375
 31
0.0
  0
LINE
  5
C01
330
B84
100
AcDbEntity
  8
0
100
AcDbLine
 10
1.693521976984413
 20
1.294108897483375
 30
0.0
 11
1.693521976984413
 21
1.076880897483375
 31
0.0
  0
LINE
  5
C02
330
B84
100
AcDbEntity
  8
0
100
AcDbLine
 10
1.693521976984413
 20
1.076880897483375
 30
0.0
 11
1.536800976984412
 21
1.076880897483375
 31
0.0
  0
LINE
  5
C03
330
B84
100
AcDbEntity
  8
0
100
AcDbLine
 10
1.575304976984412
 20
1.293129897483375
 30
0.0
 11
1.575304976984412
 21
1.246161897483375
 31
0.0
  0
LINE
  5
C04
330
B84
100
AcDbEntity
  8
0
100
AcDbLine
 10
1.575304976984412
 20
1.246161897483375
 30
0.0
 11
1.655016976984413
 21
1.246161897483375
 31
0.0
  0
LINE
  5
C05
330
B84
100
AcDbEntity
  8
0
100
AcDbLine
 10
1.655016976984413
 20
1.246161897483375
 30
0.0
 11
1.655016976984413
 21
1.293129897483375
 31
0.0
  0
LINE
  5
C06
330
B84
100
AcDbEntity
  8
0
100
AcDbLine
 10
1.336800976984413
 20
1.076880897483375
 30
0.0
 11
1.336800976984413
 21
1.294108897483375
 31
0.0
  0
LINE
  5
C07
330
B84
100
AcDbEntity
  8
0
100
AcDbLine
 10
1.336800976984413
 20
1.294108897483375
 30
0.0
 11
1.493521976984414
 21
1.294108897483375
 31
0.0
  0
LINE
  5
C08
330
B84
100
AcDbEntity
  8
0
100
AcDbLine
 10
1.493521976984414
 20
1.294108897483375
 30
0.0
 11
1.493521976984414
 21
1.076880897483375
 31
0.0
  0
LINE
  5
C09
330
B84
100
AcDbEntity
  8
0
100
AcDbLine
 10
1.493521976984414
 20
1.076880897483375
 30
0.0
 11
1.336800976984413
 21
1.076880897483375
 31
0.0
  0
LINE
  5
C0A
330
B84
100
AcDbEntity
  8
0
100
AcDbLine
 10
1.375304976984413
 20
1.293129897483375
 30
0.0
 11
1.375304976984413
 21
1.246161897483375
 31
0.0
  0
LINE
  5
C0B
330
B84
100
AcDbEntity
  8
0
100
AcDbLine
 10
1.375304976984413
 20
1.246161897483375
 30
0.0
 11
1.455016976984413
 21
1.246161897483375
 31
0.0
  0
LINE
  5
C0C
330
B84
100
AcDbEntity
  8
0
100
AcDbLine
 10
1.455016976984413
 20
1.246161897483375
 30
0.0
 11
1.455016976984413
 21
1.293129897483375
 31
0.0
  0
LINE
  5
C0D
330
B84
100
AcDbEntity
  8
0
100
AcDbLine
 10
1.136800976984414
 20
1.076880897483375
 30
0.0
 11
1.136800976984414
 21
1.294108897483375
 31
0.0
  0
LINE
  5
C0E
330
B84
100
AcDbEntity
  8
0
100
AcDbLine
 10
1.136800976984414
 20
1.294108897483375
 30
0.0
 11
1.293521976984411
 21
1.294108897483375
 31
0.0
  0
LINE
  5
C0F
330
B84
100
AcDbEntity
  8
0
100
AcDbLine
 10
1.293521976984411
 20
1.294108897483375
 30
0.0
 11
1.293521976984411
 21
1.076880897483375
 31
0.0
  0
LINE
  5
C10
330
B84
100
AcDbEntity
  8
0
100
AcDbLine
 10
1.293521976984411
 20
1.076880897483375
 30
0.0
 11
1.136800976984414
 21
1.076880897483375
 31
0.0
  0
LINE
  5
C11
330
B84
100
AcDbEntity
  8
0
100
AcDbLine
 10
1.175304976984413
 20
1.293129897483375
 30
0.0
 11
1.175304976984413
 21
1.246161897483375
 31
0.0
  0
LINE
  5
C12
330
B84
100
AcDbEntity
  8
0
100
AcDbLine
 10
1.175304976984413
 20
1.246161897483375
 30
0.0
 11
1.255016976984414
 21
1.246161897483375
 31
0.0
  0
LINE
  5
C13
330
B84
100
AcDbEntity
  8
0
100
AcDbLine
 10
1.255016976984414
 20
1.246161897483375
 30
0.0
 11
1.255016976984414
 21
1.293129897483375
 31
0.0
  0
LINE
  5
C14
330
B84
100
AcDbEntity
  8
0
100
AcDbLine
 10
0.936800976984415
 20
1.076880897483375
 30
0.0
 11
0.936800976984415
 21
1.294108897483375
 31
0.0
  0
LINE
  5
C15
330
B84
100
AcDbEntity
  8
0
100
AcDbLine
 10
0.936800976984415
 20
1.294108897483375
 30
0.0
 11
1.093521976984412
 21
1.294108897483375
 31
0.0
  0
LINE
  5
C16
330
B84
100
AcDbEntity
  8
0
100
AcDbLine
 10
1.093521976984412
 20
1.294108897483375
 30
0.0
 11
1.093521976984412
 21
1.076880897483375
 31
0.0
  0
LINE
  5
C17
330
B84
100
AcDbEntity
  8
0
100
AcDbLine
 10
1.093521976984412
 20
1.076880897483375
 30
0.0
 11
0.936800976984415
 21
1.076880897483375
 31
0.0
  0
LINE
  5
C18
330
B84
100
AcDbEntity
  8
0
100
AcDbLine
 10
0.975304976984411
 20
1.293129897483375
 30
0.0
 11
0.975304976984411
 21
1.246161897483375
 31
0.0
  0
LINE
  5
C19
330
B84
100
AcDbEntity
  8
0
100
AcDbLine
 10
0.975304976984411
 20
1.246161897483375
 30
0.0
 11
1.055016976984415
 21
1.246161897483375
 31
0.0
  0
LINE
  5
C1A
330
B84
100
AcDbEntity
  8
0
100
AcDbLine
 10
1.055016976984415
 20
1.246161897483375
 30
0.0
 11
1.055016976984415
 21
1.293129897483375
 31
0.0
  0
LINE
  5
C1B
330
B84
100
AcDbEntity
  8
0
100
AcDbLine
 10
0.7368009769844158
 20
1.076880897483375
 30
0.0
 11
0.7368009769844158
 21
1.294108897483375
 31
0.0
  0
LINE
  5
C1C
330
B84
100
AcDbEntity
  8
0
100
AcDbLine
 10
0.7368009769844158
 20
1.294108897483375
 30
0.0
 11
0.8935219769844131
 21
1.294108897483375
 31
0.0
  0
LINE
  5
C1D
330
B84
100
AcDbEntity
  8
0
100
AcDbLine
 10
0.8935219769844131
 20
1.294108897483375
 30
0.0
 11
0.8935219769844131
 21
1.076880897483375
 31
0.0
  0
LINE
  5
C1E
330
B84
100
AcDbEntity
  8
0
100
AcDbLine
 10
0.8935219769844131
 20
1.076880897483375
 30
0.0
 11
0.7368009769844158
 21
1.076880897483375
 31
0.0
  0
LINE
  5
C1F
330
B84
100
AcDbEntity
  8
0
100
AcDbLine
 10
0.7753049769844118
 20
1.293129897483375
 30
0.0
 11
0.7753049769844118
 21
1.246161897483375
 31
0.0
  0
LINE
  5
C20
330
B84
100
AcDbEntity
  8
0
100
AcDbLine
 10
0.7753049769844118
 20
1.246161897483375
 30
0.0
 11
0.855016976984416
 21
1.246161897483375
 31
0.0
  0
LINE
  5
C21
330
B84
100
AcDbEntity
  8
0
100
AcDbLine
 10
0.855016976984416
 20
1.246161897483375
 30
0.0
 11
0.855016976984416
 21
1.293129897483375
 31
0.0
  0
LINE
  5
C22
330
B84
100
AcDbEntity
  8
0
100
AcDbLine
 10
0.6550169769844132
 20
1.246161897483375
 30
0.0
 11
0.6550169769844132
 21
1.293129897483375
 31
0.0
  0
LINE
  5
C23
330
B84
100
AcDbEntity
  8
0
100
AcDbLine
 10
0.5753049769844126
 20
1.246161897483375
 30
0.0
 11
0.6550169769844132
 21
1.246161897483375
 31
0.0
  0
LINE
  5
C24
330
B84
100
AcDbEntity
  8
0
100
AcDbLine
 10
0.5753049769844126
 20
1.293129897483375
 30
0.0
 11
0.5753049769844126
 21
1.246161897483375
 31
0.0
  0
LINE
  5
C25
330
B84
100
AcDbEntity
  8
0
100
AcDbLine
 10
0.6935219769844139
 20
1.076880897483375
 30
0.0
 11
0.5368009769844129
 21
1.076880897483375
 31
0.0
  0
LINE
  5
C26
330
B84
100
AcDbEntity
  8
0
100
AcDbLine
 10
0.6935219769844139
 20
1.294108897483375
 30
0.0
 11
0.6935219769844139
 21
1.076880897483375
 31
0.0
  0
LINE
  5
C27
330
B84
100
AcDbEntity
  8
0
100
AcDbLine
 10
0.5368009769844129
 20
1.294108897483375
 30
0.0
 11
0.6935219769844139
 21
1.294108897483375
 31
0.0
  0
LINE
  5
C28
330
B84
100
AcDbEntity
  8
0
100
AcDbLine
 10
0.5368009769844129
 20
1.076880897483375
 30
0.0
 11
0.5368009769844129
 21
1.294108897483375
 31
0.0
  0
LINE
  5
C29
330
B84
100
AcDbEntity
  8
0
100
AcDbLine
 10
0.3922189769844131
 20
1.004527897483375
 30
0.0
 11
0.3922189769844131
 21
2.151309897483375
 31
0.0
  0
LINE
  5
C2A
330
B84
100
AcDbEntity
  8
0
100
AcDbLine
 10
-0.0495356650955188
 20
1.007327087093996
 30
0.0
 11
-0.0495356650955188
 21
0.4288651090778242
 31
0.0
  0
LINE
  5
C2B
330
B84
100
AcDbEntity
  8
0
100
AcDbLine
 10
2.608508725726771
 20
0.8426204493985327
 30
0.0
 11
-0.0495356650955188
 21
0.8426204493985292
 31
0.0
  0
LINE
  5
C2C
330
B84
100
AcDbEntity
  8
0
100
AcDbLine
 10
2.608508725726771
 20
0.6110616132327849
 30
0.0
 11
-0.0495356650955188
 21
0.6110616132327831
 31
0.0
  0
LINE
  5
C2D
330
B84
100
AcDbEntity
  8
0
100
AcDbLine
 10
-0.0495356650955188
 20
0.4288651090778242
 30
0.0
 11
2.608508725726771
 21
0.4288651090778242
 31
0.0
  0
LINE
  5
C2E
330
B84
100
AcDbEntity
  8
0
100
AcDbLine
 10
2.165608725726773
 20
1.007327087093996
 30
0.0
 11
2.165608725726773
 21
0.4288651090778224
 31
0.0
  0
LINE
  5
C2F
330
B84
100
AcDbEntity
  8
0
100
AcDbLine
 10
0.3933643349044828
 20
1.007327087093996
 30
0.0
 11
0.3933643349044828
 21
0.4288651090778224
 31
0.0
  0
LINE
  5
C30
330
B84
100
AcDbEntity
  8
0
100
AcDbLine
 10
2.608508725726771
 20
1.007327087093996
 30
0.0
 11
2.608508725726771
 21
0.4288651090778242
 31
0.0
  0
LINE
  5
C31
330
B84
100
AcDbEntity
  8
0
100
AcDbLine
 10
2.603917355994738
 20
0.6110616132327831
 30
0.0
 11
2.59677246584841
 21
0.6110616132327831
 31
0.0
  0
LINE
  5
C32
330
B84
100
AcDbEntity
  8
0
100
AcDbLine
 10
2.603917355994738
 20
0.8426204493985292
 30
0.0
 11
2.598832861053676
 21
0.8426204493985292
 31
0.0
  0
LINE
  5
C33
330
B84
100
AcDbEntity
  8
0
100
AcDbLine
 10
2.608508725726771
 20
1.007327087093996
 30
0.0
 11
-0.0495356650955188
 21
1.007327087093996
 31
0.0
  0
LINE
  5
C34
330
B84
100
AcDbEntity
  8
0
100
AcDbLine
 10
2.007034452258388
 20
1.560150942617356
 30
0.0
 11
2.007034452258388
 21
1.493354782339556
 31
0.0
  0
LINE
  5
C35
330
B84
100
AcDbEntity
  8
0
100
AcDbLine
 10
2.001054093579611
 20
1.443354782339556
 30
0.0
 11
2.013014810937161
 21
1.443354782339556
 31
0.0
  0
LINE
  5
C36
330
B84
100
AcDbEntity
  8
0
100
AcDbLine
 10
1.979044272918997
 20
1.468354782339558
 30
0.0
 11
2.035024631597771
 21
1.468354782339556
 31
0.0
  0
LINE
  5
C37
330
B84
100
AcDbEntity
  8
0
100
AcDbLine
 10
1.957034452258383
 20
1.493354782339556
 30
0.0
 11
2.057034452258385
 21
1.493354782339556
 31
0.0
  0
TEXT
  5
C38
330
B84
100
AcDbEntity
  8
0
100
AcDbText
 10
1.723932729758466
 20
1.458576812594689
 30
0.0
 40
0.08
  1
15
  7
ROMANS
100
AcDbText
  0
TEXT
  5
C39
330
B84
100
AcDbEntity
  8
0
100
AcDbText
 10
1.530414290189035
 20
1.458576812594689
 30
0.0
 40
0.08
  1
14
  7
ROMANS
100
AcDbText
  0
TEXT
  5
C3A
330
B84
100
AcDbEntity
  8
0
100
AcDbText
 10
1.320277149707017
 20
1.458576812594689
 30
0.0
 40
0.08
  1
13
  7
ROMANS
100
AcDbText
  0
TEXT
  5
C3B
330
B84
100
AcDbEntity
  8
0
100
AcDbText
 10
1.123431128803957
 20
1.458576812594689
 30
0.0
 40
0.08
  1
12
  7
ROMANS
100
AcDbText
  0
TEXT
  5
C3C
330
B84
100
AcDbEntity
  8
0
100
AcDbText
 10
0.9278212317258152
 20
1.464056433659697
 30
0.0
 40
0.08
  1
11
  7
ROMANS
100
AcDbText
  0
TEXT
  5
C3D
330
B84
100
AcDbEntity
  8
0
100
AcDbText
 10
0.7171077423886594
 20
1.458576812594689
 30
0.0
 40
0.08
  1
10
  7
ROMANS
100
AcDbText
  0
TEXT
  5
C3E
330
B84
100
AcDbEntity
  8
0
100
AcDbText
 10
0.5716013381248111
 20
1.458576812594689
 30
0.0
 40
0.08
  1
9
  7
ROMANS
100
AcDbText
  0
TEXT
  5
C3F
330
B84
100
AcDbEntity
  8
0
100
AcDbText
 10
1.868174190219068
 20
1.959769061619054
 30
0.0
 40
0.08
  1
8
  7
ROMANS
100
AcDbText
  0
TEXT
  5
C40
330
B84
100
AcDbEntity
  8
0
100
AcDbText
 10
1.673666190343524
 20
1.959769061619054
 30
0.0
 40
0.08
  1
7
  7
ROMANS
100
AcDbText
  0
TEXT
  5
C41
330
B84
100
AcDbEntity
  8
0
100
AcDbText
 10
1.462959722062397
 20
1.959769061619054
 30
0.0
 40
0.08
  1
6
  7
ROMANS
100
AcDbText
  0
TEXT
  5
C42
330
B84
100
AcDbEntity
  8
0
100
AcDbText
 10
1.269661517051652
 20
1.959769061619054
 30
0.0
 40
0.08
  1
5
  7
ROMANS
100
AcDbText
  0
TEXT
  5
C43
330
B84
100
AcDbEntity
  8
0
100
AcDbText
 10
1.069507222719053
 20
1.959769061619054
 30
0.0
 40
0.08
  1
4
  7
ROMANS
100
AcDbText
  0
TEXT
  5
C44
330
B84
100
AcDbEntity
  8
0
100
AcDbText
 10
0.8689204090313999
 20
1.959769061619054
 30
0.0
 40
0.08
  1
3
  7
ROMANS
100
AcDbText
  0
TEXT
  5
C45
330
B84
100
AcDbEntity
  8
0
100
AcDbText
 10
0.6695626981126246
 20
1.959769061619054
 30
0.0
 40
0.08
  1
2
  7
ROMANS
100
AcDbText
  0
TEXT
  5
C46
330
B84
100
AcDbEntity
  8
0
100
AcDbText
 10
0.4700777816275697
 20
1.959769061619054
 30
0.0
 40
0.08
  1
1
  7
ROMANS
100
AcDbText
  0
LINE
  5
C47
330
B84
100
AcDbEntity
  8
0
100
AcDbLine
 10
1.515631072454951
 20
1.647348429902292
 30
0.0
 11
1.515631072454951
 21
1.007327087093996
 31
0.0
  0
LINE
  5
C48
330
B84
100
AcDbEntity
  8
0
100
AcDbLine
 10
1.410925275361833
 20
2.152745622773247
 30
0.0
 11
1.410925275361833
 21
1.653219452471944
 31
0.0
  0
LINE
  5
C49
330
B84
100
AcDbEntity
  8
0
100
AcDbLine
 10
0.9150926620305597
 20
1.647348429902292
 30
0.0
 11
0.9150926620305597
 21
1.007327087093996
 31
0.0
  0
LINE
  5
C4A
330
B84
100
AcDbEntity
  8
0
100
AcDbLine
 10
0.8097113436658709
 20
2.152745622773247
 30
0.0
 11
0.8097113436658709
 21
1.653219452471944
 31
0.0
  0
LINE
  5
C4B
330
B84
100
AcDbEntity
  8
0
100
AcDbLine
 10
0.3922186892107646
 20
1.896898816496126
 30
0.0
 11
2.026325153760737
 21
1.896898816496126
 31
0.0
  0
LINE
  5
C4C
330
B84
100
AcDbEntity
  8
0
100
AcDbLine
 10
0.3922186892107646
 20
2.093088820698694
 30
0.0
 11
2.026325153760737
 21
2.093088820698694
 31
0.0
  0
LINE
  5
C4D
330
B84
100
AcDbEntity
  8
0
100
AcDbLine
 10
2.026325153760737
 20
2.151309794514419
 30
0.0
 11
2.026325153760737
 21
1.653219452471944
 31
0.0
  0
LINE
  5
C4E
330
B84
100
AcDbEntity
  8
0
100
AcDbLine
 10
0.3922186892107646
 20
2.151309794514419
 30
0.0
 11
2.026325153760737
 21
2.151309794514419
 31
0.0
  0
LINE
  5
C4F
330
B84
100
AcDbEntity
  8
0
100
AcDbLine
 10
0.4989715587443655
 20
1.406147252665716
 30
0.0
 11
2.131030950853855
 21
1.406147252665716
 31
0.0
  0
LINE
  5
C50
330
B84
100
AcDbEntity
  8
0
100
AcDbLine
 10
0.4989715587443655
 20
1.597444738060241
 30
0.0
 11
2.131030950853855
 21
1.597444738060241
 31
0.0
  0
LINE
  5
C51
330
B84
100
AcDbEntity
  8
0
100
AcDbLine
 10
0.4982960374727981
 20
1.60086950122587
 30
0.0
 11
0.4320949528590817
 21
1.60086950122587
 31
0.0
  0
LINE
  5
C52
330
B84
100
AcDbEntity
  8
0
100
AcDbLine
 10
2.131030950853855
 20
1.653219452471944
 30
0.0
 11
2.131030950853851
 21
1.007327087093996
 31
0.0
  0
LINE
  5
C53
330
B84
100
AcDbEntity
  8
0
100
AcDbLine
 10
0.4989715587443655
 20
1.653219452471944
 30
0.0
 11
2.131030950853855
 21
1.653219452471944
 31
0.0
  0
LINE
  5
C54
330
B84
100
AcDbEntity
  8
0
100
AcDbLine
 10
0.4989715587443655
 20
1.007327087093996
 30
0.0
 11
0.4989715587443655
 21
1.653219452471944
 31
0.0
  0
LINE
  5
C55
330
B84
100
AcDbEntity
  8
0
100
AcDbLine
 10
0.4320949528590817
 20
1.60086950122587
 30
0.0
 11
0.4320949528590817
 21
1.818097336303031
 31
0.0
  0
LINE
  5
C56
330
B84
100
AcDbEntity
  8
0
100
AcDbLine
 10
0.4320949528590817
 20
1.818097336303031
 30
0.0
 11
0.5888158878629746
 21
1.818097336303031
 31
0.0
  0
LINE
  5
C57
330
B84
100
AcDbEntity
  8
0
100
AcDbLine
 10
0.5888158878629746
 20
1.818097336303031
 30
0.0
 11
0.5888158878629746
 21
1.653219452471944
 31
0.0
  0
LINE
  5
C58
330
B84
100
AcDbEntity
  8
0
100
AcDbLine
 10
0.5888158878629746
 20
1.653708704352748
 30
0.0
 11
0.5881403665914072
 21
1.653708704352748
 31
0.0
  0
LINE
  5
C59
330
B84
100
AcDbEntity
  8
0
100
AcDbLine
 10
0.4705996653384901
 20
1.817118832541423
 30
0.0
 11
0.4705996653384901
 21
1.770150651984197
 31
0.0
  0
LINE
  5
C5A
330
B84
100
AcDbEntity
  8
0
100
AcDbLine
 10
0.4705996653384901
 20
1.770150651984197
 30
0.0
 11
0.5503111753835697
 21
1.770150651984197
 31
0.0
  0
LINE
  5
C5B
330
B84
100
AcDbEntity
  8
0
100
AcDbLine
 10
0.5503111753835697
 20
1.770150651984197
 30
0.0
 11
0.5503111753835697
 21
1.817118832541423
 31
0.0
  0
LINE
  5
C5C
330
B84
100
AcDbEntity
  8
0
100
AcDbLine
 10
0.750311175383569
 20
1.770150651984197
 30
0.0
 11
0.750311175383569
 21
1.817118832541423
 31
0.0
  0
LINE
  5
C5D
330
B84
100
AcDbEntity
  8
0
100
AcDbLine
 10
0.6705996653384858
 20
1.770150651984197
 30
0.0
 11
0.750311175383569
 21
1.770150651984197
 31
0.0
  0
LINE
  5
C5E
330
B84
100
AcDbEntity
  8
0
100
AcDbLine
 10
0.6705996653384858
 20
1.817118832541423
 30
0.0
 11
0.6705996653384858
 21
1.770150651984197
 31
0.0
  0
LINE
  5
C5F
330
B84
100
AcDbEntity
  8
0
100
AcDbLine
 10
0.7888158878629739
 20
1.818097336303031
 30
0.0
 11
0.7888158878629739
 21
1.653219452471944
 31
0.0
  0
LINE
  5
C60
330
B84
100
AcDbEntity
  8
0
100
AcDbLine
 10
0.6320949528590845
 20
1.818097336303031
 30
0.0
 11
0.7888158878629739
 21
1.818097336303031
 31
0.0
  0
LINE
  5
C61
330
B84
100
AcDbEntity
  8
0
100
AcDbLine
 10
0.6320949528590809
 20
1.653219452471944
 30
0.0
 11
0.6320949528590845
 21
1.818097336303031
 31
0.0
  0
LINE
  5
C62
330
B84
100
AcDbEntity
  8
0
100
AcDbLine
 10
0.9503111753835682
 20
1.770150651984197
 30
0.0
 11
0.9503111753835682
 21
1.817118832541423
 31
0.0
  0
LINE
  5
C63
330
B84
100
AcDbEntity
  8
0
100
AcDbLine
 10
0.8705996653384886
 20
1.770150651984197
 30
0.0
 11
0.9503111753835682
 21
1.770150651984197
 31
0.0
  0
LINE
  5
C64
330
B84
100
AcDbEntity
  8
0
100
AcDbLine
 10
0.8705996653384886
 20
1.817118832541423
 30
0.0
 11
0.8705996653384886
 21
1.770150651984197
 31
0.0
  0
LINE
  5
C65
330
B84
100
AcDbEntity
  8
0
100
AcDbLine
 10
0.9888158878629766
 20
1.818097336303031
 30
0.0
 11
0.9888158878629731
 21
1.653219452471944
 31
0.0
  0
LINE
  5
C66
330
B84
100
AcDbEntity
  8
0
100
AcDbLine
 10
0.8320949528590837
 20
1.818097336303031
 30
0.0
 11
0.9888158878629766
 21
1.818097336303031
 31
0.0
  0
LINE
  5
C67
330
B84
100
AcDbEntity
  8
0
100
AcDbLine
 10
0.8320949528590837
 20
1.653219452471944
 30
0.0
 11
0.8320949528590837
 21
1.818097336303031
 31
0.0
  0
LINE
  5
C68
330
B84
100
AcDbEntity
  8
0
100
AcDbLine
 10
1.150311175383571
 20
1.770150651984197
 30
0.0
 11
1.150311175383571
 21
1.817118832541423
 31
0.0
  0
LINE
  5
C69
330
B84
100
AcDbEntity
  8
0
100
AcDbLine
 10
1.070599665338487
 20
1.770150651984197
 30
0.0
 11
1.150311175383571
 21
1.770150651984197
 31
0.0
  0
LINE
  5
C6A
330
B84
100
AcDbEntity
  8
0
100
AcDbLine
 10
1.070599665338487
 20
1.817118832541423
 30
0.0
 11
1.070599665338487
 21
1.770150651984197
 31
0.0
  0
LINE
  5
C6B
330
B84
100
AcDbEntity
  8
0
100
AcDbLine
 10
1.188815887862972
 20
1.818097336303031
 30
0.0
 11
1.188815887862972
 21
1.653219452471944
 31
0.0
  0
LINE
  5
C6C
330
B84
100
AcDbEntity
  8
0
100
AcDbLine
 10
1.032094952859083
 20
1.818097336303031
 30
0.0
 11
1.188815887862972
 21
1.818097336303031
 31
0.0
  0
LINE
  5
C6D
330
B84
100
AcDbEntity
  8
0
100
AcDbLine
 10
1.032094952859083
 20
1.653219452471944
 30
0.0
 11
1.032094952859083
 21
1.818097336303031
 31
0.0
  0
LINE
  5
C6E
330
B84
100
AcDbEntity
  8
0
100
AcDbLine
 10
1.35031117538357
 20
1.770150651984197
 30
0.0
 11
1.35031117538357
 21
1.817118832541423
 31
0.0
  0
LINE
  5
C6F
330
B84
100
AcDbEntity
  8
0
100
AcDbLine
 10
1.270599665338487
 20
1.770150651984197
 30
0.0
 11
1.35031117538357
 21
1.770150651984197
 31
0.0
  0
LINE
  5
C70
330
B84
100
AcDbEntity
  8
0
100
AcDbLine
 10
1.270599665338487
 20
1.817118832541423
 30
0.0
 11
1.270599665338487
 21
1.770150651984197
 31
0.0
  0
LINE
  5
C71
330
B84
100
AcDbEntity
  8
0
100
AcDbLine
 10
1.388815887862975
 20
1.818097336303031
 30
0.0
 11
1.388815887862975
 21
1.653219452471944
 31
0.0
  0
LINE
  5
C72
330
B84
100
AcDbEntity
  8
0
100
AcDbLine
 10
1.232094952859085
 20
1.818097336303031
 30
0.0
 11
1.388815887862975
 21
1.818097336303031
 31
0.0
  0
LINE
  5
C73
330
B84
100
AcDbEntity
  8
0
100
AcDbLine
 10
1.232094952859082
 20
1.653219452471944
 30
0.0
 11
1.232094952859085
 21
1.818097336303031
 31
0.0
  0
LINE
  5
C74
330
B84
100
AcDbEntity
  8
0
100
AcDbLine
 10
1.550311175383569
 20
1.770150651984197
 30
0.0
 11
1.550311175383569
 21
1.817118832541423
 31
0.0
  0
LINE
  5
C75
330
B84
100
AcDbEntity
  8
0
100
AcDbLine
 10
1.470599665338486
 20
1.770150651984197
 30
0.0
 11
1.550311175383569
 21
1.770150651984197
 31
0.0
  0
LINE
  5
C76
330
B84
100
AcDbEntity
  8
0
100
AcDbLine
 10
1.470599665338486
 20
1.817118832541423
 30
0.0
 11
1.470599665338486
 21
1.770150651984197
 31
0.0
  0
LINE
  5
C77
330
B84
100
AcDbEntity
  8
0
100
AcDbLine
 10
1.588815887862974
 20
1.818097336303031
 30
0.0
 11
1.588815887862974
 21
1.653219452471944
 31
0.0
  0
LINE
  5
C78
330
B84
100
AcDbEntity
  8
0
100
AcDbLine
 10
1.432094952859081
 20
1.818097336303031
 30
0.0
 11
1.588815887862974
 21
1.818097336303031
 31
0.0
  0
LINE
  5
C79
330
B84
100
AcDbEntity
  8
0
100
AcDbLine
 10
1.432094952859081
 20
1.653219452471944
 30
0.0
 11
1.432094952859081
 21
1.818097336303031
 31
0.0
  0
LINE
  5
C7A
330
B84
100
AcDbEntity
  8
0
100
AcDbLine
 10
1.750311175383568
 20
1.770150651984197
 30
0.0
 11
1.750311175383568
 21
1.817118832541423
 31
0.0
  0
LINE
  5
C7B
330
B84
100
AcDbEntity
  8
0
100
AcDbLine
 10
1.670599665338485
 20
1.770150651984197
 30
0.0
 11
1.750311175383568
 21
1.770150651984197
 31
0.0
  0
LINE
  5
C7C
330
B84
100
AcDbEntity
  8
0
100
AcDbLine
 10
1.670599665338485
 20
1.817118832541423
 30
0.0
 11
1.670599665338485
 21
1.770150651984197
 31
0.0
  0
LINE
  5
C7D
330
B84
100
AcDbEntity
  8
0
100
AcDbLine
 10
1.788815887862973
 20
1.818097336303031
 30
0.0
 11
1.788815887862973
 21
1.653219452471944
 31
0.0
  0
LINE
  5
C7E
330
B84
100
AcDbEntity
  8
0
100
AcDbLine
 10
1.632094952859084
 20
1.818097336303031
 30
0.0
 11
1.788815887862973
 21
1.818097336303031
 31
0.0
  0
LINE
  5
C7F
330
B84
100
AcDbEntity
  8
0
100
AcDbLine
 10
1.632094952859084
 20
1.653219452471944
 30
0.0
 11
1.632094952859084
 21
1.818097336303031
 31
0.0
  0
LINE
  5
C80
330
B84
100
AcDbEntity
  8
0
100
AcDbLine
 10
1.950311175383568
 20
1.770150651984197
 30
0.0
 11
1.950311175383568
 21
1.817118832541423
 31
0.0
  0
LINE
  5
C81
330
B84
100
AcDbEntity
  8
0
100
AcDbLine
 10
1.870599665338488
 20
1.770150651984197
 30
0.0
 11
1.950311175383568
 21
1.770150651984197
 31
0.0
  0
LINE
  5
C82
330
B84
100
AcDbEntity
  8
0
100
AcDbLine
 10
1.870599665338488
 20
1.817118832541423
 30
0.0
 11
1.870599665338488
 21
1.770150651984197
 31
0.0
  0
LINE
  5
C83
330
B84
100
AcDbEntity
  8
0
100
AcDbLine
 10
1.988815887862976
 20
1.818097336303031
 30
0.0
 11
1.988815887862973
 21
1.653219452471944
 31
0.0
  0
LINE
  5
C84
330
B84
100
AcDbEntity
  8
0
100
AcDbLine
 10
1.832094952859083
 20
1.818097336303031
 30
0.0
 11
1.988815887862976
 21
1.818097336303031
 31
0.0
  0
LINE
  5
C85
330
B84
100
AcDbEntity
  8
0
100
AcDbLine
 10
1.832094952859083
 20
1.653219452471944
 30
0.0
 11
1.832094952859083
 21
1.818097336303031
 31
0.0
  0
LINE
  5
C86
330
B84
100
AcDbEntity
  8
0
100
AcDbLine
 10
1.936800749952201
 20
1.076880736884348
 30
0.0
 11
1.936800749952201
 21
1.294108571961507
 31
0.0
  0
LINE
  5
C87
330
B84
100
AcDbEntity
  8
0
100
AcDbLine
 10
1.936800749952201
 20
1.294108571961507
 30
0.0
 11
2.093521684956094
 21
1.294108571961507
 31
0.0
  0
LINE
  5
C88
330
B84
100
AcDbEntity
  8
0
100
AcDbLine
 10
2.093521684956094
 20
1.294108571961507
 30
0.0
 11
2.093521684956094
 21
1.076880736884348
 31
0.0
  0
LINE
  5
C89
330
B84
100
AcDbEntity
  8
0
100
AcDbLine
 10
2.093521684956094
 20
1.076880736884348
 30
0.0
 11
1.936800749952201
 21
1.076880736884348
 31
0.0
  0
LINE
  5
C8A
330
B84
100
AcDbEntity
  8
0
100
AcDbLine
 10
1.975305462431606
 20
1.293130068199898
 30
0.0
 11
1.975305462431606
 21
1.246161887642672
 31
0.0
  0
LINE
  5
C8B
330
B84
100
AcDbEntity
  8
0
100
AcDbLine
 10
1.975305462431606
 20
1.246161887642672
 30
0.0
 11
2.055016972476686
 21
1.246161887642672
 31
0.0
  0
LINE
  5
C8C
330
B84
100
AcDbEntity
  8
0
100
AcDbLine
 10
2.055016972476686
 20
1.246161887642672
 30
0.0
 11
2.055016972476686
 21
1.293130068199898
 31
0.0
  0
LINE
  5
C8D
330
B84
100
AcDbEntity
  8
0
100
AcDbLine
 10
1.736800749952202
 20
1.076880736884348
 30
0.0
 11
1.736800749952202
 21
1.294108571961507
 31
0.0
  0
LINE
  5
C8E
330
B84
100
AcDbEntity
  8
0
100
AcDbLine
 10
1.736800749952202
 20
1.294108571961507
 30
0.0
 11
1.893521684956091
 21
1.294108571961507
 31
0.0
  0
LINE
  5
C8F
330
B84
100
AcDbEntity
  8
0
100
AcDbLine
 10
1.893521684956091
 20
1.294108571961507
 30
0.0
 11
1.893521684956091
 21
1.076880736884348
 31
0.0
  0
LINE
  5
C90
330
B84
100
AcDbEntity
  8
0
100
AcDbLine
 10
1.893521684956091
 20
1.076880736884348
 30
0.0
 11
1.736800749952202
 21
1.076880736884348
 31
0.0
  0
LINE
  5
C91
330
B84
100
AcDbEntity
  8
0
100
AcDbLine
 10
1.775305462431603
 20
1.293130068199898
 30
0.0
 11
1.775305462431603
 21
1.246161887642672
 31
0.0
  0
LINE
  5
C92
330
B84
100
AcDbEntity
  8
0
100
AcDbLine
 10
1.775305462431603
 20
1.246161887642672
 30
0.0
 11
1.855016972476686
 21
1.246161887642672
 31
0.0
  0
LINE
  5
C93
330
B84
100
AcDbEntity
  8
0
100
AcDbLine
 10
1.855016972476686
 20
1.246161887642672
 30
0.0
 11
1.855016972476686
 21
1.293130068199898
 31
0.0
  0
LINE
  5
C94
330
B84
100
AcDbEntity
  8
0
100
AcDbLine
 10
1.536800749952199
 20
1.076880736884348
 30
0.0
 11
1.536800749952199
 21
1.294108571961507
 31
0.0
  0
LINE
  5
C95
330
B84
100
AcDbEntity
  8
0
100
AcDbLine
 10
1.536800749952199
 20
1.294108571961507
 30
0.0
 11
1.693521684956092
 21
1.294108571961507
 31
0.0
  0
LINE
  5
C96
330
B84
100
AcDbEntity
  8
0
100
AcDbLine
 10
1.693521684956092
 20
1.294108571961507
 30
0.0
 11
1.693521684956092
 21
1.076880736884348
 31
0.0
  0
LINE
  5
C97
330
B84
100
AcDbEntity
  8
0
100
AcDbLine
 10
1.693521684956092
 20
1.076880736884348
 30
0.0
 11
1.536800749952199
 21
1.076880736884348
 31
0.0
  0
LINE
  5
C98
330
B84
100
AcDbEntity
  8
0
100
AcDbLine
 10
1.575305462431604
 20
1.293130068199898
 30
0.0
 11
1.575305462431604
 21
1.246161887642672
 31
0.0
  0
LINE
  5
C99
330
B84
100
AcDbEntity
  8
0
100
AcDbLine
 10
1.575305462431604
 20
1.246161887642672
 30
0.0
 11
1.655016972476687
 21
1.246161887642672
 31
0.0
  0
LINE
  5
C9A
330
B84
100
AcDbEntity
  8
0
100
AcDbLine
 10
1.655016972476687
 20
1.246161887642672
 30
0.0
 11
1.655016972476687
 21
1.293130068199898
 31
0.0
  0
LINE
  5
C9B
330
B84
100
AcDbEntity
  8
0
100
AcDbLine
 10
1.336800749952203
 20
1.076880736884348
 30
0.0
 11
1.336800749952203
 21
1.294108571961507
 31
0.0
  0
LINE
  5
C9C
330
B84
100
AcDbEntity
  8
0
100
AcDbLine
 10
1.336800749952203
 20
1.294108571961507
 30
0.0
 11
1.493521684956093
 21
1.294108571961507
 31
0.0
  0
LINE
  5
C9D
330
B84
100
AcDbEntity
  8
0
100
AcDbLine
 10
1.493521684956093
 20
1.294108571961507
 30
0.0
 11
1.493521684956093
 21
1.076880736884348
 31
0.0
  0
LINE
  5
C9E
330
B84
100
AcDbEntity
  8
0
100
AcDbLine
 10
1.493521684956093
 20
1.076880736884348
 30
0.0
 11
1.336800749952203
 21
1.076880736884348
 31
0.0
  0
LINE
  5
C9F
330
B84
100
AcDbEntity
  8
0
100
AcDbLine
 10
1.375305462431605
 20
1.293130068199898
 30
0.0
 11
1.375305462431605
 21
1.246161887642672
 31
0.0
  0
LINE
  5
CA0
330
B84
100
AcDbEntity
  8
0
100
AcDbLine
 10
1.375305462431605
 20
1.246161887642672
 30
0.0
 11
1.455016972476688
 21
1.246161887642672
 31
0.0
  0
LINE
  5
CA1
330
B84
100
AcDbEntity
  8
0
100
AcDbLine
 10
1.455016972476688
 20
1.246161887642672
 30
0.0
 11
1.455016972476688
 21
1.293130068199898
 31
0.0
  0
LINE
  5
CA2
330
B84
100
AcDbEntity
  8
0
100
AcDbLine
 10
1.1368007499522
 20
1.076880736884348
 30
0.0
 11
1.1368007499522
 21
1.294108571961507
 31
0.0
  0
LINE
  5
CA3
330
B84
100
AcDbEntity
  8
0
100
AcDbLine
 10
1.1368007499522
 20
1.294108571961507
 30
0.0
 11
1.29352168495609
 21
1.294108571961507
 31
0.0
  0
LINE
  5
CA4
330
B84
100
AcDbEntity
  8
0
100
AcDbLine
 10
1.29352168495609
 20
1.294108571961507
 30
0.0
 11
1.29352168495609
 21
1.076880736884348
 31
0.0
  0
LINE
  5
CA5
330
B84
100
AcDbEntity
  8
0
100
AcDbLine
 10
1.29352168495609
 20
1.076880736884348
 30
0.0
 11
1.1368007499522
 21
1.076880736884348
 31
0.0
  0
LINE
  5
CA6
330
B84
100
AcDbEntity
  8
0
100
AcDbLine
 10
1.175305462431605
 20
1.293130068199898
 30
0.0
 11
1.175305462431605
 21
1.246161887642672
 31
0.0
  0
LINE
  5
CA7
330
B84
100
AcDbEntity
  8
0
100
AcDbLine
 10
1.175305462431605
 20
1.246161887642672
 30
0.0
 11
1.255016972476688
 21
1.246161887642672
 31
0.0
  0
LINE
  5
CA8
330
B84
100
AcDbEntity
  8
0
100
AcDbLine
 10
1.255016972476688
 20
1.246161887642672
 30
0.0
 11
1.255016972476688
 21
1.293130068199898
 31
0.0
  0
LINE
  5
CA9
330
B84
100
AcDbEntity
  8
0
100
AcDbLine
 10
0.9368007499522015
 20
1.076880736884348
 30
0.0
 11
0.9368007499522015
 21
1.294108571961507
 31
0.0
  0
LINE
  5
CAA
330
B84
100
AcDbEntity
  8
0
100
AcDbLine
 10
0.9368007499522015
 20
1.294108571961507
 30
0.0
 11
1.093521684956094
 21
1.294108571961507
 31
0.0
  0
LINE
  5
CAB
330
B84
100
AcDbEntity
  8
0
100
AcDbLine
 10
1.093521684956094
 20
1.294108571961507
 30
0.0
 11
1.093521684956094
 21
1.076880736884348
 31
0.0
  0
LINE
  5
CAC
330
B84
100
AcDbEntity
  8
0
100
AcDbLine
 10
1.093521684956094
 20
1.076880736884348
 30
0.0
 11
0.9368007499522015
 21
1.076880736884348
 31
0.0
  0
LINE
  5
CAD
330
B84
100
AcDbEntity
  8
0
100
AcDbLine
 10
0.9753054624316064
 20
1.293130068199898
 30
0.0
 11
0.9753054624316064
 21
1.246161887642672
 31
0.0
  0
LINE
  5
CAE
330
B84
100
AcDbEntity
  8
0
100
AcDbLine
 10
0.9753054624316064
 20
1.246161887642672
 30
0.0
 11
1.055016972476686
 21
1.246161887642672
 31
0.0
  0
LINE
  5
CAF
330
B84
100
AcDbEntity
  8
0
100
AcDbLine
 10
1.055016972476686
 20
1.246161887642672
 30
0.0
 11
1.055016972476686
 21
1.293130068199898
 31
0.0
  0
LINE
  5
CB0
330
B84
100
AcDbEntity
  8
0
100
AcDbLine
 10
0.7368007499522023
 20
1.076880736884348
 30
0.0
 11
0.7368007499522023
 21
1.294108571961507
 31
0.0
  0
LINE
  5
CB1
330
B84
100
AcDbEntity
  8
0
100
AcDbLine
 10
0.7368007499522023
 20
1.294108571961507
 30
0.0
 11
0.8935216849560916
 21
1.294108571961507
 31
0.0
  0
LINE
  5
CB2
330
B84
100
AcDbEntity
  8
0
100
AcDbLine
 10
0.8935216849560916
 20
1.294108571961507
 30
0.0
 11
0.8935216849560916
 21
1.076880736884348
 31
0.0
  0
LINE
  5
CB3
330
B84
100
AcDbEntity
  8
0
100
AcDbLine
 10
0.8935216849560916
 20
1.076880736884348
 30
0.0
 11
0.7368007499522023
 21
1.076880736884348
 31
0.0
  0
LINE
  5
CB4
330
B84
100
AcDbEntity
  8
0
100
AcDbLine
 10
0.7753054624316036
 20
1.293130068199898
 30
0.0
 11
0.7753054624316036
 21
1.246161887642672
 31
0.0
  0
LINE
  5
CB5
330
B84
100
AcDbEntity
  8
0
100
AcDbLine
 10
0.7753054624316036
 20
1.246161887642672
 30
0.0
 11
0.8550169724766867
 21
1.246161887642672
 31
0.0
  0
LINE
  5
CB6
330
B84
100
AcDbEntity
  8
0
100
AcDbLine
 10
0.8550169724766867
 20
1.246161887642672
 30
0.0
 11
0.8550169724766867
 21
1.293130068199898
 31
0.0
  0
LINE
  5
CB7
330
B84
100
AcDbEntity
  8
0
100
AcDbLine
 10
0.6550169724766875
 20
1.246161887642672
 30
0.0
 11
0.6550169724766875
 21
1.293130068199898
 31
0.0
  0
LINE
  5
CB8
330
B84
100
AcDbEntity
  8
0
100
AcDbLine
 10
0.5753054624316079
 20
1.246161887642672
 30
0.0
 11
0.6550169724766875
 21
1.246161887642672
 31
0.0
  0
LINE
  5
CB9
330
B84
100
AcDbEntity
  8
0
100
AcDbLine
 10
0.5753054624316079
 20
1.293130068199898
 30
0.0
 11
0.5753054624316079
 21
1.246161887642672
 31
0.0
  0
LINE
  5
CBA
330
B84
100
AcDbEntity
  8
0
100
AcDbLine
 10
0.6935216849560924
 20
1.076880736884348
 30
0.0
 11
0.5368007499521994
 21
1.076880736884348
 31
0.0
  0
LINE
  5
CBB
330
B84
100
AcDbEntity
  8
0
100
AcDbLine
 10
0.6935216849560924
 20
1.294108571961507
 30
0.0
 11
0.6935216849560924
 21
1.076880736884348
 31
0.0
  0
LINE
  5
CBC
330
B84
100
AcDbEntity
  8
0
100
AcDbLine
 10
0.5368007499521994
 20
1.294108571961507
 30
0.0
 11
0.6935216849560924
 21
1.294108571961507
 31
0.0
  0
LINE
  5
CBD
330
B84
100
AcDbEntity
  8
0
100
AcDbLine
 10
0.5368007499521994
 20
1.076880736884348
 30
0.0
 11
0.5368007499521994
 21
1.294108571961507
 31
0.0
  0
LINE
  5
CBE
330
B84
100
AcDbEntity
  8
0
100
AcDbLine
 10
0.3922186892107646
 20
1.004527459166792
 30
0.0
 11
0.3922186892107646
 21
2.151309794514419
 31
0.0
  0
LWPOLYLINE
  5
CBF
330
B84
100
AcDbEntity
  8
0
100
AcDbPolyline
 90
       12
 70
     1
 43
0.0
 10
2.562508976984414
 20
7.290047897483376
 10
2.562508976984414
 20
6.786589897483375
 10
2.508508976984412
 20
6.786589897483375
 10
2.508508976984412
 20
5.053589897483375
 10
2.562508976984414
 20
5.053589897483375
 10
2.562508976984414
 20
4.556011897483375
 10
-0.0035360230155845
 20
4.556011897483375
 10
-0.0035360230155845
 20
5.053589897483375
 10
0.050463976984414
 20
5.053589897483375
 10
0.050463976984414
 20
6.786589897483375
 10
-0.0035360230155845
 20
6.786589897483375
 10
-0.0035360230155845
 20
7.290047897483376
  0
LWPOLYLINE
  5
CC0
330
B84
100
AcDbEntity
  8
0
100
AcDbPolyline
 90
        4
 70
     1
 43
0.0
 10
-0.0495360230155839
 20
7.435845897483375
 10
-0.0495360230155839
 20
4.404333897483375
 10
2.608508976984413
 20
4.404333897483375
 10
2.608508976984413
 20
7.435845897483375
  0
LWPOLYLINE
  5
CC1
330
B84
100
AcDbEntity
  8
0
100
AcDbPolyline
 90
       12
 70
     1
 43
0.0
 10
2.562508725726772
 20
7.290047686069224
 10
2.562508725726772
 20
6.786590058384865
 10
2.508508725726773
 20
6.786590058384868
 10
2.508508725726773
 20
5.053590058384868
 10
2.562508725726772
 20
5.053590058384868
 10
2.562508725726772
 20
4.556011398474828
 10
-0.0035356650955194
 20
4.556011398474828
 10
-0.0035356650955194
 20
5.053590058384868
 10
0.0504643349044827
 20
5.053590058384868
 10
0.0504643349044827
 20
6.786590058384868
 10
-0.0035356650955194
 20
6.786590058384865
 10
-0.0035356650955194
 20
7.290047686069227
  0
LWPOLYLINE
  5
CC2
330
B84
100
AcDbEntity
  8
0
100
AcDbPolyline
 90
        4
 70
     1
 43
0.0
 10
-0.0495356650955188
 20
7.435846086872247
 10
-0.0495356650955188
 20
4.404334029897492
 10
2.608508725726771
 20
4.404334029897489
 10
2.608508725726771
 20
7.435846086872251
  0
LINE
  5
CC3
330
B84
100
AcDbEntity
  8
0
100
AcDbLine
 10
2.195168976984412
 20
5.697030897483375
 30
0.0
 11
2.195168976984412
 21
6.132117897483375
 31
0.0
  0
LINE
  5
CC4
330
B84
100
AcDbEntity
  8
0
100
AcDbLine
 10
2.355168976984412
 20
5.697030897483375
 30
0.0
 11
2.355168976984412
 21
6.132117897483375
 31
0.0
  0
TEXT
  5
CC5
330
B84
100
AcDbEntity
  8
0
100
AcDbText
 10
2.320192976984412
 20
5.714985897483376
 30
0.0
 40
0.08
  1
VARIOFACE
 50
90.0
 41
0.65
  7
ROMANS
100
AcDbText
  0
LINE
  5
CC6
330
B84
100
AcDbEntity
  8
0
100
AcDbLine
 10
0.8652199769844131
 20
6.132117897483375
 30
0.0
 11
0.8652199769844131
 21
5.697030897483375
 31
0.0
  0
LINE
  5
CC7
330
B84
100
AcDbEntity
  8
0
100
AcDbLine
 10
1.025168976984414
 20
5.697030897483375
 30
0.0
 11
1.025168976984414
 21
6.132117897483375
 31
0.0
  0
TEXT
  5
CC8
330
B84
100
AcDbEntity
  8
0
100
AcDbText
 10
0.9045899769844112
 20
6.114490897483375
 30
0.0
 40
0.08
  1
VARIOFACE
 50
270.0
 41
0.65
  7
ROMANS
100
AcDbText
  0
LINE
  5
CC9
330
B84
100
AcDbEntity
  8
0
100
AcDbLine
 10
2.355168976984412
 20
6.132117897483375
 30
0.0
 11
0.8652199769844131
 21
6.132117897483375
 31
0.0
  0
LINE
  5
CCA
330
B84
100
AcDbEntity
  8
0
100
AcDbLine
 10
0.8652199769844131
 20
5.697030897483375
 30
0.0
 11
2.355168976984412
 21
5.697030897483375
 31
0.0
  0
LINE
  5
CCB
330
B84
100
AcDbEntity
  8
0
100
AcDbLine
 10
1.025168976984414
 20
5.740573897483375
 30
0.0
 11
2.195168976984412
 21
5.740573897483375
 31
0.0
  0
LINE
  5
CCC
330
B84
100
AcDbEntity
  8
0
100
AcDbLine
 10
1.025168976984414
 20
6.088573897483374
 30
0.0
 11
2.195168976984412
 21
6.088573897483374
 31
0.0
  0
LINE
  5
CCD
330
B84
100
AcDbEntity
  8
0
100
AcDbLine
 10
0.4371449769844134
 20
5.145823897483375
 30
0.0
 11
2.038844976984414
 21
5.145823897483375
 31
0.0
  0
LINE
  5
CCE
330
B84
100
AcDbEntity
  8
0
100
AcDbLine
 10
0.4371449769844134
 20
5.371354897483375
 30
0.0
 11
2.038844976984414
 21
5.371354897483375
 31
0.0
  0
LINE
  5
CCF
330
B84
100
AcDbEntity
  8
0
100
AcDbLine
 10
0.3933639769844142
 20
4.556011897483375
 30
0.0
 11
0.3933639769844142
 21
4.404333897483375
 31
0.0
  0
LINE
  5
CD0
330
B84
100
AcDbEntity
  8
0
100
AcDbLine
 10
2.165608976984412
 20
4.556011897483375
 30
0.0
 11
2.165608976984412
 21
4.404333897483375
 31
0.0
  0
LINE
  5
CD1
330
B84
100
AcDbEntity
  8
0
100
AcDbLine
 10
-0.0495360230155839
 20
4.527332897483375
 30
0.0
 11
2.608508976984413
 21
4.527332897483375
 31
0.0
  0
LINE
  5
CD2
330
B84
100
AcDbEntity
  8
0
100
AcDbLine
 10
-0.0495360230155839
 20
4.436264897483376
 30
0.0
 11
2.608508976984413
 21
4.436264897483376
 31
0.0
  0
LINE
  5
CD3
330
B84
100
AcDbEntity
  8
0
100
AcDbLine
 10
0.9444679769844128
 20
4.602278897483375
 30
0.0
 11
0.9444679769844128
 21
5.026678897483376
 31
0.0
  0
LINE
  5
CD4
330
B84
100
AcDbEntity
  8
0
100
AcDbLine
 10
1.543244976984414
 20
4.602278897483375
 30
0.0
 11
1.543244976984414
 21
5.026678897483376
 31
0.0
  0
CIRCLE
  5
CD5
330
B84
100
AcDbEntity
  8
0
100
AcDbCircle
 10
2.044696976984415
 20
4.801536897483376
 30
0.0
 40
0.06629
  0
LINE
  5
CD6
330
B84
100
AcDbEntity
  8
0
100
AcDbLine
 10
1.988893976984414
 20
4.765753897483375
 30
0.0
 11
2.084277976984413
 21
4.854713897483375
 31
0.0
  0
LINE
  5
CD7
330
B84
100
AcDbEntity
  8
0
100
AcDbLine
 10
2.004534976984412
 20
4.748797897483376
 30
0.0
 11
2.100103976984414
 21
4.837930897483375
 31
0.0
  0
CIRCLE
  5
CD8
330
B84
100
AcDbEntity
  8
0
100
AcDbCircle
 10
2.045137976984413
 20
4.802153897483375
 30
0.0
 40
0.075
  0
CIRCLE
  5
CD9
330
B84
100
AcDbEntity
  8
0
100
AcDbCircle
 10
1.945137976984412
 20
5.243140897483375
 30
0.0
 40
0.075
  0
LINE
  5
CDA
330
B84
100
AcDbEntity
  8
0
100
AcDbLine
 10
1.904534976984415
 20
5.189784897483375
 30
0.0
 11
2.000103976984412
 21
5.278917897483375
 31
0.0
  0
LINE
  5
CDB
330
B84
100
AcDbEntity
  8
0
100
AcDbLine
 10
1.888893976984412
 20
5.206740897483375
 30
0.0
 11
1.984277976984412
 21
5.295700897483375
 31
0.0
  0
CIRCLE
  5
CDC
330
B84
100
AcDbEntity
  8
0
100
AcDbCircle
 10
1.944696976984413
 20
5.242523897483374
 30
0.0
 40
0.06629
  0
CIRCLE
  5
CDD
330
B84
100
AcDbEntity
  8
0
100
AcDbCircle
 10
1.844696976984412
 20
4.801536897483376
 30
0.0
 40
0.06629
  0
LINE
  5
CDE
330
B84
100
AcDbEntity
  8
0
100
AcDbLine
 10
1.788893976984414
 20
4.765753897483375
 30
0.0
 11
1.884277976984414
 21
4.854713897483375
 31
0.0
  0
LINE
  5
CDF
330
B84
100
AcDbEntity
  8
0
100
AcDbLine
 10
1.804534976984413
 20
4.748797897483376
 30
0.0
 11
1.900103976984414
 21
4.837930897483375
 31
0.0
  0
CIRCLE
  5
CE0
330
B84
100
AcDbEntity
  8
0
100
AcDbCircle
 10
1.845137976984414
 20
4.802153897483375
 30
0.0
 40
0.075
  0
CIRCLE
  5
CE1
330
B84
100
AcDbEntity
  8
0
100
AcDbCircle
 10
1.745137976984413
 20
5.243140897483375
 30
0.0
 40
0.075
  0
LINE
  5
CE2
330
B84
100
AcDbEntity
  8
0
100
AcDbLine
 10
1.704534976984412
 20
5.189784897483375
 30
0.0
 11
1.800103976984413
 21
5.278917897483375
 31
0.0
  0
LINE
  5
CE3
330
B84
100
AcDbEntity
  8
0
100
AcDbLine
 10
1.688893976984413
 20
5.206740897483375
 30
0.0
 11
1.784277976984412
 21
5.295700897483375
 31
0.0
  0
CIRCLE
  5
CE4
330
B84
100
AcDbEntity
  8
0
100
AcDbCircle
 10
1.744696976984414
 20
5.242523897483374
 30
0.0
 40
0.06629
  0
CIRCLE
  5
CE5
330
B84
100
AcDbEntity
  8
0
100
AcDbCircle
 10
1.644696976984413
 20
4.801536897483376
 30
0.0
 40
0.06629
  0
LINE
  5
CE6
330
B84
100
AcDbEntity
  8
0
100
AcDbLine
 10
1.588893976984412
 20
4.765753897483375
 30
0.0
 11
1.684277976984414
 21
4.854713897483375
 31
0.0
  0
LINE
  5
CE7
330
B84
100
AcDbEntity
  8
0
100
AcDbLine
 10
1.604534976984414
 20
4.748797897483376
 30
0.0
 11
1.700103976984415
 21
4.837930897483375
 31
0.0
  0
CIRCLE
  5
CE8
330
B84
100
AcDbEntity
  8
0
100
AcDbCircle
 10
1.645137976984415
 20
4.802153897483375
 30
0.0
 40
0.075
  0
CIRCLE
  5
CE9
330
B84
100
AcDbEntity
  8
0
100
AcDbCircle
 10
1.545137976984413
 20
5.243140897483375
 30
0.0
 40
0.075
  0
LINE
  5
CEA
330
B84
100
AcDbEntity
  8
0
100
AcDbLine
 10
1.504534976984412
 20
5.189784897483375
 30
0.0
 11
1.600103976984414
 21
5.278917897483375
 31
0.0
  0
LINE
  5
CEB
330
B84
100
AcDbEntity
  8
0
100
AcDbLine
 10
1.488893976984414
 20
5.206740897483375
 30
0.0
 11
1.584277976984413
 21
5.295700897483375
 31
0.0
  0
CIRCLE
  5
CEC
330
B84
100
AcDbEntity
  8
0
100
AcDbCircle
 10
1.544696976984415
 20
5.242523897483374
 30
0.0
 40
0.06629
  0
CIRCLE
  5
CED
330
B84
100
AcDbEntity
  8
0
100
AcDbCircle
 10
1.444696976984413
 20
4.801536897483376
 30
0.0
 40
0.06629
  0
LINE
  5
CEE
330
B84
100
AcDbEntity
  8
0
100
AcDbLine
 10
1.388893976984412
 20
4.765753897483375
 30
0.0
 11
1.484277976984412
 21
4.854713897483375
 31
0.0
  0
LINE
  5
CEF
330
B84
100
AcDbEntity
  8
0
100
AcDbLine
 10
1.404534976984415
 20
4.748797897483376
 30
0.0
 11
1.500103976984412
 21
4.837930897483375
 31
0.0
  0
CIRCLE
  5
CF0
330
B84
100
AcDbEntity
  8
0
100
AcDbCircle
 10
1.445137976984412
 20
4.802153897483375
 30
0.0
 40
0.075
  0
CIRCLE
  5
CF1
330
B84
100
AcDbEntity
  8
0
100
AcDbCircle
 10
1.345137976984414
 20
5.243140897483375
 30
0.0
 40
0.075
  0
LINE
  5
CF2
330
B84
100
AcDbEntity
  8
0
100
AcDbLine
 10
1.304534976984413
 20
5.189784897483375
 30
0.0
 11
1.400103976984414
 21
5.278917897483375
 31
0.0
  0
LINE
  5
CF3
330
B84
100
AcDbEntity
  8
0
100
AcDbLine
 10
1.288893976984414
 20
5.206740897483375
 30
0.0
 11
1.384277976984414
 21
5.295700897483375
 31
0.0
  0
CIRCLE
  5
CF4
330
B84
100
AcDbEntity
  8
0
100
AcDbCircle
 10
1.344696976984412
 20
5.242523897483374
 30
0.0
 40
0.06629
  0
CIRCLE
  5
CF5
330
B84
100
AcDbEntity
  8
0
100
AcDbCircle
 10
1.244696976984414
 20
4.801536897483376
 30
0.0
 40
0.06629
  0
LINE
  5
CF6
330
B84
100
AcDbEntity
  8
0
100
AcDbLine
 10
1.188893976984413
 20
4.765753897483375
 30
0.0
 11
1.284277976984412
 21
4.854713897483375
 31
0.0
  0
LINE
  5
CF7
330
B84
100
AcDbEntity
  8
0
100
AcDbLine
 10
1.204534976984412
 20
4.748797897483376
 30
0.0
 11
1.300103976984413
 21
4.837930897483375
 31
0.0
  0
CIRCLE
  5
CF8
330
B84
100
AcDbEntity
  8
0
100
AcDbCircle
 10
1.245137976984413
 20
4.802153897483375
 30
0.0
 40
0.075
  0
CIRCLE
  5
CF9
330
B84
100
AcDbEntity
  8
0
100
AcDbCircle
 10
1.145137976984415
 20
5.243140897483375
 30
0.0
 40
0.075
  0
LINE
  5
CFA
330
B84
100
AcDbEntity
  8
0
100
AcDbLine
 10
1.104534976984414
 20
5.189784897483375
 30
0.0
 11
1.200103976984415
 21
5.278917897483375
 31
0.0
  0
LINE
  5
CFB
330
B84
100
AcDbEntity
  8
0
100
AcDbLine
 10
1.088893976984412
 20
5.206740897483375
 30
0.0
 11
1.184277976984414
 21
5.295700897483375
 31
0.0
  0
CIRCLE
  5
CFC
330
B84
100
AcDbEntity
  8
0
100
AcDbCircle
 10
1.144696976984413
 20
5.242523897483374
 30
0.0
 40
0.06629
  0
CIRCLE
  5
CFD
330
B84
100
AcDbEntity
  8
0
100
AcDbCircle
 10
1.044696976984415
 20
4.801536897483376
 30
0.0
 40
0.06629
  0
LINE
  5
CFE
330
B84
100
AcDbEntity
  8
0
100
AcDbLine
 10
0.9888939769844142
 20
4.765753897483375
 30
0.0
 11
1.084277976984413
 21
4.854713897483375
 31
0.0
  0
LINE
  5
CFF
330
B84
100
AcDbEntity
  8
0
100
AcDbLine
 10
1.004534976984412
 20
4.748797897483376
 30
0.0
 11
1.100103976984414
 21
4.837930897483375
 31
0.0
  0
CIRCLE
  5
D00
330
B84
100
AcDbEntity
  8
0
100
AcDbCircle
 10
1.045137976984413
 20
4.802153897483375
 30
0.0
 40
0.075
  0
CIRCLE
  5
D01
330
B84
100
AcDbEntity
  8
0
100
AcDbCircle
 10
0.9451379769844123
 20
5.243140897483375
 30
0.0
 40
0.075
  0
LINE
  5
D02
330
B84
100
AcDbEntity
  8
0
100
AcDbLine
 10
0.904534976984415
 20
5.189784897483375
 30
0.0
 11
1.000103976984412
 21
5.278917897483375
 31
0.0
  0
LINE
  5
D03
330
B84
100
AcDbEntity
  8
0
100
AcDbLine
 10
0.8888939769844128
 20
5.206740897483375
 30
0.0
 11
0.9842779769844121
 21
5.295700897483375
 31
0.0
  0
CIRCLE
  5
D04
330
B84
100
AcDbEntity
  8
0
100
AcDbCircle
 10
0.9446969769844137
 20
5.242523897483374
 30
0.0
 40
0.06629
  0
CIRCLE
  5
D05
330
B84
100
AcDbEntity
  8
0
100
AcDbCircle
 10
0.8446969769844123
 20
4.801536897483376
 30
0.0
 40
0.06629
  0
LINE
  5
D06
330
B84
100
AcDbEntity
  8
0
100
AcDbLine
 10
0.788893976984415
 20
4.765753897483375
 30
0.0
 11
0.8842779769844142
 21
4.854713897483375
 31
0.0
  0
LINE
  5
D07
330
B84
100
AcDbEntity
  8
0
100
AcDbLine
 10
0.8045349769844136
 20
4.748797897483376
 30
0.0
 11
0.9001039769844147
 21
4.837930897483375
 31
0.0
  0
CIRCLE
  5
D08
330
B84
100
AcDbEntity
  8
0
100
AcDbCircle
 10
0.8451379769844145
 20
4.802153897483375
 30
0.0
 40
0.075
  0
CIRCLE
  5
D09
330
B84
100
AcDbEntity
  8
0
100
AcDbCircle
 10
0.7451379769844131
 20
5.243140897483375
 30
0.0
 40
0.075
  0
LINE
  5
D0A
330
B84
100
AcDbEntity
  8
0
100
AcDbLine
 10
0.7045349769844123
 20
5.189784897483375
 30
0.0
 11
0.8001039769844133
 21
5.278917897483375
 31
0.0
  0
LINE
  5
D0B
330
B84
100
AcDbEntity
  8
0
100
AcDbLine
 10
0.6888939769844136
 20
5.206740897483375
 30
0.0
 11
0.7842779769844129
 21
5.295700897483375
 31
0.0
  0
CIRCLE
  5
D0C
330
B84
100
AcDbEntity
  8
0
100
AcDbCircle
 10
0.7446969769844145
 20
5.242523897483374
 30
0.0
 40
0.06629
  0
LINE
  5
D0D
330
B84
100
AcDbEntity
  8
0
100
AcDbLine
 10
0.6045349769844144
 20
4.748797897483376
 30
0.0
 11
0.7001039769844155
 21
4.837930897483375
 31
0.0
  0
LINE
  5
D0E
330
B84
100
AcDbEntity
  8
0
100
AcDbLine
 10
0.5888939769844122
 20
4.765753897483375
 30
0.0
 11
0.684277976984415
 21
4.854713897483375
 31
0.0
  0
CIRCLE
  5
D0F
330
B84
100
AcDbEntity
  8
0
100
AcDbCircle
 10
0.6446969769844131
 20
4.801536897483376
 30
0.0
 40
0.06629
  0
TEXT
  5
D10
330
B84
100
AcDbEntity
  8
0
100
AcDbText
 10
0.7224609769844115
 20
6.768870897483375
 30
0.0
 40
0.08
  1
1
  7
ROMANS
100
AcDbText
  0
TEXT
  5
D11
330
B84
100
AcDbEntity
  8
0
100
AcDbText
 10
1.775544976984413
 20
6.768870897483375
 30
0.0
 40
0.08
  1
8
  7
ROMANS
100
AcDbText
  0
TEXT
  5
D12
330
B84
100
AcDbEntity
  8
0
100
AcDbText
 10
0.7546649769844116
 20
7.096163897483376
 30
0.0
 40
0.08
  1
9
  7
ROMANS
100
AcDbText
  0
TEXT
  5
D13
330
B84
100
AcDbEntity
  8
0
100
AcDbText
 10
1.697102976984414
 20
7.090652897483376
 30
0.0
 40
0.08
  1
15
  7
ROMANS
100
AcDbText
  0
ARC
  5
D14
330
B84
100
AcDbEntity
  8
0
100
AcDbCircle
 10
2.002537976984413
 20
6.785053897483376
 30
0.0
 40
0.04
100
AcDbArc
 50
270.0
 51
0.0
  0
ARC
  5
D15
330
B84
100
AcDbEntity
  8
0
100
AcDbCircle
 10
2.002537976984413
 20
7.174735897483376
 30
0.0
 40
0.04
100
AcDbArc
 50
0.0
 51
90.0
  0
ARC
  5
D16
330
B84
100
AcDbEntity
  8
0
100
AcDbCircle
 10
0.5585619769844144
 20
6.785053897483376
 30
0.0
 40
0.04
100
AcDbArc
 50
180.0
 51
270.0
  0
ARC
  5
D17
330
B84
100
AcDbEntity
  8
0
100
AcDbCircle
 10
0.5585619769844144
 20
7.174735897483376
 30
0.0
 40
0.04
100
AcDbArc
 50
90.0
 51
180.0
  0
CIRCLE
  5
D18
330
B84
100
AcDbEntity
  8
0
100
AcDbCircle
 10
0.9641279769844146
 20
7.035630897483375
 30
0.0
 40
0.026673
  0
CIRCLE
  5
D19
330
B84
100
AcDbEntity
  8
0
100
AcDbCircle
 10
1.071127976984413
 20
7.035630897483375
 30
0.0
 40
0.026673
  0
CIRCLE
  5
D1A
330
B84
100
AcDbEntity
  8
0
100
AcDbCircle
 10
1.178127976984413
 20
7.035630897483375
 30
0.0
 40
0.026673
  0
CIRCLE
  5
D1B
330
B84
100
AcDbEntity
  8
0
100
AcDbCircle
 10
1.285127976984412
 20
7.035630897483375
 30
0.0
 40
0.026673
  0
CIRCLE
  5
D1C
330
B84
100
AcDbEntity
  8
0
100
AcDbCircle
 10
1.392127976984411
 20
7.035630897483375
 30
0.0
 40
0.026673
  0
CIRCLE
  5
D1D
330
B84
100
AcDbEntity
  8
0
100
AcDbCircle
 10
1.499127976984414
 20
7.035630897483375
 30
0.0
 40
0.026673
  0
CIRCLE
  5
D1E
330
B84
100
AcDbEntity
  8
0
100
AcDbCircle
 10
1.606127976984414
 20
7.035630897483375
 30
0.0
 40
0.026673
  0
CIRCLE
  5
D1F
330
B84
100
AcDbEntity
  8
0
100
AcDbCircle
 10
1.656643976984412
 20
6.890176897483375
 30
0.0
 40
0.026673
  0
CIRCLE
  5
D20
330
B84
100
AcDbEntity
  8
0
100
AcDbCircle
 10
1.549643976984413
 20
6.890176897483375
 30
0.0
 40
0.026673
  0
CIRCLE
  5
D21
330
B84
100
AcDbEntity
  8
0
100
AcDbCircle
 10
1.442643976984413
 20
6.890176897483375
 30
0.0
 40
0.026673
  0
CIRCLE
  5
D22
330
B84
100
AcDbEntity
  8
0
100
AcDbCircle
 10
1.335643976984414
 20
6.890176897483375
 30
0.0
 40
0.026673
  0
CIRCLE
  5
D23
330
B84
100
AcDbEntity
  8
0
100
AcDbCircle
 10
1.228643976984415
 20
6.890176897483375
 30
0.0
 40
0.026673
  0
CIRCLE
  5
D24
330
B84
100
AcDbEntity
  8
0
100
AcDbCircle
 10
1.121643976984412
 20
6.890176897483375
 30
0.0
 40
0.026673
  0
CIRCLE
  5
D25
330
B84
100
AcDbEntity
  8
0
100
AcDbCircle
 10
1.014643976984412
 20
6.890176897483375
 30
0.0
 40
0.026673
  0
CIRCLE
  5
D26
330
B84
100
AcDbEntity
  8
0
100
AcDbCircle
 10
0.9076439769844135
 20
6.890176897483375
 30
0.0
 40
0.026673
  0
LINE
  5
D27
330
B84
100
AcDbEntity
  8
0
100
AcDbLine
 10
1.891338976984414
 20
7.053681897483375
 30
0.0
 11
1.994128976984413
 21
7.053681897483375
 31
0.0
  0
LINE
  5
D28
330
B84
100
AcDbEntity
  8
0
100
AcDbLine
 10
1.891021976984411
 20
6.906569897483375
 30
0.0
 11
1.994128976984413
 21
6.906569897483375
 31
0.0
  0
LINE
  5
D29
330
B84
100
AcDbEntity
  8
0
100
AcDbLine
 10
1.891338976984414
 20
7.053681897483375
 30
0.0
 11
1.852758976984411
 21
6.979645897483375
 31
0.0
  0
LINE
  5
D2A
330
B84
100
AcDbEntity
  8
0
100
AcDbLine
 10
1.852758976984411
 20
6.979645897483375
 30
0.0
 11
1.891463976984415
 21
6.906615897483375
 31
0.0
  0
LINE
  5
D2B
330
B84
100
AcDbEntity
  8
0
100
AcDbLine
 10
1.994128976984413
 20
6.906569897483375
 30
0.0
 11
2.032810976984411
 21
6.979894897483376
 31
0.0
  0
LINE
  5
D2C
330
B84
100
AcDbEntity
  8
0
100
AcDbLine
 10
2.032810976984411
 20
6.979894897483376
 30
0.0
 11
1.994128976984413
 21
7.053681897483375
 31
0.0
  0
CIRCLE
  5
D2D
330
B84
100
AcDbEntity
  8
0
100
AcDbCircle
 10
1.942543976984413
 20
6.979645897483375
 30
0.0
 40
0.034
  0
CIRCLE
  5
D2E
330
B84
100
AcDbEntity
  8
0
100
AcDbCircle
 10
0.6194919769844134
 20
6.979645897483375
 30
0.0
 40
0.034
  0
LINE
  5
D2F
330
B84
100
AcDbEntity
  8
0
100
AcDbLine
 10
0.7097579769844132
 20
6.979894897483376
 30
0.0
 11
0.6710769769844127
 21
7.053681897483375
 31
0.0
  0
LINE
  5
D30
330
B84
100
AcDbEntity
  8
0
100
AcDbLine
 10
0.6710769769844127
 20
6.906569897483375
 30
0.0
 11
0.7097579769844132
 21
6.979894897483376
 31
0.0
  0
LINE
  5
D31
330
B84
100
AcDbEntity
  8
0
100
AcDbLine
 10
0.5297059769844133
 20
6.979645897483375
 30
0.0
 11
0.5684109769844135
 21
6.906615897483375
 31
0.0
  0
LINE
  5
D32
330
B84
100
AcDbEntity
  8
0
100
AcDbLine
 10
0.5682859769844129
 20
7.053681897483375
 30
0.0
 11
0.5297059769844133
 21
6.979645897483375
 31
0.0
  0
LINE
  5
D33
330
B84
100
AcDbEntity
  8
0
100
AcDbLine
 10
0.5679689769844139
 20
6.906569897483375
 30
0.0
 11
0.6710769769844127
 21
6.906569897483375
 31
0.0
  0
LINE
  5
D34
330
B84
100
AcDbEntity
  8
0
100
AcDbLine
 10
0.5682859769844129
 20
7.053681897483375
 30
0.0
 11
0.6710769769844127
 21
7.053681897483375
 31
0.0
  0
ARC
  5
D35
330
B84
100
AcDbEntity
  8
0
100
AcDbCircle
 10
1.706635976984411
 20
6.894017897483375
 30
0.0
 40
0.06
100
AcDbArc
 50
270.0
 51
14.99937400000002
  0
ARC
  5
D36
330
B84
100
AcDbEntity
  8
0
100
AcDbCircle
 10
1.663805976984413
 20
7.053869897483376
 30
0.0
 40
0.06
100
AcDbArc
 50
14.99937400000002
 51
90.0
  0
ARC
  5
D37
330
B84
100
AcDbEntity
  8
0
100
AcDbCircle
 10
0.8618989769844134
 20
6.894017897483375
 30
0.0
 40
0.06
100
AcDbArc
 50
165.000626
 51
270.0
  0
ARC
  5
D38
330
B84
100
AcDbEntity
  8
0
100
AcDbCircle
 10
0.9047289769844155
 20
7.053869897483376
 30
0.0
 40
0.06
100
AcDbArc
 50
90.0
 51
165.000626
  0
LINE
  5
D39
330
B84
100
AcDbEntity
  8
0
100
AcDbLine
 10
0.8618989769844134
 20
6.834017897483375
 30
0.0
 11
1.706635976984411
 21
6.834017897483375
 31
0.0
  0
LINE
  5
D3A
330
B84
100
AcDbEntity
  8
0
100
AcDbLine
 10
0.8467729769844147
 20
7.069398897483375
 30
0.0
 11
0.8039429769844126
 21
6.909546897483375
 31
0.0
  0
LINE
  5
D3B
330
B84
100
AcDbEntity
  8
0
100
AcDbLine
 10
1.721760976984413
 20
7.069398897483375
 30
0.0
 11
1.764591976984416
 21
6.909546897483375
 31
0.0
  0
LINE
  5
D3C
330
B84
100
AcDbEntity
  8
0
100
AcDbLine
 10
0.9047289769844155
 20
7.113869897483375
 30
0.0
 11
1.663805976984413
 21
7.113869897483375
 31
0.0
  0
LINE
  5
D3D
330
B84
100
AcDbEntity
  8
0
100
AcDbLine
 10
2.002537976984413
 20
7.214735897483375
 30
0.0
 11
0.5585619769844144
 21
7.214735897483375
 31
0.0
  0
LINE
  5
D3E
330
B84
100
AcDbEntity
  8
0
100
AcDbLine
 10
2.042537976984412
 20
6.785053897483376
 30
0.0
 11
2.042537976984412
 21
7.174735897483376
 31
0.0
  0
LINE
  5
D3F
330
B84
100
AcDbEntity
  8
0
100
AcDbLine
 10
0.5585619769844144
 20
6.745053897483376
 30
0.0
 11
2.002537976984413
 21
6.745053897483376
 31
0.0
  0
LINE
  5
D40
330
B84
100
AcDbEntity
  8
0
100
AcDbLine
 10
0.5185619769844117
 20
7.174735897483376
 30
0.0
 11
0.5185619769844117
 21
6.785053897483376
 31
0.0
  0
LINE
  5
D41
330
B84
100
AcDbEntity
  8
0
100
AcDbLine
 10
1.894686976984413
 20
5.473558897483376
 30
0.0
 11
1.894686976984413
 21
5.434542897483375
 31
0.0
  0
LINE
  5
D42
330
B84
100
AcDbEntity
  8
0
100
AcDbLine
 10
1.894686976984413
 20
5.434542897483375
 30
0.0
 11
1.996757976984412
 21
5.434542897483375
 31
0.0
  0
LINE
  5
D43
330
B84
100
AcDbEntity
  8
0
100
AcDbLine
 10
1.996757976984412
 20
5.434542897483375
 30
0.0
 11
1.996757976984412
 21
5.473558897483376
 31
0.0
  0
LINE
  5
D44
330
B84
100
AcDbEntity
  8
0
100
AcDbLine
 10
1.694686976984414
 20
5.473558897483376
 30
0.0
 11
1.694686976984414
 21
5.434542897483375
 31
0.0
  0
LINE
  5
D45
330
B84
100
AcDbEntity
  8
0
100
AcDbLine
 10
1.694686976984414
 20
5.434542897483375
 30
0.0
 11
1.796757976984412
 21
5.434542897483375
 31
0.0
  0
LINE
  5
D46
330
B84
100
AcDbEntity
  8
0
100
AcDbLine
 10
1.796757976984412
 20
5.434542897483375
 30
0.0
 11
1.796757976984412
 21
5.473558897483376
 31
0.0
  0
LINE
  5
D47
330
B84
100
AcDbEntity
  8
0
100
AcDbLine
 10
1.494686976984411
 20
5.473558897483376
 30
0.0
 11
1.494686976984411
 21
5.434542897483375
 31
0.0
  0
LINE
  5
D48
330
B84
100
AcDbEntity
  8
0
100
AcDbLine
 10
1.494686976984411
 20
5.434542897483375
 30
0.0
 11
1.596757976984413
 21
5.434542897483375
 31
0.0
  0
LINE
  5
D49
330
B84
100
AcDbEntity
  8
0
100
AcDbLine
 10
1.596757976984413
 20
5.434542897483375
 30
0.0
 11
1.596757976984413
 21
5.473558897483376
 31
0.0
  0
LINE
  5
D4A
330
B84
100
AcDbEntity
  8
0
100
AcDbLine
 10
1.294686976984412
 20
5.473558897483376
 30
0.0
 11
1.294686976984412
 21
5.434542897483375
 31
0.0
  0
LINE
  5
D4B
330
B84
100
AcDbEntity
  8
0
100
AcDbLine
 10
1.294686976984412
 20
5.434542897483375
 30
0.0
 11
1.39675797698441
 21
5.434542897483375
 31
0.0
  0
LINE
  5
D4C
330
B84
100
AcDbEntity
  8
0
100
AcDbLine
 10
1.39675797698441
 20
5.434542897483375
 30
0.0
 11
1.39675797698441
 21
5.473558897483376
 31
0.0
  0
LINE
  5
D4D
330
B84
100
AcDbEntity
  8
0
100
AcDbLine
 10
1.094686976984412
 20
5.473558897483376
 30
0.0
 11
1.094686976984412
 21
5.434542897483375
 31
0.0
  0
LINE
  5
D4E
330
B84
100
AcDbEntity
  8
0
100
AcDbLine
 10
1.094686976984412
 20
5.434542897483375
 30
0.0
 11
1.196757976984411
 21
5.434542897483375
 31
0.0
  0
LINE
  5
D4F
330
B84
100
AcDbEntity
  8
0
100
AcDbLine
 10
1.196757976984411
 20
5.434542897483375
 30
0.0
 11
1.196757976984411
 21
5.473558897483376
 31
0.0
  0
LINE
  5
D50
330
B84
100
AcDbEntity
  8
0
100
AcDbLine
 10
0.8946869769844134
 20
5.473558897483376
 30
0.0
 11
0.8946869769844134
 21
5.434542897483375
 31
0.0
  0
LINE
  5
D51
330
B84
100
AcDbEntity
  8
0
100
AcDbLine
 10
0.8946869769844134
 20
5.434542897483375
 30
0.0
 11
0.9967579769844121
 21
5.434542897483375
 31
0.0
  0
LINE
  5
D52
330
B84
100
AcDbEntity
  8
0
100
AcDbLine
 10
0.9967579769844121
 20
5.434542897483375
 30
0.0
 11
0.9967579769844121
 21
5.473558897483376
 31
0.0
  0
LINE
  5
D53
330
B84
100
AcDbEntity
  8
0
100
AcDbLine
 10
0.6946869769844142
 20
5.473558897483376
 30
0.0
 11
0.6946869769844142
 21
5.434542897483375
 31
0.0
  0
LINE
  5
D54
330
B84
100
AcDbEntity
  8
0
100
AcDbLine
 10
0.6946869769844142
 20
5.434542897483375
 30
0.0
 11
0.7967579769844129
 21
5.434542897483375
 31
0.0
  0
LINE
  5
D55
330
B84
100
AcDbEntity
  8
0
100
AcDbLine
 10
0.7967579769844129
 20
5.434542897483375
 30
0.0
 11
0.7967579769844129
 21
5.473558897483376
 31
0.0
  0
LINE
  5
D56
330
B84
100
AcDbEntity
  8
0
100
AcDbLine
 10
0.5967579769844136
 20
5.434542897483375
 30
0.0
 11
0.5967579769844136
 21
5.473558897483376
 31
0.0
  0
LINE
  5
D57
330
B84
100
AcDbEntity
  8
0
100
AcDbLine
 10
0.4946869769844114
 20
5.434542897483375
 30
0.0
 11
0.5967579769844136
 21
5.434542897483375
 31
0.0
  0
LINE
  5
D58
330
B84
100
AcDbEntity
  8
0
100
AcDbLine
 10
0.4946869769844114
 20
5.473558897483376
 30
0.0
 11
0.4946869769844114
 21
5.434542897483375
 31
0.0
  0
LINE
  5
D59
330
B84
100
AcDbEntity
  8
0
100
AcDbLine
 10
2.141609976984412
 20
5.026678897483376
 30
0.0
 11
0.4371449769844134
 21
5.026678897483376
 31
0.0
  0
LINE
  5
D5A
330
B84
100
AcDbEntity
  8
0
100
AcDbLine
 10
2.120801976984413
 20
4.985341897483375
 30
0.0
 11
2.120801976984413
 21
4.930923897483375
 31
0.0
  0
LINE
  5
D5B
330
B84
100
AcDbEntity
  8
0
100
AcDbLine
 10
1.970530976984413
 20
4.930923897483375
 30
0.0
 11
1.970530976984413
 21
4.985341897483375
 31
0.0
  0
LINE
  5
D5C
330
B84
100
AcDbEntity
  8
0
100
AcDbLine
 10
1.970530976984413
 20
4.985341897483375
 30
0.0
 11
2.120801976984413
 21
4.985341897483375
 31
0.0
  0
LINE
  5
D5D
330
B84
100
AcDbEntity
  8
0
100
AcDbLine
 10
1.92080197698441
 20
4.985341897483375
 30
0.0
 11
1.92080197698441
 21
4.930923897483375
 31
0.0
  0
LINE
  5
D5E
330
B84
100
AcDbEntity
  8
0
100
AcDbLine
 10
1.770530976984414
 20
4.930923897483375
 30
0.0
 11
1.770530976984414
 21
4.985341897483375
 31
0.0
  0
LINE
  5
D5F
330
B84
100
AcDbEntity
  8
0
100
AcDbLine
 10
1.770530976984414
 20
4.985341897483375
 30
0.0
 11
1.92080197698441
 21
4.985341897483375
 31
0.0
  0
LINE
  5
D60
330
B84
100
AcDbEntity
  8
0
100
AcDbLine
 10
1.570530976984411
 20
4.930923897483375
 30
0.0
 11
1.570530976984411
 21
4.985341897483375
 31
0.0
  0
LINE
  5
D61
330
B84
100
AcDbEntity
  8
0
100
AcDbLine
 10
1.570530976984411
 20
4.985341897483375
 30
0.0
 11
1.720801976984411
 21
4.985341897483375
 31
0.0
  0
LINE
  5
D62
330
B84
100
AcDbEntity
  8
0
100
AcDbLine
 10
1.720801976984411
 20
4.985341897483375
 30
0.0
 11
1.720801976984411
 21
4.930923897483375
 31
0.0
  0
LINE
  5
D63
330
B84
100
AcDbEntity
  8
0
100
AcDbLine
 10
1.370530976984412
 20
4.930923897483375
 30
0.0
 11
1.370530976984412
 21
4.985341897483375
 31
0.0
  0
LINE
  5
D64
330
B84
100
AcDbEntity
  8
0
100
AcDbLine
 10
1.370530976984412
 20
4.985341897483375
 30
0.0
 11
1.520801976984412
 21
4.985341897483375
 31
0.0
  0
LINE
  5
D65
330
B84
100
AcDbEntity
  8
0
100
AcDbLine
 10
1.520801976984412
 20
4.985341897483375
 30
0.0
 11
1.520801976984412
 21
4.930923897483375
 31
0.0
  0
LINE
  5
D66
330
B84
100
AcDbEntity
  8
0
100
AcDbLine
 10
1.170530976984412
 20
4.930923897483375
 30
0.0
 11
1.170530976984412
 21
4.985341897483375
 31
0.0
  0
LINE
  5
D67
330
B84
100
AcDbEntity
  8
0
100
AcDbLine
 10
1.170530976984412
 20
4.985341897483375
 30
0.0
 11
1.320801976984412
 21
4.985341897483375
 31
0.0
  0
LINE
  5
D68
330
B84
100
AcDbEntity
  8
0
100
AcDbLine
 10
1.320801976984412
 20
4.985341897483375
 30
0.0
 11
1.320801976984412
 21
4.930923897483375
 31
0.0
  0
LINE
  5
D69
330
B84
100
AcDbEntity
  8
0
100
AcDbLine
 10
0.9705309769844134
 20
4.930923897483375
 30
0.0
 11
0.9705309769844134
 21
4.985341897483375
 31
0.0
  0
LINE
  5
D6A
330
B84
100
AcDbEntity
  8
0
100
AcDbLine
 10
0.9705309769844134
 20
4.985341897483375
 30
0.0
 11
1.120801976984413
 21
4.985341897483375
 31
0.0
  0
LINE
  5
D6B
330
B84
100
AcDbEntity
  8
0
100
AcDbLine
 10
1.120801976984413
 20
4.985341897483375
 30
0.0
 11
1.120801976984413
 21
4.930923897483375
 31
0.0
  0
LINE
  5
D6C
330
B84
100
AcDbEntity
  8
0
100
AcDbLine
 10
0.7705309769844142
 20
4.930923897483375
 30
0.0
 11
0.7705309769844142
 21
4.985341897483375
 31
0.0
  0
LINE
  5
D6D
330
B84
100
AcDbEntity
  8
0
100
AcDbLine
 10
0.7705309769844142
 20
4.985341897483375
 30
0.0
 11
0.9208019769844106
 21
4.985341897483375
 31
0.0
  0
LINE
  5
D6E
330
B84
100
AcDbEntity
  8
0
100
AcDbLine
 10
0.9208019769844106
 20
4.985341897483375
 30
0.0
 11
0.9208019769844106
 21
4.930923897483375
 31
0.0
  0
LINE
  5
D6F
330
B84
100
AcDbEntity
  8
0
100
AcDbLine
 10
0.7208019769844114
 20
4.985341897483375
 30
0.0
 11
0.7208019769844114
 21
4.930923897483375
 31
0.0
  0
LINE
  5
D70
330
B84
100
AcDbEntity
  8
0
100
AcDbLine
 10
0.5705309769844114
 20
4.985341897483375
 30
0.0
 11
0.7208019769844114
 21
4.985341897483375
 31
0.0
  0
LINE
  5
D71
330
B84
100
AcDbEntity
  8
0
100
AcDbLine
 10
0.5705309769844114
 20
4.930923897483375
 30
0.0
 11
0.5705309769844114
 21
4.985341897483375
 31
0.0
  0
LINE
  5
D72
330
B84
100
AcDbEntity
  8
0
100
AcDbLine
 10
0.4371449769844134
 20
5.473312897483375
 30
0.0
 11
0.4371449769844134
 21
5.026678897483376
 31
0.0
  0
LINE
  5
D73
330
B84
100
AcDbEntity
  8
0
100
AcDbLine
 10
0.4371449769844134
 20
5.473312897483375
 30
0.0
 11
2.041609976984414
 21
5.473312897483375
 31
0.0
  0
LINE
  5
D74
330
B84
100
AcDbEntity
  8
0
100
AcDbLine
 10
2.041609976984414
 20
5.473312897483375
 30
0.0
 11
2.041609976984414
 21
5.026678897483376
 31
0.0
  0
CIRCLE
  5
D75
330
B84
100
AcDbEntity
  8
0
100
AcDbCircle
 10
0.5451379769844138
 20
5.243140897483375
 30
0.0
 40
0.075
  0
CIRCLE
  5
D76
330
B84
100
AcDbEntity
  8
0
100
AcDbCircle
 10
0.5446969769844153
 20
5.242523897483374
 30
0.0
 40
0.06629
  0
LINE
  5
D77
330
B84
100
AcDbEntity
  8
0
100
AcDbLine
 10
0.4888939769844143
 20
5.206740897483375
 30
0.0
 11
0.5842779769844136
 21
5.295700897483375
 31
0.0
  0
LINE
  5
D78
330
B84
100
AcDbEntity
  8
0
100
AcDbLine
 10
0.504534976984413
 20
5.189784897483375
 30
0.0
 11
0.6001039769844141
 21
5.278917897483375
 31
0.0
  0
LINE
  5
D79
330
B84
100
AcDbEntity
  8
0
100
AcDbLine
 10
0.8444679769844114
 20
5.026678897483376
 30
0.0
 11
0.8444679769844114
 21
5.473249897483375
 31
0.0
  0
LINE
  5
D7A
330
B84
100
AcDbEntity
  8
0
100
AcDbLine
 10
1.443244976984413
 20
5.026678897483376
 30
0.0
 11
1.443244976984413
 21
5.473249897483375
 31
0.0
  0
LINE
  5
D7B
330
B84
100
AcDbEntity
  8
0
100
AcDbLine
 10
0.5366539769844146
 20
4.930367897483376
 30
0.0
 11
2.138844976984415
 21
4.930367897483376
 31
0.0
  0
CIRCLE
  5
D7C
330
B84
100
AcDbEntity
  8
0
100
AcDbCircle
 10
0.6451379769844153
 20
4.802153897483375
 30
0.0
 40
0.075
  0
LINE
  5
D7D
330
B84
100
AcDbEntity
  8
0
100
AcDbLine
 10
0.5366539769844146
 20
4.704836897483375
 30
0.0
 11
2.138844976984415
 21
4.704836897483375
 31
0.0
  0
LINE
  5
D7E
330
B84
100
AcDbEntity
  8
0
100
AcDbLine
 10
2.141609976984412
 20
4.602278897483375
 30
0.0
 11
0.5371079769844123
 21
4.602278897483375
 31
0.0
  0
LINE
  5
D7F
330
B84
100
AcDbEntity
  8
0
100
AcDbLine
 10
2.141609976984412
 20
5.026678897483376
 30
0.0
 11
2.141609976984412
 21
4.602278897483375
 31
0.0
  0
LINE
  5
D80
330
B84
100
AcDbEntity
  8
0
100
AcDbLine
 10
0.5371449769844148
 20
5.026678897483376
 30
0.0
 11
0.5371449769844148
 21
4.602618897483376
 31
0.0
  0
LINE
  5
D81
330
B84
100
AcDbEntity
  8
0
100
AcDbLine
 10
2.195168729674286
 20
5.697030946058221
 30
0.0
 11
2.195168729674286
 21
6.132117536741597
 31
0.0
  0
LINE
  5
D82
330
B84
100
AcDbEntity
  8
0
100
AcDbLine
 10
2.355168729674282
 20
5.697030946058221
 30
0.0
 11
2.355168729674282
 21
6.132117536741604
 31
0.0
  0
TEXT
  5
D83
330
B84
100
AcDbEntity
  8
0
100
AcDbText
 10
2.32019267179676
 20
5.714985759299198
 30
0.0
 40
0.08
  1
VARIOFACE
 50
90.0
 41
0.65
  7
ROMANS
100
AcDbText
  0
LINE
  5
D84
330
B84
100
AcDbEntity
  8
0
100
AcDbLine
 10
0.8652196062378152
 20
6.132117536741597
 30
0.0
 11
0.8652196062378152
 21
5.697030946058221
 31
0.0
  0
LINE
  5
D85
330
B84
100
AcDbEntity
  8
0
100
AcDbLine
 10
1.025168729674284
 20
5.697030946058221
 30
0.0
 11
1.025168729674284
 21
6.132117536741597
 31
0.0
  0
TEXT
  5
D86
330
B84
100
AcDbEntity
  8
0
100
AcDbText
 10
0.9045902503118661
 20
6.114491338750378
 30
0.0
 40
0.08
  1
VARIOFACE
 50
270.0
 41
0.65
  7
ROMANS
100
AcDbText
  0
LINE
  5
D87
330
B84
100
AcDbEntity
  8
0
100
AcDbLine
 10
2.355168729674282
 20
6.132117536741604
 30
0.0
 11
0.8652196062378152
 21
6.132117536741597
 31
0.0
  0
LINE
  5
D88
330
B84
100
AcDbEntity
  8
0
100
AcDbLine
 10
0.8652196062378152
 20
5.697030946058221
 30
0.0
 11
2.355168729674282
 21
5.697030946058221
 31
0.0
  0
LINE
  5
D89
330
B84
100
AcDbEntity
  8
0
100
AcDbLine
 10
1.025168729674284
 20
5.740574241399906
 30
0.0
 11
2.195168729674286
 21
5.740574241399906
 31
0.0
  0
LINE
  5
D8A
330
B84
100
AcDbEntity
  8
0
100
AcDbLine
 10
1.025168729674284
 20
6.088574241399909
 30
0.0
 11
2.195168729674286
 21
6.088574241399909
 31
0.0
  0
LINE
  5
D8B
330
B84
100
AcDbEntity
  8
0
100
AcDbLine
 10
0.4371451296986848
 20
5.145823746456786
 30
0.0
 11
2.038845073417213
 21
5.145823746456786
 31
0.0
  0
LINE
  5
D8C
330
B84
100
AcDbEntity
  8
0
100
AcDbLine
 10
0.4371451296986848
 20
5.371355185843066
 30
0.0
 11
2.038845073417213
 21
5.371355185843066
 31
0.0
  0
LINE
  5
D8D
330
B84
100
AcDbEntity
  8
0
100
AcDbLine
 10
0.3933643349044828
 20
4.556011398474828
 30
0.0
 11
0.3933643349044828
 21
4.404334029897492
 31
0.0
  0
LINE
  5
D8E
330
B84
100
AcDbEntity
  8
0
100
AcDbLine
 10
2.165608725726773
 20
4.556011398474828
 30
0.0
 11
2.165608725726773
 21
4.404334029897489
 31
0.0
  0
LINE
  5
D8F
330
B84
100
AcDbEntity
  8
0
100
AcDbLine
 10
-0.0495356650955188
 20
4.527333261833879
 30
0.0
 11
2.608508725726771
 21
4.527333261833879
 31
0.0
  0
LINE
  5
D90
330
B84
100
AcDbEntity
  8
0
100
AcDbLine
 10
-0.0495356650955188
 20
4.436264528583022
 30
0.0
 11
2.608508725726771
 21
4.436264528583025
 31
0.0
  0
LINE
  5
D91
330
B84
100
AcDbEntity
  8
0
100
AcDbLine
 10
0.944468117504531
 20
4.602278650557403
 30
0.0
 11
0.944468117504531
 21
5.026679166489737
 31
0.0
  0
LINE
  5
D92
330
B84
100
AcDbEntity
  8
0
100
AcDbLine
 10
1.543245313108055
 20
4.602278650557403
 30
0.0
 11
1.543245313108055
 21
5.026679166489737
 31
0.0
  0
CIRCLE
  5
D93
330
B84
100
AcDbEntity
  8
0
100
AcDbCircle
 10
2.044697213094146
 20
4.801537151817408
 30
0.0
 40
0.0662902360756252
  0
LINE
  5
D94
330
B84
100
AcDbEntity
  8
0
100
AcDbLine
 10
1.988894401195427
 20
4.765753893397382
 30
0.0
 11
2.084277790458049
 21
4.854713963441446
 31
0.0
  0
LINE
  5
D95
330
B84
100
AcDbEntity
  8
0
100
AcDbLine
 10
2.004534935706249
 20
4.748798296369306
 30
0.0
 11
2.100103619699325
 21
4.837931183004679
 31
0.0
  0
CIRCLE
  5
D96
330
B84
100
AcDbEntity
  8
0
100
AcDbCircle
 10
2.045138203763379
 20
4.802154132835385
 30
0.0
 40
0.075
  0
CIRCLE
  5
D97
330
B84
100
AcDbEntity
  8
0
100
AcDbCircle
 10
1.945138203763381
 20
5.243141131109593
 30
0.0
 40
0.075
  0
LINE
  5
D98
330
B84
100
AcDbEntity
  8
0
100
AcDbLine
 10
1.904534935706251
 20
5.189785294643515
 30
0.0
 11
2.000103619699324
 21
5.278918181278887
 31
0.0
  0
LINE
  5
D99
330
B84
100
AcDbEntity
  8
0
100
AcDbLine
 10
1.888894401195429
 20
5.206740891671591
 30
0.0
 11
1.984277790458051
 21
5.295700961715654
 31
0.0
  0
CIRCLE
  5
D9A
330
B84
100
AcDbEntity
  8
0
100
AcDbCircle
 10
1.944697213094148
 20
5.242524150091616
 30
0.0
 40
0.0662902360756252
  0
CIRCLE
  5
D9B
330
B84
100
AcDbEntity
  8
0
100
AcDbCircle
 10
1.844697213094146
 20
4.801537151817408
 30
0.0
 40
0.0662902360756252
  0
LINE
  5
D9C
330
B84
100
AcDbEntity
  8
0
100
AcDbLine
 10
1.788894401195427
 20
4.765753893397382
 30
0.0
 11
1.88427779045805
 21
4.854713963441446
 31
0.0
  0
LINE
  5
D9D
330
B84
100
AcDbEntity
  8
0
100
AcDbLine
 10
1.80453493570625
 20
4.748798296369306
 30
0.0
 11
1.900103619699322
 21
4.837931183004679
 31
0.0
  0
CIRCLE
  5
D9E
330
B84
100
AcDbEntity
  8
0
100
AcDbCircle
 10
1.845138203763379
 20
4.802154132835385
 30
0.0
 40
0.075
  0
CIRCLE
  5
D9F
330
B84
100
AcDbEntity
  8
0
100
AcDbCircle
 10
1.745138203763382
 20
5.243141131109593
 30
0.0
 40
0.075
  0
LINE
  5
DA0
330
B84
100
AcDbEntity
  8
0
100
AcDbLine
 10
1.704534935706249
 20
5.189785294643515
 30
0.0
 11
1.800103619699324
 21
5.278918181278887
 31
0.0
  0
LINE
  5
DA1
330
B84
100
AcDbEntity
  8
0
100
AcDbLine
 10
1.688894401195426
 20
5.206740891671591
 30
0.0
 11
1.784277790458048
 21
5.295700961715654
 31
0.0
  0
CIRCLE
  5
DA2
330
B84
100
AcDbEntity
  8
0
100
AcDbCircle
 10
1.744697213094148
 20
5.242524150091616
 30
0.0
 40
0.0662902360756252
  0
CIRCLE
  5
DA3
330
B84
100
AcDbEntity
  8
0
100
AcDbCircle
 10
1.644697213094147
 20
4.801537151817408
 30
0.0
 40
0.0662902360756252
  0
LINE
  5
DA4
330
B84
100
AcDbEntity
  8
0
100
AcDbLine
 10
1.588894401195425
 20
4.765753893397382
 30
0.0
 11
1.684277790458047
 21
4.854713963441446
 31
0.0
  0
LINE
  5
DA5
330
B84
100
AcDbEntity
  8
0
100
AcDbLine
 10
1.604534935706247
 20
4.748798296369306
 30
0.0
 11
1.700103619699323
 21
4.837931183004679
 31
0.0
  0
CIRCLE
  5
DA6
330
B84
100
AcDbEntity
  8
0
100
AcDbCircle
 10
1.64513820376338
 20
4.802154132835385
 30
0.0
 40
0.075
  0
CIRCLE
  5
DA7
330
B84
100
AcDbEntity
  8
0
100
AcDbCircle
 10
1.545138203763379
 20
5.243141131109593
 30
0.0
 40
0.075
  0
LINE
  5
DA8
330
B84
100
AcDbEntity
  8
0
100
AcDbLine
 10
1.504534935706249
 20
5.189785294643515
 30
0.0
 11
1.600103619699325
 21
5.278918181278887
 31
0.0
  0
LINE
  5
DA9
330
B84
100
AcDbEntity
  8
0
100
AcDbLine
 10
1.488894401195427
 20
5.206740891671591
 30
0.0
 11
1.584277790458049
 21
5.295700961715654
 31
0.0
  0
CIRCLE
  5
DAA
330
B84
100
AcDbEntity
  8
0
100
AcDbCircle
 10
1.544697213094146
 20
5.242524150091616
 30
0.0
 40
0.0662902360756252
  0
CIRCLE
  5
DAB
330
B84
100
AcDbEntity
  8
0
100
AcDbCircle
 10
1.444697213094148
 20
4.801537151817408
 30
0.0
 40
0.0662902360756252
  0
LINE
  5
DAC
330
B84
100
AcDbEntity
  8
0
100
AcDbLine
 10
1.388894401195425
 20
4.765753893397382
 30
0.0
 11
1.484277790458047
 21
4.854713963441446
 31
0.0
  0
LINE
  5
DAD
330
B84
100
AcDbEntity
  8
0
100
AcDbLine
 10
1.404534935706248
 20
4.748798296369306
 30
0.0
 11
1.500103619699324
 21
4.837931183004679
 31
0.0
  0
CIRCLE
  5
DAE
330
B84
100
AcDbEntity
  8
0
100
AcDbCircle
 10
1.445138203763381
 20
4.802154132835385
 30
0.0
 40
0.075
  0
CIRCLE
  5
DAF
330
B84
100
AcDbEntity
  8
0
100
AcDbCircle
 10
1.345138203763379
 20
5.243141131109593
 30
0.0
 40
0.075
  0
LINE
  5
DB0
330
B84
100
AcDbEntity
  8
0
100
AcDbLine
 10
1.30453493570625
 20
5.189785294643515
 30
0.0
 11
1.400103619699322
 21
5.278918181278887
 31
0.0
  0
LINE
  5
DB1
330
B84
100
AcDbEntity
  8
0
100
AcDbLine
 10
1.288894401195427
 20
5.206740891671591
 30
0.0
 11
1.38427779045805
 21
5.295700961715654
 31
0.0
  0
CIRCLE
  5
DB2
330
B84
100
AcDbEntity
  8
0
100
AcDbCircle
 10
1.344697213094146
 20
5.242524150091616
 30
0.0
 40
0.0662902360756252
  0
CIRCLE
  5
DB3
330
B84
100
AcDbEntity
  8
0
100
AcDbCircle
 10
1.244697213094148
 20
4.801537151817408
 30
0.0
 40
0.0662902360756252
  0
LINE
  5
DB4
330
B84
100
AcDbEntity
  8
0
100
AcDbLine
 10
1.188894401195426
 20
4.765753893397382
 30
0.0
 11
1.284277790458048
 21
4.854713963441446
 31
0.0
  0
LINE
  5
DB5
330
B84
100
AcDbEntity
  8
0
100
AcDbLine
 10
1.204534935706249
 20
4.748798296369306
 30
0.0
 11
1.300103619699321
 21
4.837931183004679
 31
0.0
  0
CIRCLE
  5
DB6
330
B84
100
AcDbEntity
  8
0
100
AcDbCircle
 10
1.245138203763382
 20
4.802154132835385
 30
0.0
 40
0.075
  0
CIRCLE
  5
DB7
330
B84
100
AcDbEntity
  8
0
100
AcDbCircle
 10
1.14513820376338
 20
5.243141131109593
 30
0.0
 40
0.075
  0
LINE
  5
DB8
330
B84
100
AcDbEntity
  8
0
100
AcDbLine
 10
1.104534935706247
 20
5.189785294643515
 30
0.0
 11
1.200103619699323
 21
5.278918181278887
 31
0.0
  0
LINE
  5
DB9
330
B84
100
AcDbEntity
  8
0
100
AcDbLine
 10
1.088894401195425
 20
5.206740891671591
 30
0.0
 11
1.184277790458047
 21
5.295700961715654
 31
0.0
  0
CIRCLE
  5
DBA
330
B84
100
AcDbEntity
  8
0
100
AcDbCircle
 10
1.144697213094147
 20
5.242524150091616
 30
0.0
 40
0.0662902360756252
  0
CIRCLE
  5
DBB
330
B84
100
AcDbEntity
  8
0
100
AcDbCircle
 10
1.044697213094146
 20
4.801537151817408
 30
0.0
 40
0.0662902360756252
  0
LINE
  5
DBC
330
B84
100
AcDbEntity
  8
0
100
AcDbLine
 10
0.9888944011954272
 20
4.765753893397382
 30
0.0
 11
1.084277790458049
 21
4.854713963441446
 31
0.0
  0
LINE
  5
DBD
330
B84
100
AcDbEntity
  8
0
100
AcDbLine
 10
1.004534935706249
 20
4.748798296369306
 30
0.0
 11
1.100103619699325
 21
4.837931183004679
 31
0.0
  0
CIRCLE
  5
DBE
330
B84
100
AcDbEntity
  8
0
100
AcDbCircle
 10
1.045138203763379
 20
4.802154132835385
 30
0.0
 40
0.075
  0
CIRCLE
  5
DBF
330
B84
100
AcDbEntity
  8
0
100
AcDbCircle
 10
0.9451382037633813
 20
5.243141131109593
 30
0.0
 40
0.075
  0
LINE
  5
DC0
330
B84
100
AcDbEntity
  8
0
100
AcDbLine
 10
0.9045349357062519
 20
5.189785294643515
 30
0.0
 11
1.000103619699324
 21
5.278918181278887
 31
0.0
  0
LINE
  5
DC1
330
B84
100
AcDbEntity
  8
0
100
AcDbLine
 10
0.8888944011954293
 20
5.206740891671591
 30
0.0
 11
0.9842777904580515
 21
5.295700961715654
 31
0.0
  0
CIRCLE
  5
DC2
330
B84
100
AcDbEntity
  8
0
100
AcDbCircle
 10
0.9446972130941482
 20
5.242524150091616
 30
0.0
 40
0.0662902360756252
  0
CIRCLE
  5
DC3
330
B84
100
AcDbEntity
  8
0
100
AcDbCircle
 10
0.8446972130941468
 20
4.801537151817408
 30
0.0
 40
0.0662902360756252
  0
LINE
  5
DC4
330
B84
100
AcDbEntity
  8
0
100
AcDbLine
 10
0.788894401195428
 20
4.765753893397382
 30
0.0
 11
0.8842777904580501
 21
4.854713963441446
 31
0.0
  0
LINE
  5
DC5
330
B84
100
AcDbEntity
  8
0
100
AcDbLine
 10
0.8045349357062505
 20
4.748798296369306
 30
0.0
 11
0.9001036196993226
 21
4.837931183004679
 31
0.0
  0
CIRCLE
  5
DC6
330
B84
100
AcDbEntity
  8
0
100
AcDbCircle
 10
0.8451382037633798
 20
4.802154132835385
 30
0.0
 40
0.075
  0
CIRCLE
  5
DC7
330
B84
100
AcDbEntity
  8
0
100
AcDbCircle
 10
0.7451382037633821
 20
5.243141131109593
 30
0.0
 40
0.075
  0
LINE
  5
DC8
330
B84
100
AcDbEntity
  8
0
100
AcDbLine
 10
0.7045349357062492
 20
5.189785294643515
 30
0.0
 11
0.8001036196993247
 21
5.278918181278887
 31
0.0
  0
LINE
  5
DC9
330
B84
100
AcDbEntity
  8
0
100
AcDbLine
 10
0.6888944011954266
 20
5.206740891671591
 30
0.0
 11
0.7842777904580487
 21
5.295700961715654
 31
0.0
  0
CIRCLE
  5
DCA
330
B84
100
AcDbEntity
  8
0
100
AcDbCircle
 10
0.744697213094149
 20
5.242524150091616
 30
0.0
 40
0.0662902360756252
  0
LINE
  5
DCB
330
B84
100
AcDbEntity
  8
0
100
AcDbLine
 10
0.6045349357062478
 20
4.748798296369306
 30
0.0
 11
0.7001036196993234
 21
4.837931183004679
 31
0.0
  0
LINE
  5
DCC
330
B84
100
AcDbEntity
  8
0
100
AcDbLine
 10
0.5888944011954252
 20
4.765753893397382
 30
0.0
 11
0.6842777904580473
 21
4.854713963441446
 31
0.0
  0
CIRCLE
  5
DCD
330
B84
100
AcDbEntity
  8
0
100
AcDbCircle
 10
0.6446972130941476
 20
4.801537151817408
 30
0.0
 40
0.0662902360756252
  0
TEXT
  5
DCE
330
B84
100
AcDbEntity
  8
0
100
AcDbText
 10
0.7224608893382403
 20
6.768870912880656
 30
0.0
 40
0.08
  1
1
  7
ROMANS
100
AcDbText
  0
TEXT
  5
DCF
330
B84
100
AcDbEntity
  8
0
100
AcDbText
 10
1.775544763455275
 20
6.768870880140935
 30
0.0
 40
0.08
  1
8
  7
ROMANS
100
AcDbText
  0
TEXT
  5
DD0
330
B84
100
AcDbEntity
  8
0
100
AcDbText
 10
0.7546646482585118
 20
7.096163733261247
 30
0.0
 40
0.08
  1
9
  7
ROMANS
100
AcDbText
  0
TEXT
  5
DD1
330
B84
100
AcDbEntity
  8
0
100
AcDbText
 10
1.697102822022884
 20
7.090652950993613
 30
0.0
 40
0.08
  1
15
  7
ROMANS
100
AcDbText
  0
ARC
  5
DD2
330
B84
100
AcDbEntity
  8
0
100
AcDbCircle
 10
2.002537664278378
 20
6.785054247408149
 30
0.0
 40
0.04
100
AcDbArc
 50
270.0
 51
0.0
  0
ARC
  5
DD3
330
B84
100
AcDbEntity
  8
0
100
AcDbCircle
 10
2.002537664278378
 20
7.174736052980383
 30
0.0
 40
0.04
100
AcDbArc
 50
0.0
 51
90.0
  0
ARC
  5
DD4
330
B84
100
AcDbEntity
  8
0
100
AcDbCircle
 10
0.5585616756198491
 20
6.785054247408149
 30
0.0
 40
0.04
100
AcDbArc
 50
180.0000000000001
 51
270.0
  0
ARC
  5
DD5
330
B84
100
AcDbEntity
  8
0
100
AcDbCircle
 10
0.5585616756198491
 20
7.174736052980383
 30
0.0
 40
0.04
100
AcDbArc
 50
90.0
 51
180.0
  0
CIRCLE
  5
DD6
330
B84
100
AcDbEntity
  8
0
100
AcDbCircle
 10
0.9641278956703374
 20
7.035630684376007
 30
0.0
 40
0.0266728580779585
  0
CIRCLE
  5
DD7
330
B84
100
AcDbEntity
  8
0
100
AcDbCircle
 10
1.071127895670336
 20
7.035630684376007
 30
0.0
 40
0.0266728580779585
  0
CIRCLE
  5
DD8
330
B84
100
AcDbEntity
  8
0
100
AcDbCircle
 10
1.178127895670339
 20
7.035630684376007
 30
0.0
 40
0.0266728580779585
  0
CIRCLE
  5
DD9
330
B84
100
AcDbEntity
  8
0
100
AcDbCircle
 10
1.285127895670338
 20
7.035630684376007
 30
0.0
 40
0.0266728580779585
  0
CIRCLE
  5
DDA
330
B84
100
AcDbEntity
  8
0
100
AcDbCircle
 10
1.392127895670341
 20
7.035630684376007
 30
0.0
 40
0.0266728580779585
  0
CIRCLE
  5
DDB
330
B84
100
AcDbEntity
  8
0
100
AcDbCircle
 10
1.499127895670341
 20
7.035630684376007
 30
0.0
 40
0.0266728580779585
  0
CIRCLE
  5
DDC
330
B84
100
AcDbEntity
  8
0
100
AcDbCircle
 10
1.60612789567034
 20
7.035630684376007
 30
0.0
 40
0.0266728580779585
  0
CIRCLE
  5
DDD
330
B84
100
AcDbEntity
  8
0
100
AcDbCircle
 10
1.656644196211132
 20
6.890177217473111
 30
0.0
 40
0.0266728580779585
  0
CIRCLE
  5
DDE
330
B84
100
AcDbEntity
  8
0
100
AcDbCircle
 10
1.549644196211133
 20
6.890177217473111
 30
0.0
 40
0.0266728580779585
  0
CIRCLE
  5
DDF
330
B84
100
AcDbEntity
  8
0
100
AcDbCircle
 10
1.442644196211134
 20
6.890177217473111
 30
0.0
 40
0.0266728580779585
  0
CIRCLE
  5
DE0
330
B84
100
AcDbEntity
  8
0
100
AcDbCircle
 10
1.335644196211134
 20
6.890177217473111
 30
0.0
 40
0.0266728580779585
  0
CIRCLE
  5
DE1
330
B84
100
AcDbEntity
  8
0
100
AcDbCircle
 10
1.228644196211135
 20
6.890177217473111
 30
0.0
 40
0.0266728580779585
  0
CIRCLE
  5
DE2
330
B84
100
AcDbEntity
  8
0
100
AcDbCircle
 10
1.121644196211136
 20
6.890177217473111
 30
0.0
 40
0.0266728580779585
  0
CIRCLE
  5
DE3
330
B84
100
AcDbEntity
  8
0
100
AcDbCircle
 10
1.014644196211133
 20
6.890177217473111
 30
0.0
 40
0.0266728580779585
  0
CIRCLE
  5
DE4
330
B84
100
AcDbEntity
  8
0
100
AcDbCircle
 10
0.9076441962111339
 20
6.890177217473111
 30
0.0
 40
0.0266728580779585
  0
LINE
  5
DE5
330
B84
100
AcDbEntity
  8
0
100
AcDbLine
 10
1.891338670452828
 20
7.053682249055379
 30
0.0
 11
1.994129238633703
 21
7.053682249055379
 31
0.0
  0
LINE
  5
DE6
330
B84
100
AcDbEntity
  8
0
100
AcDbLine
 10
1.891021511716978
 20
6.906569753227286
 30
0.0
 11
1.994129238633703
 21
6.906569753227286
 31
0.0
  0
LINE
  5
DE7
330
B84
100
AcDbEntity
  8
0
100
AcDbLine
 10
1.891338670452828
 20
7.053682249055379
 30
0.0
 11
1.85275863204059
 21
6.979645839125106
 31
0.0
  0
LINE
  5
DE8
330
B84
100
AcDbEntity
  8
0
100
AcDbLine
 10
1.85275863204059
 20
6.979645839125106
 30
0.0
 11
1.891463492175283
 21
6.906615482943115
 31
0.0
  0
LINE
  5
DE9
330
B84
100
AcDbEntity
  8
0
100
AcDbLine
 10
1.994129238633703
 20
6.906569753227286
 30
0.0
 11
2.032810520868096
 21
6.979895150194264
 31
0.0
  0
LINE
  5
DEA
330
B84
100
AcDbEntity
  8
0
100
AcDbLine
 10
2.032810520868096
 20
6.979895150194264
 30
0.0
 11
1.994129238633703
 21
7.053682249055379
 31
0.0
  0
CIRCLE
  5
DEB
330
B84
100
AcDbEntity
  8
0
100
AcDbCircle
 10
1.942543805142605
 20
6.979645839125106
 30
0.0
 40
0.034
  0
CIRCLE
  5
DEC
330
B84
100
AcDbEntity
  8
0
100
AcDbCircle
 10
0.6194915948932973
 20
6.979645839125106
 30
0.0
 40
0.034
  0
LINE
  5
DED
330
B84
100
AcDbEntity
  8
0
100
AcDbLine
 10
0.7097583106187884
 20
6.979895150194264
 30
0.0
 11
0.6710770283843957
 21
7.053682249055379
 31
0.0
  0
LINE
  5
DEE
330
B84
100
AcDbEntity
  8
0
100
AcDbLine
 10
0.6710770283843957
 20
6.906569753227286
 30
0.0
 11
0.7097583106187884
 21
6.979895150194264
 31
0.0
  0
LINE
  5
DEF
330
B84
100
AcDbEntity
  8
0
100
AcDbLine
 10
0.529706421791282
 20
6.979645839125106
 30
0.0
 11
0.5684112819259753
 21
6.906615482943115
 31
0.0
  0
LINE
  5
DF0
330
B84
100
AcDbEntity
  8
0
100
AcDbLine
 10
0.5682864602035167
 20
7.053682249055379
 30
0.0
 11
0.529706421791282
 21
6.979645839125106
 31
0.0
  0
LINE
  5
DF1
330
B84
100
AcDbEntity
  8
0
100
AcDbLine
 10
0.5679693014676701
 20
6.906569753227286
 30
0.0
 11
0.6710770283843957
 21
6.906569753227286
 31
0.0
  0
LINE
  5
DF2
330
B84
100
AcDbEntity
  8
0
100
AcDbLine
 10
0.5682864602035167
 20
7.053682249055379
 30
0.0
 11
0.6710770283843957
 21
7.053682249055379
 31
0.0
  0
ARC
  5
DF3
330
B84
100
AcDbEntity
  8
0
100
AcDbCircle
 10
1.706635989820526
 20
6.894018059074914
 30
0.0
 40
0.06
100
AcDbArc
 50
270.0
 51
14.99937410331358
  0
ARC
  5
DF4
330
B84
100
AcDbEntity
  8
0
100
AcDbCircle
 10
1.663805626780728
 20
7.053870134895037
 30
0.0
 40
0.06
100
AcDbArc
 50
14.99937410331372
 51
90.0
  0
ARC
  5
DF5
330
B84
100
AcDbEntity
  8
0
100
AcDbCircle
 10
0.8618987414794396
 20
6.894018059074911
 30
0.0
 40
0.06
100
AcDbArc
 50
165.0006258966864
 51
270.0
  0
ARC
  5
DF6
330
B84
100
AcDbEntity
  8
0
100
AcDbCircle
 10
0.9047291045192373
 20
7.053870134895037
 30
0.0
 40
0.06
100
AcDbArc
 50
90.0
 51
165.0006258966867
  0
LINE
  5
DF7
330
B84
100
AcDbEntity
  8
0
100
AcDbLine
 10
0.8618987414794396
 20
6.834018059074912
 30
0.0
 11
1.706635989820526
 21
6.834018059074912
 31
0.0
  0
LINE
  5
DF8
330
B84
100
AcDbEntity
  8
0
100
AcDbLine
 10
0.8467733853056493
 20
7.069398644496272
 30
0.0
 11
0.8039430222658516
 21
6.90954656867615
 31
0.0
  0
LINE
  5
DF9
330
B84
100
AcDbEntity
  8
0
100
AcDbLine
 10
1.721761345994316
 20
7.069398644496272
 30
0.0
 11
1.764591709034114
 21
6.90954656867615
 31
0.0
  0
LINE
  5
DFA
330
B84
100
AcDbEntity
  8
0
100
AcDbLine
 10
0.9047291045192373
 20
7.113870134895035
 30
0.0
 11
1.663805626780728
 21
7.113870134895035
 31
0.0
  0
LINE
  5
DFB
330
B84
100
AcDbEntity
  8
0
100
AcDbLine
 10
2.002537664278378
 20
7.214736052980383
 30
0.0
 11
0.5585616756198491
 21
7.214736052980383
 31
0.0
  0
LINE
  5
DFC
330
B84
100
AcDbEntity
  8
0
100
AcDbLine
 10
2.042537664278377
 20
6.785054247408149
 30
0.0
 11
2.042537664278377
 21
7.174736052980383
 31
0.0
  0
LINE
  5
DFD
330
B84
100
AcDbEntity
  8
0
100
AcDbLine
 10
0.5585616756198491
 20
6.74505424740815
 30
0.0
 11
2.002537664278378
 21
6.74505424740815
 31
0.0
  0
LINE
  5
DFE
330
B84
100
AcDbEntity
  8
0
100
AcDbLine
 10
0.5185616756198499
 20
7.174736052980383
 30
0.0
 11
0.5185616756198499
 21
6.785054247408149
 31
0.0
  0
LINE
  5
DFF
330
B84
100
AcDbEntity
  8
0
100
AcDbLine
 10
1.89468688636596
 20
5.473558938225137
 30
0.0
 11
1.89468688636596
 21
5.434542626387139
 31
0.0
  0
LINE
  5
E00
330
B84
100
AcDbEntity
  8
0
100
AcDbLine
 10
1.89468688636596
 20
5.434542626387139
 30
0.0
 11
1.996757714596046
 21
5.434542626387139
 31
0.0
  0
LINE
  5
E01
330
B84
100
AcDbEntity
  8
0
100
AcDbLine
 10
1.996757714596046
 20
5.434542626387139
 30
0.0
 11
1.996757714596046
 21
5.473558938225137
 31
0.0
  0
LINE
  5
E02
330
B84
100
AcDbEntity
  8
0
100
AcDbLine
 10
1.69468688636596
 20
5.473558938225137
 30
0.0
 11
1.69468688636596
 21
5.434542626387139
 31
0.0
  0
LINE
  5
E03
330
B84
100
AcDbEntity
  8
0
100
AcDbLine
 10
1.69468688636596
 20
5.434542626387139
 30
0.0
 11
1.796757714596047
 21
5.434542626387139
 31
0.0
  0
LINE
  5
E04
330
B84
100
AcDbEntity
  8
0
100
AcDbLine
 10
1.796757714596047
 20
5.434542626387139
 30
0.0
 11
1.796757714596047
 21
5.473558938225137
 31
0.0
  0
LINE
  5
E05
330
B84
100
AcDbEntity
  8
0
100
AcDbLine
 10
1.494686886365961
 20
5.473558938225137
 30
0.0
 11
1.494686886365961
 21
5.434542626387139
 31
0.0
  0
LINE
  5
E06
330
B84
100
AcDbEntity
  8
0
100
AcDbLine
 10
1.494686886365961
 20
5.434542626387139
 30
0.0
 11
1.596757714596044
 21
5.434542626387139
 31
0.0
  0
LINE
  5
E07
330
B84
100
AcDbEntity
  8
0
100
AcDbLine
 10
1.596757714596044
 20
5.434542626387139
 30
0.0
 11
1.596757714596044
 21
5.473558938225137
 31
0.0
  0
LINE
  5
E08
330
B84
100
AcDbEntity
  8
0
100
AcDbLine
 10
1.294686886365962
 20
5.473558938225137
 30
0.0
 11
1.294686886365962
 21
5.434542626387139
 31
0.0
  0
LINE
  5
E09
330
B84
100
AcDbEntity
  8
0
100
AcDbLine
 10
1.294686886365962
 20
5.434542626387139
 30
0.0
 11
1.396757714596049
 21
5.434542626387139
 31
0.0
  0
LINE
  5
E0A
330
B84
100
AcDbEntity
  8
0
100
AcDbLine
 10
1.396757714596049
 20
5.434542626387139
 30
0.0
 11
1.396757714596049
 21
5.473558938225137
 31
0.0
  0
LINE
  5
E0B
330
B84
100
AcDbEntity
  8
0
100
AcDbLine
 10
1.094686886365963
 20
5.473558938225137
 30
0.0
 11
1.094686886365963
 21
5.434542626387139
 31
0.0
  0
LINE
  5
E0C
330
B84
100
AcDbEntity
  8
0
100
AcDbLine
 10
1.094686886365963
 20
5.434542626387139
 30
0.0
 11
1.196757714596046
 21
5.434542626387139
 31
0.0
  0
LINE
  5
E0D
330
B84
100
AcDbEntity
  8
0
100
AcDbLine
 10
1.196757714596046
 20
5.434542626387139
 30
0.0
 11
1.196757714596046
 21
5.473558938225137
 31
0.0
  0
LINE
  5
E0E
330
B84
100
AcDbEntity
  8
0
100
AcDbLine
 10
0.8946868863659602
 20
5.473558938225137
 30
0.0
 11
0.8946868863659602
 21
5.434542626387139
 31
0.0
  0
LINE
  5
E0F
330
B84
100
AcDbEntity
  8
0
100
AcDbLine
 10
0.8946868863659602
 20
5.434542626387139
 30
0.0
 11
0.9967577145960468
 21
5.434542626387139
 31
0.0
  0
LINE
  5
E10
330
B84
100
AcDbEntity
  8
0
100
AcDbLine
 10
0.9967577145960468
 20
5.434542626387139
 30
0.0
 11
0.9967577145960468
 21
5.473558938225137
 31
0.0
  0
LINE
  5
E11
330
B84
100
AcDbEntity
  8
0
100
AcDbLine
 10
0.694686886365961
 20
5.473558938225137
 30
0.0
 11
0.694686886365961
 21
5.434542626387139
 31
0.0
  0
LINE
  5
E12
330
B84
100
AcDbEntity
  8
0
100
AcDbLine
 10
0.694686886365961
 20
5.434542626387139
 30
0.0
 11
0.7967577145960476
 21
5.434542626387139
 31
0.0
  0
LINE
  5
E13
330
B84
100
AcDbEntity
  8
0
100
AcDbLine
 10
0.7967577145960476
 20
5.434542626387139
 30
0.0
 11
0.7967577145960476
 21
5.473558938225137
 31
0.0
  0
LINE
  5
E14
330
B84
100
AcDbEntity
  8
0
100
AcDbLine
 10
0.5967577145960448
 20
5.434542626387139
 30
0.0
 11
0.5967577145960448
 21
5.473558938225137
 31
0.0
  0
LINE
  5
E15
330
B84
100
AcDbEntity
  8
0
100
AcDbLine
 10
0.4946868863659617
 20
5.434542626387139
 30
0.0
 11
0.5967577145960448
 21
5.434542626387139
 31
0.0
  0
LINE
  5
E16
330
B84
100
AcDbEntity
  8
0
100
AcDbLine
 10
0.4946868863659617
 20
5.473558938225137
 30
0.0
 11
0.4946868863659617
 21
5.434542626387139
 31
0.0
  0
LINE
  5
E17
330
B84
100
AcDbEntity
  8
0
100
AcDbLine
 10
2.141610147259335
 20
5.026679166489737
 30
0.0
 11
0.4371451296986848
 21
5.026679166489737
 31
0.0
  0
LINE
  5
E18
330
B84
100
AcDbEntity
  8
0
100
AcDbLine
 10
2.120802123903438
 20
4.985341667725984
 30
0.0
 11
2.120802123903438
 21
4.930924180162461
 31
0.0
  0
LINE
  5
E19
330
B84
100
AcDbEntity
  8
0
100
AcDbLine
 10
1.970531182342483
 20
4.930924180162461
 30
0.0
 11
1.970531182342483
 21
4.985341667725984
 31
0.0
  0
LINE
  5
E1A
330
B84
100
AcDbEntity
  8
0
100
AcDbLine
 10
1.970531182342483
 20
4.985341667725984
 30
0.0
 11
2.120802123903438
 21
4.985341667725984
 31
0.0
  0
LINE
  5
E1B
330
B84
100
AcDbEntity
  8
0
100
AcDbLine
 10
1.920802123903438
 20
4.985341667725984
 30
0.0
 11
1.920802123903438
 21
4.930924180162461
 31
0.0
  0
LINE
  5
E1C
330
B84
100
AcDbEntity
  8
0
100
AcDbLine
 10
1.77053118234248
 20
4.930924180162461
 30
0.0
 11
1.77053118234248
 21
4.985341667725984
 31
0.0
  0
LINE
  5
E1D
330
B84
100
AcDbEntity
  8
0
100
AcDbLine
 10
1.77053118234248
 20
4.985341667725984
 30
0.0
 11
1.920802123903438
 21
4.985341667725984
 31
0.0
  0
LINE
  5
E1E
330
B84
100
AcDbEntity
  8
0
100
AcDbLine
 10
1.570531182342485
 20
4.930924180162461
 30
0.0
 11
1.570531182342485
 21
4.985341667725984
 31
0.0
  0
LINE
  5
E1F
330
B84
100
AcDbEntity
  8
0
100
AcDbLine
 10
1.570531182342485
 20
4.985341667725984
 30
0.0
 11
1.720802123903439
 21
4.985341667725984
 31
0.0
  0
LINE
  5
E20
330
B84
100
AcDbEntity
  8
0
100
AcDbLine
 10
1.720802123903439
 20
4.985341667725984
 30
0.0
 11
1.720802123903439
 21
4.930924180162461
 31
0.0
  0
LINE
  5
E21
330
B84
100
AcDbEntity
  8
0
100
AcDbLine
 10
1.370531182342482
 20
4.930924180162461
 30
0.0
 11
1.370531182342482
 21
4.985341667725984
 31
0.0
  0
LINE
  5
E22
330
B84
100
AcDbEntity
  8
0
100
AcDbLine
 10
1.370531182342482
 20
4.985341667725984
 30
0.0
 11
1.52080212390344
 21
4.985341667725984
 31
0.0
  0
LINE
  5
E23
330
B84
100
AcDbEntity
  8
0
100
AcDbLine
 10
1.52080212390344
 20
4.985341667725984
 30
0.0
 11
1.52080212390344
 21
4.930924180162461
 31
0.0
  0
LINE
  5
E24
330
B84
100
AcDbEntity
  8
0
100
AcDbLine
 10
1.170531182342482
 20
4.930924180162461
 30
0.0
 11
1.170531182342482
 21
4.985341667725984
 31
0.0
  0
LINE
  5
E25
330
B84
100
AcDbEntity
  8
0
100
AcDbLine
 10
1.170531182342482
 20
4.985341667725984
 30
0.0
 11
1.32080212390344
 21
4.985341667725984
 31
0.0
  0
LINE
  5
E26
330
B84
100
AcDbEntity
  8
0
100
AcDbLine
 10
1.32080212390344
 20
4.985341667725984
 30
0.0
 11
1.32080212390344
 21
4.930924180162461
 31
0.0
  0
LINE
  5
E27
330
B84
100
AcDbEntity
  8
0
100
AcDbLine
 10
0.9705311823424835
 20
4.930924180162461
 30
0.0
 11
0.9705311823424835
 21
4.985341667725984
 31
0.0
  0
LINE
  5
E28
330
B84
100
AcDbEntity
  8
0
100
AcDbLine
 10
0.9705311823424835
 20
4.985341667725984
 30
0.0
 11
1.120802123903438
 21
4.985341667725984
 31
0.0
  0
LINE
  5
E29
330
B84
100
AcDbEntity
  8
0
100
AcDbLine
 10
1.120802123903438
 20
4.985341667725984
 30
0.0
 11
1.120802123903438
 21
4.930924180162461
 31
0.0
  0
LINE
  5
E2A
330
B84
100
AcDbEntity
  8
0
100
AcDbLine
 10
0.7705311823424808
 20
4.930924180162461
 30
0.0
 11
0.7705311823424808
 21
4.985341667725984
 31
0.0
  0
LINE
  5
E2B
330
B84
100
AcDbEntity
  8
0
100
AcDbLine
 10
0.7705311823424808
 20
4.985341667725984
 30
0.0
 11
0.9208021239034387
 21
4.985341667725984
 31
0.0
  0
LINE
  5
E2C
330
B84
100
AcDbEntity
  8
0
100
AcDbLine
 10
0.9208021239034387
 20
4.985341667725984
 30
0.0
 11
0.9208021239034387
 21
4.930924180162461
 31
0.0
  0
LINE
  5
E2D
330
B84
100
AcDbEntity
  8
0
100
AcDbLine
 10
0.7208021239034395
 20
4.985341667725984
 30
0.0
 11
0.7208021239034395
 21
4.930924180162461
 31
0.0
  0
LINE
  5
E2E
330
B84
100
AcDbEntity
  8
0
100
AcDbLine
 10
0.570531182342485
 20
4.985341667725984
 30
0.0
 11
0.7208021239034395
 21
4.985341667725984
 31
0.0
  0
LINE
  5
E2F
330
B84
100
AcDbEntity
  8
0
100
AcDbLine
 10
0.570531182342485
 20
4.930924180162461
 30
0.0
 11
0.570531182342485
 21
4.985341667725984
 31
0.0
  0
LINE
  5
E30
330
B84
100
AcDbEntity
  8
0
100
AcDbLine
 10
0.4371451296986848
 20
5.473313262529968
 30
0.0
 11
0.4371451296986848
 21
5.026679166489737
 31
0.0
  0
LINE
  5
E31
330
B84
100
AcDbEntity
  8
0
100
AcDbLine
 10
0.4371451296986848
 20
5.473313262529968
 30
0.0
 11
2.041610147259333
 21
5.473313262529968
 31
0.0
  0
LINE
  5
E32
330
B84
100
AcDbEntity
  8
0
100
AcDbLine
 10
2.041610147259333
 20
5.473313262529968
 30
0.0
 11
2.041610147259333
 21
5.026679166489737
 31
0.0
  0
CIRCLE
  5
E33
330
B84
100
AcDbEntity
  8
0
100
AcDbCircle
 10
0.5451382037633792
 20
5.243141131109593
 30
0.0
 40
0.075
  0
CIRCLE
  5
E34
330
B84
100
AcDbEntity
  8
0
100
AcDbCircle
 10
0.5446972130941461
 20
5.242524150091616
 30
0.0
 40
0.0662902360756252
  0
LINE
  5
E35
330
B84
100
AcDbEntity
  8
0
100
AcDbLine
 10
0.4888944011954273
 20
5.206740891671591
 30
0.0
 11
0.5842777904580494
 21
5.295700961715654
 31
0.0
  0
LINE
  5
E36
330
B84
100
AcDbEntity
  8
0
100
AcDbLine
 10
0.5045349357062499
 20
5.189785294643515
 30
0.0
 11
0.6001036196993255
 21
5.278918181278887
 31
0.0
  0
LINE
  5
E37
330
B84
100
AcDbEntity
  8
0
100
AcDbLine
 10
0.8444681175045332
 20
5.026679166489737
 30
0.0
 11
0.8444681175045332
 21
5.473249914995728
 31
0.0
  0
LINE
  5
E38
330
B84
100
AcDbEntity
  8
0
100
AcDbLine
 10
1.443245313108054
 20
5.026679166489737
 30
0.0
 11
1.443245313108057
 21
5.473249914995728
 31
0.0
  0
LINE
  5
E39
330
B84
100
AcDbEntity
  8
0
100
AcDbLine
 10
0.5366537771470235
 20
4.930368187568857
 30
0.0
 11
2.138845073417215
 21
4.930368187568857
 31
0.0
  0
CIRCLE
  5
E3A
330
B84
100
AcDbEntity
  8
0
100
AcDbCircle
 10
0.6451382037633806
 20
4.802154132835385
 30
0.0
 40
0.075
  0
LINE
  5
E3B
330
B84
100
AcDbEntity
  8
0
100
AcDbLine
 10
0.5366537771470235
 20
4.704836748182577
 30
0.0
 11
2.138845073417215
 21
4.704836748182577
 31
0.0
  0
LINE
  5
E3C
330
B84
100
AcDbEntity
  8
0
100
AcDbLine
 10
2.141610147259335
 20
4.602278650557403
 30
0.0
 11
0.5371082451209404
 21
4.602278650557403
 31
0.0
  0
LINE
  5
E3D
330
B84
100
AcDbEntity
  8
0
100
AcDbLine
 10
2.141610147259335
 20
5.026679166489737
 30
0.0
 11
2.141610147259335
 21
4.602278650557403
 31
0.0
  0
LINE
  5
E3E
330
B84
100
AcDbEntity
  8
0
100
AcDbLine
 10
0.5371451296986863
 20
5.026679166489737
 30
0.0
 11
0.5371451296986863
 21
4.602619336016163
 31
0.0
  0
LINE
  5
E3F
330
B84
100
AcDbEntity
  8
0
100
AcDbLine
 10
-0.0495360230155839
 20
7.402323897483375
 30
0.0
 11
2.608508976984413
 21
7.402323897483375
 31
0.0
  0
LINE
  5
E40
330
B84
100
AcDbEntity
  8
0
100
AcDbLine
 10
2.608508976984413
 20
7.319309897483375
 30
0.0
 11
0.0419479769844138
 21
7.319309897483375
 31
0.0
  0
LINE
  5
E41
330
B84
100
AcDbEntity
  8
0
100
AcDbLine
 10
0.3933639769844142
 20
7.435845897483375
 30
0.0
 11
0.3933639769844142
 21
7.290047897483376
 31
0.0
  0
LINE
  5
E42
330
B84
100
AcDbEntity
  8
0
100
AcDbLine
 10
2.165608976984412
 20
7.435845897483375
 30
0.0
 11
2.165608976984412
 21
7.290047897483376
 31
0.0
  0
LINE
  5
E43
330
B84
100
AcDbEntity
  8
0
100
AcDbLine
 10
-0.0494160230155885
 20
7.319309897483375
 30
0.0
 11
-0.0494160230155885
 21
7.318433897483375
 31
0.0
  0
LINE
  5
E44
330
B84
100
AcDbEntity
  8
0
100
AcDbLine
 10
-0.0494160230155885
 20
7.319309897483375
 30
0.0
 11
-0.0494160230155885
 21
7.318433897483375
 31
0.0
  0
LINE
  5
E45
330
B84
100
AcDbEntity
  8
0
100
AcDbLine
 10
-0.0494160230155885
 20
7.319309897483375
 30
0.0
 11
-0.0494160230155885
 21
7.319061897483376
 31
0.0
  0
LINE
  5
E46
330
B84
100
AcDbEntity
  8
0
100
AcDbLine
 10
2.608403976984412
 20
7.319309897483375
 30
0.0
 11
-0.0495360230155839
 21
7.319309897483375
 31
0.0
  0
LINE
  5
E47
330
B84
100
AcDbEntity
  8
0
100
AcDbLine
 10
-0.0495356650955188
 20
7.40232373902779
 30
0.0
 11
2.608508725726771
 21
7.40232373902779
 31
0.0
  0
LINE
  5
E48
330
B84
100
AcDbEntity
  8
0
100
AcDbLine
 10
2.608508725726771
 20
7.319310250594297
 30
0.0
 11
0.0419482869181707
 21
7.319310250594297
 31
0.0
  0
LINE
  5
E49
330
B84
100
AcDbEntity
  8
0
100
AcDbLine
 10
0.3933643349044828
 20
7.435846086872247
 30
0.0
 11
0.3933643349044828
 21
7.290047686069227
 31
0.0
  0
LINE
  5
E4A
330
B84
100
AcDbEntity
  8
0
100
AcDbLine
 10
2.165608725726773
 20
7.435846086872251
 30
0.0
 11
2.165608725726773
 21
7.290047686069227
 31
0.0
  0
LINE
  5
E4B
330
B84
100
AcDbEntity
  8
0
100
AcDbLine
 10
-0.0494160572231088
 20
7.319310250594297
 30
0.0
 11
-0.0494160572231088
 21
7.318434124767618
 31
0.0
  0
LINE
  5
E4C
330
B84
100
AcDbEntity
  8
0
100
AcDbLine
 10
-0.0494160572231088
 20
7.319310250594297
 30
0.0
 11
-0.0494160572231088
 21
7.318434124767618
 31
0.0
  0
LINE
  5
E4D
330
B84
100
AcDbEntity
  8
0
100
AcDbLine
 10
-0.0494160572231088
 20
7.319310250594297
 30
0.0
 11
-0.0494160572231088
 21
7.319061480807368
 31
0.0
  0
LINE
  5
E4E
330
B84
100
AcDbEntity
  8
0
100
AcDbLine
 10
2.608403956987764
 20
7.319310250594297
 30
0.0
 11
-0.0495356650955188
 21
7.319310250594297
 31
0.0
  0
ENDBLK
  5
E50
330
B84
100
AcDbEntity
  8
0
100
AcDbBlockEnd
  0
BLOCK
  5
EBA
330
EAF
100
AcDbEntity
  8
0
100
AcDbBlockBegin
  2
*D4
 70
     1
 10
0.0
 20
0.0
 30
0.0
  3
*D4
  1

  0
LINE
  5
F3E
330
EAF
100
AcDbEntity
  8
0
 62
     0
370
    -2
100
AcDbLine
 10
2.645887674182894
 20
4.056246806359501
 30
0.0
 11
1.375866119367514
 21
4.056246806359502
 31
0.0
  0
LINE
  5
F3F
330
EAF
100
AcDbEntity
  8
0
 62
     0
370
    -2
100
AcDbLine
 10
3.038106386409246
 20
6.337556703390545
 30
0.0
 11
1.375866119367515
 21
6.337556703390546
 31
0.0
  0
LINE
  5
F40
330
EAF
100
AcDbEntity
  8
0
 62
     0
370
    -2
100
AcDbLine
 10
1.555866119367514
 20
4.236246806359502
 30
0.0
 11
1.555866119367514
 21
5.016901754875025
 31
0.0
  0
LINE
  5
F41
330
EAF
100
AcDbEntity
  8
0
 62
     0
370
    -2
100
AcDbLine
 10
1.555866119367514
 20
6.157556703390547
 30
0.0
 11
1.555866119367514
 21
5.376901754875024
 31
0.0
  0
SOLID
  5
F42
330
EAF
100
AcDbEntity
  8
0
 62
     0
100
AcDbTrace
 10
1.525866119367514
 20
4.236246806359502
 30
0.0
 11
1.585866119367514
 21
4.236246806359502
 31
0.0
 12
1.555866119367514
 22
4.056246806359502
 32
0.0
 13
1.555866119367514
 23
4.056246806359502
 33
0.0
  0
SOLID
  5
F43
330
EAF
100
AcDbEntity
  8
0
 62
     0
100
AcDbTrace
 10
1.525866119367514
 20
6.157556703390547
 30
0.0
 11
1.585866119367515
 21
6.157556703390547
 31
0.0
 12
1.555866119367514
 22
6.337556703390546
 32
0.0
 13
1.555866119367514
 23
6.337556703390546
 33
0.0
  0
MTEXT
  5
F44
330
EAF
100
AcDbEntity
  8
0
 62
     0
100
AcDbMText
 10
1.555866119367513
 20
5.196901754875025
 30
0.0
 40
0.18
 41
0.0
 71
     5
 72
     1
  1
\A1;2.28
 73
     1
 44
1.0
  0
POINT
  5
F45
330
EAF
100
AcDbEntity
  8
Defpoints
 62
     0
100
AcDbPoint
 10
2.708387674182894
 20
4.056246806359501
 30
0.0
  0
POINT
  5
F46
330
EAF
100
AcDbEntity
  8
Defpoints
 62
     0
100
AcDbPoint
 10
3.100606386409246
 20
6.337556703390545
 30
0.0
  0
POINT
  5
F47
330
EAF
100
AcDbEntity
  8
Defpoints
 62
     0
100
AcDbPoint
 10
1.555866119367514
 20
6.337556703390546
 30
0.0
  0
ENDBLK
  5
EBB
330
EAF
100
AcDbEntity
  8
0
100
AcDbBlockEnd
  0
BLOCK
  5
F0B
330
F00
100
AcDbEntity
  8
0
100
AcDbBlockBegin
  2
*D5
 70
     1
 10
0.0
 20
0.0
 30
0.0
  3
*D5
  1

  0
LINE
  5
F48
330
F00
100
AcDbEntity
  8
0
 62
     0
370
    -2
100
AcDbLine
 10
6.908943855129535
 20
6.915483759790491
 30
0.0
 11
6.908943855129535
 21
7.977610160146895
 31
0.0
  0
LINE
  5
F49
330
F00
100
AcDbEntity
  8
0
 62
     0
370
    -2
100
AcDbLine
 10
9.146988245951824
 20
6.915483759790493
 30
0.0
 11
9.146988245951824
 21
7.977610160146895
 31
0.0
  0
LINE
  5
F4A
330
F00
100
AcDbEntity
  8
0
 62
     0
370
    -2
100
AcDbLine
 10
7.088943855129534
 20
7.797610160146895
 30
0.0
 11
7.667966050540679
 21
7.797610160146895
 31
0.0
  0
LINE
  5
F4B
330
F00
100
AcDbEntity
  8
0
 62
     0
370
    -2
100
AcDbLine
 10
8.966988245951824
 20
7.797610160146895
 30
0.0
 11
8.387966050540679
 21
7.797610160146895
 31
0.0
  0
SOLID
  5
F4C
330
F00
100
AcDbEntity
  8
0
 62
     0
100
AcDbTrace
 10
7.088943855129534
 20
7.827610160146895
 30
0.0
 11
7.088943855129534
 21
7.767610160146895
 31
0.0
 12
6.908943855129535
 22
7.797610160146895
 32
0.0
 13
6.908943855129535
 23
7.797610160146895
 33
0.0
  0
SOLID
  5
F4D
330
F00
100
AcDbEntity
  8
0
 62
     0
100
AcDbTrace
 10
8.966988245951824
 20
7.827610160146895
 30
0.0
 11
8.966988245951824
 21
7.767610160146895
 31
0.0
 12
9.146988245951824
 22
7.797610160146895
 32
0.0
 13
9.146988245951824
 23
7.797610160146895
 33
0.0
  0
MTEXT
  5
F4E
330
F00
100
AcDbEntity
  8
0
 62
     0
100
AcDbMText
 10
8.02796605054068
 20
7.797610160146895
 30
0.0
 40
0.18
 41
0.0
 71
     5
 72
     1
  1
\A1;2.24
 73
     1
 44
1.0
  0
POINT
  5
F4F
330
F00
100
AcDbEntity
  8
Defpoints
 62
     0
100
AcDbPoint
 10
6.908943855129535
 20
6.852983759790491
 30
0.0
  0
POINT
  5
F50
330
F00
100
AcDbEntity
  8
Defpoints
 62
     0
100
AcDbPoint
 10
9.146988245951824
 20
6.852983759790493
 30
0.0
  0
POINT
  5
F51
330
F00
100
AcDbEntity
  8
Defpoints
 62
     0
100
AcDbPoint
 10
9.146988245951824
 20
7.797610160146895
 30
0.0
  0
ENDBLK
  5
F0C
330
F00
100
AcDbEntity
  8
0
100
AcDbBlockEnd
  0
BLOCK
  5
F25
330
F1A
100
AcDbEntity
  8
0
100
AcDbBlockBegin
  2
*D6
 70
     1
 10
0.0
 20
0.0
 30
0.0
  3
*D6
  1

  0
LINE
  5
F52
330
F1A
100
AcDbEntity
  8
0
 62
     0
370
    -2
100
AcDbLine
 10
9.209488245951824
 20
3.821471570401618
 30
0.0
 11
10.31009142745135
 21
3.821471570401618
 31
0.0
  0
LINE
  5
F53
330
F1A
100
AcDbEntity
  8
0
 62
     0
370
    -2
100
AcDbLine
 10
9.209488245951824
 20
6.852983570401617
 30
0.0
 11
10.31009142745135
 21
6.852983570401616
 31
0.0
  0
LINE
  5
F54
330
F1A
100
AcDbEntity
  8
0
 62
     0
370
    -2
100
AcDbLine
 10
10.13009142745135
 20
4.001471570401617
 30
0.0
 11
10.13009142745135
 21
5.157227570401617
 31
0.0
  0
LINE
  5
F55
330
F1A
100
AcDbEntity
  8
0
 62
     0
370
    -2
100
AcDbLine
 10
10.13009142745135
 20
6.672983570401616
 30
0.0
 11
10.13009142745135
 21
5.517227570401616
 31
0.0
  0
SOLID
  5
F56
330
F1A
100
AcDbEntity
  8
0
 62
     0
100
AcDbTrace
 10
10.10009142745135
 20
4.001471570401617
 30
0.0
 11
10.16009142745135
 21
4.001471570401617
 31
0.0
 12
10.13009142745135
 22
3.821471570401618
 32
0.0
 13
10.13009142745135
 23
3.821471570401618
 33
0.0
  0
SOLID
  5
F57
330
F1A
100
AcDbEntity
  8
0
 62
     0
100
AcDbTrace
 10
10.10009142745135
 20
6.672983570401616
 30
0.0
 11
10.16009142745135
 21
6.672983570401616
 31
0.0
 12
10.13009142745135
 22
6.852983570401616
 32
0.0
 13
10.13009142745135
 23
6.852983570401616
 33
0.0
  0
MTEXT
  5
F58
330
F1A
100
AcDbEntity
  8
0
 62
     0
100
AcDbMText
 10
10.13009142745135
 20
5.337227570401618
 30
0.0
 40
0.18
 41
0.0
 71
     5
 72
     1
  1
\A1;3.03
 73
     1
 44
1.0
  0
POINT
  5
F59
330
F1A
100
AcDbEntity
  8
Defpoints
 62
     0
100
AcDbPoint
 10
9.146988245951824
 20
3.821471570401618
 30
0.0
  0
POINT
  5
F5A
330
F1A
100
AcDbEntity
  8
Defpoints
 62
     0
100
AcDbPoint
 10
9.146988245951824
 20
6.852983570401617
 30
0.0
  0
POINT
  5
F5B
330
F1A
100
AcDbEntity
  8
Defpoints
 62
     0
100
AcDbPoint
 10
10.13009142745135
 20
6.852983570401616
 30
0.0
  0
ENDBLK
  5
F26
330
F1A
100
AcDbEntity
  8
0
100
AcDbBlockEnd
  0
ENDSEC
  0
SECTION
  2
ENTITIES
  0
INSERT
  5
140
330
1F
100
AcDbEntity
  8
0
100
AcDbBlockReference
 66
     1
  2
ASSEMBLY_A
 10
0.0
 20
0.0
 30
0.0
  0
ATTRIB
  5
142
330
140
100
AcDbEntity
  8
Title Block
  6
Continuous
 62
     2
100
AcDbText
 10
5.200002260000005
 20
0.6000000000000001
 30
0.0
 40
0.126326427375
  1
BREAKOUT BOX HD15-S
 41
0.8
100
AcDbAttribute
  2
GEN-TITLE-DES1{15.54}
 70
     0
1001
GENIUS_GENBLLY_14
1000
BOR5
  0
ATTRIB
  5
143
330
140
100
AcDbEntity
  8
Title Block
  6
Continuous
 62
     2
100
AcDbText
 10
6.925002260000004
 20
1.024999999999999
 30
0.0
 40
0.1010611419
  1

100
AcDbAttribute
  2
GEN-TITLE-APPM{5}
 70
     0
1001
GENIUS_GENBLLY_14
1000
BOR2
1001
GENIUS_GENTRA_14
1002
{
1070
     3
1000
GENTRAPR,%s,(GENMSG gentitus 73)
1000
Approved by
1000
gb
1070
     0
1002
}
  0
ATTRIB
  5
144
330
140
100
AcDbEntity
  8
Title Block
  6
Continuous
 62
     2
100
AcDbText
 10
6.925002260000004
 20
1.274999999999999
 30
0.0
 40
0.1010611419
  1

100
AcDbAttribute
  2
GEN-TITLE-CHKM{5}
 70
     0
1001
GENIUS_GENBLLY_14
1000
BOR2
  0
ATTRIB
  5
145
330
140
100
AcDbEntity
  8
Title Block
  6
Continuous
 62
     2
100
AcDbText
 10
6.925002260000004
 20
1.524999999999999
 30
0.0
 40
0.1010611419
  1
G. MUMM
100
AcDbAttribute
  2
GEN-TITLE-NAME{5}
 70
     0
1001
GENIUS_GENBLLY_14
1000
BOR2
  0
ATTRIB
  5
146
330
140
100
AcDbEntity
  8
Title Block
  6
Continuous
 62
     2
100
AcDbText
 10
8.400002260000006
 20
0.5
 30
0.0
 40
0.196816573850279
  1
M.1016.2530
 41
0.8
100
AcDbAttribute
  2
GEN-TITLE-NR{13.37}
 70
     0
1001
GENIUS_GENBLLY_14
1000
BOR5
  0
ATTRIB
  5
147
330
140
100
AcDbEntity
  8
Title Block
  6
Continuous
 62
     2
100
AcDbText
 10
10.00000226
 20
1.024999999999999
 30
0.0
 40
0.11808994431015
  1
1
 41
0.8
100
AcDbAttribute
  2
GEN-TITLE-SHEET{2.62}
 70
     0
1001
GENIUS_GENBLLY_14
1000
BOR3
  0
ATTRIB
  5
148
330
140
100
AcDbEntity
  8
Title Block
  6
Continuous
 62
     2
100
AcDbText
 10
9.925002260000004
 20
1.274999999999999
 30
0.0
 40
0.1010611419
  1
27-MAY-08
100
AcDbAttribute
  2
GEN-TITLE-PLOT{5}
 70
     0
1001
GENIUS_GENBLLY_14
1000
BOR2
  0
ATTRIB
  5
149
330
140
100
AcDbEntity
  8
Title Block
  6
Continuous
 62
     2
100
AcDbText
 10
10.40000226
 20
1.024999999999999
 30
0.0
 40
0.11808994431015
  1
1
 41
0.8
100
AcDbAttribute
  2
GEN-TITLE-SHEET-OF{2.62}
 70
     0
1001
GENIUS_GENBLLY_14
1000
BOR3
  0
ATTRIB
  5
14A
330
140
100
AcDbEntity
  8
Title Block
  6
Continuous
 62
     2
100
AcDbText
 10
8.450002260000005
 20
1.524999999999999
 30
0.0
 40
0.1010611419
  1

100
AcDbAttribute
  2
GEN-TITLE-REF{5}
 70
     0
1001
GENIUS_GENBLLY_14
1000
BOR2
  0
ATTRIB
  5
14B
330
140
100
AcDbEntity
  8
Title Block
  6
Continuous
 62
     2
100
AcDbText
 10
8.450002260000005
 20
1.274999999999999
 30
0.0
 40
0.1010611419
  1

100
AcDbAttribute
  2
GEN-TITLE-MACH{5}
 70
     0
1001
GENIUS_GENBLLY_14
1000
BOR2
  0
ATTRIB
  5
14C
330
140
100
AcDbEntity
  8
Title Block
  6
Continuous
 62
     2
100
AcDbText
 10
8.450002260000005
 20
1.024999999999999
 30
0.0
 40
0.1010611419
  1

 41
0.8
100
AcDbAttribute
  2
GEN-TITLE-MAT{11.15}
 70
     0
1001
GENIUS_GENBLLY_14
1000
BOR3
  0
SEQEND
  5
141
330
140
100
AcDbEntity
  8
0
  0
TEXT
  5
368
330
1F
100
AcDbEntity
  8
0
100
AcDbText
 10
3.373395000000002
 20
3.362181829884834
 30
0.0
 40
0.1
  1
PART NO. M.1016.2530
  7
ROMANS
100
AcDbText
  0
TEXT
  5
369
330
1F
100
AcDbEntity
  8
0
100
AcDbText
 10
3.372499999999998
 20
3.570208829884833
 30
0.0
 40
0.1
  1
HD15 SUB/S 
  7
ROMANS
100
AcDbText
  0
LINE
  5
8BA
330
1F
100
AcDbEntity
  8
0
100
AcDbLine
 10
3.495386674182896
 20
4.056246806359501
 30
0.0
 11
3.495386674182896
 21
4.483647806359501
 31
0.0
  0
LINE
  5
8BB
330
1F
100
AcDbEntity
  8
0
100
AcDbLine
 10
2.708387674182894
 20
4.483647806359501
 30
0.0
 11
2.708387674182894
 21
4.056246806359501
 31
0.0
  0
LINE
  5
8BC
330
1F
100
AcDbEntity
  8
0
100
AcDbLine
 10
5.268493674182895
 20
4.056246806359501
 30
0.0
 11
5.268493674182895
 21
4.483647806359501
 31
0.0
  0
LINE
  5
8BD
330
1F
100
AcDbEntity
  8
0
100
AcDbLine
 10
4.481494674182897
 20
4.483647806359501
 30
0.0
 11
4.481494674182897
 21
4.056246806359501
 31
0.0
  0
LINE
  5
8BE
330
1F
100
AcDbEntity
  8
0
100
AcDbLine
 10
3.495386671745265
 20
4.056246908876126
 30
0.0
 11
3.495386671745265
 21
4.483647866068849
 31
0.0
  0
LINE
  5
8BF
330
1F
100
AcDbEntity
  8
0
100
AcDbLine
 10
2.708387697198482
 20
4.483647866068849
 30
0.0
 11
2.708387697198482
 21
4.056246908876126
 31
0.0
  0
LINE
  5
8C0
330
1F
100
AcDbEntity
  8
0
100
AcDbLine
 10
5.268493466251037
 20
4.056246908876126
 30
0.0
 11
5.268493466251037
 21
4.483647866068849
 31
0.0
  0
LINE
  5
8C1
330
1F
100
AcDbEntity
  8
0
100
AcDbLine
 10
4.481494491704253
 20
4.483647866068849
 30
0.0
 11
4.481494491704253
 21
4.056246908876126
 31
0.0
  0
LINE
  5
8C2
102
{ACAD_REACTORS
330
EC7
102
}
330
1F
100
AcDbEntity
  8
0
100
AcDbLine
 10
2.708387674182894
 20
4.056246806359501
 30
0.0
 11
3.495386674182896
 21
4.056246806359501
 31
0.0
  0
LINE
  5
8C3
330
1F
100
AcDbEntity
  8
0
100
AcDbLine
 10
2.708387674182894
 20
4.236730806359501
 30
0.0
 11
3.495386674182896
 21
4.236730806359501
 31
0.0
  0
LINE
  5
8C4
330
1F
100
AcDbEntity
  8
0
100
AcDbLine
 10
4.481494674182897
 20
4.236730806359501
 30
0.0
 11
5.268493674182895
 21
4.236730806359501
 31
0.0
  0
LINE
  5
8C5
330
1F
100
AcDbEntity
  8
0
100
AcDbLine
 10
4.481494674182897
 20
4.056246806359501
 30
0.0
 11
5.268493674182895
 21
4.056246806359501
 31
0.0
  0
LINE
  5
8C6
330
1F
100
AcDbEntity
  8
0
100
AcDbLine
 10
2.708387697198482
 20
4.056246908876126
 30
0.0
 11
3.495386671745265
 21
4.056246908876126
 31
0.0
  0
LINE
  5
8C7
330
1F
100
AcDbEntity
  8
0
100
AcDbLine
 10
2.708387697198482
 20
4.236731219547607
 30
0.0
 11
3.495386671745265
 21
4.236731219547605
 31
0.0
  0
LINE
  5
8C8
330
1F
100
AcDbEntity
  8
0
100
AcDbLine
 10
4.481494491704253
 20
4.236731219547607
 30
0.0
 11
5.268493466251037
 21
4.236731219547605
 31
0.0
  0
LINE
  5
8C9
330
1F
100
AcDbEntity
  8
0
100
AcDbLine
 10
4.481494491704253
 20
4.056246908876126
 30
0.0
 11
5.268493466251037
 21
4.056246908876126
 31
0.0
  0
LINE
  5
8CA
330
1F
100
AcDbEntity
  8
0
100
AcDbLine
 10
2.658851674182898
 20
5.063573806359501
 30
0.0
 11
2.658851674182898
 21
4.485111806359501
 31
0.0
  0
LINE
  5
8CB
330
1F
100
AcDbEntity
  8
0
100
AcDbLine
 10
5.316896674182896
 20
4.898867806359501
 30
0.0
 11
2.658851674182898
 21
4.898867806359501
 31
0.0
  0
LINE
  5
8CC
330
1F
100
AcDbEntity
  8
0
100
AcDbLine
 10
5.316896674182896
 20
4.667308806359502
 30
0.0
 11
2.658851674182898
 21
4.667308806359502
 31
0.0
  0
LINE
  5
8CD
330
1F
100
AcDbEntity
  8
0
100
AcDbLine
 10
2.658851674182898
 20
4.485111806359501
 30
0.0
 11
5.316896674182896
 21
4.485111806359501
 31
0.0
  0
LINE
  5
8CE
330
1F
100
AcDbEntity
  8
0
100
AcDbLine
 10
4.873996674182894
 20
5.063573806359501
 30
0.0
 11
4.873996674182894
 21
4.485111806359501
 31
0.0
  0
LINE
  5
8CF
330
1F
100
AcDbEntity
  8
0
100
AcDbLine
 10
3.101751674182896
 20
5.063573806359501
 30
0.0
 11
3.101751674182896
 21
4.485111806359501
 31
0.0
  0
LINE
  5
8D0
330
1F
100
AcDbEntity
  8
0
100
AcDbLine
 10
5.316896674182896
 20
5.063573806359501
 30
0.0
 11
5.316896674182896
 21
4.485111806359501
 31
0.0
  0
LINE
  5
8D1
330
1F
100
AcDbEntity
  8
0
100
AcDbLine
 10
5.312304674182897
 20
4.667308806359502
 30
0.0
 11
5.305159674182895
 21
4.667308806359502
 31
0.0
  0
LINE
  5
8D2
330
1F
100
AcDbEntity
  8
0
100
AcDbLine
 10
5.312304674182897
 20
4.898867806359501
 30
0.0
 11
5.307220674182893
 21
4.898867806359501
 31
0.0
  0
LINE
  5
8D3
330
1F
100
AcDbEntity
  8
0
100
AcDbLine
 10
5.316896674182896
 20
5.063573806359501
 30
0.0
 11
2.658851674182898
 21
5.063573806359501
 31
0.0
  0
LINE
  5
8D4
330
1F
100
AcDbEntity
  8
0
100
AcDbLine
 10
4.715421674182895
 20
5.616397806359501
 30
0.0
 11
4.715421674182895
 21
5.549601806359501
 31
0.0
  0
LINE
  5
8D5
330
1F
100
AcDbEntity
  8
0
100
AcDbLine
 10
4.709441674182897
 20
5.499601806359502
 30
0.0
 11
4.721402674182893
 21
5.499601806359502
 31
0.0
  0
LINE
  5
8D6
330
1F
100
AcDbEntity
  8
0
100
AcDbLine
 10
4.687431674182896
 20
5.524601806359501
 30
0.0
 11
4.743412674182895
 21
5.524601806359501
 31
0.0
  0
LINE
  5
8D7
330
1F
100
AcDbEntity
  8
0
100
AcDbLine
 10
4.665421674182894
 20
5.549601806359501
 30
0.0
 11
4.765421674182896
 21
5.549601806359501
 31
0.0
  0
TEXT
  5
8D8
330
1F
100
AcDbEntity
  8
0
100
AcDbText
 10
4.432320674182893
 20
5.514823806359501
 30
0.0
 40
0.08
  1
15
  7
ROMANS
100
AcDbText
  0
TEXT
  5
8D9
330
1F
100
AcDbEntity
  8
0
100
AcDbText
 10
4.238801674182898
 20
5.514823806359501
 30
0.0
 40
0.08
  1
14
  7
ROMANS
100
AcDbText
  0
TEXT
  5
8DA
330
1F
100
AcDbEntity
  8
0
100
AcDbText
 10
4.028664674182895
 20
5.514823806359501
 30
0.0
 40
0.08
  1
13
  7
ROMANS
100
AcDbText
  0
TEXT
  5
8DB
330
1F
100
AcDbEntity
  8
0
100
AcDbText
 10
3.831818674182894
 20
5.514823806359501
 30
0.0
 40
0.08
  1
12
  7
ROMANS
100
AcDbText
  0
TEXT
  5
8DC
330
1F
100
AcDbEntity
  8
0
100
AcDbText
 10
3.636208674182896
 20
5.520303806359502
 30
0.0
 40
0.08
  1
11
  7
ROMANS
100
AcDbText
  0
TEXT
  5
8DD
330
1F
100
AcDbEntity
  8
0
100
AcDbText
 10
3.425495674182894
 20
5.514823806359501
 30
0.0
 40
0.08
  1
10
  7
ROMANS
100
AcDbText
  0
TEXT
  5
8DE
330
1F
100
AcDbEntity
  8
0
100
AcDbText
 10
3.279988674182895
 20
5.514823806359501
 30
0.0
 40
0.08
  1
9
  7
ROMANS
100
AcDbText
  0
TEXT
  5
8DF
330
1F
100
AcDbEntity
  8
0
100
AcDbText
 10
4.576561674182894
 20
6.016015806359502
 30
0.0
 40
0.08
  1
8
  7
ROMANS
100
AcDbText
  0
TEXT
  5
8E0
330
1F
100
AcDbEntity
  8
0
100
AcDbText
 10
4.382053674182895
 20
6.016015806359502
 30
0.0
 40
0.08
  1
7
  7
ROMANS
100
AcDbText
  0
TEXT
  5
8E1
330
1F
100
AcDbEntity
  8
0
100
AcDbText
 10
4.171347674182896
 20
6.016015806359502
 30
0.0
 40
0.08
  1
6
  7
ROMANS
100
AcDbText
  0
TEXT
  5
8E2
330
1F
100
AcDbEntity
  8
0
100
AcDbText
 10
3.978049674182894
 20
6.016015806359502
 30
0.0
 40
0.08
  1
5
  7
ROMANS
100
AcDbText
  0
TEXT
  5
8E3
330
1F
100
AcDbEntity
  8
0
100
AcDbText
 10
3.777894674182896
 20
6.016015806359502
 30
0.0
 40
0.08
  1
4
  7
ROMANS
100
AcDbText
  0
TEXT
  5
8E4
330
1F
100
AcDbEntity
  8
0
100
AcDbText
 10
3.577307674182897
 20
6.016015806359502
 30
0.0
 40
0.08
  1
3
  7
ROMANS
100
AcDbText
  0
TEXT
  5
8E5
330
1F
100
AcDbEntity
  8
0
100
AcDbText
 10
3.377950674182894
 20
6.016015806359502
 30
0.0
 40
0.08
  1
2
  7
ROMANS
100
AcDbText
  0
TEXT
  5
8E6
330
1F
100
AcDbEntity
  8
0
100
AcDbText
 10
3.178465674182895
 20
6.016015806359502
 30
0.0
 40
0.08
  1
1
  7
ROMANS
100
AcDbText
  0
LINE
  5
8E7
330
1F
100
AcDbEntity
  8
0
100
AcDbLine
 10
4.224018674182893
 20
5.703595806359501
 30
0.0
 11
4.224018674182893
 21
5.063573806359501
 31
0.0
  0
LINE
  5
8E8
330
1F
100
AcDbEntity
  8
0
100
AcDbLine
 10
4.119312674182896
 20
6.208992806359502
 30
0.0
 11
4.119312674182896
 21
5.709466806359501
 31
0.0
  0
LINE
  5
8E9
330
1F
100
AcDbEntity
  8
0
100
AcDbLine
 10
3.623480674182893
 20
5.703595806359501
 30
0.0
 11
3.623480674182893
 21
5.063573806359501
 31
0.0
  0
LINE
  5
8EA
330
1F
100
AcDbEntity
  8
0
100
AcDbLine
 10
3.518098674182894
 20
6.337556703390545
 30
0.0
 11
3.518098674182894
 21
5.709466806359501
 31
0.0
  0
LINE
  5
8EB
330
1F
100
AcDbEntity
  8
0
100
AcDbLine
 10
3.100606674182895
 20
5.953145806359501
 30
0.0
 11
4.734712674182894
 21
5.953145806359501
 31
0.0
  0
LINE
  5
8EC
330
1F
100
AcDbEntity
  8
0
100
AcDbLine
 10
3.100606674182895
 20
6.149335806359501
 30
0.0
 11
4.734712674182894
 21
6.149335806359501
 31
0.0
  0
LINE
  5
8ED
330
1F
100
AcDbEntity
  8
0
100
AcDbLine
 10
4.734712674182894
 20
6.207556806359502
 30
0.0
 11
4.734712674182894
 21
5.709466806359501
 31
0.0
  0
LINE
  5
8EE
330
1F
100
AcDbEntity
  8
0
100
AcDbLine
 10
3.100606674182895
 20
6.207556806359502
 30
0.0
 11
4.734712674182894
 21
6.207556806359502
 31
0.0
  0
LINE
  5
8EF
330
1F
100
AcDbEntity
  8
0
100
AcDbLine
 10
3.207359674182896
 20
5.462393806359502
 30
0.0
 11
4.839418674182894
 21
5.462393806359502
 31
0.0
  0
LINE
  5
8F0
330
1F
100
AcDbEntity
  8
0
100
AcDbLine
 10
3.207359674182896
 20
5.653691806359502
 30
0.0
 11
4.839418674182894
 21
5.653691806359502
 31
0.0
  0
LINE
  5
8F1
330
1F
100
AcDbEntity
  8
0
100
AcDbLine
 10
3.206683674182894
 20
5.657116806359502
 30
0.0
 11
3.140482674182898
 21
5.657116806359502
 31
0.0
  0
LINE
  5
8F2
330
1F
100
AcDbEntity
  8
0
100
AcDbLine
 10
4.839418674182894
 20
5.709466806359501
 30
0.0
 11
4.839418674182894
 21
5.063573806359501
 31
0.0
  0
LINE
  5
8F3
330
1F
100
AcDbEntity
  8
0
100
AcDbLine
 10
3.207359674182896
 20
5.709466806359501
 30
0.0
 11
4.839418674182894
 21
5.709466806359501
 31
0.0
  0
LINE
  5
8F4
330
1F
100
AcDbEntity
  8
0
100
AcDbLine
 10
3.207359674182896
 20
5.063573806359501
 30
0.0
 11
3.207359674182896
 21
5.709466806359501
 31
0.0
  0
LINE
  5
8F5
330
1F
100
AcDbEntity
  8
0
100
AcDbLine
 10
3.140482674182898
 20
5.657116806359502
 30
0.0
 11
3.140482674182898
 21
5.874343806359501
 31
0.0
  0
LINE
  5
8F6
330
1F
100
AcDbEntity
  8
0
100
AcDbLine
 10
3.140482674182898
 20
5.874343806359501
 30
0.0
 11
3.297203674182895
 21
5.874343806359501
 31
0.0
  0
LINE
  5
8F7
330
1F
100
AcDbEntity
  8
0
100
AcDbLine
 10
3.297203674182895
 20
5.874343806359501
 30
0.0
 11
3.297203674182895
 21
5.709466806359501
 31
0.0
  0
LINE
  5
8F8
330
1F
100
AcDbEntity
  8
0
100
AcDbLine
 10
3.297203674182895
 20
5.709955806359501
 30
0.0
 11
3.296527674182893
 21
5.709955806359501
 31
0.0
  0
LINE
  5
8F9
330
1F
100
AcDbEntity
  8
0
100
AcDbLine
 10
3.178987674182895
 20
5.873365806359501
 30
0.0
 11
3.178987674182895
 21
5.826397806359501
 31
0.0
  0
LINE
  5
8FA
330
1F
100
AcDbEntity
  8
0
100
AcDbLine
 10
3.178987674182895
 20
5.826397806359501
 30
0.0
 11
3.258698674182895
 21
5.826397806359501
 31
0.0
  0
LINE
  5
8FB
330
1F
100
AcDbEntity
  8
0
100
AcDbLine
 10
3.258698674182895
 20
5.826397806359501
 30
0.0
 11
3.258698674182895
 21
5.873365806359501
 31
0.0
  0
LINE
  5
8FC
330
1F
100
AcDbEntity
  8
0
100
AcDbLine
 10
3.458698674182894
 20
5.826397806359501
 30
0.0
 11
3.458698674182894
 21
5.873365806359501
 31
0.0
  0
LINE
  5
8FD
330
1F
100
AcDbEntity
  8
0
100
AcDbLine
 10
3.378987674182894
 20
5.826397806359501
 30
0.0
 11
3.458698674182894
 21
5.826397806359501
 31
0.0
  0
LINE
  5
8FE
330
1F
100
AcDbEntity
  8
0
100
AcDbLine
 10
3.378987674182894
 20
5.873365806359501
 30
0.0
 11
3.378987674182894
 21
5.826397806359501
 31
0.0
  0
LINE
  5
8FF
330
1F
100
AcDbEntity
  8
0
100
AcDbLine
 10
3.497203674182895
 20
5.874343806359501
 30
0.0
 11
3.497203674182895
 21
5.709466806359501
 31
0.0
  0
LINE
  5
900
330
1F
100
AcDbEntity
  8
0
100
AcDbLine
 10
3.340482674182897
 20
5.874343806359501
 30
0.0
 11
3.497203674182895
 21
5.874343806359501
 31
0.0
  0
LINE
  5
901
330
1F
100
AcDbEntity
  8
0
100
AcDbLine
 10
3.340482674182897
 20
5.709466806359501
 30
0.0
 11
3.340482674182897
 21
5.874343806359501
 31
0.0
  0
LINE
  5
902
330
1F
100
AcDbEntity
  8
0
100
AcDbLine
 10
3.658698674182893
 20
5.826397806359501
 30
0.0
 11
3.658698674182893
 21
5.873365806359501
 31
0.0
  0
LINE
  5
903
330
1F
100
AcDbEntity
  8
0
100
AcDbLine
 10
3.578987674182894
 20
5.826397806359501
 30
0.0
 11
3.658698674182893
 21
5.826397806359501
 31
0.0
  0
LINE
  5
904
330
1F
100
AcDbEntity
  8
0
100
AcDbLine
 10
3.578987674182894
 20
5.873365806359501
 30
0.0
 11
3.578987674182894
 21
5.826397806359501
 31
0.0
  0
LINE
  5
905
330
1F
100
AcDbEntity
  8
0
100
AcDbLine
 10
3.697203674182894
 20
5.874343806359501
 30
0.0
 11
3.697203674182894
 21
5.709466806359501
 31
0.0
  0
LINE
  5
906
330
1F
100
AcDbEntity
  8
0
100
AcDbLine
 10
3.540482674182896
 20
5.874343806359501
 30
0.0
 11
3.697203674182894
 21
5.874343806359501
 31
0.0
  0
LINE
  5
907
330
1F
100
AcDbEntity
  8
0
100
AcDbLine
 10
3.540482674182896
 20
5.709466806359501
 30
0.0
 11
3.540482674182896
 21
5.874343806359501
 31
0.0
  0
LINE
  5
908
330
1F
100
AcDbEntity
  8
0
100
AcDbLine
 10
3.858698674182893
 20
5.826397806359501
 30
0.0
 11
3.858698674182893
 21
5.873365806359501
 31
0.0
  0
LINE
  5
909
330
1F
100
AcDbEntity
  8
0
100
AcDbLine
 10
3.778987674182896
 20
5.826397806359501
 30
0.0
 11
3.858698674182893
 21
5.826397806359501
 31
0.0
  0
LINE
  5
90A
330
1F
100
AcDbEntity
  8
0
100
AcDbLine
 10
3.778987674182896
 20
5.873365806359501
 30
0.0
 11
3.778987674182896
 21
5.826397806359501
 31
0.0
  0
LINE
  5
90B
330
1F
100
AcDbEntity
  8
0
100
AcDbLine
 10
3.897203674182897
 20
5.874343806359501
 30
0.0
 11
3.897203674182897
 21
5.709466806359501
 31
0.0
  0
LINE
  5
90C
330
1F
100
AcDbEntity
  8
0
100
AcDbLine
 10
3.740482674182896
 20
5.874343806359501
 30
0.0
 11
3.897203674182897
 21
5.874343806359501
 31
0.0
  0
LINE
  5
90D
330
1F
100
AcDbEntity
  8
0
100
AcDbLine
 10
3.740482674182896
 20
5.709466806359501
 30
0.0
 11
3.740482674182896
 21
5.874343806359501
 31
0.0
  0
LINE
  5
90E
330
1F
100
AcDbEntity
  8
0
100
AcDbLine
 10
4.058698674182895
 20
5.826397806359501
 30
0.0
 11
4.058698674182895
 21
5.873365806359501
 31
0.0
  0
LINE
  5
90F
330
1F
100
AcDbEntity
  8
0
100
AcDbLine
 10
3.978987674182896
 20
5.826397806359501
 30
0.0
 11
4.058698674182895
 21
5.826397806359501
 31
0.0
  0
LINE
  5
910
330
1F
100
AcDbEntity
  8
0
100
AcDbLine
 10
3.978987674182896
 20
5.873365806359501
 30
0.0
 11
3.978987674182896
 21
5.826397806359501
 31
0.0
  0
LINE
  5
911
330
1F
100
AcDbEntity
  8
0
100
AcDbLine
 10
4.097203674182896
 20
5.874343806359501
 30
0.0
 11
4.097203674182896
 21
5.709466806359501
 31
0.0
  0
LINE
  5
912
330
1F
100
AcDbEntity
  8
0
100
AcDbLine
 10
3.940482674182895
 20
5.874343806359501
 30
0.0
 11
4.097203674182896
 21
5.874343806359501
 31
0.0
  0
LINE
  5
913
330
1F
100
AcDbEntity
  8
0
100
AcDbLine
 10
3.940482674182895
 20
5.709466806359501
 30
0.0
 11
3.940482674182895
 21
5.874343806359501
 31
0.0
  0
LINE
  5
914
330
1F
100
AcDbEntity
  8
0
100
AcDbLine
 10
4.258698674182895
 20
5.826397806359501
 30
0.0
 11
4.258698674182895
 21
5.873365806359501
 31
0.0
  0
LINE
  5
915
330
1F
100
AcDbEntity
  8
0
100
AcDbLine
 10
4.178987674182895
 20
5.826397806359501
 30
0.0
 11
4.258698674182895
 21
5.826397806359501
 31
0.0
  0
LINE
  5
916
330
1F
100
AcDbEntity
  8
0
100
AcDbLine
 10
4.178987674182895
 20
5.873365806359501
 30
0.0
 11
4.178987674182895
 21
5.826397806359501
 31
0.0
  0
LINE
  5
917
330
1F
100
AcDbEntity
  8
0
100
AcDbLine
 10
4.297203674182895
 20
5.874343806359501
 30
0.0
 11
4.297203674182895
 21
5.709466806359501
 31
0.0
  0
LINE
  5
918
330
1F
100
AcDbEntity
  8
0
100
AcDbLine
 10
4.140482674182898
 20
5.874343806359501
 30
0.0
 11
4.297203674182895
 21
5.874343806359501
 31
0.0
  0
LINE
  5
919
330
1F
100
AcDbEntity
  8
0
100
AcDbLine
 10
4.140482674182898
 20
5.709466806359501
 30
0.0
 11
4.140482674182898
 21
5.874343806359501
 31
0.0
  0
LINE
  5
91A
330
1F
100
AcDbEntity
  8
0
100
AcDbLine
 10
4.458698674182894
 20
5.826397806359501
 30
0.0
 11
4.458698674182894
 21
5.873365806359501
 31
0.0
  0
LINE
  5
91B
330
1F
100
AcDbEntity
  8
0
100
AcDbLine
 10
4.378987674182894
 20
5.826397806359501
 30
0.0
 11
4.458698674182894
 21
5.826397806359501
 31
0.0
  0
LINE
  5
91C
330
1F
100
AcDbEntity
  8
0
100
AcDbLine
 10
4.378987674182894
 20
5.873365806359501
 30
0.0
 11
4.378987674182894
 21
5.826397806359501
 31
0.0
  0
LINE
  5
91D
330
1F
100
AcDbEntity
  8
0
100
AcDbLine
 10
4.497203674182895
 20
5.874343806359501
 30
0.0
 11
4.497203674182895
 21
5.709466806359501
 31
0.0
  0
LINE
  5
91E
330
1F
100
AcDbEntity
  8
0
100
AcDbLine
 10
4.340482674182897
 20
5.874343806359501
 30
0.0
 11
4.497203674182895
 21
5.874343806359501
 31
0.0
  0
LINE
  5
91F
330
1F
100
AcDbEntity
  8
0
100
AcDbLine
 10
4.340482674182897
 20
5.709466806359501
 30
0.0
 11
4.340482674182897
 21
5.874343806359501
 31
0.0
  0
LINE
  5
920
330
1F
100
AcDbEntity
  8
0
100
AcDbLine
 10
4.658698674182893
 20
5.826397806359501
 30
0.0
 11
4.658698674182893
 21
5.873365806359501
 31
0.0
  0
LINE
  5
921
330
1F
100
AcDbEntity
  8
0
100
AcDbLine
 10
4.578987674182894
 20
5.826397806359501
 30
0.0
 11
4.658698674182893
 21
5.826397806359501
 31
0.0
  0
LINE
  5
922
330
1F
100
AcDbEntity
  8
0
100
AcDbLine
 10
4.578987674182894
 20
5.873365806359501
 30
0.0
 11
4.578987674182894
 21
5.826397806359501
 31
0.0
  0
LINE
  5
923
330
1F
100
AcDbEntity
  8
0
100
AcDbLine
 10
4.697203674182894
 20
5.874343806359501
 30
0.0
 11
4.697203674182894
 21
5.709466806359501
 31
0.0
  0
LINE
  5
924
330
1F
100
AcDbEntity
  8
0
100
AcDbLine
 10
4.540482674182896
 20
5.874343806359501
 30
0.0
 11
4.697203674182894
 21
5.874343806359501
 31
0.0
  0
LINE
  5
925
330
1F
100
AcDbEntity
  8
0
100
AcDbLine
 10
4.540482674182896
 20
5.709466806359501
 30
0.0
 11
4.540482674182896
 21
5.874343806359501
 31
0.0
  0
LINE
  5
926
330
1F
100
AcDbEntity
  8
0
100
AcDbLine
 10
4.645188674182897
 20
5.133127806359501
 30
0.0
 11
4.645188674182897
 21
5.350355806359502
 31
0.0
  0
LINE
  5
927
330
1F
100
AcDbEntity
  8
0
100
AcDbLine
 10
4.645188674182897
 20
5.350355806359502
 30
0.0
 11
4.801909674182894
 21
5.350355806359502
 31
0.0
  0
LINE
  5
928
330
1F
100
AcDbEntity
  8
0
100
AcDbLine
 10
4.801909674182894
 20
5.350355806359502
 30
0.0
 11
4.801909674182894
 21
5.133127806359501
 31
0.0
  0
LINE
  5
929
330
1F
100
AcDbEntity
  8
0
100
AcDbLine
 10
4.801909674182894
 20
5.133127806359501
 30
0.0
 11
4.645188674182897
 21
5.133127806359501
 31
0.0
  0
LINE
  5
92A
330
1F
100
AcDbEntity
  8
0
100
AcDbLine
 10
4.683692674182893
 20
5.349376806359501
 30
0.0
 11
4.683692674182893
 21
5.302408806359501
 31
0.0
  0
LINE
  5
92B
330
1F
100
AcDbEntity
  8
0
100
AcDbLine
 10
4.683692674182893
 20
5.302408806359501
 30
0.0
 11
4.763404674182897
 21
5.302408806359501
 31
0.0
  0
LINE
  5
92C
330
1F
100
AcDbEntity
  8
0
100
AcDbLine
 10
4.763404674182897
 20
5.302408806359501
 30
0.0
 11
4.763404674182897
 21
5.349376806359501
 31
0.0
  0
LINE
  5
92D
330
1F
100
AcDbEntity
  8
0
100
AcDbLine
 10
4.445188674182897
 20
5.133127806359501
 30
0.0
 11
4.445188674182897
 21
5.350355806359502
 31
0.0
  0
LINE
  5
92E
330
1F
100
AcDbEntity
  8
0
100
AcDbLine
 10
4.445188674182897
 20
5.350355806359502
 30
0.0
 11
4.601909674182895
 21
5.350355806359502
 31
0.0
  0
LINE
  5
92F
330
1F
100
AcDbEntity
  8
0
100
AcDbLine
 10
4.601909674182895
 20
5.350355806359502
 30
0.0
 11
4.601909674182895
 21
5.133127806359501
 31
0.0
  0
LINE
  5
930
330
1F
100
AcDbEntity
  8
0
100
AcDbLine
 10
4.601909674182895
 20
5.133127806359501
 30
0.0
 11
4.445188674182897
 21
5.133127806359501
 31
0.0
  0
LINE
  5
931
330
1F
100
AcDbEntity
  8
0
100
AcDbLine
 10
4.483692674182893
 20
5.349376806359501
 30
0.0
 11
4.483692674182893
 21
5.302408806359501
 31
0.0
  0
LINE
  5
932
330
1F
100
AcDbEntity
  8
0
100
AcDbLine
 10
4.483692674182893
 20
5.302408806359501
 30
0.0
 11
4.563404674182898
 21
5.302408806359501
 31
0.0
  0
LINE
  5
933
330
1F
100
AcDbEntity
  8
0
100
AcDbLine
 10
4.563404674182898
 20
5.302408806359501
 30
0.0
 11
4.563404674182898
 21
5.349376806359501
 31
0.0
  0
LINE
  5
934
330
1F
100
AcDbEntity
  8
0
100
AcDbLine
 10
4.245188674182895
 20
5.133127806359501
 30
0.0
 11
4.245188674182895
 21
5.350355806359502
 31
0.0
  0
LINE
  5
935
330
1F
100
AcDbEntity
  8
0
100
AcDbLine
 10
4.245188674182895
 20
5.350355806359502
 30
0.0
 11
4.401909674182896
 21
5.350355806359502
 31
0.0
  0
LINE
  5
936
330
1F
100
AcDbEntity
  8
0
100
AcDbLine
 10
4.401909674182896
 20
5.350355806359502
 30
0.0
 11
4.401909674182896
 21
5.133127806359501
 31
0.0
  0
LINE
  5
937
330
1F
100
AcDbEntity
  8
0
100
AcDbLine
 10
4.401909674182896
 20
5.133127806359501
 30
0.0
 11
4.245188674182895
 21
5.133127806359501
 31
0.0
  0
LINE
  5
938
330
1F
100
AcDbEntity
  8
0
100
AcDbLine
 10
4.283692674182894
 20
5.349376806359501
 30
0.0
 11
4.283692674182894
 21
5.302408806359501
 31
0.0
  0
LINE
  5
939
330
1F
100
AcDbEntity
  8
0
100
AcDbLine
 10
4.283692674182894
 20
5.302408806359501
 30
0.0
 11
4.363404674182895
 21
5.302408806359501
 31
0.0
  0
LINE
  5
93A
330
1F
100
AcDbEntity
  8
0
100
AcDbLine
 10
4.363404674182895
 20
5.302408806359501
 30
0.0
 11
4.363404674182895
 21
5.349376806359501
 31
0.0
  0
LINE
  5
93B
330
1F
100
AcDbEntity
  8
0
100
AcDbLine
 10
4.045188674182895
 20
5.133127806359501
 30
0.0
 11
4.045188674182895
 21
5.350355806359502
 31
0.0
  0
LINE
  5
93C
330
1F
100
AcDbEntity
  8
0
100
AcDbLine
 10
4.045188674182895
 20
5.350355806359502
 30
0.0
 11
4.201909674182896
 21
5.350355806359502
 31
0.0
  0
LINE
  5
93D
330
1F
100
AcDbEntity
  8
0
100
AcDbLine
 10
4.201909674182896
 20
5.350355806359502
 30
0.0
 11
4.201909674182896
 21
5.133127806359501
 31
0.0
  0
LINE
  5
93E
330
1F
100
AcDbEntity
  8
0
100
AcDbLine
 10
4.201909674182896
 20
5.133127806359501
 30
0.0
 11
4.045188674182895
 21
5.133127806359501
 31
0.0
  0
LINE
  5
93F
330
1F
100
AcDbEntity
  8
0
100
AcDbLine
 10
4.083692674182895
 20
5.349376806359501
 30
0.0
 11
4.083692674182895
 21
5.302408806359501
 31
0.0
  0
LINE
  5
940
330
1F
100
AcDbEntity
  8
0
100
AcDbLine
 10
4.083692674182895
 20
5.302408806359501
 30
0.0
 11
4.163404674182896
 21
5.302408806359501
 31
0.0
  0
LINE
  5
941
330
1F
100
AcDbEntity
  8
0
100
AcDbLine
 10
4.163404674182896
 20
5.302408806359501
 30
0.0
 11
4.163404674182896
 21
5.349376806359501
 31
0.0
  0
LINE
  5
942
330
1F
100
AcDbEntity
  8
0
100
AcDbLine
 10
3.845188674182896
 20
5.133127806359501
 30
0.0
 11
3.845188674182896
 21
5.350355806359502
 31
0.0
  0
LINE
  5
943
330
1F
100
AcDbEntity
  8
0
100
AcDbLine
 10
3.845188674182896
 20
5.350355806359502
 30
0.0
 11
4.001909674182893
 21
5.350355806359502
 31
0.0
  0
LINE
  5
944
330
1F
100
AcDbEntity
  8
0
100
AcDbLine
 10
4.001909674182893
 20
5.350355806359502
 30
0.0
 11
4.001909674182893
 21
5.133127806359501
 31
0.0
  0
LINE
  5
945
330
1F
100
AcDbEntity
  8
0
100
AcDbLine
 10
4.001909674182893
 20
5.133127806359501
 30
0.0
 11
3.845188674182896
 21
5.133127806359501
 31
0.0
  0
LINE
  5
946
330
1F
100
AcDbEntity
  8
0
100
AcDbLine
 10
3.883692674182896
 20
5.349376806359501
 30
0.0
 11
3.883692674182896
 21
5.302408806359501
 31
0.0
  0
LINE
  5
947
330
1F
100
AcDbEntity
  8
0
100
AcDbLine
 10
3.883692674182896
 20
5.302408806359501
 30
0.0
 11
3.963404674182896
 21
5.302408806359501
 31
0.0
  0
LINE
  5
948
330
1F
100
AcDbEntity
  8
0
100
AcDbLine
 10
3.963404674182896
 20
5.302408806359501
 30
0.0
 11
3.963404674182896
 21
5.349376806359501
 31
0.0
  0
LINE
  5
949
330
1F
100
AcDbEntity
  8
0
100
AcDbLine
 10
3.645188674182897
 20
5.133127806359501
 30
0.0
 11
3.645188674182897
 21
5.350355806359502
 31
0.0
  0
LINE
  5
94A
330
1F
100
AcDbEntity
  8
0
100
AcDbLine
 10
3.645188674182897
 20
5.350355806359502
 30
0.0
 11
3.801909674182894
 21
5.350355806359502
 31
0.0
  0
LINE
  5
94B
330
1F
100
AcDbEntity
  8
0
100
AcDbLine
 10
3.801909674182894
 20
5.350355806359502
 30
0.0
 11
3.801909674182894
 21
5.133127806359501
 31
0.0
  0
LINE
  5
94C
330
1F
100
AcDbEntity
  8
0
100
AcDbLine
 10
3.801909674182894
 20
5.133127806359501
 30
0.0
 11
3.645188674182897
 21
5.133127806359501
 31
0.0
  0
LINE
  5
94D
330
1F
100
AcDbEntity
  8
0
100
AcDbLine
 10
3.683692674182893
 20
5.349376806359501
 30
0.0
 11
3.683692674182893
 21
5.302408806359501
 31
0.0
  0
LINE
  5
94E
330
1F
100
AcDbEntity
  8
0
100
AcDbLine
 10
3.683692674182893
 20
5.302408806359501
 30
0.0
 11
3.763404674182897
 21
5.302408806359501
 31
0.0
  0
LINE
  5
94F
330
1F
100
AcDbEntity
  8
0
100
AcDbLine
 10
3.763404674182897
 20
5.302408806359501
 30
0.0
 11
3.763404674182897
 21
5.349376806359501
 31
0.0
  0
LINE
  5
950
330
1F
100
AcDbEntity
  8
0
100
AcDbLine
 10
3.445188674182897
 20
5.133127806359501
 30
0.0
 11
3.445188674182897
 21
5.350355806359502
 31
0.0
  0
LINE
  5
951
330
1F
100
AcDbEntity
  8
0
100
AcDbLine
 10
3.445188674182897
 20
5.350355806359502
 30
0.0
 11
3.601909674182895
 21
5.350355806359502
 31
0.0
  0
LINE
  5
952
330
1F
100
AcDbEntity
  8
0
100
AcDbLine
 10
3.601909674182895
 20
5.350355806359502
 30
0.0
 11
3.601909674182895
 21
5.133127806359501
 31
0.0
  0
LINE
  5
953
330
1F
100
AcDbEntity
  8
0
100
AcDbLine
 10
3.601909674182895
 20
5.133127806359501
 30
0.0
 11
3.445188674182897
 21
5.133127806359501
 31
0.0
  0
LINE
  5
954
330
1F
100
AcDbEntity
  8
0
100
AcDbLine
 10
3.483692674182893
 20
5.349376806359501
 30
0.0
 11
3.483692674182893
 21
5.302408806359501
 31
0.0
  0
LINE
  5
955
330
1F
100
AcDbEntity
  8
0
100
AcDbLine
 10
3.483692674182893
 20
5.302408806359501
 30
0.0
 11
3.563404674182898
 21
5.302408806359501
 31
0.0
  0
LINE
  5
956
330
1F
100
AcDbEntity
  8
0
100
AcDbLine
 10
3.563404674182898
 20
5.302408806359501
 30
0.0
 11
3.563404674182898
 21
5.349376806359501
 31
0.0
  0
LINE
  5
957
330
1F
100
AcDbEntity
  8
0
100
AcDbLine
 10
3.363404674182895
 20
5.302408806359501
 30
0.0
 11
3.363404674182895
 21
5.349376806359501
 31
0.0
  0
LINE
  5
958
330
1F
100
AcDbEntity
  8
0
100
AcDbLine
 10
3.283692674182894
 20
5.302408806359501
 30
0.0
 11
3.363404674182895
 21
5.302408806359501
 31
0.0
  0
LINE
  5
959
330
1F
100
AcDbEntity
  8
0
100
AcDbLine
 10
3.283692674182894
 20
5.349376806359501
 30
0.0
 11
3.283692674182894
 21
5.302408806359501
 31
0.0
  0
LINE
  5
95A
330
1F
100
AcDbEntity
  8
0
100
AcDbLine
 10
3.401909674182896
 20
5.133127806359501
 30
0.0
 11
3.245188674182895
 21
5.133127806359501
 31
0.0
  0
LINE
  5
95B
330
1F
100
AcDbEntity
  8
0
100
AcDbLine
 10
3.401909674182896
 20
5.350355806359502
 30
0.0
 11
3.401909674182896
 21
5.133127806359501
 31
0.0
  0
LINE
  5
95C
330
1F
100
AcDbEntity
  8
0
100
AcDbLine
 10
3.245188674182895
 20
5.350355806359502
 30
0.0
 11
3.401909674182896
 21
5.350355806359502
 31
0.0
  0
LINE
  5
95D
330
1F
100
AcDbEntity
  8
0
100
AcDbLine
 10
3.245188674182895
 20
5.133127806359501
 30
0.0
 11
3.245188674182895
 21
5.350355806359502
 31
0.0
  0
LINE
  5
95E
330
1F
100
AcDbEntity
  8
0
100
AcDbLine
 10
3.100606674182895
 20
5.060774806359502
 30
0.0
 11
3.100606674182895
 21
6.207556806359502
 31
0.0
  0
LINE
  5
95F
330
1F
100
AcDbEntity
  8
0
100
AcDbLine
 10
2.658852032102963
 20
5.063573995970122
 30
0.0
 11
2.658852032102963
 21
4.48511201795395
 31
0.0
  0
LINE
  5
960
330
1F
100
AcDbEntity
  8
0
100
AcDbLine
 10
5.316896422925253
 20
4.898867358274658
 30
0.0
 11
2.658852032102963
 21
4.898867358274655
 31
0.0
  0
LINE
  5
961
330
1F
100
AcDbEntity
  8
0
100
AcDbLine
 10
5.316896422925253
 20
4.667308522108911
 30
0.0
 11
2.658852032102963
 21
4.667308522108909
 31
0.0
  0
LINE
  5
962
330
1F
100
AcDbEntity
  8
0
100
AcDbLine
 10
2.658852032102963
 20
4.48511201795395
 30
0.0
 11
5.316896422925253
 21
4.48511201795395
 31
0.0
  0
LINE
  5
963
330
1F
100
AcDbEntity
  8
0
100
AcDbLine
 10
4.873996422925255
 20
5.063573995970122
 30
0.0
 11
4.873996422925255
 21
4.485112017953948
 31
0.0
  0
LINE
  5
964
330
1F
100
AcDbEntity
  8
0
100
AcDbLine
 10
3.101752032102965
 20
5.063573995970122
 30
0.0
 11
3.101752032102965
 21
4.485112017953948
 31
0.0
  0
LINE
  5
965
330
1F
100
AcDbEntity
  8
0
100
AcDbLine
 10
5.316896422925253
 20
5.063573995970122
 30
0.0
 11
5.316896422925253
 21
4.48511201795395
 31
0.0
  0
LINE
  5
966
330
1F
100
AcDbEntity
  8
0
100
AcDbLine
 10
5.31230505319322
 20
4.667308522108909
 30
0.0
 11
5.305160163046892
 21
4.667308522108909
 31
0.0
  0
LINE
  5
967
330
1F
100
AcDbEntity
  8
0
100
AcDbLine
 10
5.31230505319322
 20
4.898867358274655
 30
0.0
 11
5.307220558252158
 21
4.898867358274655
 31
0.0
  0
LINE
  5
968
330
1F
100
AcDbEntity
  8
0
100
AcDbLine
 10
5.316896422925253
 20
5.063573995970122
 30
0.0
 11
2.658852032102963
 21
5.063573995970122
 31
0.0
  0
LINE
  5
969
330
1F
100
AcDbEntity
  8
0
100
AcDbLine
 10
4.71542214945687
 20
5.616397851493482
 30
0.0
 11
4.71542214945687
 21
5.549601691215682
 31
0.0
  0
LINE
  5
96A
330
1F
100
AcDbEntity
  8
0
100
AcDbLine
 10
4.709441790778093
 20
5.499601691215682
 30
0.0
 11
4.721402508135643
 21
5.499601691215682
 31
0.0
  0
LINE
  5
96B
330
1F
100
AcDbEntity
  8
0
100
AcDbLine
 10
4.687431970117479
 20
5.524601691215684
 30
0.0
 11
4.743412328796253
 21
5.524601691215682
 31
0.0
  0
LINE
  5
96C
330
1F
100
AcDbEntity
  8
0
100
AcDbLine
 10
4.665422149456865
 20
5.549601691215682
 30
0.0
 11
4.765422149456867
 21
5.549601691215682
 31
0.0
  0
TEXT
  5
96D
330
1F
100
AcDbEntity
  8
0
100
AcDbText
 10
4.432320426956948
 20
5.514823721470815
 30
0.0
 40
0.08
  1
15
  7
ROMANS
100
AcDbText
  0
TEXT
  5
96E
330
1F
100
AcDbEntity
  8
0
100
AcDbText
 10
4.238801987387518
 20
5.514823721470815
 30
0.0
 40
0.08
  1
14
  7
ROMANS
100
AcDbText
  0
TEXT
  5
96F
330
1F
100
AcDbEntity
  8
0
100
AcDbText
 10
4.028664846905499
 20
5.514823721470815
 30
0.0
 40
0.08
  1
13
  7
ROMANS
100
AcDbText
  0
TEXT
  5
970
330
1F
100
AcDbEntity
  8
0
100
AcDbText
 10
3.831818826002439
 20
5.514823721470815
 30
0.0
 40
0.08
  1
12
  7
ROMANS
100
AcDbText
  0
TEXT
  5
971
330
1F
100
AcDbEntity
  8
0
100
AcDbText
 10
3.636208928924297
 20
5.520303342535823
 30
0.0
 40
0.08
  1
11
  7
ROMANS
100
AcDbText
  0
TEXT
  5
972
330
1F
100
AcDbEntity
  8
0
100
AcDbText
 10
3.425495439587141
 20
5.514823721470815
 30
0.0
 40
0.08
  1
10
  7
ROMANS
100
AcDbText
  0
TEXT
  5
973
330
1F
100
AcDbEntity
  8
0
100
AcDbText
 10
3.279989035323293
 20
5.514823721470815
 30
0.0
 40
0.08
  1
9
  7
ROMANS
100
AcDbText
  0
TEXT
  5
974
330
1F
100
AcDbEntity
  8
0
100
AcDbText
 10
4.57656188741755
 20
6.01601597049518
 30
0.0
 40
0.08
  1
8
  7
ROMANS
100
AcDbText
  0
TEXT
  5
975
330
1F
100
AcDbEntity
  8
0
100
AcDbText
 10
4.382053887542006
 20
6.01601597049518
 30
0.0
 40
0.08
  1
7
  7
ROMANS
100
AcDbText
  0
TEXT
  5
976
330
1F
100
AcDbEntity
  8
0
100
AcDbText
 10
4.171347419260879
 20
6.01601597049518
 30
0.0
 40
0.08
  1
6
  7
ROMANS
100
AcDbText
  0
TEXT
  5
977
330
1F
100
AcDbEntity
  8
0
100
AcDbText
 10
3.978049214250134
 20
6.01601597049518
 30
0.0
 40
0.08
  1
5
  7
ROMANS
100
AcDbText
  0
TEXT
  5
978
330
1F
100
AcDbEntity
  8
0
100
AcDbText
 10
3.777894919917535
 20
6.01601597049518
 30
0.0
 40
0.08
  1
4
  7
ROMANS
100
AcDbText
  0
TEXT
  5
979
330
1F
100
AcDbEntity
  8
0
100
AcDbText
 10
3.577308106229882
 20
6.01601597049518
 30
0.0
 40
0.08
  1
3
  7
ROMANS
100
AcDbText
  0
TEXT
  5
97A
330
1F
100
AcDbEntity
  8
0
100
AcDbText
 10
3.377950395311106
 20
6.01601597049518
 30
0.0
 40
0.08
  1
2
  7
ROMANS
100
AcDbText
  0
TEXT
  5
97B
330
1F
100
AcDbEntity
  8
0
100
AcDbText
 10
3.178465478826051
 20
6.01601597049518
 30
0.0
 40
0.08
  1
1
  7
ROMANS
100
AcDbText
  0
LINE
  5
97C
330
1F
100
AcDbEntity
  8
0
100
AcDbLine
 10
4.224018769653433
 20
5.703595338778418
 30
0.0
 11
4.224018769653433
 21
5.063573995970122
 31
0.0
  0
LINE
  5
97D
330
1F
100
AcDbEntity
  8
0
100
AcDbLine
 10
4.119312972560315
 20
6.337556703390546
 30
0.0
 11
4.119312972560315
 21
5.70946636134807
 31
0.0
  0
LINE
  5
97E
330
1F
100
AcDbEntity
  8
0
100
AcDbLine
 10
3.623480359229041
 20
5.703595338778418
 30
0.0
 11
3.623480359229041
 21
5.063573995970122
 31
0.0
  0
LINE
  5
97F
330
1F
100
AcDbEntity
  8
0
100
AcDbLine
 10
3.518099040864353
 20
6.337556703390546
 30
0.0
 11
3.518099040864353
 21
5.70946636134807
 31
0.0
  0
LINE
  5
980
330
1F
100
AcDbEntity
  8
0
100
AcDbLine
 10
3.100606386409246
 20
5.953145725372252
 30
0.0
 11
4.734712850959219
 21
5.953145725372252
 31
0.0
  0
LINE
  5
981
330
1F
100
AcDbEntity
  8
0
100
AcDbLine
 10
3.100606386409246
 20
6.14933572957482
 30
0.0
 11
4.734712850959219
 21
6.14933572957482
 31
0.0
  0
LINE
  5
982
330
1F
100
AcDbEntity
  8
0
100
AcDbLine
 10
4.73471285095922
 20
6.337556703390545
 30
0.0
 11
4.734712850959219
 21
5.70946636134807
 31
0.0
  0
LINE
  5
983
330
1F
100
AcDbEntity
  8
0
100
AcDbLine
 10
3.100606386409246
 20
6.207556703390546
 30
0.0
 11
4.734712850959219
 21
6.207556703390546
 31
0.0
  0
LINE
  5
984
330
1F
100
AcDbEntity
  8
0
100
AcDbLine
 10
3.207359255942847
 20
5.462394161541842
 30
0.0
 11
4.839418648052337
 21
5.462394161541842
 31
0.0
  0
LINE
  5
985
330
1F
100
AcDbEntity
  8
0
100
AcDbLine
 10
3.207359255942847
 20
5.653691646936367
 30
0.0
 11
4.839418648052337
 21
5.653691646936367
 31
0.0
  0
LINE
  5
986
330
1F
100
AcDbEntity
  8
0
100
AcDbLine
 10
3.20668373467128
 20
5.657116410101997
 30
0.0
 11
3.140482650057563
 21
5.657116410101997
 31
0.0
  0
LINE
  5
987
330
1F
100
AcDbEntity
  8
0
100
AcDbLine
 10
4.839418648052337
 20
5.70946636134807
 30
0.0
 11
4.839418648052333
 21
5.063573995970122
 31
0.0
  0
LINE
  5
988
330
1F
100
AcDbEntity
  8
0
100
AcDbLine
 10
3.207359255942847
 20
5.70946636134807
 30
0.0
 11
4.839418648052337
 21
5.70946636134807
 31
0.0
  0
LINE
  5
989
330
1F
100
AcDbEntity
  8
0
100
AcDbLine
 10
3.207359255942847
 20
5.063573995970122
 30
0.0
 11
3.207359255942847
 21
5.70946636134807
 31
0.0
  0
LINE
  5
98A
330
1F
100
AcDbEntity
  8
0
100
AcDbLine
 10
3.140482650057563
 20
5.657116410101997
 30
0.0
 11
3.140482650057563
 21
5.874344245179157
 31
0.0
  0
LINE
  5
98B
330
1F
100
AcDbEntity
  8
0
100
AcDbLine
 10
3.140482650057563
 20
5.874344245179157
 30
0.0
 11
3.297203585061456
 21
5.874344245179157
 31
0.0
  0
LINE
  5
98C
330
1F
100
AcDbEntity
  8
0
100
AcDbLine
 10
3.297203585061456
 20
5.874344245179157
 30
0.0
 11
3.297203585061456
 21
5.70946636134807
 31
0.0
  0
LINE
  5
98D
330
1F
100
AcDbEntity
  8
0
100
AcDbLine
 10
3.297203585061456
 20
5.709955613228874
 30
0.0
 11
3.296528063789889
 21
5.709955613228874
 31
0.0
  0
LINE
  5
98E
330
1F
100
AcDbEntity
  8
0
100
AcDbLine
 10
3.178987362536972
 20
5.873365741417549
 30
0.0
 11
3.178987362536972
 21
5.826397560860323
 31
0.0
  0
LINE
  5
98F
330
1F
100
AcDbEntity
  8
0
100
AcDbLine
 10
3.178987362536972
 20
5.826397560860323
 30
0.0
 11
3.258698872582051
 21
5.826397560860323
 31
0.0
  0
LINE
  5
990
330
1F
100
AcDbEntity
  8
0
100
AcDbLine
 10
3.258698872582051
 20
5.826397560860323
 30
0.0
 11
3.258698872582051
 21
5.873365741417549
 31
0.0
  0
LINE
  5
991
330
1F
100
AcDbEntity
  8
0
100
AcDbLine
 10
3.458698872582051
 20
5.826397560860323
 30
0.0
 11
3.458698872582051
 21
5.873365741417549
 31
0.0
  0
LINE
  5
992
330
1F
100
AcDbEntity
  8
0
100
AcDbLine
 10
3.378987362536967
 20
5.826397560860323
 30
0.0
 11
3.458698872582051
 21
5.826397560860323
 31
0.0
  0
LINE
  5
993
330
1F
100
AcDbEntity
  8
0
100
AcDbLine
 10
3.378987362536967
 20
5.873365741417549
 30
0.0
 11
3.378987362536967
 21
5.826397560860323
 31
0.0
  0
LINE
  5
994
330
1F
100
AcDbEntity
  8
0
100
AcDbLine
 10
3.497203585061456
 20
5.874344245179157
 30
0.0
 11
3.497203585061456
 21
5.70946636134807
 31
0.0
  0
LINE
  5
995
330
1F
100
AcDbEntity
  8
0
100
AcDbLine
 10
3.340482650057566
 20
5.874344245179157
 30
0.0
 11
3.497203585061456
 21
5.874344245179157
 31
0.0
  0
LINE
  5
996
330
1F
100
AcDbEntity
  8
0
100
AcDbLine
 10
3.340482650057563
 20
5.70946636134807
 30
0.0
 11
3.340482650057566
 21
5.874344245179157
 31
0.0
  0
LINE
  5
997
330
1F
100
AcDbEntity
  8
0
100
AcDbLine
 10
3.65869887258205
 20
5.826397560860323
 30
0.0
 11
3.65869887258205
 21
5.873365741417549
 31
0.0
  0
LINE
  5
998
330
1F
100
AcDbEntity
  8
0
100
AcDbLine
 10
3.57898736253697
 20
5.826397560860323
 30
0.0
 11
3.65869887258205
 21
5.826397560860323
 31
0.0
  0
LINE
  5
999
330
1F
100
AcDbEntity
  8
0
100
AcDbLine
 10
3.57898736253697
 20
5.873365741417549
 30
0.0
 11
3.57898736253697
 21
5.826397560860323
 31
0.0
  0
LINE
  5
99A
330
1F
100
AcDbEntity
  8
0
100
AcDbLine
 10
3.697203585061458
 20
5.874344245179157
 30
0.0
 11
3.697203585061455
 21
5.70946636134807
 31
0.0
  0
LINE
  5
99B
330
1F
100
AcDbEntity
  8
0
100
AcDbLine
 10
3.540482650057565
 20
5.874344245179157
 30
0.0
 11
3.697203585061458
 21
5.874344245179157
 31
0.0
  0
LINE
  5
99C
330
1F
100
AcDbEntity
  8
0
100
AcDbLine
 10
3.540482650057565
 20
5.70946636134807
 30
0.0
 11
3.540482650057565
 21
5.874344245179157
 31
0.0
  0
LINE
  5
99D
330
1F
100
AcDbEntity
  8
0
100
AcDbLine
 10
3.858698872582053
 20
5.826397560860323
 30
0.0
 11
3.858698872582053
 21
5.873365741417549
 31
0.0
  0
LINE
  5
99E
330
1F
100
AcDbEntity
  8
0
100
AcDbLine
 10
3.77898736253697
 20
5.826397560860323
 30
0.0
 11
3.858698872582053
 21
5.826397560860323
 31
0.0
  0
LINE
  5
99F
330
1F
100
AcDbEntity
  8
0
100
AcDbLine
 10
3.77898736253697
 20
5.873365741417549
 30
0.0
 11
3.77898736253697
 21
5.826397560860323
 31
0.0
  0
LINE
  5
9A0
330
1F
100
AcDbEntity
  8
0
100
AcDbLine
 10
3.897203585061454
 20
5.874344245179157
 30
0.0
 11
3.897203585061454
 21
5.70946636134807
 31
0.0
  0
LINE
  5
9A1
330
1F
100
AcDbEntity
  8
0
100
AcDbLine
 10
3.740482650057565
 20
5.874344245179157
 30
0.0
 11
3.897203585061454
 21
5.874344245179157
 31
0.0
  0
LINE
  5
9A2
330
1F
100
AcDbEntity
  8
0
100
AcDbLine
 10
3.740482650057565
 20
5.70946636134807
 30
0.0
 11
3.740482650057565
 21
5.874344245179157
 31
0.0
  0
LINE
  5
9A3
330
1F
100
AcDbEntity
  8
0
100
AcDbLine
 10
4.058698872582052
 20
5.826397560860323
 30
0.0
 11
4.058698872582052
 21
5.873365741417549
 31
0.0
  0
LINE
  5
9A4
330
1F
100
AcDbEntity
  8
0
100
AcDbLine
 10
3.978987362536969
 20
5.826397560860323
 30
0.0
 11
4.058698872582052
 21
5.826397560860323
 31
0.0
  0
LINE
  5
9A5
330
1F
100
AcDbEntity
  8
0
100
AcDbLine
 10
3.978987362536969
 20
5.873365741417549
 30
0.0
 11
3.978987362536969
 21
5.826397560860323
 31
0.0
  0
LINE
  5
9A6
330
1F
100
AcDbEntity
  8
0
100
AcDbLine
 10
4.097203585061457
 20
5.874344245179157
 30
0.0
 11
4.097203585061457
 21
5.70946636134807
 31
0.0
  0
LINE
  5
9A7
330
1F
100
AcDbEntity
  8
0
100
AcDbLine
 10
3.940482650057568
 20
5.874344245179157
 30
0.0
 11
4.097203585061457
 21
5.874344245179157
 31
0.0
  0
LINE
  5
9A8
330
1F
100
AcDbEntity
  8
0
100
AcDbLine
 10
3.940482650057564
 20
5.70946636134807
 30
0.0
 11
3.940482650057568
 21
5.874344245179157
 31
0.0
  0
LINE
  5
9A9
330
1F
100
AcDbEntity
  8
0
100
AcDbLine
 10
4.258698872582051
 20
5.826397560860323
 30
0.0
 11
4.258698872582051
 21
5.873365741417549
 31
0.0
  0
LINE
  5
9AA
330
1F
100
AcDbEntity
  8
0
100
AcDbLine
 10
4.178987362536968
 20
5.826397560860323
 30
0.0
 11
4.258698872582051
 21
5.826397560860323
 31
0.0
  0
LINE
  5
9AB
330
1F
100
AcDbEntity
  8
0
100
AcDbLine
 10
4.178987362536968
 20
5.873365741417549
 30
0.0
 11
4.178987362536968
 21
5.826397560860323
 31
0.0
  0
LINE
  5
9AC
330
1F
100
AcDbEntity
  8
0
100
AcDbLine
 10
4.297203585061456
 20
5.874344245179157
 30
0.0
 11
4.297203585061456
 21
5.70946636134807
 31
0.0
  0
LINE
  5
9AD
330
1F
100
AcDbEntity
  8
0
100
AcDbLine
 10
4.140482650057563
 20
5.874344245179157
 30
0.0
 11
4.297203585061456
 21
5.874344245179157
 31
0.0
  0
LINE
  5
9AE
330
1F
100
AcDbEntity
  8
0
100
AcDbLine
 10
4.140482650057563
 20
5.70946636134807
 30
0.0
 11
4.140482650057563
 21
5.874344245179157
 31
0.0
  0
LINE
  5
9AF
330
1F
100
AcDbEntity
  8
0
100
AcDbLine
 10
4.458698872582051
 20
5.826397560860323
 30
0.0
 11
4.458698872582051
 21
5.873365741417549
 31
0.0
  0
LINE
  5
9B0
330
1F
100
AcDbEntity
  8
0
100
AcDbLine
 10
4.378987362536967
 20
5.826397560860323
 30
0.0
 11
4.458698872582051
 21
5.826397560860323
 31
0.0
  0
LINE
  5
9B1
330
1F
100
AcDbEntity
  8
0
100
AcDbLine
 10
4.378987362536967
 20
5.873365741417549
 30
0.0
 11
4.378987362536967
 21
5.826397560860323
 31
0.0
  0
LINE
  5
9B2
330
1F
100
AcDbEntity
  8
0
100
AcDbLine
 10
4.497203585061456
 20
5.874344245179157
 30
0.0
 11
4.497203585061456
 21
5.70946636134807
 31
0.0
  0
LINE
  5
9B3
330
1F
100
AcDbEntity
  8
0
100
AcDbLine
 10
4.340482650057566
 20
5.874344245179157
 30
0.0
 11
4.497203585061456
 21
5.874344245179157
 31
0.0
  0
LINE
  5
9B4
330
1F
100
AcDbEntity
  8
0
100
AcDbLine
 10
4.340482650057566
 20
5.70946636134807
 30
0.0
 11
4.340482650057566
 21
5.874344245179157
 31
0.0
  0
LINE
  5
9B5
330
1F
100
AcDbEntity
  8
0
100
AcDbLine
 10
4.65869887258205
 20
5.826397560860323
 30
0.0
 11
4.65869887258205
 21
5.873365741417549
 31
0.0
  0
LINE
  5
9B6
330
1F
100
AcDbEntity
  8
0
100
AcDbLine
 10
4.57898736253697
 20
5.826397560860323
 30
0.0
 11
4.65869887258205
 21
5.826397560860323
 31
0.0
  0
LINE
  5
9B7
330
1F
100
AcDbEntity
  8
0
100
AcDbLine
 10
4.57898736253697
 20
5.873365741417549
 30
0.0
 11
4.57898736253697
 21
5.826397560860323
 31
0.0
  0
LINE
  5
9B8
330
1F
100
AcDbEntity
  8
0
100
AcDbLine
 10
4.697203585061458
 20
5.874344245179157
 30
0.0
 11
4.697203585061455
 21
5.70946636134807
 31
0.0
  0
LINE
  5
9B9
330
1F
100
AcDbEntity
  8
0
100
AcDbLine
 10
4.540482650057565
 20
5.874344245179157
 30
0.0
 11
4.697203585061458
 21
5.874344245179157
 31
0.0
  0
LINE
  5
9BA
330
1F
100
AcDbEntity
  8
0
100
AcDbLine
 10
4.540482650057565
 20
5.70946636134807
 30
0.0
 11
4.540482650057565
 21
5.874344245179157
 31
0.0
  0
LINE
  5
9BB
330
1F
100
AcDbEntity
  8
0
100
AcDbLine
 10
4.645188447150683
 20
5.133127645760474
 30
0.0
 11
4.645188447150683
 21
5.350355480837633
 31
0.0
  0
LINE
  5
9BC
330
1F
100
AcDbEntity
  8
0
100
AcDbLine
 10
4.645188447150683
 20
5.350355480837633
 30
0.0
 11
4.801909382154576
 21
5.350355480837633
 31
0.0
  0
LINE
  5
9BD
330
1F
100
AcDbEntity
  8
0
100
AcDbLine
 10
4.801909382154576
 20
5.350355480837633
 30
0.0
 11
4.801909382154576
 21
5.133127645760474
 31
0.0
  0
LINE
  5
9BE
330
1F
100
AcDbEntity
  8
0
100
AcDbLine
 10
4.801909382154576
 20
5.133127645760474
 30
0.0
 11
4.645188447150683
 21
5.133127645760474
 31
0.0
  0
LINE
  5
9BF
330
1F
100
AcDbEntity
  8
0
100
AcDbLine
 10
4.683693159630088
 20
5.349376977076024
 30
0.0
 11
4.683693159630088
 21
5.302408796518799
 31
0.0
  0
LINE
  5
9C0
330
1F
100
AcDbEntity
  8
0
100
AcDbLine
 10
4.683693159630088
 20
5.302408796518799
 30
0.0
 11
4.763404669675168
 21
5.302408796518799
 31
0.0
  0
LINE
  5
9C1
330
1F
100
AcDbEntity
  8
0
100
AcDbLine
 10
4.763404669675168
 20
5.302408796518799
 30
0.0
 11
4.763404669675168
 21
5.349376977076024
 31
0.0
  0
LINE
  5
9C2
330
1F
100
AcDbEntity
  8
0
100
AcDbLine
 10
4.445188447150684
 20
5.133127645760474
 30
0.0
 11
4.445188447150684
 21
5.350355480837633
 31
0.0
  0
LINE
  5
9C3
330
1F
100
AcDbEntity
  8
0
100
AcDbLine
 10
4.445188447150684
 20
5.350355480837633
 30
0.0
 11
4.601909382154573
 21
5.350355480837633
 31
0.0
  0
LINE
  5
9C4
330
1F
100
AcDbEntity
  8
0
100
AcDbLine
 10
4.601909382154573
 20
5.350355480837633
 30
0.0
 11
4.601909382154573
 21
5.133127645760474
 31
0.0
  0
LINE
  5
9C5
330
1F
100
AcDbEntity
  8
0
100
AcDbLine
 10
4.601909382154573
 20
5.133127645760474
 30
0.0
 11
4.445188447150684
 21
5.133127645760474
 31
0.0
  0
LINE
  5
9C6
330
1F
100
AcDbEntity
  8
0
100
AcDbLine
 10
4.483693159630085
 20
5.349376977076024
 30
0.0
 11
4.483693159630085
 21
5.302408796518799
 31
0.0
  0
LINE
  5
9C7
330
1F
100
AcDbEntity
  8
0
100
AcDbLine
 10
4.483693159630085
 20
5.302408796518799
 30
0.0
 11
4.563404669675168
 21
5.302408796518799
 31
0.0
  0
LINE
  5
9C8
330
1F
100
AcDbEntity
  8
0
100
AcDbLine
 10
4.563404669675168
 20
5.302408796518799
 30
0.0
 11
4.563404669675168
 21
5.349376977076024
 31
0.0
  0
LINE
  5
9C9
330
1F
100
AcDbEntity
  8
0
100
AcDbLine
 10
4.245188447150681
 20
5.133127645760474
 30
0.0
 11
4.245188447150681
 21
5.350355480837633
 31
0.0
  0
LINE
  5
9CA
330
1F
100
AcDbEntity
  8
0
100
AcDbLine
 10
4.245188447150681
 20
5.350355480837633
 30
0.0
 11
4.401909382154574
 21
5.350355480837633
 31
0.0
  0
LINE
  5
9CB
330
1F
100
AcDbEntity
  8
0
100
AcDbLine
 10
4.401909382154574
 20
5.350355480837633
 30
0.0
 11
4.401909382154574
 21
5.133127645760474
 31
0.0
  0
LINE
  5
9CC
330
1F
100
AcDbEntity
  8
0
100
AcDbLine
 10
4.401909382154574
 20
5.133127645760474
 30
0.0
 11
4.245188447150681
 21
5.133127645760474
 31
0.0
  0
LINE
  5
9CD
330
1F
100
AcDbEntity
  8
0
100
AcDbLine
 10
4.283693159630086
 20
5.349376977076024
 30
0.0
 11
4.283693159630086
 21
5.302408796518799
 31
0.0
  0
LINE
  5
9CE
330
1F
100
AcDbEntity
  8
0
100
AcDbLine
 10
4.283693159630086
 20
5.302408796518799
 30
0.0
 11
4.363404669675169
 21
5.302408796518799
 31
0.0
  0
LINE
  5
9CF
330
1F
100
AcDbEntity
  8
0
100
AcDbLine
 10
4.363404669675169
 20
5.302408796518799
 30
0.0
 11
4.363404669675169
 21
5.349376977076024
 31
0.0
  0
LINE
  5
9D0
330
1F
100
AcDbEntity
  8
0
100
AcDbLine
 10
4.045188447150685
 20
5.133127645760474
 30
0.0
 11
4.045188447150685
 21
5.350355480837633
 31
0.0
  0
LINE
  5
9D1
330
1F
100
AcDbEntity
  8
0
100
AcDbLine
 10
4.045188447150685
 20
5.350355480837633
 30
0.0
 11
4.201909382154575
 21
5.350355480837633
 31
0.0
  0
LINE
  5
9D2
330
1F
100
AcDbEntity
  8
0
100
AcDbLine
 10
4.201909382154575
 20
5.350355480837633
 30
0.0
 11
4.201909382154575
 21
5.133127645760474
 31
0.0
  0
LINE
  5
9D3
330
1F
100
AcDbEntity
  8
0
100
AcDbLine
 10
4.201909382154575
 20
5.133127645760474
 30
0.0
 11
4.045188447150685
 21
5.133127645760474
 31
0.0
  0
LINE
  5
9D4
330
1F
100
AcDbEntity
  8
0
100
AcDbLine
 10
4.083693159630087
 20
5.349376977076024
 30
0.0
 11
4.083693159630087
 21
5.302408796518799
 31
0.0
  0
LINE
  5
9D5
330
1F
100
AcDbEntity
  8
0
100
AcDbLine
 10
4.083693159630087
 20
5.302408796518799
 30
0.0
 11
4.16340466967517
 21
5.302408796518799
 31
0.0
  0
LINE
  5
9D6
330
1F
100
AcDbEntity
  8
0
100
AcDbLine
 10
4.16340466967517
 20
5.302408796518799
 30
0.0
 11
4.16340466967517
 21
5.349376977076024
 31
0.0
  0
LINE
  5
9D7
330
1F
100
AcDbEntity
  8
0
100
AcDbLine
 10
3.845188447150682
 20
5.133127645760474
 30
0.0
 11
3.845188447150682
 21
5.350355480837633
 31
0.0
  0
LINE
  5
9D8
330
1F
100
AcDbEntity
  8
0
100
AcDbLine
 10
3.845188447150682
 20
5.350355480837633
 30
0.0
 11
4.001909382154572
 21
5.350355480837633
 31
0.0
  0
LINE
  5
9D9
330
1F
100
AcDbEntity
  8
0
100
AcDbLine
 10
4.001909382154572
 20
5.350355480837633
 30
0.0
 11
4.001909382154572
 21
5.133127645760474
 31
0.0
  0
LINE
  5
9DA
330
1F
100
AcDbEntity
  8
0
100
AcDbLine
 10
4.001909382154572
 20
5.133127645760474
 30
0.0
 11
3.845188447150682
 21
5.133127645760474
 31
0.0
  0
LINE
  5
9DB
330
1F
100
AcDbEntity
  8
0
100
AcDbLine
 10
3.883693159630087
 20
5.349376977076024
 30
0.0
 11
3.883693159630087
 21
5.302408796518799
 31
0.0
  0
LINE
  5
9DC
330
1F
100
AcDbEntity
  8
0
100
AcDbLine
 10
3.883693159630087
 20
5.302408796518799
 30
0.0
 11
3.963404669675171
 21
5.302408796518799
 31
0.0
  0
LINE
  5
9DD
330
1F
100
AcDbEntity
  8
0
100
AcDbLine
 10
3.963404669675171
 20
5.302408796518799
 30
0.0
 11
3.963404669675171
 21
5.349376977076024
 31
0.0
  0
LINE
  5
9DE
330
1F
100
AcDbEntity
  8
0
100
AcDbLine
 10
3.645188447150683
 20
5.133127645760474
 30
0.0
 11
3.645188447150683
 21
5.350355480837633
 31
0.0
  0
LINE
  5
9DF
330
1F
100
AcDbEntity
  8
0
100
AcDbLine
 10
3.645188447150683
 20
5.350355480837633
 30
0.0
 11
3.801909382154576
 21
5.350355480837633
 31
0.0
  0
LINE
  5
9E0
330
1F
100
AcDbEntity
  8
0
100
AcDbLine
 10
3.801909382154576
 20
5.350355480837633
 30
0.0
 11
3.801909382154576
 21
5.133127645760474
 31
0.0
  0
LINE
  5
9E1
330
1F
100
AcDbEntity
  8
0
100
AcDbLine
 10
3.801909382154576
 20
5.133127645760474
 30
0.0
 11
3.645188447150683
 21
5.133127645760474
 31
0.0
  0
LINE
  5
9E2
330
1F
100
AcDbEntity
  8
0
100
AcDbLine
 10
3.683693159630088
 20
5.349376977076024
 30
0.0
 11
3.683693159630088
 21
5.302408796518799
 31
0.0
  0
LINE
  5
9E3
330
1F
100
AcDbEntity
  8
0
100
AcDbLine
 10
3.683693159630088
 20
5.302408796518799
 30
0.0
 11
3.763404669675168
 21
5.302408796518799
 31
0.0
  0
LINE
  5
9E4
330
1F
100
AcDbEntity
  8
0
100
AcDbLine
 10
3.763404669675168
 20
5.302408796518799
 30
0.0
 11
3.763404669675168
 21
5.349376977076024
 31
0.0
  0
LINE
  5
9E5
330
1F
100
AcDbEntity
  8
0
100
AcDbLine
 10
3.445188447150684
 20
5.133127645760474
 30
0.0
 11
3.445188447150684
 21
5.350355480837633
 31
0.0
  0
LINE
  5
9E6
330
1F
100
AcDbEntity
  8
0
100
AcDbLine
 10
3.445188447150684
 20
5.350355480837633
 30
0.0
 11
3.601909382154573
 21
5.350355480837633
 31
0.0
  0
LINE
  5
9E7
330
1F
100
AcDbEntity
  8
0
100
AcDbLine
 10
3.601909382154573
 20
5.350355480837633
 30
0.0
 11
3.601909382154573
 21
5.133127645760474
 31
0.0
  0
LINE
  5
9E8
330
1F
100
AcDbEntity
  8
0
100
AcDbLine
 10
3.601909382154573
 20
5.133127645760474
 30
0.0
 11
3.445188447150684
 21
5.133127645760474
 31
0.0
  0
LINE
  5
9E9
330
1F
100
AcDbEntity
  8
0
100
AcDbLine
 10
3.483693159630085
 20
5.349376977076024
 30
0.0
 11
3.483693159630085
 21
5.302408796518799
 31
0.0
  0
LINE
  5
9EA
330
1F
100
AcDbEntity
  8
0
100
AcDbLine
 10
3.483693159630085
 20
5.302408796518799
 30
0.0
 11
3.563404669675168
 21
5.302408796518799
 31
0.0
  0
LINE
  5
9EB
330
1F
100
AcDbEntity
  8
0
100
AcDbLine
 10
3.563404669675168
 20
5.302408796518799
 30
0.0
 11
3.563404669675168
 21
5.349376977076024
 31
0.0
  0
LINE
  5
9EC
330
1F
100
AcDbEntity
  8
0
100
AcDbLine
 10
3.363404669675169
 20
5.302408796518799
 30
0.0
 11
3.363404669675169
 21
5.349376977076024
 31
0.0
  0
LINE
  5
9ED
330
1F
100
AcDbEntity
  8
0
100
AcDbLine
 10
3.28369315963009
 20
5.302408796518799
 30
0.0
 11
3.363404669675169
 21
5.302408796518799
 31
0.0
  0
LINE
  5
9EE
330
1F
100
AcDbEntity
  8
0
100
AcDbLine
 10
3.28369315963009
 20
5.349376977076024
 30
0.0
 11
3.28369315963009
 21
5.302408796518799
 31
0.0
  0
LINE
  5
9EF
330
1F
100
AcDbEntity
  8
0
100
AcDbLine
 10
3.401909382154574
 20
5.133127645760474
 30
0.0
 11
3.245188447150681
 21
5.133127645760474
 31
0.0
  0
LINE
  5
9F0
330
1F
100
AcDbEntity
  8
0
100
AcDbLine
 10
3.401909382154574
 20
5.350355480837633
 30
0.0
 11
3.401909382154574
 21
5.133127645760474
 31
0.0
  0
LINE
  5
9F1
330
1F
100
AcDbEntity
  8
0
100
AcDbLine
 10
3.245188447150681
 20
5.350355480837633
 30
0.0
 11
3.401909382154574
 21
5.350355480837633
 31
0.0
  0
LINE
  5
9F2
330
1F
100
AcDbEntity
  8
0
100
AcDbLine
 10
3.245188447150681
 20
5.133127645760474
 30
0.0
 11
3.245188447150681
 21
5.350355480837633
 31
0.0
  0
LINE
  5
9F3
330
1F
100
AcDbEntity
  8
0
100
AcDbLine
 10
3.100606386409246
 20
5.060774368042919
 30
0.0
 11
3.100606386409246
 21
6.337556703390546
 31
0.0
  0
LINE
  5
9F8
330
1F
100
AcDbEntity
  8
0
100
AcDbLine
 10
8.641071735591609
 20
5.08026129340036
 30
0.0
 11
8.641071735591609
 21
5.515348293400359
 31
0.0
  0
LINE
  5
9F9
330
1F
100
AcDbEntity
  8
0
100
AcDbLine
 10
8.801071735591609
 20
5.08026129340036
 30
0.0
 11
8.801071735591609
 21
5.515348293400359
 31
0.0
  0
LINE
  5
9FB
330
1F
100
AcDbEntity
  8
0
100
AcDbLine
 10
7.311122735591609
 20
5.515348293400359
 30
0.0
 11
7.311122735591609
 21
5.08026129340036
 31
0.0
  0
LINE
  5
9FC
330
1F
100
AcDbEntity
  8
0
100
AcDbLine
 10
7.47107173559161
 20
5.08026129340036
 30
0.0
 11
7.47107173559161
 21
5.515348293400359
 31
0.0
  0
LINE
  5
9FE
330
1F
100
AcDbEntity
  8
0
100
AcDbLine
 10
8.801071735591609
 20
5.515348293400359
 30
0.0
 11
7.311122735591609
 21
5.515348293400359
 31
0.0
  0
LINE
  5
9FF
330
1F
100
AcDbEntity
  8
0
100
AcDbLine
 10
7.311122735591609
 20
5.08026129340036
 30
0.0
 11
8.801071735591609
 21
5.08026129340036
 31
0.0
  0
LINE
  5
A00
330
1F
100
AcDbEntity
  8
0
100
AcDbLine
 10
7.47107173559161
 20
5.123804293400359
 30
0.0
 11
8.641071735591609
 21
5.123804293400359
 31
0.0
  0
LINE
  5
A01
330
1F
100
AcDbEntity
  8
0
100
AcDbLine
 10
7.47107173559161
 20
5.471804293400358
 30
0.0
 11
8.641071735591609
 21
5.471804293400358
 31
0.0
  0
LINE
  5
A02
330
1F
100
AcDbEntity
  8
0
100
AcDbLine
 10
7.185624497209467
 20
4.562961570401617
 30
0.0
 11
8.787324497209468
 21
4.562961570401617
 31
0.0
  0
LINE
  5
A03
330
1F
100
AcDbEntity
  8
0
100
AcDbLine
 10
7.185624497209467
 20
4.788492570401617
 30
0.0
 11
8.787324497209468
 21
4.788492570401617
 31
0.0
  0
LINE
  5
A04
330
1F
100
AcDbEntity
  8
0
100
AcDbLine
 10
7.141843497209467
 20
3.973149570401618
 30
0.0
 11
7.141843497209467
 21
3.821471570401618
 31
0.0
  0
LINE
  5
A05
330
1F
100
AcDbEntity
  8
0
100
AcDbLine
 10
8.914088497209466
 20
3.973149570401618
 30
0.0
 11
8.914088497209466
 21
3.821471570401618
 31
0.0
  0
LINE
  5
A06
330
1F
100
AcDbEntity
  8
0
100
AcDbLine
 10
6.908943855129534
 20
3.944470570401617
 30
0.0
 11
9.146988245951824
 21
3.944470570401618
 31
0.0
  0
LINE
  5
A07
330
1F
100
AcDbEntity
  8
0
100
AcDbLine
 10
6.908943855129534
 20
3.853402570401618
 30
0.0
 11
9.146988245951824
 21
3.853402570401618
 31
0.0
  0
LINE
  5
A08
330
1F
100
AcDbEntity
  8
0
100
AcDbLine
 10
7.692947497209466
 20
4.019416570401618
 30
0.0
 11
7.692947497209466
 21
4.443816570401617
 31
0.0
  0
LINE
  5
A09
330
1F
100
AcDbEntity
  8
0
100
AcDbLine
 10
8.291724497209468
 20
4.019416570401618
 30
0.0
 11
8.291724497209468
 21
4.443816570401617
 31
0.0
  0
CIRCLE
  5
A0A
330
1F
100
AcDbEntity
  8
0
100
AcDbCircle
 10
8.793176497209469
 20
4.218674570401619
 30
0.0
 40
0.06629
  0
LINE
  5
A0B
330
1F
100
AcDbEntity
  8
0
100
AcDbLine
 10
8.737373497209468
 20
4.182891570401617
 30
0.0
 11
8.832757497209467
 21
4.271851570401617
 31
0.0
  0
LINE
  5
A0C
330
1F
100
AcDbEntity
  8
0
100
AcDbLine
 10
8.753014497209466
 20
4.165935570401618
 30
0.0
 11
8.848583497209467
 21
4.255068570401617
 31
0.0
  0
CIRCLE
  5
A0D
330
1F
100
AcDbEntity
  8
0
100
AcDbCircle
 10
8.793617497209467
 20
4.219291570401617
 30
0.0
 40
0.075
  0
CIRCLE
  5
A0E
330
1F
100
AcDbEntity
  8
0
100
AcDbCircle
 10
8.693617497209466
 20
4.660278570401617
 30
0.0
 40
0.075
  0
LINE
  5
A0F
330
1F
100
AcDbEntity
  8
0
100
AcDbLine
 10
8.653014497209468
 20
4.606922570401616
 30
0.0
 11
8.748583497209466
 21
4.696055570401616
 31
0.0
  0
LINE
  5
A10
330
1F
100
AcDbEntity
  8
0
100
AcDbLine
 10
8.637373497209466
 20
4.623878570401616
 30
0.0
 11
8.732757497209465
 21
4.712838570401617
 31
0.0
  0
CIRCLE
  5
A11
330
1F
100
AcDbEntity
  8
0
100
AcDbCircle
 10
8.693176497209467
 20
4.659661570401617
 30
0.0
 40
0.06629
  0
CIRCLE
  5
A12
330
1F
100
AcDbEntity
  8
0
100
AcDbCircle
 10
8.593176497209466
 20
4.218674570401619
 30
0.0
 40
0.06629
  0
LINE
  5
A13
330
1F
100
AcDbEntity
  8
0
100
AcDbLine
 10
8.537373497209468
 20
4.182891570401617
 30
0.0
 11
8.632757497209468
 21
4.271851570401617
 31
0.0
  0
LINE
  5
A14
330
1F
100
AcDbEntity
  8
0
100
AcDbLine
 10
8.553014497209467
 20
4.165935570401618
 30
0.0
 11
8.648583497209468
 21
4.255068570401617
 31
0.0
  0
CIRCLE
  5
A15
330
1F
100
AcDbEntity
  8
0
100
AcDbCircle
 10
8.593617497209468
 20
4.219291570401617
 30
0.0
 40
0.075
  0
CIRCLE
  5
A16
330
1F
100
AcDbEntity
  8
0
100
AcDbCircle
 10
8.493617497209466
 20
4.660278570401617
 30
0.0
 40
0.075
  0
LINE
  5
A17
330
1F
100
AcDbEntity
  8
0
100
AcDbLine
 10
8.453014497209466
 20
4.606922570401616
 30
0.0
 11
8.548583497209467
 21
4.696055570401616
 31
0.0
  0
LINE
  5
A18
330
1F
100
AcDbEntity
  8
0
100
AcDbLine
 10
8.437373497209467
 20
4.623878570401616
 30
0.0
 11
8.532757497209466
 21
4.712838570401617
 31
0.0
  0
CIRCLE
  5
A19
330
1F
100
AcDbEntity
  8
0
100
AcDbCircle
 10
8.493176497209468
 20
4.659661570401617
 30
0.0
 40
0.06629
  0
CIRCLE
  5
A1A
330
1F
100
AcDbEntity
  8
0
100
AcDbCircle
 10
8.393176497209466
 20
4.218674570401619
 30
0.0
 40
0.06629
  0
LINE
  5
A1B
330
1F
100
AcDbEntity
  8
0
100
AcDbLine
 10
8.337373497209465
 20
4.182891570401617
 30
0.0
 11
8.432757497209468
 21
4.271851570401617
 31
0.0
  0
LINE
  5
A1C
330
1F
100
AcDbEntity
  8
0
100
AcDbLine
 10
8.353014497209468
 20
4.165935570401618
 30
0.0
 11
8.448583497209469
 21
4.255068570401617
 31
0.0
  0
CIRCLE
  5
A1D
330
1F
100
AcDbEntity
  8
0
100
AcDbCircle
 10
8.393617497209469
 20
4.219291570401617
 30
0.0
 40
0.075
  0
CIRCLE
  5
A1E
330
1F
100
AcDbEntity
  8
0
100
AcDbCircle
 10
8.293617497209467
 20
4.660278570401617
 30
0.0
 40
0.075
  0
LINE
  5
A1F
330
1F
100
AcDbEntity
  8
0
100
AcDbLine
 10
8.253014497209466
 20
4.606922570401616
 30
0.0
 11
8.348583497209467
 21
4.696055570401616
 31
0.0
  0
LINE
  5
A20
330
1F
100
AcDbEntity
  8
0
100
AcDbLine
 10
8.237373497209468
 20
4.623878570401616
 30
0.0
 11
8.332757497209467
 21
4.712838570401617
 31
0.0
  0
CIRCLE
  5
A21
330
1F
100
AcDbEntity
  8
0
100
AcDbCircle
 10
8.293176497209469
 20
4.659661570401617
 30
0.0
 40
0.06629
  0
CIRCLE
  5
A22
330
1F
100
AcDbEntity
  8
0
100
AcDbCircle
 10
8.193176497209467
 20
4.218674570401619
 30
0.0
 40
0.06629
  0
LINE
  5
A23
330
1F
100
AcDbEntity
  8
0
100
AcDbLine
 10
8.137373497209466
 20
4.182891570401617
 30
0.0
 11
8.232757497209465
 21
4.271851570401617
 31
0.0
  0
LINE
  5
A24
330
1F
100
AcDbEntity
  8
0
100
AcDbLine
 10
8.153014497209468
 20
4.165935570401618
 30
0.0
 11
8.248583497209466
 21
4.255068570401617
 31
0.0
  0
CIRCLE
  5
A25
330
1F
100
AcDbEntity
  8
0
100
AcDbCircle
 10
8.193617497209466
 20
4.219291570401617
 30
0.0
 40
0.075
  0
CIRCLE
  5
A26
330
1F
100
AcDbEntity
  8
0
100
AcDbCircle
 10
8.093617497209468
 20
4.660278570401617
 30
0.0
 40
0.075
  0
LINE
  5
A27
330
1F
100
AcDbEntity
  8
0
100
AcDbLine
 10
8.053014497209467
 20
4.606922570401616
 30
0.0
 11
8.148583497209468
 21
4.696055570401616
 31
0.0
  0
LINE
  5
A28
330
1F
100
AcDbEntity
  8
0
100
AcDbLine
 10
8.037373497209468
 20
4.623878570401616
 30
0.0
 11
8.132757497209468
 21
4.712838570401617
 31
0.0
  0
CIRCLE
  5
A29
330
1F
100
AcDbEntity
  8
0
100
AcDbCircle
 10
8.093176497209466
 20
4.659661570401617
 30
0.0
 40
0.06629
  0
CIRCLE
  5
A2A
330
1F
100
AcDbEntity
  8
0
100
AcDbCircle
 10
7.993176497209468
 20
4.218674570401619
 30
0.0
 40
0.06629
  0
LINE
  5
A2B
330
1F
100
AcDbEntity
  8
0
100
AcDbLine
 10
7.937373497209467
 20
4.182891570401617
 30
0.0
 11
8.032757497209466
 21
4.271851570401617
 31
0.0
  0
LINE
  5
A2C
330
1F
100
AcDbEntity
  8
0
100
AcDbLine
 10
7.953014497209466
 20
4.165935570401618
 30
0.0
 11
8.048583497209467
 21
4.255068570401617
 31
0.0
  0
CIRCLE
  5
A2D
330
1F
100
AcDbEntity
  8
0
100
AcDbCircle
 10
7.993617497209466
 20
4.219291570401617
 30
0.0
 40
0.075
  0
CIRCLE
  5
A2E
330
1F
100
AcDbEntity
  8
0
100
AcDbCircle
 10
7.893617497209469
 20
4.660278570401617
 30
0.0
 40
0.075
  0
LINE
  5
A2F
330
1F
100
AcDbEntity
  8
0
100
AcDbLine
 10
7.853014497209468
 20
4.606922570401616
 30
0.0
 11
7.948583497209469
 21
4.696055570401616
 31
0.0
  0
LINE
  5
A30
330
1F
100
AcDbEntity
  8
0
100
AcDbLine
 10
7.837373497209465
 20
4.623878570401616
 30
0.0
 11
7.932757497209468
 21
4.712838570401617
 31
0.0
  0
CIRCLE
  5
A31
330
1F
100
AcDbEntity
  8
0
100
AcDbCircle
 10
7.893176497209466
 20
4.659661570401617
 30
0.0
 40
0.06629
  0
CIRCLE
  5
A32
330
1F
100
AcDbEntity
  8
0
100
AcDbCircle
 10
7.793176497209469
 20
4.218674570401619
 30
0.0
 40
0.06629
  0
LINE
  5
A33
330
1F
100
AcDbEntity
  8
0
100
AcDbLine
 10
7.737373497209468
 20
4.182891570401617
 30
0.0
 11
7.832757497209467
 21
4.271851570401617
 31
0.0
  0
LINE
  5
A34
330
1F
100
AcDbEntity
  8
0
100
AcDbLine
 10
7.753014497209466
 20
4.165935570401618
 30
0.0
 11
7.848583497209467
 21
4.255068570401617
 31
0.0
  0
CIRCLE
  5
A35
330
1F
100
AcDbEntity
  8
0
100
AcDbCircle
 10
7.793617497209467
 20
4.219291570401617
 30
0.0
 40
0.075
  0
CIRCLE
  5
A36
330
1F
100
AcDbEntity
  8
0
100
AcDbCircle
 10
7.693617497209466
 20
4.660278570401617
 30
0.0
 40
0.075
  0
LINE
  5
A37
330
1F
100
AcDbEntity
  8
0
100
AcDbLine
 10
7.653014497209468
 20
4.606922570401616
 30
0.0
 11
7.748583497209466
 21
4.696055570401616
 31
0.0
  0
LINE
  5
A38
330
1F
100
AcDbEntity
  8
0
100
AcDbLine
 10
7.637373497209466
 20
4.623878570401616
 30
0.0
 11
7.732757497209465
 21
4.712838570401617
 31
0.0
  0
CIRCLE
  5
A39
330
1F
100
AcDbEntity
  8
0
100
AcDbCircle
 10
7.693176497209467
 20
4.659661570401617
 30
0.0
 40
0.06629
  0
CIRCLE
  5
A3A
330
1F
100
AcDbEntity
  8
0
100
AcDbCircle
 10
7.593176497209466
 20
4.218674570401619
 30
0.0
 40
0.06629
  0
LINE
  5
A3B
330
1F
100
AcDbEntity
  8
0
100
AcDbLine
 10
7.537373497209468
 20
4.182891570401617
 30
0.0
 11
7.632757497209468
 21
4.271851570401617
 31
0.0
  0
LINE
  5
A3C
330
1F
100
AcDbEntity
  8
0
100
AcDbLine
 10
7.553014497209467
 20
4.165935570401618
 30
0.0
 11
7.648583497209468
 21
4.255068570401617
 31
0.0
  0
CIRCLE
  5
A3D
330
1F
100
AcDbEntity
  8
0
100
AcDbCircle
 10
7.593617497209468
 20
4.219291570401617
 30
0.0
 40
0.075
  0
CIRCLE
  5
A3E
330
1F
100
AcDbEntity
  8
0
100
AcDbCircle
 10
7.493617497209466
 20
4.660278570401617
 30
0.0
 40
0.075
  0
LINE
  5
A3F
330
1F
100
AcDbEntity
  8
0
100
AcDbLine
 10
7.453014497209466
 20
4.606922570401616
 30
0.0
 11
7.548583497209467
 21
4.696055570401616
 31
0.0
  0
LINE
  5
A40
330
1F
100
AcDbEntity
  8
0
100
AcDbLine
 10
7.437373497209467
 20
4.623878570401616
 30
0.0
 11
7.532757497209466
 21
4.712838570401617
 31
0.0
  0
CIRCLE
  5
A41
330
1F
100
AcDbEntity
  8
0
100
AcDbCircle
 10
7.493176497209468
 20
4.659661570401617
 30
0.0
 40
0.06629
  0
LINE
  5
A42
330
1F
100
AcDbEntity
  8
0
100
AcDbLine
 10
7.353014497209468
 20
4.165935570401618
 30
0.0
 11
7.448583497209469
 21
4.255068570401617
 31
0.0
  0
LINE
  5
A43
330
1F
100
AcDbEntity
  8
0
100
AcDbLine
 10
7.337373497209465
 20
4.182891570401617
 30
0.0
 11
7.432757497209468
 21
4.271851570401617
 31
0.0
  0
CIRCLE
  5
A44
330
1F
100
AcDbEntity
  8
0
100
AcDbCircle
 10
7.393176497209466
 20
4.218674570401619
 30
0.0
 40
0.06629
  0
TEXT
  5
A45
330
1F
100
AcDbEntity
  8
0
100
AcDbText
 10
7.574534247209461
 20
6.186008570401625
 30
0.0
 40
0.08
  1
1
  7
ROMANS
100
AcDbText
  0
TEXT
  5
A46
330
1F
100
AcDbEntity
  8
0
100
AcDbText
 10
8.420430747209453
 20
6.186008570401636
 30
0.0
 40
0.08
  1
5
  7
ROMANS
100
AcDbText
  0
TEXT
  5
A48
330
1F
100
AcDbEntity
  8
0
100
AcDbText
 10
8.341988747209454
 20
6.507790570401638
 30
0.0
 40
0.08
  1
15
  7
ROMANS
100
AcDbText
  0
ARC
  5
A49
330
1F
100
AcDbEntity
  8
0
100
AcDbCircle
 10
8.751017497209467
 20
6.202191570401618
 30
0.0
 40
0.04
100
AcDbArc
 50
270.0
 51
0.0
  0
ARC
  5
A4A
330
1F
100
AcDbEntity
  8
0
100
AcDbCircle
 10
8.751017497209467
 20
6.591873570401618
 30
0.0
 40
0.04
100
AcDbArc
 50
0.0
 51
90.0
  0
ARC
  5
A4B
330
1F
100
AcDbEntity
  8
0
100
AcDbCircle
 10
7.307041497209468
 20
6.202191570401618
 30
0.0
 40
0.04
100
AcDbArc
 50
180.0
 51
270.0
  0
ARC
  5
A4C
330
1F
100
AcDbEntity
  8
0
100
AcDbCircle
 10
7.307041497209468
 20
6.591873570401618
 30
0.0
 40
0.04
100
AcDbArc
 50
90.0
 51
180.0
  0
LINE
  5
A5C
330
1F
100
AcDbEntity
  8
0
100
AcDbLine
 10
8.639818497209468
 20
6.470819570401618
 30
0.0
 11
8.742608497209467
 21
6.470819570401618
 31
0.0
  0
LINE
  5
A5D
330
1F
100
AcDbEntity
  8
0
100
AcDbLine
 10
8.639501497209465
 20
6.323707570401618
 30
0.0
 11
8.742608497209467
 21
6.323707570401618
 31
0.0
  0
LINE
  5
A5E
330
1F
100
AcDbEntity
  8
0
100
AcDbLine
 10
8.639818497209468
 20
6.470819570401618
 30
0.0
 11
8.601238497209465
 21
6.396783570401618
 31
0.0
  0
LINE
  5
A5F
330
1F
100
AcDbEntity
  8
0
100
AcDbLine
 10
8.601238497209465
 20
6.396783570401618
 30
0.0
 11
8.639943497209468
 21
6.323753570401617
 31
0.0
  0
LINE
  5
A60
330
1F
100
AcDbEntity
  8
0
100
AcDbLine
 10
8.742608497209467
 20
6.323707570401618
 30
0.0
 11
8.781290497209464
 21
6.397032570401618
 31
0.0
  0
LINE
  5
A61
330
1F
100
AcDbEntity
  8
0
100
AcDbLine
 10
8.781290497209464
 20
6.397032570401618
 30
0.0
 11
8.742608497209467
 21
6.470819570401618
 31
0.0
  0
CIRCLE
  5
A62
330
1F
100
AcDbEntity
  8
0
100
AcDbCircle
 10
8.691023497209467
 20
6.396783570401618
 30
0.0
 40
0.034
  0
CIRCLE
  5
A63
330
1F
100
AcDbEntity
  8
0
100
AcDbCircle
 10
7.367971497209467
 20
6.396783570401618
 30
0.0
 40
0.034
  0
LINE
  5
A64
330
1F
100
AcDbEntity
  8
0
100
AcDbLine
 10
7.458237497209466
 20
6.397032570401618
 30
0.0
 11
7.419556497209466
 21
6.470819570401618
 31
0.0
  0
LINE
  5
A65
330
1F
100
AcDbEntity
  8
0
100
AcDbLine
 10
7.419556497209466
 20
6.323707570401618
 30
0.0
 11
7.458237497209466
 21
6.397032570401618
 31
0.0
  0
LINE
  5
A66
330
1F
100
AcDbEntity
  8
0
100
AcDbLine
 10
7.278185497209467
 20
6.396783570401618
 30
0.0
 11
7.316890497209467
 21
6.323753570401617
 31
0.0
  0
LINE
  5
A67
330
1F
100
AcDbEntity
  8
0
100
AcDbLine
 10
7.316765497209466
 20
6.470819570401618
 30
0.0
 11
7.278185497209467
 21
6.396783570401618
 31
0.0
  0
LINE
  5
A68
330
1F
100
AcDbEntity
  8
0
100
AcDbLine
 10
7.316448497209467
 20
6.323707570401618
 30
0.0
 11
7.419556497209466
 21
6.323707570401618
 31
0.0
  0
LINE
  5
A69
330
1F
100
AcDbEntity
  8
0
100
AcDbLine
 10
7.316765497209466
 20
6.470819570401618
 30
0.0
 11
7.419556497209466
 21
6.470819570401618
 31
0.0
  0
ARC
  5
A6A
330
1F
100
AcDbEntity
  8
0
100
AcDbCircle
 10
8.351521747209451
 20
6.311155570401638
 30
0.0
 40
0.06
100
AcDbArc
 50
270.0
 51
14.99937400000002
  0
ARC
  5
A6B
330
1F
100
AcDbEntity
  8
0
100
AcDbCircle
 10
8.308691747209453
 20
6.471007570401638
 30
0.0
 40
0.06
100
AcDbArc
 50
14.99937400000002
 51
90.0
  0
ARC
  5
A6C
330
1F
100
AcDbEntity
  8
0
100
AcDbCircle
 10
7.713972247209463
 20
6.311155570401627
 30
0.0
 40
0.06
100
AcDbArc
 50
165.000626
 51
270.0
  0
ARC
  5
A6D
330
1F
100
AcDbEntity
  8
0
100
AcDbCircle
 10
7.756802247209465
 20
6.471007570401628
 30
0.0
 40
0.06
100
AcDbArc
 50
90.0
 51
165.000626
  0
LINE
  5
A6F
330
1F
100
AcDbEntity
  8
0
100
AcDbLine
 10
7.698846247209464
 20
6.486536570401625
 30
0.0
 11
7.656016247209462
 21
6.326684570401626
 31
0.0
  0
LINE
  5
A70
330
1F
100
AcDbEntity
  8
0
100
AcDbLine
 10
8.366646747209452
 20
6.486536570401636
 30
0.0
 11
8.409477747209455
 21
6.326684570401637
 31
0.0
  0
LINE
  5
A72
330
1F
100
AcDbEntity
  8
0
100
AcDbLine
 10
8.751017497209467
 20
6.631873570401618
 30
0.0
 11
7.307041497209468
 21
6.631873570401618
 31
0.0
  0
LINE
  5
A73
330
1F
100
AcDbEntity
  8
0
100
AcDbLine
 10
8.791017497209466
 20
6.202191570401618
 30
0.0
 11
8.791017497209466
 21
6.591873570401618
 31
0.0
  0
LINE
  5
A74
330
1F
100
AcDbEntity
  8
0
100
AcDbLine
 10
7.307041497209468
 20
6.162191570401619
 30
0.0
 11
8.751017497209467
 21
6.162191570401619
 31
0.0
  0
LINE
  5
A75
330
1F
100
AcDbEntity
  8
0
100
AcDbLine
 10
7.267041497209465
 20
6.591873570401618
 30
0.0
 11
7.267041497209465
 21
6.202191570401618
 31
0.0
  0
LINE
  5
A76
330
1F
100
AcDbEntity
  8
0
100
AcDbLine
 10
8.643166497209467
 20
4.890696570401617
 30
0.0
 11
8.643166497209467
 21
4.851680570401617
 31
0.0
  0
LINE
  5
A77
330
1F
100
AcDbEntity
  8
0
100
AcDbLine
 10
8.643166497209467
 20
4.851680570401617
 30
0.0
 11
8.745237497209465
 21
4.851680570401617
 31
0.0
  0
LINE
  5
A78
330
1F
100
AcDbEntity
  8
0
100
AcDbLine
 10
8.745237497209465
 20
4.851680570401617
 30
0.0
 11
8.745237497209465
 21
4.890696570401617
 31
0.0
  0
LINE
  5
A79
330
1F
100
AcDbEntity
  8
0
100
AcDbLine
 10
8.443166497209467
 20
4.890696570401617
 30
0.0
 11
8.443166497209467
 21
4.851680570401617
 31
0.0
  0
LINE
  5
A7A
330
1F
100
AcDbEntity
  8
0
100
AcDbLine
 10
8.443166497209467
 20
4.851680570401617
 30
0.0
 11
8.545237497209466
 21
4.851680570401617
 31
0.0
  0
LINE
  5
A7B
330
1F
100
AcDbEntity
  8
0
100
AcDbLine
 10
8.545237497209466
 20
4.851680570401617
 30
0.0
 11
8.545237497209466
 21
4.890696570401617
 31
0.0
  0
LINE
  5
A7C
330
1F
100
AcDbEntity
  8
0
100
AcDbLine
 10
8.243166497209465
 20
4.890696570401617
 30
0.0
 11
8.243166497209465
 21
4.851680570401617
 31
0.0
  0
LINE
  5
A7D
330
1F
100
AcDbEntity
  8
0
100
AcDbLine
 10
8.243166497209465
 20
4.851680570401617
 30
0.0
 11
8.345237497209467
 21
4.851680570401617
 31
0.0
  0
LINE
  5
A7E
330
1F
100
AcDbEntity
  8
0
100
AcDbLine
 10
8.345237497209467
 20
4.851680570401617
 30
0.0
 11
8.345237497209467
 21
4.890696570401617
 31
0.0
  0
LINE
  5
A7F
330
1F
100
AcDbEntity
  8
0
100
AcDbLine
 10
8.043166497209465
 20
4.890696570401617
 30
0.0
 11
8.043166497209465
 21
4.851680570401617
 31
0.0
  0
LINE
  5
A80
330
1F
100
AcDbEntity
  8
0
100
AcDbLine
 10
8.043166497209465
 20
4.851680570401617
 30
0.0
 11
8.145237497209464
 21
4.851680570401617
 31
0.0
  0
LINE
  5
A81
330
1F
100
AcDbEntity
  8
0
100
AcDbLine
 10
8.145237497209464
 20
4.851680570401617
 30
0.0
 11
8.145237497209464
 21
4.890696570401617
 31
0.0
  0
LINE
  5
A82
330
1F
100
AcDbEntity
  8
0
100
AcDbLine
 10
7.843166497209466
 20
4.890696570401617
 30
0.0
 11
7.843166497209466
 21
4.851680570401617
 31
0.0
  0
LINE
  5
A83
330
1F
100
AcDbEntity
  8
0
100
AcDbLine
 10
7.843166497209466
 20
4.851680570401617
 30
0.0
 11
7.945237497209465
 21
4.851680570401617
 31
0.0
  0
LINE
  5
A84
330
1F
100
AcDbEntity
  8
0
100
AcDbLine
 10
7.945237497209465
 20
4.851680570401617
 30
0.0
 11
7.945237497209465
 21
4.890696570401617
 31
0.0
  0
LINE
  5
A85
330
1F
100
AcDbEntity
  8
0
100
AcDbLine
 10
7.643166497209467
 20
4.890696570401617
 30
0.0
 11
7.643166497209467
 21
4.851680570401617
 31
0.0
  0
LINE
  5
A86
330
1F
100
AcDbEntity
  8
0
100
AcDbLine
 10
7.643166497209467
 20
4.851680570401617
 30
0.0
 11
7.745237497209465
 21
4.851680570401617
 31
0.0
  0
LINE
  5
A87
330
1F
100
AcDbEntity
  8
0
100
AcDbLine
 10
7.745237497209465
 20
4.851680570401617
 30
0.0
 11
7.745237497209465
 21
4.890696570401617
 31
0.0
  0
LINE
  5
A88
330
1F
100
AcDbEntity
  8
0
100
AcDbLine
 10
7.443166497209467
 20
4.890696570401617
 30
0.0
 11
7.443166497209467
 21
4.851680570401617
 31
0.0
  0
LINE
  5
A89
330
1F
100
AcDbEntity
  8
0
100
AcDbLine
 10
7.443166497209467
 20
4.851680570401617
 30
0.0
 11
7.545237497209466
 21
4.851680570401617
 31
0.0
  0
LINE
  5
A8A
330
1F
100
AcDbEntity
  8
0
100
AcDbLine
 10
7.545237497209466
 20
4.851680570401617
 30
0.0
 11
7.545237497209466
 21
4.890696570401617
 31
0.0
  0
LINE
  5
A8B
330
1F
100
AcDbEntity
  8
0
100
AcDbLine
 10
7.345237497209467
 20
4.851680570401617
 30
0.0
 11
7.345237497209467
 21
4.890696570401617
 31
0.0
  0
LINE
  5
A8C
330
1F
100
AcDbEntity
  8
0
100
AcDbLine
 10
7.243166497209465
 20
4.851680570401617
 30
0.0
 11
7.345237497209467
 21
4.851680570401617
 31
0.0
  0
LINE
  5
A8D
330
1F
100
AcDbEntity
  8
0
100
AcDbLine
 10
7.243166497209465
 20
4.890696570401617
 30
0.0
 11
7.243166497209465
 21
4.851680570401617
 31
0.0
  0
LINE
  5
A8E
330
1F
100
AcDbEntity
  8
0
100
AcDbLine
 10
8.890089497209466
 20
4.443816570401617
 30
0.0
 11
7.185624497209467
 21
4.443816570401617
 31
0.0
  0
LINE
  5
A8F
330
1F
100
AcDbEntity
  8
0
100
AcDbLine
 10
8.869281497209467
 20
4.402479570401618
 30
0.0
 11
8.869281497209467
 21
4.348061570401617
 31
0.0
  0
LINE
  5
A90
330
1F
100
AcDbEntity
  8
0
100
AcDbLine
 10
8.719010497209467
 20
4.348061570401617
 30
0.0
 11
8.719010497209467
 21
4.402479570401618
 31
0.0
  0
LINE
  5
A91
330
1F
100
AcDbEntity
  8
0
100
AcDbLine
 10
8.719010497209467
 20
4.402479570401618
 30
0.0
 11
8.869281497209467
 21
4.402479570401618
 31
0.0
  0
LINE
  5
A92
330
1F
100
AcDbEntity
  8
0
100
AcDbLine
 10
8.669281497209464
 20
4.402479570401618
 30
0.0
 11
8.669281497209464
 21
4.348061570401617
 31
0.0
  0
LINE
  5
A93
330
1F
100
AcDbEntity
  8
0
100
AcDbLine
 10
8.519010497209468
 20
4.348061570401617
 30
0.0
 11
8.519010497209468
 21
4.402479570401618
 31
0.0
  0
LINE
  5
A94
330
1F
100
AcDbEntity
  8
0
100
AcDbLine
 10
8.519010497209468
 20
4.402479570401618
 30
0.0
 11
8.669281497209464
 21
4.402479570401618
 31
0.0
  0
LINE
  5
A95
330
1F
100
AcDbEntity
  8
0
100
AcDbLine
 10
8.319010497209465
 20
4.348061570401617
 30
0.0
 11
8.319010497209465
 21
4.402479570401618
 31
0.0
  0
LINE
  5
A96
330
1F
100
AcDbEntity
  8
0
100
AcDbLine
 10
8.319010497209465
 20
4.402479570401618
 30
0.0
 11
8.469281497209465
 21
4.402479570401618
 31
0.0
  0
LINE
  5
A97
330
1F
100
AcDbEntity
  8
0
100
AcDbLine
 10
8.469281497209465
 20
4.402479570401618
 30
0.0
 11
8.469281497209465
 21
4.348061570401617
 31
0.0
  0
LINE
  5
A98
330
1F
100
AcDbEntity
  8
0
100
AcDbLine
 10
8.119010497209465
 20
4.348061570401617
 30
0.0
 11
8.119010497209465
 21
4.402479570401618
 31
0.0
  0
LINE
  5
A99
330
1F
100
AcDbEntity
  8
0
100
AcDbLine
 10
8.119010497209465
 20
4.402479570401618
 30
0.0
 11
8.269281497209465
 21
4.402479570401618
 31
0.0
  0
LINE
  5
A9A
330
1F
100
AcDbEntity
  8
0
100
AcDbLine
 10
8.269281497209465
 20
4.402479570401618
 30
0.0
 11
8.269281497209465
 21
4.348061570401617
 31
0.0
  0
LINE
  5
A9B
330
1F
100
AcDbEntity
  8
0
100
AcDbLine
 10
7.919010497209466
 20
4.348061570401617
 30
0.0
 11
7.919010497209466
 21
4.402479570401618
 31
0.0
  0
LINE
  5
A9C
330
1F
100
AcDbEntity
  8
0
100
AcDbLine
 10
7.919010497209466
 20
4.402479570401618
 30
0.0
 11
8.069281497209466
 21
4.402479570401618
 31
0.0
  0
LINE
  5
A9D
330
1F
100
AcDbEntity
  8
0
100
AcDbLine
 10
8.069281497209466
 20
4.402479570401618
 30
0.0
 11
8.069281497209466
 21
4.348061570401617
 31
0.0
  0
LINE
  5
A9E
330
1F
100
AcDbEntity
  8
0
100
AcDbLine
 10
7.719010497209467
 20
4.348061570401617
 30
0.0
 11
7.719010497209467
 21
4.402479570401618
 31
0.0
  0
LINE
  5
A9F
330
1F
100
AcDbEntity
  8
0
100
AcDbLine
 10
7.719010497209467
 20
4.402479570401618
 30
0.0
 11
7.869281497209467
 21
4.402479570401618
 31
0.0
  0
LINE
  5
AA0
330
1F
100
AcDbEntity
  8
0
100
AcDbLine
 10
7.869281497209467
 20
4.402479570401618
 30
0.0
 11
7.869281497209467
 21
4.348061570401617
 31
0.0
  0
LINE
  5
AA1
330
1F
100
AcDbEntity
  8
0
100
AcDbLine
 10
7.519010497209468
 20
4.348061570401617
 30
0.0
 11
7.519010497209468
 21
4.402479570401618
 31
0.0
  0
LINE
  5
AA2
330
1F
100
AcDbEntity
  8
0
100
AcDbLine
 10
7.519010497209468
 20
4.402479570401618
 30
0.0
 11
7.669281497209464
 21
4.402479570401618
 31
0.0
  0
LINE
  5
AA3
330
1F
100
AcDbEntity
  8
0
100
AcDbLine
 10
7.669281497209464
 20
4.402479570401618
 30
0.0
 11
7.669281497209464
 21
4.348061570401617
 31
0.0
  0
LINE
  5
AA4
330
1F
100
AcDbEntity
  8
0
100
AcDbLine
 10
7.469281497209465
 20
4.402479570401618
 30
0.0
 11
7.469281497209465
 21
4.348061570401617
 31
0.0
  0
LINE
  5
AA5
330
1F
100
AcDbEntity
  8
0
100
AcDbLine
 10
7.319010497209465
 20
4.402479570401618
 30
0.0
 11
7.469281497209465
 21
4.402479570401618
 31
0.0
  0
LINE
  5
AA6
330
1F
100
AcDbEntity
  8
0
100
AcDbLine
 10
7.319010497209465
 20
4.348061570401617
 30
0.0
 11
7.319010497209465
 21
4.402479570401618
 31
0.0
  0
LINE
  5
AA7
330
1F
100
AcDbEntity
  8
0
100
AcDbLine
 10
7.185624497209467
 20
4.890450570401617
 30
0.0
 11
7.185624497209467
 21
4.443816570401617
 31
0.0
  0
LINE
  5
AA8
330
1F
100
AcDbEntity
  8
0
100
AcDbLine
 10
7.185624497209467
 20
4.890450570401617
 30
0.0
 11
8.790089497209468
 21
4.890450570401617
 31
0.0
  0
LINE
  5
AA9
330
1F
100
AcDbEntity
  8
0
100
AcDbLine
 10
8.790089497209468
 20
4.890450570401617
 30
0.0
 11
8.790089497209468
 21
4.443816570401617
 31
0.0
  0
CIRCLE
  5
AAA
330
1F
100
AcDbEntity
  8
0
100
AcDbCircle
 10
7.293617497209467
 20
4.660278570401617
 30
0.0
 40
0.075
  0
CIRCLE
  5
AAB
330
1F
100
AcDbEntity
  8
0
100
AcDbCircle
 10
7.293176497209469
 20
4.659661570401617
 30
0.0
 40
0.06629
  0
LINE
  5
AAC
330
1F
100
AcDbEntity
  8
0
100
AcDbLine
 10
7.237373497209468
 20
4.623878570401616
 30
0.0
 11
7.332757497209467
 21
4.712838570401617
 31
0.0
  0
LINE
  5
AAD
330
1F
100
AcDbEntity
  8
0
100
AcDbLine
 10
7.253014497209466
 20
4.606922570401616
 30
0.0
 11
7.348583497209467
 21
4.696055570401616
 31
0.0
  0
LINE
  5
AAE
330
1F
100
AcDbEntity
  8
0
100
AcDbLine
 10
7.592947497209465
 20
4.443816570401617
 30
0.0
 11
7.592947497209465
 21
4.890387570401617
 31
0.0
  0
LINE
  5
AAF
330
1F
100
AcDbEntity
  8
0
100
AcDbLine
 10
8.191724497209467
 20
4.443816570401617
 30
0.0
 11
8.191724497209467
 21
4.890387570401617
 31
0.0
  0
LINE
  5
AB0
330
1F
100
AcDbEntity
  8
0
100
AcDbLine
 10
7.285133497209468
 20
4.347505570401617
 30
0.0
 11
8.887324497209469
 21
4.347505570401617
 31
0.0
  0
CIRCLE
  5
AB1
330
1F
100
AcDbEntity
  8
0
100
AcDbCircle
 10
7.393617497209469
 20
4.219291570401617
 30
0.0
 40
0.075
  0
LINE
  5
AB2
330
1F
100
AcDbEntity
  8
0
100
AcDbLine
 10
7.285133497209468
 20
4.121974570401617
 30
0.0
 11
8.887324497209469
 21
4.121974570401617
 31
0.0
  0
LINE
  5
AB3
330
1F
100
AcDbEntity
  8
0
100
AcDbLine
 10
8.890089497209466
 20
4.019416570401618
 30
0.0
 11
7.285587497209466
 21
4.019416570401618
 31
0.0
  0
LINE
  5
AB4
330
1F
100
AcDbEntity
  8
0
100
AcDbLine
 10
8.890089497209466
 20
4.443816570401617
 30
0.0
 11
8.890089497209466
 21
4.019416570401618
 31
0.0
  0
LINE
  5
AB5
330
1F
100
AcDbEntity
  8
0
100
AcDbLine
 10
7.285624497209468
 20
4.443816570401617
 30
0.0
 11
7.285624497209468
 21
4.019756570401618
 31
0.0
  0
LINE
  5
AB6
330
1F
100
AcDbEntity
  8
0
100
AcDbLine
 10
8.641071488281482
 20
5.080261341975205
 30
0.0
 11
8.641071488281482
 21
5.515347932658581
 31
0.0
  0
LINE
  5
AB7
330
1F
100
AcDbEntity
  8
0
100
AcDbLine
 10
8.801071488281479
 20
5.080261341975205
 30
0.0
 11
8.801071488281479
 21
5.515347932658588
 31
0.0
  0
LINE
  5
AB9
330
1F
100
AcDbEntity
  8
0
100
AcDbLine
 10
7.311122364845012
 20
5.515347932658581
 30
0.0
 11
7.311122364845012
 21
5.080261341975205
 31
0.0
  0
LINE
  5
ABA
330
1F
100
AcDbEntity
  8
0
100
AcDbLine
 10
7.471071488281481
 20
5.080261341975205
 30
0.0
 11
7.471071488281481
 21
5.515347932658581
 31
0.0
  0
LINE
  5
ABC
330
1F
100
AcDbEntity
  8
0
100
AcDbLine
 10
8.801071488281479
 20
5.515347932658588
 30
0.0
 11
7.311122364845012
 21
5.515347932658581
 31
0.0
  0
LINE
  5
ABD
330
1F
100
AcDbEntity
  8
0
100
AcDbLine
 10
7.311122364845012
 20
5.080261341975205
 30
0.0
 11
8.801071488281479
 21
5.080261341975205
 31
0.0
  0
LINE
  5
ABE
330
1F
100
AcDbEntity
  8
0
100
AcDbLine
 10
7.471071488281481
 20
5.12380463731689
 30
0.0
 11
8.641071488281482
 21
5.12380463731689
 31
0.0
  0
LINE
  5
ABF
330
1F
100
AcDbEntity
  8
0
100
AcDbLine
 10
7.471071488281481
 20
5.471804637316893
 30
0.0
 11
8.641071488281482
 21
5.471804637316893
 31
0.0
  0
LINE
  5
AC0
330
1F
100
AcDbEntity
  8
0
100
AcDbLine
 10
7.185624649923738
 20
4.562961419375028
 30
0.0
 11
8.787324593642267
 21
4.562961419375028
 31
0.0
  0
LINE
  5
AC1
330
1F
100
AcDbEntity
  8
0
100
AcDbLine
 10
7.185624649923738
 20
4.788492858761308
 30
0.0
 11
8.787324593642267
 21
4.788492858761308
 31
0.0
  0
LINE
  5
AC2
330
1F
100
AcDbEntity
  8
0
100
AcDbLine
 10
7.141843855129536
 20
3.97314907139307
 30
0.0
 11
7.141843855129536
 21
3.821471702815735
 31
0.0
  0
LINE
  5
AC3
330
1F
100
AcDbEntity
  8
0
100
AcDbLine
 10
8.914088245951827
 20
3.97314907139307
 30
0.0
 11
8.914088245951827
 21
3.821471702815731
 31
0.0
  0
LINE
  5
AC4
330
1F
100
AcDbEntity
  8
0
100
AcDbLine
 10
6.908943855129535
 20
3.944470934752122
 30
0.0
 11
9.146988245951822
 21
3.944470934752121
 31
0.0
  0
LINE
  5
AC5
330
1F
100
AcDbEntity
  8
0
100
AcDbLine
 10
6.908943855129535
 20
3.853402201501265
 30
0.0
 11
9.146988245951822
 21
3.853402201501267
 31
0.0
  0
LINE
  5
AC6
330
1F
100
AcDbEntity
  8
0
100
AcDbLine
 10
7.692947637729584
 20
4.019416323475645
 30
0.0
 11
7.692947637729584
 21
4.443816839407979
 31
0.0
  0
LINE
  5
AC7
330
1F
100
AcDbEntity
  8
0
100
AcDbLine
 10
8.291724833333109
 20
4.019416323475645
 30
0.0
 11
8.291724833333109
 21
4.443816839407979
 31
0.0
  0
CIRCLE
  5
AC8
330
1F
100
AcDbEntity
  8
0
100
AcDbCircle
 10
8.793176733319199
 20
4.21867482473565
 30
0.0
 40
0.0662902360756252
  0
LINE
  5
AC9
330
1F
100
AcDbEntity
  8
0
100
AcDbLine
 10
8.737373921420481
 20
4.182891566315625
 30
0.0
 11
8.832757310683103
 21
4.271851636359688
 31
0.0
  0
LINE
  5
ACA
330
1F
100
AcDbEntity
  8
0
100
AcDbLine
 10
8.753014455931303
 20
4.165935969287549
 30
0.0
 11
8.848583139924379
 21
4.255068855922921
 31
0.0
  0
CIRCLE
  5
ACB
330
1F
100
AcDbEntity
  8
0
100
AcDbCircle
 10
8.793617723988432
 20
4.219291805753627
 30
0.0
 40
0.075
  0
CIRCLE
  5
ACC
330
1F
100
AcDbEntity
  8
0
100
AcDbCircle
 10
8.693617723988435
 20
4.660278804027836
 30
0.0
 40
0.075
  0
LINE
  5
ACD
330
1F
100
AcDbEntity
  8
0
100
AcDbLine
 10
8.653014455931305
 20
4.606922967561757
 30
0.0
 11
8.748583139924377
 21
4.69605585419713
 31
0.0
  0
LINE
  5
ACE
330
1F
100
AcDbEntity
  8
0
100
AcDbLine
 10
8.637373921420483
 20
4.623878564589833
 30
0.0
 11
8.732757310683105
 21
4.712838634633897
 31
0.0
  0
CIRCLE
  5
ACF
330
1F
100
AcDbEntity
  8
0
100
AcDbCircle
 10
8.693176733319202
 20
4.659661823009859
 30
0.0
 40
0.0662902360756252
  0
CIRCLE
  5
AD0
330
1F
100
AcDbEntity
  8
0
100
AcDbCircle
 10
8.5931767333192
 20
4.21867482473565
 30
0.0
 40
0.0662902360756252
  0
LINE
  5
AD1
330
1F
100
AcDbEntity
  8
0
100
AcDbLine
 10
8.537373921420481
 20
4.182891566315625
 30
0.0
 11
8.632757310683103
 21
4.271851636359688
 31
0.0
  0
LINE
  5
AD2
330
1F
100
AcDbEntity
  8
0
100
AcDbLine
 10
8.553014455931304
 20
4.165935969287549
 30
0.0
 11
8.648583139924376
 21
4.255068855922921
 31
0.0
  0
CIRCLE
  5
AD3
330
1F
100
AcDbEntity
  8
0
100
AcDbCircle
 10
8.593617723988433
 20
4.219291805753627
 30
0.0
 40
0.075
  0
CIRCLE
  5
AD4
330
1F
100
AcDbEntity
  8
0
100
AcDbCircle
 10
8.493617723988435
 20
4.660278804027836
 30
0.0
 40
0.075
  0
LINE
  5
AD5
330
1F
100
AcDbEntity
  8
0
100
AcDbLine
 10
8.453014455931302
 20
4.606922967561757
 30
0.0
 11
8.548583139924378
 21
4.69605585419713
 31
0.0
  0
LINE
  5
AD6
330
1F
100
AcDbEntity
  8
0
100
AcDbLine
 10
8.43737392142048
 20
4.623878564589833
 30
0.0
 11
8.532757310683102
 21
4.712838634633897
 31
0.0
  0
CIRCLE
  5
AD7
330
1F
100
AcDbEntity
  8
0
100
AcDbCircle
 10
8.493176733319202
 20
4.659661823009859
 30
0.0
 40
0.0662902360756252
  0
CIRCLE
  5
AD8
330
1F
100
AcDbEntity
  8
0
100
AcDbCircle
 10
8.393176733319201
 20
4.21867482473565
 30
0.0
 40
0.0662902360756252
  0
LINE
  5
AD9
330
1F
100
AcDbEntity
  8
0
100
AcDbLine
 10
8.337373921420478
 20
4.182891566315625
 30
0.0
 11
8.432757310683101
 21
4.271851636359688
 31
0.0
  0
LINE
  5
ADA
330
1F
100
AcDbEntity
  8
0
100
AcDbLine
 10
8.353014455931301
 20
4.165935969287549
 30
0.0
 11
8.448583139924377
 21
4.255068855922921
 31
0.0
  0
CIRCLE
  5
ADB
330
1F
100
AcDbEntity
  8
0
100
AcDbCircle
 10
8.393617723988434
 20
4.219291805753627
 30
0.0
 40
0.075
  0
CIRCLE
  5
ADC
330
1F
100
AcDbEntity
  8
0
100
AcDbCircle
 10
8.293617723988432
 20
4.660278804027836
 30
0.0
 40
0.075
  0
LINE
  5
ADD
330
1F
100
AcDbEntity
  8
0
100
AcDbLine
 10
8.253014455931303
 20
4.606922967561757
 30
0.0
 11
8.348583139924379
 21
4.69605585419713
 31
0.0
  0
LINE
  5
ADE
330
1F
100
AcDbEntity
  8
0
100
AcDbLine
 10
8.237373921420481
 20
4.623878564589833
 30
0.0
 11
8.332757310683103
 21
4.712838634633897
 31
0.0
  0
CIRCLE
  5
ADF
330
1F
100
AcDbEntity
  8
0
100
AcDbCircle
 10
8.293176733319199
 20
4.659661823009859
 30
0.0
 40
0.0662902360756252
  0
CIRCLE
  5
AE0
330
1F
100
AcDbEntity
  8
0
100
AcDbCircle
 10
8.193176733319202
 20
4.21867482473565
 30
0.0
 40
0.0662902360756252
  0
LINE
  5
AE1
330
1F
100
AcDbEntity
  8
0
100
AcDbLine
 10
8.137373921420479
 20
4.182891566315625
 30
0.0
 11
8.232757310683101
 21
4.271851636359688
 31
0.0
  0
LINE
  5
AE2
330
1F
100
AcDbEntity
  8
0
100
AcDbLine
 10
8.153014455931302
 20
4.165935969287549
 30
0.0
 11
8.248583139924377
 21
4.255068855922921
 31
0.0
  0
CIRCLE
  5
AE3
330
1F
100
AcDbEntity
  8
0
100
AcDbCircle
 10
8.193617723988435
 20
4.219291805753627
 30
0.0
 40
0.075
  0
CIRCLE
  5
AE4
330
1F
100
AcDbEntity
  8
0
100
AcDbCircle
 10
8.093617723988433
 20
4.660278804027836
 30
0.0
 40
0.075
  0
LINE
  5
AE5
330
1F
100
AcDbEntity
  8
0
100
AcDbLine
 10
8.053014455931304
 20
4.606922967561757
 30
0.0
 11
8.148583139924376
 21
4.69605585419713
 31
0.0
  0
LINE
  5
AE6
330
1F
100
AcDbEntity
  8
0
100
AcDbLine
 10
8.037373921420481
 20
4.623878564589833
 30
0.0
 11
8.132757310683103
 21
4.712838634633897
 31
0.0
  0
CIRCLE
  5
AE7
330
1F
100
AcDbEntity
  8
0
100
AcDbCircle
 10
8.0931767333192
 20
4.659661823009859
 30
0.0
 40
0.0662902360756252
  0
CIRCLE
  5
AE8
330
1F
100
AcDbEntity
  8
0
100
AcDbCircle
 10
7.993176733319202
 20
4.21867482473565
 30
0.0
 40
0.0662902360756252
  0
LINE
  5
AE9
330
1F
100
AcDbEntity
  8
0
100
AcDbLine
 10
7.93737392142048
 20
4.182891566315625
 30
0.0
 11
8.032757310683102
 21
4.271851636359688
 31
0.0
  0
LINE
  5
AEA
330
1F
100
AcDbEntity
  8
0
100
AcDbLine
 10
7.953014455931302
 20
4.165935969287549
 30
0.0
 11
8.048583139924375
 21
4.255068855922921
 31
0.0
  0
CIRCLE
  5
AEB
330
1F
100
AcDbEntity
  8
0
100
AcDbCircle
 10
7.993617723988435
 20
4.219291805753627
 30
0.0
 40
0.075
  0
CIRCLE
  5
AEC
330
1F
100
AcDbEntity
  8
0
100
AcDbCircle
 10
7.893617723988434
 20
4.660278804027836
 30
0.0
 40
0.075
  0
LINE
  5
AED
330
1F
100
AcDbEntity
  8
0
100
AcDbLine
 10
7.853014455931301
 20
4.606922967561757
 30
0.0
 11
7.948583139924377
 21
4.69605585419713
 31
0.0
  0
LINE
  5
AEE
330
1F
100
AcDbEntity
  8
0
100
AcDbLine
 10
7.837373921420478
 20
4.623878564589833
 30
0.0
 11
7.932757310683101
 21
4.712838634633897
 31
0.0
  0
CIRCLE
  5
AEF
330
1F
100
AcDbEntity
  8
0
100
AcDbCircle
 10
7.893176733319201
 20
4.659661823009859
 30
0.0
 40
0.0662902360756252
  0
CIRCLE
  5
AF0
330
1F
100
AcDbEntity
  8
0
100
AcDbCircle
 10
7.793176733319199
 20
4.21867482473565
 30
0.0
 40
0.0662902360756252
  0
LINE
  5
AF1
330
1F
100
AcDbEntity
  8
0
100
AcDbLine
 10
7.737373921420481
 20
4.182891566315625
 30
0.0
 11
7.832757310683103
 21
4.271851636359688
 31
0.0
  0
LINE
  5
AF2
330
1F
100
AcDbEntity
  8
0
100
AcDbLine
 10
7.753014455931303
 20
4.165935969287549
 30
0.0
 11
7.848583139924379
 21
4.255068855922921
 31
0.0
  0
CIRCLE
  5
AF3
330
1F
100
AcDbEntity
  8
0
100
AcDbCircle
 10
7.793617723988432
 20
4.219291805753627
 30
0.0
 40
0.075
  0
CIRCLE
  5
AF4
330
1F
100
AcDbEntity
  8
0
100
AcDbCircle
 10
7.693617723988435
 20
4.660278804027836
 30
0.0
 40
0.075
  0
LINE
  5
AF5
330
1F
100
AcDbEntity
  8
0
100
AcDbLine
 10
7.653014455931305
 20
4.606922967561757
 30
0.0
 11
7.748583139924377
 21
4.69605585419713
 31
0.0
  0
LINE
  5
AF6
330
1F
100
AcDbEntity
  8
0
100
AcDbLine
 10
7.637373921420483
 20
4.623878564589833
 30
0.0
 11
7.732757310683105
 21
4.712838634633897
 31
0.0
  0
CIRCLE
  5
AF7
330
1F
100
AcDbEntity
  8
0
100
AcDbCircle
 10
7.693176733319202
 20
4.659661823009859
 30
0.0
 40
0.0662902360756252
  0
CIRCLE
  5
AF8
330
1F
100
AcDbEntity
  8
0
100
AcDbCircle
 10
7.5931767333192
 20
4.21867482473565
 30
0.0
 40
0.0662902360756252
  0
LINE
  5
AF9
330
1F
100
AcDbEntity
  8
0
100
AcDbLine
 10
7.537373921420481
 20
4.182891566315625
 30
0.0
 11
7.632757310683103
 21
4.271851636359688
 31
0.0
  0
LINE
  5
AFA
330
1F
100
AcDbEntity
  8
0
100
AcDbLine
 10
7.553014455931304
 20
4.165935969287549
 30
0.0
 11
7.648583139924376
 21
4.255068855922921
 31
0.0
  0
CIRCLE
  5
AFB
330
1F
100
AcDbEntity
  8
0
100
AcDbCircle
 10
7.593617723988433
 20
4.219291805753627
 30
0.0
 40
0.075
  0
CIRCLE
  5
AFC
330
1F
100
AcDbEntity
  8
0
100
AcDbCircle
 10
7.493617723988435
 20
4.660278804027836
 30
0.0
 40
0.075
  0
LINE
  5
AFD
330
1F
100
AcDbEntity
  8
0
100
AcDbLine
 10
7.453014455931302
 20
4.606922967561757
 30
0.0
 11
7.548583139924378
 21
4.69605585419713
 31
0.0
  0
LINE
  5
AFE
330
1F
100
AcDbEntity
  8
0
100
AcDbLine
 10
7.43737392142048
 20
4.623878564589833
 30
0.0
 11
7.532757310683102
 21
4.712838634633897
 31
0.0
  0
CIRCLE
  5
AFF
330
1F
100
AcDbEntity
  8
0
100
AcDbCircle
 10
7.493176733319202
 20
4.659661823009859
 30
0.0
 40
0.0662902360756252
  0
LINE
  5
B00
330
1F
100
AcDbEntity
  8
0
100
AcDbLine
 10
7.353014455931301
 20
4.165935969287549
 30
0.0
 11
7.448583139924377
 21
4.255068855922921
 31
0.0
  0
LINE
  5
B01
330
1F
100
AcDbEntity
  8
0
100
AcDbLine
 10
7.337373921420478
 20
4.182891566315625
 30
0.0
 11
7.432757310683101
 21
4.271851636359688
 31
0.0
  0
CIRCLE
  5
B02
330
1F
100
AcDbEntity
  8
0
100
AcDbCircle
 10
7.393176733319201
 20
4.21867482473565
 30
0.0
 40
0.0662902360756252
  0
TEXT
  5
B03
330
1F
100
AcDbEntity
  8
0
100
AcDbText
 10
7.57453415956329
 20
6.186008585798907
 30
0.0
 40
0.08
  1
1
  7
ROMANS
100
AcDbText
  0
TEXT
  5
B05
330
1F
100
AcDbEntity
  8
0
100
AcDbText
 10
7.54695026866017
 20
6.513301406179499
 30
0.0
 40
0.08
  1
11
  7
ROMANS
100
AcDbText
  0
TEXT
  5
B06
330
1F
100
AcDbEntity
  8
0
100
AcDbText
 10
8.341988592247924
 20
6.507790623911875
 30
0.0
 40
0.08
  1
15
  7
ROMANS
100
AcDbText
  0
ARC
  5
B07
330
1F
100
AcDbEntity
  8
0
100
AcDbCircle
 10
8.751017184503432
 20
6.202191920326391
 30
0.0
 40
0.04
100
AcDbArc
 50
270.0
 51
0.0
  0
ARC
  5
B08
330
1F
100
AcDbEntity
  8
0
100
AcDbCircle
 10
8.751017184503432
 20
6.591873725898626
 30
0.0
 40
0.04
100
AcDbArc
 50
0.0
 51
90.0
  0
ARC
  5
B09
330
1F
100
AcDbEntity
  8
0
100
AcDbCircle
 10
7.307041195844902
 20
6.202191920326391
 30
0.0
 40
0.04
100
AcDbArc
 50
180.0000000000001
 51
270.0
  0
ARC
  5
B0A
330
1F
100
AcDbEntity
  8
0
100
AcDbCircle
 10
7.307041195844902
 20
6.591873725898626
 30
0.0
 40
0.04
100
AcDbArc
 50
90.0
 51
180.0
  0
LINE
  5
B1A
330
1F
100
AcDbEntity
  8
0
100
AcDbLine
 10
8.639818190677882
 20
6.470819921973621
 30
0.0
 11
8.742608758858757
 21
6.470819921973621
 31
0.0
  0
LINE
  5
B1B
330
1F
100
AcDbEntity
  8
0
100
AcDbLine
 10
8.639501031942032
 20
6.323707426145528
 30
0.0
 11
8.742608758858757
 21
6.323707426145528
 31
0.0
  0
LINE
  5
B1C
330
1F
100
AcDbEntity
  8
0
100
AcDbLine
 10
8.639818190677882
 20
6.470819921973621
 30
0.0
 11
8.601238152265644
 21
6.396783512043349
 31
0.0
  0
LINE
  5
B1D
330
1F
100
AcDbEntity
  8
0
100
AcDbLine
 10
8.601238152265644
 20
6.396783512043349
 30
0.0
 11
8.639943012400337
 21
6.323753155861357
 31
0.0
  0
LINE
  5
B1E
330
1F
100
AcDbEntity
  8
0
100
AcDbLine
 10
8.742608758858757
 20
6.323707426145528
 30
0.0
 11
8.78129004109315
 21
6.397032823112507
 31
0.0
  0
LINE
  5
B1F
330
1F
100
AcDbEntity
  8
0
100
AcDbLine
 10
8.78129004109315
 20
6.397032823112507
 30
0.0
 11
8.742608758858757
 21
6.470819921973621
 31
0.0
  0
CIRCLE
  5
B20
330
1F
100
AcDbEntity
  8
0
100
AcDbCircle
 10
8.691023325367659
 20
6.396783512043349
 30
0.0
 40
0.034
  0
CIRCLE
  5
B21
330
1F
100
AcDbEntity
  8
0
100
AcDbCircle
 10
7.367971115118351
 20
6.396783512043349
 30
0.0
 40
0.034
  0
LINE
  5
B22
330
1F
100
AcDbEntity
  8
0
100
AcDbLine
 10
7.458237830843842
 20
6.397032823112507
 30
0.0
 11
7.419556548609449
 21
6.470819921973621
 31
0.0
  0
LINE
  5
B23
330
1F
100
AcDbEntity
  8
0
100
AcDbLine
 10
7.419556548609449
 20
6.323707426145528
 30
0.0
 11
7.458237830843842
 21
6.397032823112507
 31
0.0
  0
LINE
  5
B24
330
1F
100
AcDbEntity
  8
0
100
AcDbLine
 10
7.278185942016335
 20
6.396783512043349
 30
0.0
 11
7.316890802151029
 21
6.323753155861357
 31
0.0
  0
LINE
  5
B25
330
1F
100
AcDbEntity
  8
0
100
AcDbLine
 10
7.31676598042857
 20
6.470819921973621
 30
0.0
 11
7.278185942016335
 21
6.396783512043349
 31
0.0
  0
LINE
  5
B26
330
1F
100
AcDbEntity
  8
0
100
AcDbLine
 10
7.316448821692723
 20
6.323707426145528
 30
0.0
 11
7.419556548609449
 21
6.323707426145528
 31
0.0
  0
LINE
  5
B27
330
1F
100
AcDbEntity
  8
0
100
AcDbLine
 10
7.31676598042857
 20
6.470819921973621
 30
0.0
 11
7.419556548609449
 21
6.470819921973621
 31
0.0
  0
ARC
  5
B28
330
1F
100
AcDbEntity
  8
0
100
AcDbCircle
 10
8.351521760045566
 20
6.311155731993176
 30
0.0
 40
0.06
100
AcDbArc
 50
270.0
 51
14.99937410331359
  0
ARC
  5
B29
330
1F
100
AcDbEntity
  8
0
100
AcDbCircle
 10
8.308691397005768
 20
6.471007807813299
 30
0.0
 40
0.06
100
AcDbArc
 50
14.9993741033137
 51
90.0
  0
ARC
  5
B2A
330
1F
100
AcDbEntity
  8
0
100
AcDbCircle
 10
7.713972011704489
 20
6.311155731993162
 30
0.0
 40
0.06
100
AcDbArc
 50
165.0006258966864
 51
270.0
  0
ARC
  5
B2B
330
1F
100
AcDbEntity
  8
0
100
AcDbCircle
 10
7.756802374744287
 20
6.471007807813288
 30
0.0
 40
0.06
100
AcDbArc
 50
90.0
 51
165.0006258966867
  0
LINE
  5
B2D
330
1F
100
AcDbEntity
  8
0
100
AcDbLine
 10
7.698846655530699
 20
6.486536317414524
 30
0.0
 11
7.656016292490901
 21
6.326684241594401
 31
0.0
  0
LINE
  5
B2E
330
1F
100
AcDbEntity
  8
0
100
AcDbLine
 10
8.366647116219356
 20
6.486536317414534
 30
0.0
 11
8.409477479259154
 21
6.326684241594412
 31
0.0
  0
LINE
  5
B30
330
1F
100
AcDbEntity
  8
0
100
AcDbLine
 10
8.751017184503432
 20
6.631873725898625
 30
0.0
 11
7.307041195844902
 21
6.631873725898625
 31
0.0
  0
LINE
  5
B31
330
1F
100
AcDbEntity
  8
0
100
AcDbLine
 10
8.791017184503431
 20
6.202191920326391
 30
0.0
 11
8.791017184503431
 21
6.591873725898626
 31
0.0
  0
LINE
  5
B32
330
1F
100
AcDbEntity
  8
0
100
AcDbLine
 10
7.307041195844902
 20
6.162191920326392
 30
0.0
 11
8.751017184503432
 21
6.162191920326392
 31
0.0
  0
LINE
  5
B33
330
1F
100
AcDbEntity
  8
0
100
AcDbLine
 10
7.267041195844903
 20
6.591873725898626
 30
0.0
 11
7.267041195844903
 21
6.202191920326391
 31
0.0
  0
LINE
  5
B34
330
1F
100
AcDbEntity
  8
0
100
AcDbLine
 10
8.643166406591014
 20
4.890696611143379
 30
0.0
 11
8.643166406591014
 21
4.851680299305382
 31
0.0
  0
LINE
  5
B35
330
1F
100
AcDbEntity
  8
0
100
AcDbLine
 10
8.643166406591014
 20
4.851680299305382
 30
0.0
 11
8.7452372348211
 21
4.851680299305382
 31
0.0
  0
LINE
  5
B36
330
1F
100
AcDbEntity
  8
0
100
AcDbLine
 10
8.7452372348211
 20
4.851680299305382
 30
0.0
 11
8.7452372348211
 21
4.890696611143379
 31
0.0
  0
LINE
  5
B37
330
1F
100
AcDbEntity
  8
0
100
AcDbLine
 10
8.443166406591014
 20
4.890696611143379
 30
0.0
 11
8.443166406591014
 21
4.851680299305382
 31
0.0
  0
LINE
  5
B38
330
1F
100
AcDbEntity
  8
0
100
AcDbLine
 10
8.443166406591014
 20
4.851680299305382
 30
0.0
 11
8.545237234821101
 21
4.851680299305382
 31
0.0
  0
LINE
  5
B39
330
1F
100
AcDbEntity
  8
0
100
AcDbLine
 10
8.545237234821101
 20
4.851680299305382
 30
0.0
 11
8.545237234821101
 21
4.890696611143379
 31
0.0
  0
LINE
  5
B3A
330
1F
100
AcDbEntity
  8
0
100
AcDbLine
 10
8.243166406591015
 20
4.890696611143379
 30
0.0
 11
8.243166406591015
 21
4.851680299305382
 31
0.0
  0
LINE
  5
B3B
330
1F
100
AcDbEntity
  8
0
100
AcDbLine
 10
8.243166406591015
 20
4.851680299305382
 30
0.0
 11
8.345237234821098
 21
4.851680299305382
 31
0.0
  0
LINE
  5
B3C
330
1F
100
AcDbEntity
  8
0
100
AcDbLine
 10
8.345237234821098
 20
4.851680299305382
 30
0.0
 11
8.345237234821098
 21
4.890696611143379
 31
0.0
  0
LINE
  5
B3D
330
1F
100
AcDbEntity
  8
0
100
AcDbLine
 10
8.043166406591016
 20
4.890696611143379
 30
0.0
 11
8.043166406591016
 21
4.851680299305382
 31
0.0
  0
LINE
  5
B3E
330
1F
100
AcDbEntity
  8
0
100
AcDbLine
 10
8.043166406591016
 20
4.851680299305382
 30
0.0
 11
8.145237234821102
 21
4.851680299305382
 31
0.0
  0
LINE
  5
B3F
330
1F
100
AcDbEntity
  8
0
100
AcDbLine
 10
8.145237234821102
 20
4.851680299305382
 30
0.0
 11
8.145237234821102
 21
4.890696611143379
 31
0.0
  0
LINE
  5
B40
330
1F
100
AcDbEntity
  8
0
100
AcDbLine
 10
7.843166406591016
 20
4.890696611143379
 30
0.0
 11
7.843166406591016
 21
4.851680299305382
 31
0.0
  0
LINE
  5
B41
330
1F
100
AcDbEntity
  8
0
100
AcDbLine
 10
7.843166406591016
 20
4.851680299305382
 30
0.0
 11
7.9452372348211
 21
4.851680299305382
 31
0.0
  0
LINE
  5
B42
330
1F
100
AcDbEntity
  8
0
100
AcDbLine
 10
7.9452372348211
 20
4.851680299305382
 30
0.0
 11
7.9452372348211
 21
4.890696611143379
 31
0.0
  0
LINE
  5
B43
330
1F
100
AcDbEntity
  8
0
100
AcDbLine
 10
7.643166406591014
 20
4.890696611143379
 30
0.0
 11
7.643166406591014
 21
4.851680299305382
 31
0.0
  0
LINE
  5
B44
330
1F
100
AcDbEntity
  8
0
100
AcDbLine
 10
7.643166406591014
 20
4.851680299305382
 30
0.0
 11
7.7452372348211
 21
4.851680299305382
 31
0.0
  0
LINE
  5
B45
330
1F
100
AcDbEntity
  8
0
100
AcDbLine
 10
7.7452372348211
 20
4.851680299305382
 30
0.0
 11
7.7452372348211
 21
4.890696611143379
 31
0.0
  0
LINE
  5
B46
330
1F
100
AcDbEntity
  8
0
100
AcDbLine
 10
7.443166406591014
 20
4.890696611143379
 30
0.0
 11
7.443166406591014
 21
4.851680299305382
 31
0.0
  0
LINE
  5
B47
330
1F
100
AcDbEntity
  8
0
100
AcDbLine
 10
7.443166406591014
 20
4.851680299305382
 30
0.0
 11
7.545237234821101
 21
4.851680299305382
 31
0.0
  0
LINE
  5
B48
330
1F
100
AcDbEntity
  8
0
100
AcDbLine
 10
7.545237234821101
 20
4.851680299305382
 30
0.0
 11
7.545237234821101
 21
4.890696611143379
 31
0.0
  0
LINE
  5
B49
330
1F
100
AcDbEntity
  8
0
100
AcDbLine
 10
7.345237234821098
 20
4.851680299305382
 30
0.0
 11
7.345237234821098
 21
4.890696611143379
 31
0.0
  0
LINE
  5
B4A
330
1F
100
AcDbEntity
  8
0
100
AcDbLine
 10
7.243166406591015
 20
4.851680299305382
 30
0.0
 11
7.345237234821098
 21
4.851680299305382
 31
0.0
  0
LINE
  5
B4B
330
1F
100
AcDbEntity
  8
0
100
AcDbLine
 10
7.243166406591015
 20
4.890696611143379
 30
0.0
 11
7.243166406591015
 21
4.851680299305382
 31
0.0
  0
LINE
  5
B4C
330
1F
100
AcDbEntity
  8
0
100
AcDbLine
 10
8.890089667484389
 20
4.443816839407979
 30
0.0
 11
7.185624649923738
 21
4.443816839407979
 31
0.0
  0
LINE
  5
B4D
330
1F
100
AcDbEntity
  8
0
100
AcDbLine
 10
8.869281644128491
 20
4.402479340644227
 30
0.0
 11
8.869281644128491
 21
4.348061853080704
 31
0.0
  0
LINE
  5
B4E
330
1F
100
AcDbEntity
  8
0
100
AcDbLine
 10
8.719010702567537
 20
4.348061853080704
 30
0.0
 11
8.719010702567537
 21
4.402479340644227
 31
0.0
  0
LINE
  5
B4F
330
1F
100
AcDbEntity
  8
0
100
AcDbLine
 10
8.719010702567537
 20
4.402479340644227
 30
0.0
 11
8.869281644128491
 21
4.402479340644227
 31
0.0
  0
LINE
  5
B50
330
1F
100
AcDbEntity
  8
0
100
AcDbLine
 10
8.669281644128492
 20
4.402479340644227
 30
0.0
 11
8.669281644128492
 21
4.348061853080704
 31
0.0
  0
LINE
  5
B51
330
1F
100
AcDbEntity
  8
0
100
AcDbLine
 10
8.519010702567534
 20
4.348061853080704
 30
0.0
 11
8.519010702567534
 21
4.402479340644227
 31
0.0
  0
LINE
  5
B52
330
1F
100
AcDbEntity
  8
0
100
AcDbLine
 10
8.519010702567534
 20
4.402479340644227
 30
0.0
 11
8.669281644128492
 21
4.402479340644227
 31
0.0
  0
LINE
  5
B53
330
1F
100
AcDbEntity
  8
0
100
AcDbLine
 10
8.319010702567538
 20
4.348061853080704
 30
0.0
 11
8.319010702567538
 21
4.402479340644227
 31
0.0
  0
LINE
  5
B54
330
1F
100
AcDbEntity
  8
0
100
AcDbLine
 10
8.319010702567538
 20
4.402479340644227
 30
0.0
 11
8.469281644128493
 21
4.402479340644227
 31
0.0
  0
LINE
  5
B55
330
1F
100
AcDbEntity
  8
0
100
AcDbLine
 10
8.469281644128493
 20
4.402479340644227
 30
0.0
 11
8.469281644128493
 21
4.348061853080704
 31
0.0
  0
LINE
  5
B56
330
1F
100
AcDbEntity
  8
0
100
AcDbLine
 10
8.119010702567535
 20
4.348061853080704
 30
0.0
 11
8.119010702567535
 21
4.402479340644227
 31
0.0
  0
LINE
  5
B57
330
1F
100
AcDbEntity
  8
0
100
AcDbLine
 10
8.119010702567535
 20
4.402479340644227
 30
0.0
 11
8.269281644128493
 21
4.402479340644227
 31
0.0
  0
LINE
  5
B58
330
1F
100
AcDbEntity
  8
0
100
AcDbLine
 10
8.269281644128493
 20
4.402479340644227
 30
0.0
 11
8.269281644128493
 21
4.348061853080704
 31
0.0
  0
LINE
  5
B59
330
1F
100
AcDbEntity
  8
0
100
AcDbLine
 10
7.919010702567536
 20
4.348061853080704
 30
0.0
 11
7.919010702567536
 21
4.402479340644227
 31
0.0
  0
LINE
  5
B5A
330
1F
100
AcDbEntity
  8
0
100
AcDbLine
 10
7.919010702567536
 20
4.402479340644227
 30
0.0
 11
8.069281644128494
 21
4.402479340644227
 31
0.0
  0
LINE
  5
B5B
330
1F
100
AcDbEntity
  8
0
100
AcDbLine
 10
8.069281644128494
 20
4.402479340644227
 30
0.0
 11
8.069281644128494
 21
4.348061853080704
 31
0.0
  0
LINE
  5
B5C
330
1F
100
AcDbEntity
  8
0
100
AcDbLine
 10
7.719010702567537
 20
4.348061853080704
 30
0.0
 11
7.719010702567537
 21
4.402479340644227
 31
0.0
  0
LINE
  5
B5D
330
1F
100
AcDbEntity
  8
0
100
AcDbLine
 10
7.719010702567537
 20
4.402479340644227
 30
0.0
 11
7.869281644128491
 21
4.402479340644227
 31
0.0
  0
LINE
  5
B5E
330
1F
100
AcDbEntity
  8
0
100
AcDbLine
 10
7.869281644128491
 20
4.402479340644227
 30
0.0
 11
7.869281644128491
 21
4.348061853080704
 31
0.0
  0
LINE
  5
B5F
330
1F
100
AcDbEntity
  8
0
100
AcDbLine
 10
7.519010702567534
 20
4.348061853080704
 30
0.0
 11
7.519010702567534
 21
4.402479340644227
 31
0.0
  0
LINE
  5
B60
330
1F
100
AcDbEntity
  8
0
100
AcDbLine
 10
7.519010702567534
 20
4.402479340644227
 30
0.0
 11
7.669281644128492
 21
4.402479340644227
 31
0.0
  0
LINE
  5
B61
330
1F
100
AcDbEntity
  8
0
100
AcDbLine
 10
7.669281644128492
 20
4.402479340644227
 30
0.0
 11
7.669281644128492
 21
4.348061853080704
 31
0.0
  0
LINE
  5
B62
330
1F
100
AcDbEntity
  8
0
100
AcDbLine
 10
7.469281644128493
 20
4.402479340644227
 30
0.0
 11
7.469281644128493
 21
4.348061853080704
 31
0.0
  0
LINE
  5
B63
330
1F
100
AcDbEntity
  8
0
100
AcDbLine
 10
7.319010702567538
 20
4.402479340644227
 30
0.0
 11
7.469281644128493
 21
4.402479340644227
 31
0.0
  0
LINE
  5
B64
330
1F
100
AcDbEntity
  8
0
100
AcDbLine
 10
7.319010702567538
 20
4.348061853080704
 30
0.0
 11
7.319010702567538
 21
4.402479340644227
 31
0.0
  0
LINE
  5
B65
330
1F
100
AcDbEntity
  8
0
100
AcDbLine
 10
7.185624649923738
 20
4.89045093544821
 30
0.0
 11
7.185624649923738
 21
4.443816839407979
 31
0.0
  0
LINE
  5
B66
330
1F
100
AcDbEntity
  8
0
100
AcDbLine
 10
7.185624649923738
 20
4.89045093544821
 30
0.0
 11
8.790089667484387
 21
4.89045093544821
 31
0.0
  0
LINE
  5
B67
330
1F
100
AcDbEntity
  8
0
100
AcDbLine
 10
8.790089667484387
 20
4.89045093544821
 30
0.0
 11
8.790089667484387
 21
4.443816839407979
 31
0.0
  0
CIRCLE
  5
B68
330
1F
100
AcDbEntity
  8
0
100
AcDbCircle
 10
7.293617723988432
 20
4.660278804027836
 30
0.0
 40
0.075
  0
CIRCLE
  5
B69
330
1F
100
AcDbEntity
  8
0
100
AcDbCircle
 10
7.293176733319199
 20
4.659661823009859
 30
0.0
 40
0.0662902360756252
  0
LINE
  5
B6A
330
1F
100
AcDbEntity
  8
0
100
AcDbLine
 10
7.237373921420481
 20
4.623878564589833
 30
0.0
 11
7.332757310683103
 21
4.712838634633897
 31
0.0
  0
LINE
  5
B6B
330
1F
100
AcDbEntity
  8
0
100
AcDbLine
 10
7.253014455931303
 20
4.606922967561757
 30
0.0
 11
7.348583139924379
 21
4.69605585419713
 31
0.0
  0
LINE
  5
B6C
330
1F
100
AcDbEntity
  8
0
100
AcDbLine
 10
7.592947637729587
 20
4.443816839407979
 30
0.0
 11
7.592947637729587
 21
4.89038758791397
 31
0.0
  0
LINE
  5
B6D
330
1F
100
AcDbEntity
  8
0
100
AcDbLine
 10
8.191724833333108
 20
4.443816839407979
 30
0.0
 11
8.191724833333111
 21
4.89038758791397
 31
0.0
  0
LINE
  5
B6E
330
1F
100
AcDbEntity
  8
0
100
AcDbLine
 10
7.285133297372077
 20
4.3475058604871
 30
0.0
 11
8.887324593642269
 21
4.3475058604871
 31
0.0
  0
CIRCLE
  5
B6F
330
1F
100
AcDbEntity
  8
0
100
AcDbCircle
 10
7.393617723988434
 20
4.219291805753627
 30
0.0
 40
0.075
  0
LINE
  5
B70
330
1F
100
AcDbEntity
  8
0
100
AcDbLine
 10
7.285133297372077
 20
4.121974421100819
 30
0.0
 11
8.887324593642269
 21
4.121974421100819
 31
0.0
  0
LINE
  5
B71
330
1F
100
AcDbEntity
  8
0
100
AcDbLine
 10
8.890089667484389
 20
4.019416323475645
 30
0.0
 11
7.285587765345994
 21
4.019416323475645
 31
0.0
  0
LINE
  5
B72
330
1F
100
AcDbEntity
  8
0
100
AcDbLine
 10
8.890089667484389
 20
4.443816839407979
 30
0.0
 11
8.890089667484389
 21
4.019416323475645
 31
0.0
  0
LINE
  5
B73
330
1F
100
AcDbEntity
  8
0
100
AcDbLine
 10
7.28562464992374
 20
4.443816839407979
 30
0.0
 11
7.28562464992374
 21
4.019757008934405
 31
0.0
  0
LINE
  5
B74
330
1F
100
AcDbEntity
  8
0
100
AcDbLine
 10
6.908943855129534
 20
6.819461570401617
 30
0.0
 11
9.146988245951824
 21
6.819461570401617
 31
0.0
  0
LINE
  5
B75
330
1F
100
AcDbEntity
  8
0
100
AcDbLine
 10
9.146988245951824
 20
6.736447570401617
 30
0.0
 11
6.908943855129535
 21
6.736447570401618
 31
0.0
  0
LINE
  5
B76
330
1F
100
AcDbEntity
  8
0
100
AcDbLine
 10
7.141843497209467
 20
6.852983570401617
 30
0.0
 11
7.141843497209467
 21
6.707185570401618
 31
0.0
  0
LINE
  5
B77
330
1F
100
AcDbEntity
  8
0
100
AcDbLine
 10
8.914088497209466
 20
6.852983570401617
 30
0.0
 11
8.914088497209466
 21
6.707185570401618
 31
0.0
  0
LINE
  5
B78
330
1F
100
AcDbEntity
  8
0
100
AcDbLine
 10
6.90906385512953
 20
6.736447570401617
 30
0.0
 11
6.90906385512953
 21
6.735571570401617
 31
0.0
  0
LINE
  5
B79
330
1F
100
AcDbEntity
  8
0
100
AcDbLine
 10
6.90906385512953
 20
6.736447570401617
 30
0.0
 11
6.90906385512953
 21
6.735571570401617
 31
0.0
  0
LINE
  5
B7A
330
1F
100
AcDbEntity
  8
0
100
AcDbLine
 10
6.90906385512953
 20
6.736447570401617
 30
0.0
 11
6.90906385512953
 21
6.736199570401618
 31
0.0
  0
LINE
  5
B7B
330
1F
100
AcDbEntity
  8
0
100
AcDbLine
 10
9.146988245951822
 20
6.736447570401618
 30
0.0
 11
6.908943855129534
 21
6.736447570401616
 31
0.0
  0
LINE
  5
B7C
330
1F
100
AcDbEntity
  8
0
100
AcDbLine
 10
6.908943855129535
 20
6.819461411946033
 30
0.0
 11
9.146988245951822
 21
6.819461411946032
 31
0.0
  0
LINE
  5
B7D
330
1F
100
AcDbEntity
  8
0
100
AcDbLine
 10
9.146988245951824
 20
6.73644792351254
 30
0.0
 11
6.908943855129535
 21
6.73644792351254
 31
0.0
  0
LINE
  5
B7E
330
1F
100
AcDbEntity
  8
0
100
AcDbLine
 10
7.141843855129536
 20
6.85298375979049
 30
0.0
 11
7.141843855129536
 21
6.707185358987469
 31
0.0
  0
LINE
  5
B7F
330
1F
100
AcDbEntity
  8
0
100
AcDbLine
 10
8.914088245951827
 20
6.852983759790493
 30
0.0
 11
8.914088245951827
 21
6.707185358987469
 31
0.0
  0
LINE
  5
B80
330
1F
100
AcDbEntity
  8
0
100
AcDbLine
 10
6.90906382092201
 20
6.736447923512539
 30
0.0
 11
6.90906382092201
 21
6.73557179768586
 31
0.0
  0
LINE
  5
B81
330
1F
100
AcDbEntity
  8
0
100
AcDbLine
 10
6.90906382092201
 20
6.736447923512539
 30
0.0
 11
6.90906382092201
 21
6.73557179768586
 31
0.0
  0
LINE
  5
B82
330
1F
100
AcDbEntity
  8
0
100
AcDbLine
 10
6.90906382092201
 20
6.736447923512539
 30
0.0
 11
6.90906382092201
 21
6.73619915372561
 31
0.0
  0
LINE
  5
B83
330
1F
100
AcDbEntity
  8
0
100
AcDbLine
 10
9.146988245951822
 20
6.736447923512538
 30
0.0
 11
6.908943855129534
 21
6.736447923512539
 31
0.0
  0
LINE
  5
EAB
102
{ACAD_REACTORS
330
EC7
102
}
330
1F
100
AcDbEntity
  8
0
100
AcDbLine
 10
3.100606386409246
 20
6.337556703390545
 30
0.0
 11
4.734712850959219
 21
6.337556703390545
 31
0.0
  0
DIMENSION
  5
EAE
102
{ACAD_XDICTIONARY
360
EBC
102
}
102
{ACAD_REACTORS
330
EC7
102
}
330
1F
100
AcDbEntity
  8
0
100
AcDbDimension
  2
*D4
 10
1.555866119367514
 20
6.337556703390546
 30
0.0
 11
1.555866119367513
 21
5.196901754875025
 31
0.0
 70
    32
 71
     5
 42
2.281309897031044
  3
Standard
100
AcDbAlignedDimension
 13
2.708387674182894
 23
4.056246806359501
 33
0.0
 14
3.100606386409246
 24
6.337556703390545
 34
0.0
 50
90.0
100
AcDbRotatedDimension
1001
ACAD
1000
DSTYLE
1002
{
1070
   271
1070
     2
1002
}
  0
LINE
  5
EC8
330
1F
100
AcDbEntity
  8
0
100
AcDbLine
 10
6.9089442130496
 20
6.85298375979049
 30
0.0
 11
6.9089442130496
 21
3.821471702815735
 31
0.0
  0
LINE
  5
EC9
330
1F
100
AcDbEntity
  8
0
100
AcDbLine
 10
6.908943855129535
 20
3.821471702815735
 30
0.0
 11
9.146988245951822
 21
3.821471702815731
 31
0.0
  0
LINE
  5
ECA
330
1F
100
AcDbEntity
  8
0
100
AcDbLine
 10
9.146987994694182
 20
3.821471702815731
 30
0.0
 11
9.146987994694182
 21
6.852983759790493
 31
0.0
  0
LINE
  5
ECB
102
{ACAD_REACTORS
330
F18
102
}
330
1F
100
AcDbEntity
  8
0
100
AcDbLine
 10
9.146988245951822
 20
6.852983759790491
 30
0.0
 11
6.908943855129535
 21
6.852983759790491
 31
0.0
  0
LINE
  5
ECC
330
1F
100
AcDbEntity
  8
0
100
AcDbLine
 10
9.100987994694182
 20
6.707185358987466
 30
0.0
 11
9.100987994694182
 21
6.203727731303107
 31
0.0
  0
LINE
  5
ECD
330
1F
100
AcDbEntity
  8
0
100
AcDbLine
 10
9.100987994694182
 20
6.203727731303107
 30
0.0
 11
9.046987994694184
 21
6.203727731303111
 31
0.0
  0
LINE
  5
ECE
330
1F
100
AcDbEntity
  8
0
100
AcDbLine
 10
9.046987994694184
 20
6.203727731303111
 30
0.0
 11
9.046987994694184
 21
4.47072773130311
 31
0.0
  0
LINE
  5
ECF
330
1F
100
AcDbEntity
  8
0
100
AcDbLine
 10
9.046987994694184
 20
4.47072773130311
 30
0.0
 11
9.100987994694182
 21
4.47072773130311
 31
0.0
  0
LINE
  5
ED0
330
1F
100
AcDbEntity
  8
0
100
AcDbLine
 10
9.100987994694182
 20
4.47072773130311
 30
0.0
 11
9.100987994694182
 21
3.97314907139307
 31
0.0
  0
LINE
  5
ED1
330
1F
100
AcDbEntity
  8
0
100
AcDbLine
 10
9.146988245951822
 20
3.97314907139307
 30
0.0
 11
6.908943855129535
 21
3.97314907139307
 31
0.0
  0
LINE
  5
ED2
330
1F
100
AcDbEntity
  8
0
100
AcDbLine
 10
6.954944213049599
 20
3.97314907139307
 30
0.0
 11
6.954944213049599
 21
4.47072773130311
 31
0.0
  0
LINE
  5
ED3
330
1F
100
AcDbEntity
  8
0
100
AcDbLine
 10
6.954944213049599
 20
4.47072773130311
 30
0.0
 11
7.008944213049601
 21
4.47072773130311
 31
0.0
  0
LINE
  5
ED4
330
1F
100
AcDbEntity
  8
0
100
AcDbLine
 10
7.008944213049601
 20
4.47072773130311
 30
0.0
 11
7.008944213049601
 21
6.203727731303111
 31
0.0
  0
LINE
  5
ED5
330
1F
100
AcDbEntity
  8
0
100
AcDbLine
 10
7.008944213049601
 20
6.203727731303111
 30
0.0
 11
6.954944213049599
 21
6.203727731303107
 31
0.0
  0
LINE
  5
ED6
330
1F
100
AcDbEntity
  8
0
100
AcDbLine
 10
6.954944213049599
 20
6.203727731303107
 30
0.0
 11
6.954944213049599
 21
6.707185358987469
 31
0.0
  0
LINE
  5
ED7
330
1F
100
AcDbEntity
  8
0
100
AcDbLine
 10
6.908943855129535
 20
6.707185358987469
 30
0.0
 11
9.146988245951822
 21
6.707185358987466
 31
0.0
  0
LINE
  5
ED8
330
1F
100
AcDbEntity
  8
0
100
AcDbLine
 10
6.908943855129535
 20
6.852983570401617
 30
0.0
 11
6.908943855129535
 21
3.821471570401618
 31
0.0
  0
LINE
  5
EDA
102
{ACAD_REACTORS
330
F32
102
}
330
1F
100
AcDbEntity
  8
0
100
AcDbLine
 10
9.146988245951824
 20
3.821471570401618
 30
0.0
 11
9.146988245951824
 21
6.852983570401617
 31
0.0
  0
LINE
  5
EDB
102
{ACAD_REACTORS
330
F32
102
}
330
1F
100
AcDbEntity
  8
0
100
AcDbLine
 10
9.146988245951824
 20
6.852983570401617
 30
0.0
 11
6.908943855129534
 21
6.852983570401617
 31
0.0
  0
LINE
  5
EDC
330
1F
100
AcDbEntity
  8
0
100
AcDbLine
 10
9.100988245951825
 20
6.707185570401618
 30
0.0
 11
9.100988245951825
 21
6.203727570401618
 31
0.0
  0
LINE
  5
EDD
330
1F
100
AcDbEntity
  8
0
100
AcDbLine
 10
9.100988245951825
 20
6.203727570401618
 30
0.0
 11
9.046988245951823
 21
6.203727570401618
 31
0.0
  0
LINE
  5
EDE
330
1F
100
AcDbEntity
  8
0
100
AcDbLine
 10
9.046988245951823
 20
6.203727570401618
 30
0.0
 11
9.046988245951823
 21
4.470727570401617
 31
0.0
  0
LINE
  5
EDF
330
1F
100
AcDbEntity
  8
0
100
AcDbLine
 10
9.046988245951823
 20
4.470727570401617
 30
0.0
 11
9.100988245951825
 21
4.470727570401617
 31
0.0
  0
LINE
  5
EE0
330
1F
100
AcDbEntity
  8
0
100
AcDbLine
 10
9.100988245951825
 20
4.470727570401617
 30
0.0
 11
9.100988245951825
 21
3.973149570401618
 31
0.0
  0
LINE
  5
EE1
330
1F
100
AcDbEntity
  8
0
100
AcDbLine
 10
9.146988245951824
 20
3.973149570401618
 30
0.0
 11
6.908943855129535
 21
3.973149570401619
 31
0.0
  0
LINE
  5
EE2
330
1F
100
AcDbEntity
  8
0
100
AcDbLine
 10
6.954943855129534
 20
3.973149570401618
 30
0.0
 11
6.954943855129534
 21
4.470727570401617
 31
0.0
  0
LINE
  5
EE3
330
1F
100
AcDbEntity
  8
0
100
AcDbLine
 10
6.954943855129534
 20
4.470727570401617
 30
0.0
 11
7.008943855129532
 21
4.470727570401617
 31
0.0
  0
LINE
  5
EE4
330
1F
100
AcDbEntity
  8
0
100
AcDbLine
 10
7.008943855129532
 20
4.470727570401617
 30
0.0
 11
7.008943855129532
 21
6.203727570401618
 31
0.0
  0
LINE
  5
EE5
330
1F
100
AcDbEntity
  8
0
100
AcDbLine
 10
7.008943855129532
 20
6.203727570401618
 30
0.0
 11
6.954943855129534
 21
6.203727570401618
 31
0.0
  0
LINE
  5
EE6
330
1F
100
AcDbEntity
  8
0
100
AcDbLine
 10
6.954943855129534
 20
6.203727570401618
 30
0.0
 11
6.954943855129534
 21
6.707185570401618
 31
0.0
  0
LINE
  5
EE7
330
1F
100
AcDbEntity
  8
0
100
AcDbLine
 10
6.908943855129535
 20
6.707185570401619
 30
0.0
 11
9.146988245951824
 21
6.707185570401619
 31
0.0
  0
LINE
  5
EFC
102
{ACAD_REACTORS
330
F18
102
}
330
1F
100
AcDbEntity
  8
0
100
AcDbLine
 10
9.146988245951824
 20
3.821471702815731
 30
0.0
 11
9.146988245951824
 21
6.852983759790493
 31
0.0
  0
LINE
  5
EFD
102
{ACAD_REACTORS
330
F18
102
}
330
1F
100
AcDbEntity
  8
0
100
AcDbLine
 10
6.908943855129535
 20
6.85298375979049
 30
0.0
 11
6.908943855129535
 21
3.821471702815735
 31
0.0
  0
DIMENSION
  5
EFF
102
{ACAD_XDICTIONARY
360
F0D
102
}
102
{ACAD_REACTORS
330
F18
102
}
330
1F
100
AcDbEntity
  8
0
100
AcDbDimension
  2
*D5
 10
9.146988245951824
 20
7.797610160146895
 30
0.0
 11
8.02796605054068
 21
7.797610160146895
 31
0.0
 70
    32
 71
     5
 42
2.238044390822289
  3
Standard
100
AcDbAlignedDimension
 13
6.908943855129535
 23
6.852983759790491
 33
0.0
 14
9.146988245951824
 24
6.852983759790493
 34
0.0
100
AcDbRotatedDimension
1001
ACAD
1000
DSTYLE
1002
{
1070
   271
1070
     2
1002
}
  0
DIMENSION
  5
F19
102
{ACAD_XDICTIONARY
360
F27
102
}
102
{ACAD_REACTORS
330
F32
102
}
330
1F
100
AcDbEntity
  8
0
100
AcDbDimension
  2
*D6
 10
10.13009142745135
 20
6.852983570401616
 30
0.0
 11
10.13009142745135
 21
5.337227570401618
 31
0.0
 70
    32
 71
     5
 42
3.031511999999998
  3
Standard
100
AcDbAlignedDimension
 13
9.146988245951824
 23
3.821471570401618
 33
0.0
 14
9.146988245951824
 24
6.852983570401617
 34
0.0
 50
90.0
100
AcDbRotatedDimension
1001
ACAD
1000
DSTYLE
1002
{
1070
   271
1070
     2
1002
}
  0
CIRCLE
  5
F7E
330
1F
100
AcDbEntity
  8
0
 62
     2
100
AcDbCircle
 10
7.964010426668451
 20
6.389526178182262
 30
0.0
 40
0.02203359375
  0
CIRCLE
  5
F7F
330
1F
100
AcDbEntity
  8
0
 62
     2
100
AcDbCircle
 10
7.940495582918437
 20
6.295466803182269
 30
0.0
 40
0.02203359375
  0
CIRCLE
  5
F80
330
1F
100
AcDbEntity
  8
0
 62
     2
100
AcDbCircle
 10
8.067604176668446
 20
6.389526178182268
 30
0.0
 40
0.02203359375
  0
CIRCLE
  5
F81
330
1F
100
AcDbEntity
  8
0
 62
     2
100
AcDbCircle
 10
8.147683082918435
 20
6.295466803182277
 30
0.0
 40
0.02203359375
  0
CIRCLE
  5
F82
330
1F
100
AcDbEntity
  8
0
 62
     2
100
AcDbCircle
 10
8.044089332918433
 20
6.29546680318228
 30
0.0
 40
0.02203359375
  0
CIRCLE
  5
F83
330
1F
100
AcDbEntity
  8
0
 62
     2
100
AcDbCircle
 10
7.860416676668437
 20
6.38952617818228
 30
0.0
 40
0.02203359375
  0
CIRCLE
  5
F84
330
1F
100
AcDbEntity
  8
0
 62
     2
100
AcDbCircle
 10
7.836901832918433
 20
6.295466803182269
 30
0.0
 40
0.02203359375
  0
CIRCLE
  5
F85
330
1F
100
AcDbEntity
  8
0
 62
     2
100
AcDbCircle
 10
7.940495582918437
 20
6.48358555318227
 30
0.0
 40
0.02203359375
  0
CIRCLE
  5
F86
330
1F
100
AcDbEntity
  8
0
 62
     2
100
AcDbCircle
 10
8.147683082918435
 20
6.483585553182277
 30
0.0
 40
0.02203359375
  0
CIRCLE
  5
F87
330
1F
100
AcDbEntity
  8
0
 62
     2
100
AcDbCircle
 10
8.171197926668433
 20
6.389526178182268
 30
0.0
 40
0.02203359375
  0
CIRCLE
  5
F88
330
1F
100
AcDbEntity
  8
0
 62
     2
100
AcDbCircle
 10
8.251276832918449
 20
6.483585553182257
 30
0.0
 40
0.02203359375
  0
CIRCLE
  5
F89
330
1F
100
AcDbEntity
  8
0
 62
     2
100
AcDbCircle
 10
8.044089332918435
 20
6.483585553182281
 30
0.0
 40
0.02203359375
  0
CIRCLE
  5
F8A
330
1F
100
AcDbEntity
  8
0
 62
     2
100
AcDbCircle
 10
8.251276832918449
 20
6.295466803182258
 30
0.0
 40
0.02203359375
  0
CIRCLE
  5
F8B
330
1F
100
AcDbEntity
  8
0
 62
     2
100
AcDbCircle
 10
7.836901832918433
 20
6.483585553182268
 30
0.0
 40
0.02203359375
  0
CIRCLE
  5
F8C
330
1F
100
AcDbEntity
  8
0
 62
     2
100
AcDbCircle
 10
7.756822926668441
 20
6.389526178182271
 30
0.0
 40
0.02203359375
  0
LINE
  5
F8D
330
1F
100
AcDbEntity
  8
0
100
AcDbLine
 10
7.756802374744287
 20
6.531007807813288
 30
0.0
 11
8.308691397005768
 21
6.531007807813298
 31
0.0
  0
LINE
  5
F8E
330
1F
100
AcDbEntity
  8
0
100
AcDbLine
 10
7.713972247209463
 20
6.251155570401627
 30
0.0
 11
8.351521747209451
 21
6.251155570401638
 31
0.0
  0
ENDSEC
  0
SECTION
  2
OBJECTS
  0
DICTIONARY
  5
C
330
0
100
AcDbDictionary
281
     1
  3
ACAD_COLOR
350
73
  3
ACAD_GROUP
350
D
  3
ACAD_LAYOUT
350
1A
  3
ACAD_MATERIAL
350
72
  3
ACAD_MLINESTYLE
350
17
  3
ACAD_PLOTSETTINGS
350
19
  3
ACAD_PLOTSTYLENAME
350
E
  3
ACAD_TABLESTYLE
350
86
  3
AcDbVariableDictionary
350
66
  0
DICTIONARY
  5
EAC
330
1F
100
AcDbDictionary
280
     1
281
     1
  3
ACAD_SORTENTS
360
EAD
  0
DICTIONARY
  5
13C
330
B2
100
AcDbDictionary
280
     1
281
     1
  3
ACAD_SORTENTS
360
13D
  0
DICTIONARY
  5
EBC
330
EAE
100
AcDbDictionary
280
     1
281
     1
  3
ACAD_DIMASSOC
360
EC7
  0
DICTIONARY
  5
F0D
330
EFF
100
AcDbDictionary
280
     1
281
     1
  3
ACAD_DIMASSOC
360
F18
  0
DICTIONARY
  5
F27
330
F19
100
AcDbDictionary
280
     1
281
     1
  3
ACAD_DIMASSOC
360
F32
  0
DICTIONARY
  5
73
102
{ACAD_REACTORS
330
C
102
}
330
C
100
AcDbDictionary
281
     1
  0
DICTIONARY
  5
D
102
{ACAD_REACTORS
330
C
102
}
330
C
100
AcDbDictionary
281
     1
  0
DICTIONARY
  5
1A
102
{ACAD_REACTORS
330
C
102
}
330
C
100
AcDbDictionary
281
     1
  3
Layout1
350
59
  3
Layout2
350
5E
  3
Model
350
22
  0
DICTIONARY
  5
72
102
{ACAD_REACTORS
330
C
102
}
330
C
100
AcDbDictionary
281
     1
  0
DICTIONARY
  5
17
102
{ACAD_REACTORS
330
C
102
}
330
C
100
AcDbDictionary
281
     1
  3
Standard
350
18
  0
DICTIONARY
  5
19
102
{ACAD_REACTORS
330
C
102
}
330
C
100
AcDbDictionary
281
     1
  0
ACDBDICTIONARYWDFLT
  5
E
102
{ACAD_REACTORS
330
C
102
}
330
C
100
AcDbDictionary
281
     1
  3
Normal
350
F
100
AcDbDictionaryWithDefault
340
F
  0
DICTIONARY
  5
86
102
{ACAD_REACTORS
330
C
102
}
330
C
100
AcDbDictionary
281
     1
  3
Standard
350
87
  0
DICTIONARY
  5
66
102
{ACAD_REACTORS
330
C
102
}
330
C
100
AcDbDictionary
281
     1
  3
CTABLESTYLE
350
150
  3
DIMASSOC
350
67
  3
HIDETEXT
350
6B
  0
SORTENTSTABLE
  5
EAD
102
{ACAD_REACTORS
330
EAC
102
}
330
EAC
100
AcDbSortentsTable
330
1F
331
A9A
  5
ABD
331
AD1
  5
AF4
331
A1C
  5
A3F
331
9DD
  5
9DE
331
B57
  5
B7A
331
B20
  5
B43
331
AD9
  5
AFC
331
A63
  5
A86
331
AA2
  5
AC5
331
9E5
  5
9E6
331
A24
  5
A47
331
B28
  5
B4B
331
B5F
  5
B82
331
AE1
  5
B04
331
A6B
  5
A8E
331
AAA
  5
ACD
331
9ED
  5
9EE
331
A2C
  5
A4F
331
9A2
  5
9A3
331
92C
  5
92C
331
B67
  5
ECA
331
B30
  5
B53
331
AE9
  5
B0C
331
AB2
  5
AD5
331
A73
  5
A96
331
8ED
  5
8ED
331
963
  5
963
331
A34
  5
A57
331
9AA
  5
9AB
331
96B
  5
96B
331
8F5
  5
8F5
331
B6F
  5
ED2
331
8BE
  5
8BE
331
934
  5
934
331
9B2
  5
9B3
331
973
  5
973
331
8FD
  5
8FD
331
8C6
  5
8C6
331
93C
  5
93C
331
9BA
  5
9BB
331
97B
  5
97B
331
944
  5
944
331
8CE
  5
8CE
331
905
  5
905
331
EC8
  5
A15
331
ED0
  5
A0D
331
B38
  5
B5B
331
ABA
  5
ADD
331
A7B
  5
A9E
331
AF1
  5
B14
331
A3C
  5
A5F
331
B40
  5
B63
331
B77
  5
EDA
331
AF9
  5
B1C
331
A83
  5
AA6
331
AC2
  5
AE5
331
A05
  5
A28
331
A44
  5
A67
331
B48
  5
B6B
331
B7F
  5
EE2
331
ACA
  5
AED
331
A8B
  5
AAE
331
B01
  5
B24
331
A4C
  5
A6F
331
A0D
  5
A30
331
983
  5
983
331
94C
  5
94C
331
90D
  5
90D
331
B09
  5
B2C
331
A93
  5
AB6
331
8D6
  5
8D6
331
9C2
  5
9C3
331
A15
  5
A38
331
98B
  5
98C
331
915
  5
915
331
8DE
  5
8DE
331
954
  5
954
331
9CA
  5
9CB
331
9D2
  5
9D3
331
91D
  5
91D
331
8E6
  5
8E6
331
95C
  5
95C
331
993
  5
994
331
99B
  5
99C
331
925
  5
925
331
ED8
  5
A05
331
EE0
  5
9FD
331
B50
  5
B73
331
AD2
  5
AF5
331
A5C
  5
A7F
331
A9B
  5
ABE
331
9DE
  5
9DF
331
A1D
  5
A40
331
B58
  5
B7B
331
B21
  5
B44
331
ADA
  5
AFD
331
AA3
  5
AC6
331
A64
  5
A87
331
A25
  5
A48
331
9E6
  5
9E7
331
B60
  5
B83
331
B29
  5
B4C
331
AAB
  5
ACE
331
A6C
  5
A8F
331
AE2
  5
B05
331
A2D
  5
A50
331
9EE
  5
9EF
331
9A3
  5
9A4
331
964
  5
964
331
B68
  5
ECB
331
B31
  5
B54
331
AEA
  5
B0D
331
A74
  5
A97
331
AB3
  5
AD6
331
8EE
  5
8EE
331
92D
  5
92D
331
A35
  5
A58
331
9AB
  5
9AC
331
96C
  5
96C
331
935
  5
935
331
8BF
  5
8BF
331
8F6
  5
8F6
331
9B3
  5
9B4
331
93D
  5
93D
331
8FE
  5
8FE
331
140
  5
140
331
8C7
  5
8C7
331
974
  5
974
331
9BB
  5
9BC
331
97C
  5
97C
331
906
  5
906
331
8CF
  5
8CF
331
945
  5
945
331
EC9
  5
A17
331
ED1
  5
A0E
331
B70
  5
ED3
331
B39
  5
B5C
331
AF2
  5
B15
331
A7C
  5
A9F
331
9FE
  5
A21
331
A3D
  5
A60
331
B41
  5
B64
331
B78
  5
EDB
331
AFA
  5
B1D
331
AC3
  5
AE6
331
A84
  5
AA7
331
A45
  5
A68
331
A06
  5
A29
331
B49
  5
B6C
331
B80
  5
EE3
331
ACB
  5
AEE
331
A8C
  5
AAF
331
B02
  5
B25
331
A0E
  5
A31
331
9C3
  5
9C4
331
984
  5
985
331
90E
  5
90E
331
A94
  5
AB7
331
B0A
  5
B2D
331
8D7
  5
8D7
331
94D
  5
94D
331
A16
  5
A39
331
9CB
  5
9CC
331
955
  5
955
331
368
  5
368
331
8DF
  5
8DF
331
916
  5
916
331
98C
  5
98D
331
95D
  5
95D
331
91E
  5
91E
331
8E7
  5
8E7
331
994
  5
995
331
9D3
  5
9D4
331
99C
  5
99D
331
926
  5
926
331
EE1
  5
9FE
331
B1A
  5
B3D
331
B51
  5
B74
331
A9C
  5
ABF
331
A5D
  5
A80
331
AD3
  5
AF6
331
9DF
  5
9E0
331
A1E
  5
A41
331
B59
  5
B7C
331
B22
  5
B45
331
ADB
  5
AFE
331
A65
  5
A88
331
AA4
  5
AC7
331
9E7
  5
9E8
331
A26
  5
A49
331
B61
  5
E51
331
B2A
  5
B4D
331
AE3
  5
B06
331
A6D
  5
A90
331
AAC
  5
ACF
331
9EF
  5
9F0
331
A2E
  5
A51
331
9A4
  5
9A5
331
92E
  5
92E
331
B32
  5
B55
331
B69
  5
ECC
331
AEB
  5
B0E
331
AB4
  5
AD7
331
A75
  5
A98
331
8EF
  5
8EF
331
965
  5
965
331
A36
  5
A59
331
9AC
  5
9AD
331
96D
  5
96D
331
8F7
  5
8F7
331
8C0
  5
8C0
331
936
  5
936
331
9B4
  5
9B5
331
975
  5
975
331
8FF
  5
8FF
331
8C8
  5
8C8
331
93E
  5
93E
331
9BC
  5
9BD
331
97D
  5
97D
331
946
  5
946
331
907
  5
907
331
ECA
  5
A18
331
ED2
  5
A0F
331
B3A
  5
B5D
331
B71
  5
ED4
331
ABC
  5
ADF
331
A7D
  5
AA0
331
AF3
  5
B16
331
A3E
  5
A61
331
9FF
  5
A22
331
B42
  5
B65
331
B79
  5
EDC
331
AFB
  5
B1E
331
A85
  5
AA8
331
AC4
  5
AE7
331
A07
  5
A2A
331
A46
  5
A69
331
B4A
  5
B6D
331
B81
  5
EE4
331
8D0
  5
8D0
331
ACC
  5
AEF
331
B03
  5
B26
331
A8D
  5
AB0
331
A0F
  5
A32
331
9C4
  5
9C5
331
94E
  5
94E
331
90F
  5
90F
331
A95
  5
AB8
331
8D8
  5
8D8
331
985
  5
986
331
A17
  5
A3A
331
9CC
  5
9CD
331
917
  5
917
331
369
  5
369
331
8E0
  5
8E0
331
956
  5
956
331
98D
  5
98E
331
9D4
  5
9D5
331
95E
  5
95E
331
91F
  5
91F
331
995
  5
996
331
99D
  5
99E
331
927
  5
927
331
EDA
  5
A07
331
EE2
  5
9FF
331
EAB
  5
984
331
9D8
  5
9D9
331
B52
  5
B75
331
B1B
  5
B3E
331
AD4
  5
AF7
331
A5E
  5
A81
331
A9D
  5
AC0
331
9E0
  5
9E1
331
A1F
  5
A42
331
B5A
  5
B7D
331
B23
  5
B46
331
ADC
  5
AFF
331
AA5
  5
AC8
331
A66
  5
A89
331
A27
  5
A4A
331
9E8
  5
9E9
331
B2B
  5
B4E
331
B62
  5
E85
331
AAD
  5
AD0
331
AE4
  5
B07
331
8E8
  5
8E8
331
9F0
  5
9F1
331
A2F
  5
A52
331
9A5
  5
9A6
331
966
  5
966
331
B6A
  5
ECD
331
B33
  5
B56
331
AEC
  5
B0F
331
A76
  5
A99
331
AB5
  5
AD8
331
8F0
  5
8F0
331
92F
  5
92F
331
A37
  5
A5A
331
9AD
  5
9AE
331
96E
  5
96E
331
937
  5
937
331
8F8
  5
8F8
331
8C1
  5
8C1
331
9B5
  5
9B6
331
93F
  5
93F
331
900
  5
900
331
8C9
  5
8C9
331
976
  5
976
331
9BD
  5
9BE
331
97E
  5
97E
331
947
  5
947
331
ECB
  5
A1A
331
ED3
  5
A10
331
9F8
  5
A1B
331
B72
  5
ED5
331
B3B
  5
B5E
331
AF4
  5
B17
331
ABD
  5
AE0
331
A7E
  5
AA1
331
A3F
  5
A62
331
A00
  5
A23
331
B43
  5
B66
331
B7A
  5
EDD
331
AC5
  5
AE8
331
A86
  5
AA9
331
AFC
  5
B1F
331
A08
  5
A2B
331
908
  5
908
331
B4B
  5
B6E
331
ACD
  5
AF0
331
B82
  5
EE5
331
A8E
  5
AB1
331
8D1
  5
8D1
331
A10
  5
A33
331
9C5
  5
9C6
331
986
  5
987
331
94F
  5
94F
331
A96
  5
AB9
331
8D9
  5
8D9
331
910
  5
910
331
9CD
  5
9CE
331
957
  5
957
331
8E1
  5
8E1
331
918
  5
918
331
98E
  5
98F
331
95F
  5
95F
331
920
  5
920
331
996
  5
997
331
9D5
  5
9D6
331
99E
  5
99F
331
EDB
  5
A08
331
EE3
  5
A00
331
A18
  5
A3B
331
9D9
  5
9DA
331
B1C
  5
B3F
331
B53
  5
B76
331
AD5
  5
AF8
331
A5F
  5
A82
331
A9E
  5
AC1
331
9E1
  5
9E2
331
A20
  5
A43
331
B5B
  5
B7E
331
B24
  5
B47
331
ADD
  5
B00
331
A67
  5
A8A
331
AA6
  5
AC9
331
9E9
  5
9EA
331
A28
  5
A4B
331
928
  5
928
331
B63
  5
EAB
331
AE5
  5
B08
331
A6F
  5
A92
331
AAE
  5
AD1
331
8E9
  5
8E9
331
9F1
  5
9F2
331
A30
  5
A53
331
9A6
  5
9A7
331
967
  5
967
331
8F1
  5
8F1
331
B34
  5
B57
331
B6B
  5
ECE
331
AED
  5
B10
331
AB6
  5
AD9
331
A77
  5
A9A
331
8BA
  5
8BA
331
930
  5
930
331
9AE
  5
9AF
331
96F
  5
96F
331
8F9
  5
8F9
331
8C2
  5
8C2
331
938
  5
938
331
9B6
  5
9B7
331
977
  5
977
331
901
  5
901
331
8CA
  5
8CA
331
940
  5
940
331
9BE
  5
9BF
331
97F
  5
97F
331
ECC
  5
A09
331
ED4
  5
A11
331
A38
  5
A5B
331
9F9
  5
A1C
331
B3C
  5
B5F
331
B73
  5
ED6
331
ABE
  5
AE1
331
A7F
  5
AA2
331
AF5
  5
B18
331
A01
  5
A24
331
A40
  5
A63
331
B44
  5
B67
331
B7B
  5
EDE
331
AFD
  5
B20
331
A87
  5
AAA
331
AC6
  5
AE9
331
A09
  5
A2C
331
A48
  5
A6B
331
948
  5
948
331
909
  5
909
331
B4C
  5
B6F
331
B83
  5
EE6
331
ACE
  5
AF1
331
B05
  5
B28
331
A8F
  5
AB2
331
8D2
  5
8D2
331
A11
  5
A34
331
9C6
  5
9C7
331
950
  5
950
331
911
  5
911
331
A97
  5
ABA
331
8DA
  5
8DA
331
987
  5
988
331
9CE
  5
9CF
331
919
  5
919
331
8E2
  5
8E2
331
958
  5
958
331
98F
  5
990
331
9D6
  5
9D7
331
997
  5
998
331
921
  5
921
331
99F
  5
9A0
331
EDC
  5
9F9
331
EE4
  5
A01
331
EFC
  5
A19
331
9DA
  5
9DB
331
A19
  5
A3C
331
B54
  5
B77
331
B1D
  5
B40
331
AD6
  5
AF9
331
A60
  5
A83
331
A9F
  5
AC2
331
A21
  5
A44
331
9E2
  5
9E3
331
B5C
  5
B7F
331
B25
  5
B48
331
ADE
  5
B01
331
AA7
  5
ACA
331
A68
  5
A8B
331
A29
  5
A4C
331
9EA
  5
9EB
331
960
  5
960
331
8EA
  5
8EA
331
929
  5
929
331
AE6
  5
B09
331
AAF
  5
AD2
331
B2D
  5
B50
331
B64
  5
EAE
331
9F2
  5
9F3
331
A31
  5
A54
331
A70
  5
A93
331
9A7
  5
9A8
331
968
  5
968
331
8F2
  5
8F2
331
8BB
  5
8BB
331
931
  5
931
331
B6C
  5
ECF
331
B35
  5
B58
331
AEE
  5
B11
331
AB7
  5
ADA
331
970
  5
970
331
939
  5
939
331
8FA
  5
8FA
331
8C3
  5
8C3
331
9AF
  5
9B0
331
9B7
  5
9B8
331
978
  5
978
331
902
  5
902
331
8CB
  5
8CB
331
941
  5
941
331
9BF
  5
9C0
331
ECD
  5
A0A
331
ED5
  5
A12
331
A78
  5
A9B
331
A39
  5
A5C
331
B74
  5
ED7
331
B3D
  5
B60
331
AF6
  5
B19
331
ABF
  5
AE2
331
A80
  5
AA3
331
A41
  5
A64
331
A02
  5
A25
331
B45
  5
B68
331
B7C
  5
EDF
331
AC7
  5
AEA
331
A88
  5
AAB
331
AFE
  5
B21
331
A49
  5
A6C
331
A0A
  5
A2D
331
980
  5
980
331
90A
  5
90A
331
B4D
  5
B70
331
8D3
  5
8D3
331
ACF
  5
AF2
331
A90
  5
AB3
331
B06
  5
B29
331
949
  5
949
331
A12
  5
A35
331
9C7
  5
9C8
331
951
  5
951
331
8DB
  5
8DB
331
912
  5
912
331
988
  5
989
331
9CF
  5
9D0
331
959
  5
959
331
91A
  5
91A
331
8E3
  5
8E3
331
990
  5
991
331
998
  5
999
331
922
  5
922
331
9D7
  5
9D8
331
EDD
  5
9FA
331
EE5
  5
A02
331
EFD
  5
A16
331
EAE
  5
EFD
331
A98
  5
ABB
331
A1A
  5
A3D
331
9DB
  5
9DC
331
B55
  5
B78
331
B1E
  5
B41
331
AD7
  5
AFA
331
A61
  5
A84
331
AA0
  5
AC3
331
9E3
  5
9E4
331
A22
  5
A45
331
B5D
  5
B80
331
B26
  5
B49
331
ADF
  5
B02
331
A69
  5
A8C
331
AA8
  5
ACB
331
9EB
  5
9EC
331
A2A
  5
A4D
331
961
  5
961
331
92A
  5
92A
331
B65
  5
EC8
331
B2E
  5
B51
331
AB0
  5
AD3
331
AE7
  5
B0A
331
8EB
  5
8EB
331
9A0
  5
9A1
331
A32
  5
A55
331
9F3
  5
9F4
331
9A8
  5
9A9
331
969
  5
969
331
8F3
  5
8F3
331
B36
  5
B59
331
B6D
  5
ED0
331
AEF
  5
B12
331
8BC
  5
8BC
331
932
  5
932
331
9B0
  5
9B1
331
971
  5
971
331
8FB
  5
8FB
331
8C4
  5
8C4
331
93A
  5
93A
331
9B8
  5
9B9
331
979
  5
979
331
903
  5
903
331
8CC
  5
8CC
331
942
  5
942
331
ECE
  5
A0B
331
ED6
  5
A13
331
A79
  5
A9C
331
A3A
  5
A5D
331
9FB
  5
A1E
331
B3E
  5
B61
331
B75
  5
ED8
331
AF7
  5
B1A
331
A81
  5
AA4
331
AC0
  5
AE3
331
A03
  5
A26
331
A42
  5
A65
331
B46
  5
B69
331
B7D
  5
EE0
331
AC8
  5
AEB
331
A89
  5
AAC
331
AFF
  5
B22
331
A0B
  5
A2E
331
A4A
  5
A6D
331
981
  5
981
331
94A
  5
94A
331
90B
  5
90B
331
B4E
  5
B71
331
A91
  5
AB4
331
B07
  5
B2A
331
8D4
  5
8D4
331
9C0
  5
9C1
331
A13
  5
A36
331
989
  5
98A
331
913
  5
913
331
8DC
  5
8DC
331
952
  5
952
331
9C8
  5
9C9
331
9D0
  5
9D1
331
91B
  5
91B
331
8E4
  5
8E4
331
95A
  5
95A
331
991
  5
992
331
999
  5
99A
331
923
  5
923
331
EDE
  5
9FB
331
EE6
  5
A03
331
AD0
  5
AF3
331
A99
  5
ABC
331
9DC
  5
9DD
331
A1B
  5
A3E
331
B56
  5
B79
331
B1F
  5
B42
331
AD8
  5
AFB
331
AA1
  5
AC4
331
A62
  5
A85
331
A23
  5
A46
331
9E4
  5
9E5
331
B5E
  5
B81
331
B27
  5
B4A
331
AE0
  5
B03
331
AA9
  5
ACC
331
A6A
  5
A8D
331
A2B
  5
A4E
331
9EC
  5
9ED
331
9A1
  5
9A2
331
962
  5
962
331
B66
  5
EC9
331
AE8
  5
B0B
331
A72
  5
A95
331
AB1
  5
AD4
331
8EC
  5
8EC
331
92B
  5
92B
331
A33
  5
A56
331
9A9
  5
9AA
331
96A
  5
96A
331
933
  5
933
331
B6E
  5
ED1
331
B37
  5
B5A
331
8BD
  5
8BD
331
8F4
  5
8F4
331
972
  5
972
331
93B
  5
93B
331
8FC
  5
8FC
331
8C5
  5
8C5
331
9B1
  5
9B2
331
9B9
  5
9BA
331
97A
  5
97A
331
904
  5
904
331
8CD
  5
8CD
331
943
  5
943
331
ECF
  5
A0C
331
ED7
  5
A14
331
AF0
  5
B13
331
A7A
  5
A9D
331
AB9
  5
ADC
331
9FC
  5
A1F
331
A3B
  5
A5E
331
B76
  5
ED9
331
B3F
  5
B62
331
AF8
  5
B1B
331
AC1
  5
AE4
331
A82
  5
AA5
331
A43
  5
A66
331
A04
  5
A27
331
B47
  5
B6A
331
B7E
  5
EE1
331
AC9
  5
AEC
331
A8A
  5
AAD
331
B00
  5
B23
331
A4B
  5
A6E
331
A0C
  5
A2F
331
9C1
  5
9C2
331
982
  5
982
331
90C
  5
90C
331
B4F
  5
B72
331
A92
  5
AB5
331
B08
  5
B2B
331
8D5
  5
8D5
331
94B
  5
94B
331
A14
  5
A37
331
9C9
  5
9CA
331
953
  5
953
331
8DD
  5
8DD
331
914
  5
914
331
98A
  5
98B
331
95B
  5
95B
331
91C
  5
91C
331
8E5
  5
8E5
331
992
  5
993
331
9D1
  5
9D2
331
99A
  5
99B
331
924
  5
924
331
EDF
  5
9FC
331
EE7
  5
A04
  0
SORTENTSTABLE
  5
13D
102
{ACAD_REACTORS
330
13C
102
}
330
13C
100
AcDbSortentsTable
330
B2
331
129
  5
128
331
127
  5
126
331
125
  5
124
331
12C
  5
12B
331
123
  5
122
331
121
  5
12D
331
12A
  5
129
331
128
  5
127
331
126
  5
125
331
12D
  5
12C
331
124
  5
123
331
12B
  5
12A
331
122
  5
121
  0
DIMASSOC
  5
EC7
102
{ACAD_REACTORS
330
EBC
102
}
330
EBC
100
AcDbDimAssoc
330
EAE
 90
        3
 70
     0
 71
     0
  1
AcDbOsnapPointRef
 72
    13
331
8C2
 73
     2
 91
        0
 40
0.0
 10
0.0
 20
0.0
 30
2.000000000000000E+50
 75
     0
  1
AcDbOsnapPointRef
 72
    13
331
EAB
 73
     2
 91
        0
 40
0.0
 10
0.0
 20
0.0
 30
2.000000000000000E+50
 75
     0
  0
DIMASSOC
  5
F18
102
{ACAD_REACTORS
330
F0D
102
}
330
F0D
100
AcDbDimAssoc
330
EFF
 90
        3
 70
     0
 71
     0
  1
AcDbOsnapPointRef
 72
     6
331
ECB
 73
     2
 91
        0
 40
1.0
 10
0.0
 20
0.0
 30
0.0
332
EFD
 74
     2
 92
        0
 75
     0
  1
AcDbOsnapPointRef
 72
     1
331
EFC
 73
     2
 91
        0
 40
1.0
 10
0.0
 20
0.0
 30
2.000000000000000E+50
 75
     0
  0
DIMASSOC
  5
F32
102
{ACAD_REACTORS
330
F27
102
}
330
F27
100
AcDbDimAssoc
330
F19
 90
        3
 70
     0
 71
     0
  1
AcDbOsnapPointRef
 72
    13
331
EDA
 73
     2
 91
        0
 40
0.0
 10
0.0
 20
0.0
 30
2.000000000000000E+50
 75
     0
  1
AcDbOsnapPointRef
 72
    13
331
EDB
 73
     2
 91
        0
 40
0.0
 10
0.0
 20
0.0
 30
2.000000000000000E+50
 75
     0
  0
LAYOUT
  5
59
102
{ACAD_REACTORS
330
1A
102
}
330
1A
100
AcDbPlotSettings
  1

  2
None
  4

  6

 40
0.0
 41
0.0
 42
0.0
 43
0.0
 44
0.0
 45
0.0
 46
0.0
 47
0.0
 48
0.0
 49
0.0
140
0.0
141
0.0
142
1.0
143
1.0
 70
   688
 72
     0
 73
     0
 74
     5
  7
monochrome.ctb
 75
    16
147
1.0
 76
     0
 77
     2
 78
   300
148
0.0
149
0.0
100
AcDbLayout
  1
Layout1
 70
     1
 71
     1
 10
0.0
 20
0.0
 11
12.0
 21
9.0
 12
0.0
 22
0.0
 32
0.0
 14
0.0
 24
0.0
 34
0.0
 15
0.0
 25
0.0
 35
0.0
146
0.0
 13
0.0
 23
0.0
 33
0.0
 16
1.0
 26
0.0
 36
0.0
 17
0.0
 27
1.0
 37
0.0
 76
     0
330
58
  0
LAYOUT
  5
5E
102
{ACAD_REACTORS
330
1A
102
}
330
1A
100
AcDbPlotSettings
  1

  2
None
  4

  6

 40
0.0
 41
0.0
 42
0.0
 43
0.0
 44
0.0
 45
0.0
 46
0.0
 47
0.0
 48
0.0
 49
0.0
140
0.0
141
0.0
142
1.0
143
1.0
 70
   688
 72
     0
 73
     0
 74
     5
  7
monochrome.ctb
 75
    16
147
1.0
 76
     0
 77
     2
 78
   300
148
0.0
149
0.0
100
AcDbLayout
  1
Layout2
 70
     1
 71
     2
 10
0.0
 20
0.0
 11
12.0
 21
9.0
 12
0.0
 22
0.0
 32
0.0
 14
0.0
 24
0.0
 34
0.0
 15
0.0
 25
0.0
 35
0.0
146
0.0
 13
0.0
 23
0.0
 33
0.0
 16
1.0
 26
0.0
 36
0.0
 17
0.0
 27
1.0
 37
0.0
 76
     0
330
5D
  0
LAYOUT
  5
22
102
{ACAD_REACTORS
330
1A
102
}
330
1A
100
AcDbPlotSettings
  1

  2
\\Fdlsv03\FDLPR059
  4
Letter
  6

 40
7.143749713897705
 41
5.027085304260253
 42
7.14373779296875
 43
5.027069091796875
 44
215.8999938964844
 45
279.3999938964844
 46
0.0
 47
4.770938533461873
 48
0.0
 49
0.0
140
0.0
141
0.0
142
1.0
143
1.114636483475749
 70
 11956
 72
     0
 73
     1
 74
     1
  7
monochrome.ctb
 75
     0
147
0.8971534799235348
 76
     0
 77
     2
 78
   300
148
0.0093010481555268
149
-0.8301824179829353
100
AcDbLayout
  1
Model
 70
     1
 71
     0
 10
0.0
 20
0.0
 11
12.0
 21
9.0
 12
0.0
 22
0.0
 32
0.0
 14
0.0
 24
0.0
 34
0.0
 15
0.0
 25
0.0
 35
0.0
146
0.0
 13
0.0
 23
0.0
 33
0.0
 16
1.0
 26
0.0
 36
0.0
 17
0.0
 27
1.0
 37
0.0
 76
     0
330
1F
1001
ACAD_PSEXT
1000
\\Fdlsv03\FDLPR059
1000
HP LaserJet 5Si MX
1000
FDL - 4th Floor - Engineering
1000
Formerly FSHPLJ5SI-PCL-ENG
1070
     0
  0
MLINESTYLE
  5
18
102
{ACAD_REACTORS
330
17
102
}
330
17
100
AcDbMlineStyle
  2
STANDARD
 70
     0
  3

 62
   256
 51
90.0
 52
90.0
 71
     2
 49
0.5
 62
   256
  6
BYLAYER
 49
-0.5
 62
   256
  6
BYLAYER
  0
ACDBPLACEHOLDER
  5
F
102
{ACAD_REACTORS
330
E
102
}
330
E
  0
TABLESTYLE
  5
87
102
{ACAD_REACTORS
330
86
102
}
330
86
100
AcDbTableStyle
  3
Standard
 70
     0
 71
     0
 40
0.06
 41
0.06
280
     0
281
     0
  7
Standard
140
0.18
170
     2
 62
     0
 63
     7
283
     0
274
    -2
284
     1
 64
     0
275
    -2
285
     1
 65
     0
276
    -2
286
     1
 66
     0
277
    -2
287
     1
 67
     0
278
    -2
288
     1
 68
     0
279
    -2
289
     1
 69
     0
  7
Standard
140
0.25
170
     5
 62
     0
 63
     7
283
     0
274
    -2
284
     1
 64
     0
275
    -2
285
     1
 65
     0
276
    -2
286
     1
 66
     0
277
    -2
287
     1
 67
     0
278
    -2
288
     1
 68
     0
279
    -2
289
     1
 69
     0
  7
Standard
140
0.18
170
     5
 62
     0
 63
     7
283
     0
274
    -2
284
     1
 64
     0
275
    -2
285
     1
 65
     0
276
    -2
286
     1
 66
     0
277
    -2
287
     1
 67
     0
278
    -2
288
     1
 68
     0
279
    -2
289
     1
 69
     0
  0
DICTIONARYVAR
  5
150
102
{ACAD_REACTORS
330
66
102
}
330
66
100
DictionaryVariables
280
     0
  1
STANDARD
  0
DICTIONARYVAR
  5
67
102
{ACAD_REACTORS
330
66
102
}
330
66
100
DictionaryVariables
280
     0
  1
2
  0
DICTIONARYVAR
  5
6B
102
{ACAD_REACTORS
330
66
102
}
330
66
100
DictionaryVariables
280
     0
  1
1
  0
ENDSEC
  0
EOF
