  0
SECTION
  2
HEADER
  9
$ACADVER
  1
AC1009
  9
$INSBASE
 10
0.0
 20
0.0
 30
0.0
  9
$EXTMIN
 10
-0.052636
 20
-5.027842
 30
0.0
  9
$EXTMAX
 10
8.321811
 20
2.93537
 30
0.0
  9
$LIMMIN
 10
0.0
 20
0.0
  9
$LIMMAX
 10
12.0
 20
9.0
  9
$ORTHOMODE
 70
     0
  9
$REGENMODE
 70
     1
  9
$FILLMODE
 70
     1
  9
$QTEXTMODE
 70
     0
  9
$MIRRTEXT
 70
     1
  9
$DRAGMODE
 70
     2
  9
$LTSCALE
 40
1.0
  9
$OSMODE
 70
     0
  9
$ATTMODE
 70
     1
  9
$TEXTSIZE
 40
0.1
  9
$TRACEWID
 40
0.02
  9
$TEXTSTYLE
  7
ROMANS
  9
$CLAYER
  8
0
  9
$CELTYPE
  6
BYLAYER
  9
$CECOLOR
 62
   256
  9
$DIMSCALE
 40
1.0
  9
$DIMASZ
 40
0.1
  9
$DIMEXO
 40
0.0625
  9
$DIMDLI
 40
0.38
  9
$DIMRND
 40
0.0
  9
$DIMDLE
 40
0.0
  9
$DIMEXE
 40
0.1
  9
$DIMTP
 40
0.0
  9
$DIMTM
 40
0.0
  9
$DIMTXT
 40
0.1
  9
$DIMCEN
 40
0.09
  9
$DIMTSZ
 40
0.0
  9
$DIMTOL
 70
     0
  9
$DIMLIM
 70
     0
  9
$DIMTIH
 70
     1
  9
$DIMTOH
 70
     1
  9
$DIMSE1
 70
     0
  9
$DIMSE2
 70
     0
  9
$DIMTAD
 70
     0
  9
$DIMZIN
 70
     0
  9
$DIMBLK
  1

  9
$DIMASO
 70
     1
  9
$DIMSHO
 70
     0
  9
$DIMPOST
  1

  9
$DIMAPOST
  1

  9
$DIMALT
 70
     0
  9
$DIMALTD
 70
     2
  9
$DIMALTF
 40
25.4
  9
$DIMLFAC
 40
1.0
  9
$DIMTOFL
 70
     0
  9
$DIMTVP
 40
0.0
  9
$DIMTIX
 70
     1
  9
$DIMSOXD
 70
     0
  9
$DIMSAH
 70
     0
  9
$DIMBLK1
  1

  9
$DIMBLK2
  1

  9
$DIMSTYLE
  2
STANDARD
  9
$DIMCLRD
 70
     0
  9
$DIMCLRE
 70
     0
  9
$DIMCLRT
 70
     0
  9
$DIMTFAC
 40
1.0
  9
$DIMGAP
 40
0.09
  9
$LUNITS
 70
     2
  9
$LUPREC
 70
     4
  9
$SKETCHINC
 40
0.1
  9
$FILLETRAD
 40
0.0
  9
$AUNITS
 70
     0
  9
$AUPREC
 70
     0
  9
$MENU
  1
acad
  9
$ELEVATION
 40
0.0
  9
$PELEVATION
 40
0.0
  9
$THICKNESS
 40
0.0
  9
$LIMCHECK
 70
     0
  9
$BLIPMODE
 70
     0
  9
$CHAMFERA
 40
0.04
  9
$CHAMFERB
 40
0.04
  9
$SKPOLY
 70
     0
  9
$TDCREATE
 40
2450519.399505
  9
$TDUPDATE
 40
2451655.628024
  9
$TDINDWG
 40
0.373131
  9
$TDUSRTIMER
 40
0.373131
  9
$USRTIMER
 70
     1
  9
$ANGBASE
 50
0.0
  9
$ANGDIR
 70
     0
  9
$PDMODE
 70
     0
  9
$PDSIZE
 40
0.0
  9
$PLINEWID
 40
0.025
  9
$COORDS
 70
     2
  9
$SPLFRAME
 70
     0
  9
$SPLINETYPE
 70
     6
  9
$SPLINESEGS
 70
     8
  9
$ATTDIA
 70
     0
  9
$ATTREQ
 70
     1
  9
$HANDLING
 70
     1
  9
$HANDSEED
  5
1FF2
  9
$SURFTAB1
 70
     6
  9
$SURFTAB2
 70
     6
  9
$SURFTYPE
 70
     6
  9
$SURFU
 70
     6
  9
$SURFV
 70
     6
  9
$UCSNAME
  2

  9
$UCSORG
 10
0.0
 20
0.0
 30
0.0
  9
$UCSXDIR
 10
1.0
 20
0.0
 30
0.0
  9
$UCSYDIR
 10
0.0
 20
1.0
 30
0.0
  9
$PUCSNAME
  2

  9
$PUCSORG
 10
0.0
 20
0.0
 30
0.0
  9
$PUCSXDIR
 10
1.0
 20
0.0
 30
0.0
  9
$PUCSYDIR
 10
0.0
 20
1.0
 30
0.0
  9
$USERI1
 70
     0
  9
$USERI2
 70
     0
  9
$USERI3
 70
     0
  9
$USERI4
 70
     0
  9
$USERI5
 70
     0
  9
$USERR1
 40
0.0
  9
$USERR2
 40
0.0
  9
$USERR3
 40
0.0
  9
$USERR4
 40
0.0
  9
$USERR5
 40
0.0
  9
$WORLDVIEW
 70
     1
  9
$SHADEDGE
 70
     3
  9
$SHADEDIF
 70
    70
  9
$TILEMODE
 70
     1
  9
$MAXACTVP
 70
    16
  9
$PLIMCHECK
 70
     0
  9
$PEXTMIN
 10
1.000000E+020
 20
1.000000E+020
 30
1.000000E+020
  9
$PEXTMAX
 10
-1.000000E+020
 20
-1.000000E+020
 30
-1.000000E+020
  9
$PLIMMIN
 10
0.0
 20
0.0
  9
$PLIMMAX
 10
12.0
 20
9.0
  9
$UNITMODE
 70
     0
  9
$VISRETAIN
 70
     0
  9
$PLINEGEN
 70
     0
  9
$PSLTSCALE
 70
     0
  0
ENDSEC
  0
SECTION
  2
TABLES
  0
TABLE
  2
VPORT
 70
     2
  0
VPORT
  2
*ACTIVE
 70
     0
 10
0.0
 20
0.0
 11
1.0
 21
1.0
 12
7.637419
 22
-0.291784
 13
0.0
 23
0.0
 14
1.0
 24
1.0
 15
0.0
 25
0.0
 16
0.0
 26
0.0
 36
1.0
 17
0.0
 27
0.0
 37
0.0
 40
10.30417
 41
1.772059
 42
50.0
 43
0.0
 44
0.0
 50
0.0
 51
0.0
 71
     0
 72
   100
 73
     1
 74
     0
 75
     0
 76
     0
 77
     0
 78
     0
  0
ENDTAB
  0
TABLE
  2
LTYPE
 70
     1
  0
LTYPE
  2
CONTINUOUS
 70
     0
  3
Solid line
 72
    65
 73
     0
 40
0.0
  0
ENDTAB
  0
TABLE
  2
LAYER
 70
     4
  0
LAYER
  2
0
 70
     0
 62
     7
  6
CONTINUOUS
  0
LAYER
  2
ASSEMBLY
 70
     0
 62
     2
  6
CONTINUOUS
  0
LAYER
  2
6
 70
     0
 62
     6
  6
CONTINUOUS
  0
LAYER
  2
DEFPOINTS
 70
     0
 62
     7
  6
CONTINUOUS
  0
ENDTAB
  0
TABLE
  2
STYLE
 70
     2
  0
STYLE
  2
STANDARD
 70
     0
 40
0.0
 41
1.0
 50
0.0
 71
     0
 42
0.2
  3
txt
  4

  0
STYLE
  2
ROMANS
 70
     0
 40
0.1
 41
1.0
 50
0.0
 71
     0
 42
0.1
  3
romans
  4

  0
ENDTAB
  0
TABLE
  2
VIEW
 70
     2
  0
VIEW
  2
BD
 70
     0
 40
10.157235
 10
7.145732
 20
-0.376192
 41
16.151134
 11
0.0
 21
0.0
 31
1.0
 12
0.0
 22
0.0
 32
0.0
 42
50.0
 43
0.0
 44
0.0
 50
0.0
 71
     0
  0
VIEW
  2
ASS
 70
     0
 40
10.189532
 10
7.145732
 20
-0.376192
 41
16.151134
 11
0.0
 21
0.0
 31
1.0
 12
0.0
 22
0.0
 32
0.0
 42
50.0
 43
0.0
 44
0.0
 50
0.0
 71
     0
  0
ENDTAB
  0
TABLE
  2
UCS
 70
     0
  0
ENDTAB
  0
TABLE
  2
APPID
 70
     1
  0
APPID
  2
ACAD
 70
     0
  0
ENDTAB
  0
TABLE
  2
DIMSTYLE
 70
     1
  0
DIMSTYLE
  2
STANDARD
 70
     0
  3

  4

  5

  6

  7

 40
1.0
 41
0.18
 42
0.0625
 43
0.38
 44
0.18
 45
0.0
 46
0.0
 47
0.0
 48
0.0
140
0.18
141
0.09
142
0.0
143
25.4
144
1.0
145
0.0
146
1.0
147
0.09
 71
     0
 72
     0
 73
     1
 74
     1
 75
     0
 76
     0
 77
     0
 78
     0
170
     0
171
     2
172
     0
173
     0
174
     0
175
     0
176
     0
177
     0
178
     0
  0
ENDTAB
  0
ENDSEC
  0
SECTION
  2
BLOCKS
  0
BLOCK
  8
0
  2
$MODEL_SPACE
 70
     0
 10
0.0
 20
0.0
 30
0.0
  3
$MODEL_SPACE
  1

  0
ENDBLK
  5
3F
  8
0
  0
BLOCK
 67
     1
  8
0
  2
$PAPER_SPACE
 70
     0
 10
0.0
 20
0.0
 30
0.0
  3
$PAPER_SPACE
  1

  0
ENDBLK
  5
3D
 67
     1
  8
0
  0
BLOCK
  8
0
  2
RAIL
 70
     0
 10
0.0
 20
0.0
 30
0.0
  3
RAIL
  1

  0
TRACE
  5
1BF8
  8
6
 10
0.306922
 20
-0.347359
 30
0.0
 11
0.306922
 21
-0.387359
 31
0.0
 12
1.226922
 22
-0.347359
 32
0.0
 13
1.226922
 23
-0.387359
 33
0.0
  0
POLYLINE
  5
1BF9
  8
6
 66
     1
 10
0.0
 20
0.0
 30
0.0
 40
0.04
 41
0.04
  0
VERTEX
  5
1FE2
  8
6
 10
0.255422
 20
-0.163559
 30
0.0
 42
0.414214
  0
VERTEX
  5
1FE3
  8
6
 10
0.203922
 20
-0.112059
 30
0.0
 42
1.0
  0
SEQEND
  5
1FE4
  8
6
  0
TRACE
  5
1BFA
  8
6
 10
0.077922
 20
-0.092059
 30
0.0
 11
0.077922
 21
-0.132059
 31
0.0
 12
0.203922
 22
-0.092059
 32
0.0
 13
0.203922
 23
-0.132059
 33
0.0
  0
TRACE
  5
1BFB
  8
6
 10
0.275422
 20
-0.163559
 30
0.0
 11
0.235422
 21
-0.163559
 31
0.0
 12
0.275422
 22
-0.315859
 32
0.0
 13
0.235422
 23
-0.315859
 33
0.0
  0
POLYLINE
  5
1BFC
  8
6
 66
     1
 10
0.0
 20
0.0
 30
0.0
 40
0.04
 41
0.04
  0
VERTEX
  5
1FE5
  8
6
 10
0.255422
 20
-0.315859
 30
0.0
 42
0.414214
  0
VERTEX
  5
1FE6
  8
6
 10
0.306922
 20
-0.367359
 30
0.0
 42
1.0
  0
SEQEND
  5
1FE7
  8
6
  0
TRACE
  5
1BFD
  8
6
 10
1.455922
 20
-0.092059
 30
0.0
 11
1.455922
 21
-0.132059
 31
0.0
 12
1.329922
 22
-0.092059
 32
0.0
 13
1.329922
 23
-0.132059
 33
0.0
  0
TRACE
  5
1BFE
  8
6
 10
1.258422
 20
-0.163559
 30
0.0
 11
1.298422
 21
-0.163559
 31
0.0
 12
1.258422
 22
-0.315859
 32
0.0
 13
1.298422
 23
-0.315859
 33
0.0
  0
POLYLINE
  5
1BFF
  8
6
 66
     1
 10
0.0
 20
0.0
 30
0.0
 40
0.04
 41
0.04
  0
VERTEX
  5
1FE8
  8
6
 10
1.278422
 20
-0.315859
 30
0.0
 42
-0.414214
  0
VERTEX
  5
1FE9
  8
6
 10
1.226922
 20
-0.367359
 30
0.0
 42
-1.0
  0
SEQEND
  5
1FEA
  8
6
  0
POLYLINE
  5
1C00
  8
6
 66
     1
 10
0.0
 20
0.0
 30
0.0
 40
0.04
 41
0.04
  0
VERTEX
  5
1FEB
  8
6
 10
1.278422
 20
-0.163559
 30
0.0
 42
-0.414214
  0
VERTEX
  5
1FEC
  8
6
 10
1.329922
 20
-0.112059
 30
0.0
 42
-1.0
  0
SEQEND
  5
1FED
  8
6
  0
ENDBLK
  5
1C02
  8
0
  0
BLOCK
  8
0
  2
*D1
 70
     1
 10
0.0
 20
0.0
 30
0.0
  3
*D1
  1

  0
LINE
  5
1C07
  8
0
  6
BYBLOCK
 62
     0
 10
5.391452
 20
-0.102717
 30
0.0
 11
5.712779
 21
-0.102717
 31
0.0
  0
LINE
  5
1C08
  8
0
  6
BYBLOCK
 62
     0
 10
5.391452
 20
2.922361
 30
0.0
 11
5.712779
 21
2.922361
 31
0.0
  0
LINE
  5
1C09
  8
0
  6
BYBLOCK
 62
     0
 10
5.612779
 20
-0.002717
 30
0.0
 11
5.612779
 21
1.243632
 31
0.0
  0
LINE
  5
1C0A
  8
0
  6
BYBLOCK
 62
     0
 10
5.612779
 20
2.822361
 30
0.0
 11
5.612779
 21
1.576013
 31
0.0
  0
SOLID
  5
1C0B
  8
0
  6
BYBLOCK
 62
     0
 10
5.596113
 20
-0.002717
 30
0.0
 11
5.629446
 21
-0.002717
 31
0.0
 12
5.612779
 22
-0.102717
 32
0.0
 13
5.612779
 23
-0.102717
 33
0.0
  0
SOLID
  5
1C0C
  8
0
  6
BYBLOCK
 62
     0
 10
5.596113
 20
2.822361
 30
0.0
 11
5.629446
 21
2.822361
 31
0.0
 12
5.612779
 22
2.922361
 32
0.0
 13
5.612779
 23
2.922361
 33
0.0
  0
TEXT
  8
0
  40
0.1
  5
1FEF
  62
0
  72
0
  71
0
 10
5.41278
 20
1.23282
 30
0.000000
  1
3.0(77)
  7
ROMANS
  0
POINT
  5
1C0F
  8
DEFPOINTS
  6
BYBLOCK
 62
     0
 10
5.328952
 20
-0.102717
 30
0.0
  0
POINT
  5
1C10
  8
DEFPOINTS
  6
BYBLOCK
 62
     0
 10
5.328952
 20
2.922361
 30
0.0
  0
POINT
  5
1C11
  8
DEFPOINTS
  6
BYBLOCK
 62
     0
 10
5.612779
 20
2.922361
 30
0.0
  0
ENDBLK
  5
1C12
  8
0
  0
BLOCK
  8
0
  2
*D2
 70
     1
 10
0.0
 20
0.0
 30
0.0
  3
*D2
  1

  0
LINE
  5
1C16
  8
0
  6
BYBLOCK
 62
     0
 10
-0.044857
 20
-0.25975
 30
0.0
 11
-0.044857
 21
-0.580851
 31
0.0
  0
LINE
  5
1C17
  8
0
  6
BYBLOCK
 62
     0
 10
5.272186
 20
-0.25975
 30
0.0
 11
5.272186
 21
-0.580851
 31
0.0
  0
LINE
  5
1C18
  8
0
  6
BYBLOCK
 62
     0
 10
0.055143
 20
-0.480851
 30
0.0
 11
2.164141
 21
-0.480851
 31
0.0
  0
LINE
  5
1C19
  8
0
  6
BYBLOCK
 62
     0
 10
5.172186
 20
-0.480851
 30
0.0
 11
3.063188
 21
-0.480851
 31
0.0
  0
SOLID
  5
1C1A
  8
0
  6
BYBLOCK
 62
     0
 10
0.055143
 20
-0.464185
 30
0.0
 11
0.055143
 21
-0.497518
 31
0.0
 12
-0.044857
 22
-0.480851
 32
0.0
 13
-0.044857
 23
-0.480851
 33
0.0
  0
SOLID
  5
1C1B
  8
0
  6
BYBLOCK
 62
     0
 10
5.172186
 20
-0.464185
 30
0.0
 11
5.172186
 21
-0.497518
 31
0.0
 12
5.272186
 22
-0.480851
 32
0.0
 13
5.272186
 23
-0.480851
 33
0.0
  0
TEXT
  8
0
  40
0.1
  5
1FF0
  62
0
  72
0
  71
0
 10
2.41366
 20
-0.657851
 30
0.000000
  1
5.31(135)
  7
ROMANS
  0
POINT
  5
1C1D
  8
DEFPOINTS
  6
BYBLOCK
 62
     0
 10
-0.044857
 20
-0.19725
 30
0.0
  0
POINT
  5
1C1E
  8
DEFPOINTS
  6
BYBLOCK
 62
     0
 10
5.272186
 20
-0.19725
 30
0.0
  0
POINT
  5
1C1F
  8
DEFPOINTS
  6
BYBLOCK
 62
     0
 10
5.272186
 20
-0.480851
 30
0.0
  0
ENDBLK
  5
1C20
  8
0
  0
BLOCK
  8
0
  2
*D3
 70
     1
 10
0.0
 20
0.0
 30
0.0
  3
*D3
  1

  0
LINE
  5
1C25
  8
0
  6
BYBLOCK
 62
     0
 10
5.915529
 20
0.553239
 30
0.0
 11
5.915529
 21
-0.599758
 31
0.0
  0
LINE
  5
1C26
  8
0
  6
BYBLOCK
 62
     0
 10
8.299684
 20
0.799027
 30
0.0
 11
8.299684
 21
-0.599758
 31
0.0
  0
LINE
  5
1C27
  8
0
  6
BYBLOCK
 62
     0
 10
6.015529
 20
-0.499758
 30
0.0
 11
6.681892
 21
-0.499758
 31
0.0
  0
LINE
  5
1C28
  8
0
  6
BYBLOCK
 62
     0
 10
8.199684
 20
-0.499758
 30
0.0
 11
7.533321
 21
-0.499758
 31
0.0
  0
SOLID
  5
1C29
  8
0
  6
BYBLOCK
 62
     0
 10
6.015529
 20
-0.483091
 30
0.0
 11
6.015529
 21
-0.516425
 31
0.0
 12
5.915529
 22
-0.499758
 32
0.0
 13
5.915529
 23
-0.499758
 33
0.0
  0
SOLID
  5
1C2A
  8
0
  6
BYBLOCK
 62
     0
 10
8.199684
 20
-0.483091
 30
0.0
 11
8.199684
 21
-0.516425
 31
0.0
 12
8.299684
 22
-0.499758
 32
0.0
 13
8.299684
 23
-0.499758
 33
0.0
  0
TEXT
  8
0
  40
0.1
  5
1FF1
  62
0
  72
0
  71
0
 10
6.90761
 20
-0.676758
 30
0.000000
  1
2.3(58.5)
  7
ROMANS
  0
POINT
  5
1C2C
  8
DEFPOINTS
  6
BYBLOCK
 62
     0
 10
5.915529
 20
0.615739
 30
0.0
  0
POINT
  5
1C2D
  8
DEFPOINTS
  6
BYBLOCK
 62
     0
 10
8.299684
 20
0.861527
 30
0.0
  0
POINT
  5
1C2E
  8
DEFPOINTS
  6
BYBLOCK
 62
     0
 10
8.299684
 20
-0.499758
 30
0.0
  0
ENDBLK
  5
1C2F
  8
0
  0
ENDSEC
  0
SECTION
  2
ENTITIES
  0
TEXT
  5
856
  8
ASSEMBLY
 10
2.619762
 20
-5.027842
 30
0.0
 40
0.1
  1
5528325
  7
ROMANS
  0
TEXT
  5
861
  8
ASSEMBLY
 10
2.547285
 20
-4.295295
 30
0.0
 40
0.1
  1
DIMENSIONS ARE IN INCHES
  7
ROMANS
  0
TEXT
  5
8C0
  8
0
 10
12.488923
 20
-3.500918
 30
0.0
 40
0.1
  1

  7
ROMANS
  0
CIRCLE
  5
92A
  8
ASSEMBLY
 10
3.534
 20
2.053
 30
0.0
 40
0.0625
  0
POLYLINE
  5
92C
  8
ASSEMBLY
 66
     1
 10
0.0
 20
0.0
 30
0.0
 70
     1
  0
VERTEX
  5
1C36
  8
ASSEMBLY
 10
3.589
 20
1.958
 30
0.0
  0
VERTEX
  5
1C37
  8
ASSEMBLY
 10
3.63975
 20
2.053
 30
0.0
  0
VERTEX
  5
1C38
  8
ASSEMBLY
 10
3.589
 20
2.148
 30
0.0
  0
VERTEX
  5
1C39
  8
ASSEMBLY
 10
3.479
 20
2.148
 30
0.0
  0
VERTEX
  5
1C3A
  8
ASSEMBLY
 10
3.42825
 20
2.053
 30
0.0
  0
VERTEX
  5
1C3B
  8
ASSEMBLY
 10
3.479
 20
1.958
 30
0.0
  0
SEQEND
  5
1C3C
  8
ASSEMBLY
  0
POLYLINE
  5
934
  8
ASSEMBLY
 66
     1
 10
0.0
 20
0.0
 30
0.0
 70
     1
  0
VERTEX
  5
1C3D
  8
ASSEMBLY
 10
3.6205
 20
1.803
 30
0.0
 42
0.414214
  0
VERTEX
  5
1C3E
  8
ASSEMBLY
 10
3.6505
 20
1.833
 30
0.0
  0
VERTEX
  5
1C3F
  8
ASSEMBLY
 10
3.6505
 20
2.273
 30
0.0
 42
0.414214
  0
VERTEX
  5
1C40
  8
ASSEMBLY
 10
3.6205
 20
2.303
 30
0.0
  0
VERTEX
  5
1C41
  8
ASSEMBLY
 10
1.5955
 20
2.303
 30
0.0
 42
0.414214
  0
VERTEX
  5
1C42
  8
ASSEMBLY
 10
1.5655
 20
2.273
 30
0.0
  0
VERTEX
  5
1C43
  8
ASSEMBLY
 10
1.5655
 20
1.833
 30
0.0
 42
0.414214
  0
VERTEX
  5
1C44
  8
ASSEMBLY
 10
1.5955
 20
1.803
 30
0.0
  0
SEQEND
  5
1C45
  8
ASSEMBLY
  0
CIRCLE
  5
B10
  8
ASSEMBLY
 10
2.2705
 20
1.975
 30
0.0
 40
0.0175
  0
CIRCLE
  5
B13
  8
ASSEMBLY
 10
2.2705
 20
2.131
 30
0.0
 40
0.0175
  0
CIRCLE
  5
B14
  8
ASSEMBLY
 10
2.2255
 20
2.053
 30
0.0
 40
0.0175
  0
CIRCLE
  5
B17
  8
ASSEMBLY
 10
2.9005
 20
2.131
 30
0.0
 40
0.0175
  0
CIRCLE
  5
B19
  8
ASSEMBLY
 10
2.9005
 20
1.975
 30
0.0
 40
0.0175
  0
CIRCLE
  5
B1A
  8
ASSEMBLY
 10
2.9455
 20
2.053
 30
0.0
 40
0.0175
  0
CIRCLE
  5
B1C
  8
ASSEMBLY
 10
2.8555
 20
2.053
 30
0.0
 40
0.0175
  0
CIRCLE
  5
B1E
  8
ASSEMBLY
 10
2.8105
 20
1.975
 30
0.0
 40
0.0175
  0
CIRCLE
  5
B21
  8
ASSEMBLY
 10
2.8105
 20
2.131
 30
0.0
 40
0.0175
  0
CIRCLE
  5
B22
  8
ASSEMBLY
 10
2.7655
 20
2.053
 30
0.0
 40
0.0175
  0
CIRCLE
  5
B24
  8
ASSEMBLY
 10
2.7205
 20
1.975
 30
0.0
 40
0.0175
  0
CIRCLE
  5
B27
  8
ASSEMBLY
 10
2.7205
 20
2.131
 30
0.0
 40
0.0175
  0
CIRCLE
  5
B28
  8
ASSEMBLY
 10
2.6755
 20
2.053
 30
0.0
 40
0.0175
  0
CIRCLE
  5
B2A
  8
ASSEMBLY
 10
2.6305
 20
1.975
 30
0.0
 40
0.0175
  0
CIRCLE
  5
B2D
  8
ASSEMBLY
 10
2.6305
 20
2.131
 30
0.0
 40
0.0175
  0
CIRCLE
  5
B2E
  8
ASSEMBLY
 10
2.5855
 20
2.053
 30
0.0
 40
0.0175
  0
CIRCLE
  5
B30
  8
ASSEMBLY
 10
2.5405
 20
1.975
 30
0.0
 40
0.0175
  0
CIRCLE
  5
B33
  8
ASSEMBLY
 10
2.5405
 20
2.131
 30
0.0
 40
0.0175
  0
CIRCLE
  5
B34
  8
ASSEMBLY
 10
2.4955
 20
2.053
 30
0.0
 40
0.0175
  0
CIRCLE
  5
B36
  8
ASSEMBLY
 10
2.4505
 20
1.975
 30
0.0
 40
0.0175
  0
CIRCLE
  5
B39
  8
ASSEMBLY
 10
2.4505
 20
2.131
 30
0.0
 40
0.0175
  0
CIRCLE
  5
B3A
  8
ASSEMBLY
 10
2.4055
 20
2.053
 30
0.0
 40
0.0175
  0
CIRCLE
  5
B3C
  8
ASSEMBLY
 10
2.3605
 20
1.975
 30
0.0
 40
0.0175
  0
CIRCLE
  5
B3F
  8
ASSEMBLY
 10
2.3605
 20
2.131
 30
0.0
 40
0.0175
  0
CIRCLE
  5
B40
  8
ASSEMBLY
 10
1.682
 20
2.053
 30
0.0
 40
0.0625
  0
POLYLINE
  5
B42
  8
ASSEMBLY
 66
     1
 10
0.0
 20
0.0
 30
0.0
 70
     1
  0
VERTEX
  5
1C46
  8
ASSEMBLY
 10
1.737
 20
1.958
 30
0.0
  0
VERTEX
  5
1C47
  8
ASSEMBLY
 10
1.78775
 20
2.053
 30
0.0
  0
VERTEX
  5
1C48
  8
ASSEMBLY
 10
1.737
 20
2.148
 30
0.0
  0
VERTEX
  5
1C49
  8
ASSEMBLY
 10
1.627
 20
2.148
 30
0.0
  0
VERTEX
  5
1C4A
  8
ASSEMBLY
 10
1.57625
 20
2.053
 30
0.0
  0
VERTEX
  5
1C4B
  8
ASSEMBLY
 10
1.627
 20
1.958
 30
0.0
  0
SEQEND
  5
1C4C
  8
ASSEMBLY
  0
POLYLINE
  5
B4A
  8
ASSEMBLY
 66
     1
 10
0.0
 20
0.0
 30
0.0
 70
     1
  0
VERTEX
  5
1C4D
  8
ASSEMBLY
 10
1.840313
 20
2.218
 30
0.0
  0
VERTEX
  5
1C4E
  8
ASSEMBLY
 10
3.375687
 20
2.218
 30
0.0
 42
-0.473267
  0
VERTEX
  5
1C4F
  8
ASSEMBLY
 10
3.405105
 20
2.182118
 30
0.0
  0
VERTEX
  5
1C50
  8
ASSEMBLY
 10
3.32393
 20
1.912118
 30
0.0
 42
-0.357528
  0
VERTEX
  5
1C51
  8
ASSEMBLY
 10
3.294512
 20
1.888
 30
0.0
  0
VERTEX
  5
1C52
  8
ASSEMBLY
 10
1.921488
 20
1.888
 30
0.0
 42
-0.357528
  0
VERTEX
  5
1C53
  8
ASSEMBLY
 10
1.89207
 20
1.912118
 30
0.0
  0
VERTEX
  5
1C54
  8
ASSEMBLY
 10
1.810895
 20
2.182118
 30
0.0
 42
-0.473267
  0
SEQEND
  5
1C55
  8
ASSEMBLY
  0
CIRCLE
  5
B54
  8
ASSEMBLY
 10
2.3155
 20
2.053
 30
0.0
 40
0.0175
  0
LINE
  5
B57
  8
ASSEMBLY
 10
6.698093
 20
2.14705
 30
0.0
 11
6.698093
 21
2.189525
 31
0.0
  0
ARC
  5
B58
  8
ASSEMBLY
 10
6.867731
 20
1.969808
 30
0.0
 40
0.01
 50
270.0
 51
0.0
  0
ARC
  5
B59
  8
ASSEMBLY
 10
6.867731
 20
2.137259
 30
0.0
 40
0.01
 50
0.0
 51
90.0
  0
ARC
  5
B5A
  8
ASSEMBLY
 10
6.762944
 20
2.100397
 30
0.0
 40
0.114806
 50
335.908754
 51
24.091246
  0
ARC
  5
B5B
  8
ASSEMBLY
 10
6.762909
 20
2.006671
 30
0.0
 40
0.114806
 50
335.908754
 51
24.091246
  0
ARC
  5
B5C
  8
ASSEMBLY
 10
6.700129
 20
2.137259
 30
0.0
 40
0.01
 50
90.0
 51
180.0
  0
ARC
  5
B5D
  8
ASSEMBLY
 10
6.700129
 20
1.969808
 30
0.0
 40
0.01
 50
180.0
 51
270.0
  0
ARC
  5
B5E
  8
ASSEMBLY
 10
6.804935
 20
2.100397
 30
0.0
 40
0.114806
 50
155.908754
 51
204.091246
  0
ARC
  5
B5F
  8
ASSEMBLY
 10
6.804935
 20
2.006671
 30
0.0
 40
0.114806
 50
155.908754
 51
204.091246
  0
LINE
  5
B60
  8
ASSEMBLY
 10
6.690129
 20
2.053534
 30
0.0
 11
6.690129
 21
2.137259
 31
0.0
  0
LINE
  5
B61
  8
ASSEMBLY
 10
7.161121
 20
2.029525
 30
0.0
 11
7.126093
 21
2.029525
 31
0.0
  0
LINE
  5
B62
  8
ASSEMBLY
 10
7.161121
 20
2.079525
 30
0.0
 11
7.126093
 21
2.079525
 31
0.0
  0
LINE
  5
B63
  8
ASSEMBLY
 10
6.905142
 20
1.948698
 30
0.0
 11
6.905142
 21
2.158559
 31
0.0
  0
ARC
  5
B64
  8
ASSEMBLY
 10
7.126093
 20
1.939525
 30
0.0
 40
0.02
 50
270.0
 51
0.0
  0
ARC
  5
B65
  8
ASSEMBLY
 10
7.126093
 20
2.169525
 30
0.0
 40
0.02
 50
0.0
 51
90.0
  0
LINE
  5
B66
  8
ASSEMBLY
 10
7.126093
 20
1.919525
 30
0.0
 11
7.096093
 21
1.919525
 31
0.0
  0
LINE
  5
B67
  8
ASSEMBLY
 10
7.126093
 20
2.189525
 30
0.0
 11
7.096093
 21
2.189525
 31
0.0
  0
ARC
  5
B68
  8
ASSEMBLY
 10
6.718093
 20
1.919525
 30
0.0
 40
0.02
 50
180.0
 51
270.0
  0
ARC
  5
B69
  8
ASSEMBLY
 10
6.718093
 20
2.189525
 30
0.0
 40
0.02
 50
90.0
 51
180.0
  0
ARC
  5
B6A
  8
ASSEMBLY
 10
6.896093
 20
2.229525
 30
0.0
 40
0.02
 50
270.0
 51
0.0
  0
ARC
  5
B6B
  8
ASSEMBLY
 10
6.896093
 20
1.879525
 30
0.0
 40
0.02
 50
0.0
 51
90.0
  0
ARC
  5
B6C
  8
ASSEMBLY
 10
7.076093
 20
1.859525
 30
0.0
 40
0.02
 50
270.0
 51
0.0
  0
ARC
  5
B6D
  8
ASSEMBLY
 10
7.076093
 20
2.249525
 30
0.0
 40
0.02
 50
360.0
 51
90.0
  0
LINE
  5
B6E
  8
ASSEMBLY
 10
6.956093
 20
1.999525
 30
0.0
 11
7.161121
 21
1.999525
 31
0.0
  0
LINE
  5
B6F
  8
ASSEMBLY
 10
6.956093
 20
2.109525
 30
0.0
 11
7.161121
 21
2.109525
 31
0.0
  0
LINE
  5
B70
  8
ASSEMBLY
 10
7.126093
 20
2.079525
 30
0.0
 11
7.126093
 21
2.029525
 31
0.0
  0
LINE
  5
B71
  8
ASSEMBLY
 10
6.906093
 20
1.964525
 30
0.0
 11
6.916093
 21
1.964525
 31
0.0
  0
LINE
  5
B72
  8
ASSEMBLY
 10
6.906093
 20
2.144525
 30
0.0
 11
6.916093
 21
2.144525
 31
0.0
  0
LINE
  5
B73
  8
ASSEMBLY
 10
6.906093
 20
2.144525
 30
0.0
 11
6.906093
 21
1.964525
 31
0.0
  0
LINE
  5
B74
  8
ASSEMBLY
 10
7.096093
 20
1.961025
 30
0.0
 11
7.096093
 21
1.859525
 31
0.0
  0
LINE
  5
B75
  8
ASSEMBLY
 10
6.956093
 20
1.961025
 30
0.0
 11
7.161121
 21
1.961025
 31
0.0
  0
LINE
  5
B76
  8
ASSEMBLY
 10
6.956093
 20
2.148025
 30
0.0
 11
7.161121
 21
2.148025
 31
0.0
  0
LINE
  5
B77
  8
ASSEMBLY
 10
7.096093
 20
2.249525
 30
0.0
 11
7.096093
 21
2.148025
 31
0.0
  0
LINE
  5
B78
  8
ASSEMBLY
 10
7.076093
 20
1.839525
 30
0.0
 11
6.956093
 21
1.839525
 31
0.0
  0
LINE
  5
B79
  8
ASSEMBLY
 10
6.956093
 20
2.269525
 30
0.0
 11
7.076093
 21
2.269525
 31
0.0
  0
LINE
  5
B7A
  8
ASSEMBLY
 10
6.956093
 20
1.804525
 30
0.0
 11
6.916093
 21
1.804525
 31
0.0
  0
LINE
  5
B7B
  8
ASSEMBLY
 10
6.916093
 20
2.304525
 30
0.0
 11
6.956093
 21
2.304525
 31
0.0
  0
LINE
  5
B7C
  8
ASSEMBLY
 10
6.956093
 20
2.304525
 30
0.0
 11
6.956093
 21
1.804525
 31
0.0
  0
LINE
  5
B7D
  8
ASSEMBLY
 10
6.896093
 20
1.899525
 30
0.0
 11
6.718093
 21
1.899525
 31
0.0
  0
LINE
  5
B7E
  8
ASSEMBLY
 10
6.916093
 20
2.304525
 30
0.0
 11
6.916093
 21
1.804525
 31
0.0
  0
LINE
  5
B7F
  8
ASSEMBLY
 10
6.718093
 20
2.209525
 30
0.0
 11
6.896093
 21
2.209525
 31
0.0
  0
LINE
  5
B80
  8
ASSEMBLY
 10
6.698093
 20
1.919525
 30
0.0
 11
6.698093
 21
1.960018
 31
0.0
  0
LINE
  5
B81
  8
ASSEMBLY
 10
6.877731
 20
1.969808
 30
0.0
 11
6.877731
 21
2.137259
 31
0.0
  0
LINE
  5
B82
  8
ASSEMBLY
 10
6.878642
 20
2.158559
 30
0.0
 11
6.905142
 21
2.158559
 31
0.0
  0
LINE
  5
B83
  8
ASSEMBLY
 10
6.905142
 20
1.948698
 30
0.0
 11
6.878642
 21
1.948698
 31
0.0
  0
LINE
  5
B84
  8
ASSEMBLY
 10
6.878642
 20
1.948698
 30
0.0
 11
6.878642
 21
2.158559
 31
0.0
  0
LINE
  5
B85
  8
ASSEMBLY
 10
6.867731
 20
1.959808
 30
0.0
 11
6.700129
 21
1.959808
 31
0.0
  0
LINE
  5
B86
  8
ASSEMBLY
 10
6.690129
 20
1.969808
 30
0.0
 11
6.690129
 21
2.053534
 31
0.0
  0
LINE
  5
B87
  8
ASSEMBLY
 10
6.700129
 20
2.147259
 30
0.0
 11
6.867731
 21
2.147259
 31
0.0
  0
LINE
  5
B88
  8
ASSEMBLY
 10
6.690129
 20
2.053534
 30
0.0
 11
6.878161
 21
2.053534
 31
0.0
  0
POLYLINE
  5
BEB
  8
ASSEMBLY
 66
     1
 10
0.0
 20
0.0
 30
0.0
  0
VERTEX
  5
1C56
  8
ASSEMBLY
 10
7.161121
 20
0.66885
 30
0.0
  0
VERTEX
  5
1C57
  8
ASSEMBLY
 10
7.12159
 20
0.678998
 30
0.0
  0
VERTEX
  5
1C58
  8
ASSEMBLY
 10
6.685121
 20
0.678998
 30
0.0
  0
VERTEX
  5
1C59
  8
ASSEMBLY
 10
6.685121
 20
0.698998
 30
0.0
  0
VERTEX
  5
1C5A
  8
ASSEMBLY
 10
7.12159
 20
0.698998
 30
0.0
  0
VERTEX
  5
1C5B
  8
ASSEMBLY
 10
7.161121
 20
0.708561
 30
0.0
  0
SEQEND
  5
1C5C
  8
ASSEMBLY
  0
POLYLINE
  5
BF3
  8
ASSEMBLY
 66
     1
 10
0.0
 20
0.0
 30
0.0
  0
VERTEX
  5
1C5D
  8
ASSEMBLY
 10
7.161121
 20
0.23555
 30
0.0
  0
VERTEX
  5
1C5E
  8
ASSEMBLY
 10
7.12159
 20
0.245699
 30
0.0
  0
VERTEX
  5
1C5F
  8
ASSEMBLY
 10
6.685121
 20
0.245699
 30
0.0
  0
VERTEX
  5
1C60
  8
ASSEMBLY
 10
6.685121
 20
0.265699
 30
0.0
  0
VERTEX
  5
1C61
  8
ASSEMBLY
 10
7.12159
 20
0.265699
 30
0.0
  0
VERTEX
  5
1C62
  8
ASSEMBLY
 10
7.161121
 20
0.275262
 30
0.0
  0
SEQEND
  5
1C63
  8
ASSEMBLY
  0
LINE
  5
BFB
  8
ASSEMBLY
 10
7.161121
 20
0.619024
 30
0.0
 11
6.508174
 21
0.619024
 31
0.0
  0
POLYLINE
  5
BFC
  8
ASSEMBLY
 66
     1
 10
0.0
 20
0.0
 30
0.0
 70
     1
  0
VERTEX
  5
1C64
  8
ASSEMBLY
 10
6.508174
 20
0.312307
 30
0.0
  0
VERTEX
  5
1C65
  8
ASSEMBLY
 10
6.699245
 20
0.194155
 30
0.0
  0
VERTEX
  5
1C66
  8
ASSEMBLY
 10
6.699245
 20
0.1835
 30
0.0
  0
VERTEX
  5
1C67
  8
ASSEMBLY
 10
7.161121
 20
0.1835
 30
0.0
  0
VERTEX
  5
1C68
  8
ASSEMBLY
 10
7.161121
 20
1.069307
 30
0.0
  0
VERTEX
  5
1C69
  8
ASSEMBLY
 10
6.240998
 20
1.069307
 30
0.0
  0
VERTEX
  5
1C6A
  8
ASSEMBLY
 10
6.240998
 20
0.985307
 30
0.0
  0
VERTEX
  5
1C6B
  8
ASSEMBLY
 10
5.920998
 20
0.985307
 30
0.0
  0
VERTEX
  5
1C6C
  8
ASSEMBLY
 10
5.920998
 20
0.758307
 30
0.0
  0
VERTEX
  5
1C6D
  8
ASSEMBLY
 10
5.968998
 20
0.758307
 30
0.0
  0
VERTEX
  5
1C6E
  8
ASSEMBLY
 10
6.168659
 20
0.666825
 30
0.0
  0
VERTEX
  5
1C6F
  8
ASSEMBLY
 10
6.168659
 20
0.656307
 30
0.0
  0
VERTEX
  5
1C70
  8
ASSEMBLY
 10
6.508174
 20
0.656307
 30
0.0
  0
VERTEX
  5
1C71
  8
ASSEMBLY
 10
6.508174
 20
0.548307
 30
0.0
  0
VERTEX
  5
1C72
  8
ASSEMBLY
 10
6.451584
 20
0.548307
 30
0.0
  0
VERTEX
  5
1C73
  8
ASSEMBLY
 10
6.451584
 20
0.312307
 30
0.0
  0
SEQEND
  5
1C74
  8
ASSEMBLY
  0
LINE
  5
C0E
  8
ASSEMBLY
 10
0.883
 20
0.619024
 30
0.0
 11
0.883
 21
1.069307
 31
0.0
  0
LINE
  5
C0F
  8
ASSEMBLY
 10
0.283
 20
0.619024
 30
0.0
 11
0.283
 21
1.069307
 31
0.0
  0
POLYLINE
  5
C10
  8
ASSEMBLY
 66
     1
 10
0.0
 20
0.0
 30
0.0
  0
VERTEX
  5
1C75
  8
ASSEMBLY
 10
0.428741
 20
-2.224589
 30
0.0
  0
VERTEX
  5
1C76
  8
ASSEMBLY
 10
0.428741
 20
-2.284175
 30
0.0
  0
VERTEX
  5
1C77
  8
ASSEMBLY
 10
0.522243
 20
-2.284175
 30
0.0
  0
VERTEX
  5
1C78
  8
ASSEMBLY
 10
0.522243
 20
-2.224589
 30
0.0
  0
SEQEND
  5
1C79
  8
ASSEMBLY
  0
POLYLINE
  5
C16
  8
ASSEMBLY
 66
     1
 10
0.0
 20
0.0
 30
0.0
 70
     1
  0
VERTEX
  5
1C7A
  8
ASSEMBLY
 10
0.39823
 20
-2.224589
 30
0.0
  0
VERTEX
  5
1C7B
  8
ASSEMBLY
 10
0.55177
 20
-2.224589
 30
0.0
  0
VERTEX
  5
1C7C
  8
ASSEMBLY
 10
0.55177
 20
-2.439297
 30
0.0
  0
VERTEX
  5
1C7D
  8
ASSEMBLY
 10
0.39823
 20
-2.439297
 30
0.0
  0
SEQEND
  5
1C7E
  8
ASSEMBLY
  0
POLYLINE
  5
C1C
  8
ASSEMBLY
 66
     1
 10
0.0
 20
0.0
 30
0.0
  0
VERTEX
  5
1C7F
  8
ASSEMBLY
 10
0.29823
 20
-1.864691
 30
0.0
  0
VERTEX
  5
1C80
  8
ASSEMBLY
 10
0.29823
 20
-1.691106
 30
0.0
  0
VERTEX
  5
1C81
  8
ASSEMBLY
 10
0.45177
 20
-1.691106
 30
0.0
  0
VERTEX
  5
1C82
  8
ASSEMBLY
 10
0.45177
 20
-1.864691
 30
0.0
  0
SEQEND
  5
1C83
  8
ASSEMBLY
  0
POLYLINE
  5
C22
  8
ASSEMBLY
 66
     1
 10
0.0
 20
0.0
 30
0.0
  0
VERTEX
  5
1C84
  8
ASSEMBLY
 10
0.603
 20
0.548307
 30
0.0
  0
VERTEX
  5
1C85
  8
ASSEMBLY
 10
0.603
 20
0.602307
 30
0.0
  0
VERTEX
  5
1C86
  8
ASSEMBLY
 10
0.763
 20
0.602307
 30
0.0
  0
VERTEX
  5
1C87
  8
ASSEMBLY
 10
0.763
 20
0.548307
 30
0.0
  0
SEQEND
  5
1C88
  8
ASSEMBLY
  0
LINE
  5
C28
  8
ASSEMBLY
 10
4.675
 20
-1.382106
 30
0.0
 11
0.075
 21
-1.382106
 31
0.0
  0
LINE
  5
C29
  8
ASSEMBLY
 10
4.775
 20
-1.921281
 30
0.0
 11
0.175
 21
-1.921281
 31
0.0
  0
LINE
  5
C2A
  8
ASSEMBLY
 10
4.775
 20
-2.112352
 30
0.0
 11
0.175
 21
-2.112352
 31
0.0
  0
LINE
  5
C2B
  8
ASSEMBLY
 10
4.775
 20
-1.864691
 30
0.0
 11
0.175
 21
-1.864691
 31
0.0
  0
LINE
  5
C2C
  8
ASSEMBLY
 10
4.675
 20
-1.581766
 30
0.0
 11
0.075
 21
-1.581766
 31
0.0
  0
LINE
  5
C2D
  8
ASSEMBLY
 10
4.675
 20
-1.334106
 30
0.0
 11
0.075
 21
-1.334106
 31
0.0
  0
LINE
  5
C2E
  8
ASSEMBLY
 10
0.627672
 20
0.377193
 30
0.0
 11
0.717115
 21
0.466635
 31
0.0
  0
CIRCLE
  5
C2F
  8
ASSEMBLY
 10
0.683
 20
0.411307
 30
0.0
 40
0.065
  0
CIRCLE
  5
C30
  8
ASSEMBLY
 10
0.683
 20
0.411307
 30
0.0
 40
0.076
  0
LINE
  5
C31
  8
ASSEMBLY
 10
4.983
 20
0.194155
 30
0.0
 11
0.383
 21
0.194155
 31
0.0
  0
LINE
  5
C32
  8
ASSEMBLY
 10
4.883
 20
0.666825
 30
0.0
 11
0.283
 21
0.666825
 31
0.0
  0
LINE
  5
C33
  8
ASSEMBLY
 10
0.383
 20
0.548307
 30
0.0
 11
4.983
 21
0.548307
 31
0.0
  0
LINE
  5
C34
  8
ASSEMBLY
 10
0.283
 20
0.656307
 30
0.0
 11
4.883
 21
0.656307
 31
0.0
  0
LINE
  5
C35
  8
ASSEMBLY
 10
0.383
 20
0.312307
 30
0.0
 11
4.983
 21
0.312307
 31
0.0
  0
LINE
  5
C36
  8
ASSEMBLY
 10
0.383
 20
0.1835
 30
0.0
 11
4.983
 21
0.1835
 31
0.0
  0
LINE
  5
C37
  8
ASSEMBLY
 10
0.42382
 20
-2.224589
 30
0.0
 11
0.42382
 21
-2.438805
 31
0.0
  0
POLYLINE
  5
C38
  8
ASSEMBLY
 66
     1
 10
0.0
 20
0.0
 30
0.0
 70
     1
  0
VERTEX
  5
1C89
  8
ASSEMBLY
 10
0.19823
 20
-2.224589
 30
0.0
  0
VERTEX
  5
1C8A
  8
ASSEMBLY
 10
0.35177
 20
-2.224589
 30
0.0
  0
VERTEX
  5
1C8B
  8
ASSEMBLY
 10
0.35177
 20
-2.439297
 30
0.0
  0
VERTEX
  5
1C8C
  8
ASSEMBLY
 10
0.19823
 20
-2.439297
 30
0.0
  0
SEQEND
  5
1C8D
  8
ASSEMBLY
  0
LINE
  5
C3E
  8
ASSEMBLY
 10
0.22382
 20
-2.224589
 30
0.0
 11
0.22382
 21
-2.438805
 31
0.0
  0
LINE
  5
C3F
  8
ASSEMBLY
 10
0.327164
 20
-2.224589
 30
0.0
 11
0.327164
 21
-2.438805
 31
0.0
  0
LINE
  5
C40
  8
ASSEMBLY
 10
0.047
 20
-2.479505
 30
0.0
 11
0.047
 21
-2.098229
 31
0.0
  0
LINE
  5
C41
  8
ASSEMBLY
 10
0.147
 20
-2.479505
 30
0.0
 11
0.147
 21
-2.098229
 31
0.0
  0
LINE
  5
C42
  8
ASSEMBLY
 10
0.075
 20
-2.479505
 30
0.0
 11
0.075
 21
-1.334106
 31
0.0
  0
LINE
  5
C43
  8
ASSEMBLY
 10
0.175
 20
-2.479505
 30
0.0
 11
0.175
 21
-1.864691
 31
0.0
  0
LINE
  5
C44
  8
ASSEMBLY
 10
0.047
 20
-2.098229
 30
0.0
 11
0.075
 21
-2.098229
 31
0.0
  0
LINE
  5
C45
  8
ASSEMBLY
 10
0.147
 20
-2.098229
 30
0.0
 11
0.175
 21
-2.098229
 31
0.0
  0
POLYLINE
  5
C46
  8
ASSEMBLY
 66
     1
 10
0.0
 20
0.0
 30
0.0
  0
VERTEX
  5
1C8E
  8
ASSEMBLY
 10
0.228741
 20
-2.224589
 30
0.0
  0
VERTEX
  5
1C8F
  8
ASSEMBLY
 10
0.228741
 20
-2.284175
 30
0.0
  0
VERTEX
  5
1C90
  8
ASSEMBLY
 10
0.322243
 20
-2.284175
 30
0.0
  0
VERTEX
  5
1C91
  8
ASSEMBLY
 10
0.322243
 20
-2.224589
 30
0.0
  0
SEQEND
  5
1C92
  8
ASSEMBLY
  0
LINE
  5
C4C
  8
ASSEMBLY
 10
0.247448
 20
-2.112352
 30
0.0
 11
0.244175
 21
-2.112352
 31
0.0
  0
POLYLINE
  5
C4D
  8
ASSEMBLY
 66
     1
 10
0.0
 20
0.0
 30
0.0
  0
VERTEX
  5
1C93
  8
ASSEMBLY
 10
0.128741
 20
-1.691106
 30
0.0
  0
VERTEX
  5
1C94
  8
ASSEMBLY
 10
0.128741
 20
-1.750692
 30
0.0
  0
VERTEX
  5
1C95
  8
ASSEMBLY
 10
0.222243
 20
-1.750692
 30
0.0
  0
VERTEX
  5
1C96
  8
ASSEMBLY
 10
0.222243
 20
-1.691106
 30
0.0
  0
SEQEND
  5
1C97
  8
ASSEMBLY
  0
LINE
  5
C53
  8
ASSEMBLY
 10
0.09823
 20
-1.691106
 30
0.0
 11
0.25177
 21
-1.691106
 31
0.0
  0
LINE
  5
C54
  8
ASSEMBLY
 10
0.09823
 20
-1.895672
 30
0.0
 11
0.09823
 21
-1.691106
 31
0.0
  0
LINE
  5
C55
  8
ASSEMBLY
 10
0.12382
 20
-1.691106
 30
0.0
 11
0.12382
 21
-1.895179
 31
0.0
  0
LINE
  5
C56
  8
ASSEMBLY
 10
0.175
 20
-1.895672
 30
0.0
 11
0.09823
 21
-1.895672
 31
0.0
  0
LINE
  5
C57
  8
ASSEMBLY
 10
0.427164
 20
-1.691106
 30
0.0
 11
0.427164
 21
-1.864691
 31
0.0
  0
LINE
  5
C58
  8
ASSEMBLY
 10
0.32382
 20
-1.691106
 30
0.0
 11
0.32382
 21
-1.864691
 31
0.0
  0
LINE
  5
C59
  8
ASSEMBLY
 10
0.25177
 20
-1.864691
 30
0.0
 11
0.25177
 21
-1.691106
 31
0.0
  0
LINE
  5
C5A
  8
ASSEMBLY
 10
0.227164
 20
-1.691106
 30
0.0
 11
0.227164
 21
-1.864691
 31
0.0
  0
POLYLINE
  5
C5B
  8
ASSEMBLY
 66
     1
 10
0.0
 20
0.0
 30
0.0
  0
VERTEX
  5
1C98
  8
ASSEMBLY
 10
0.328741
 20
-1.691106
 30
0.0
  0
VERTEX
  5
1C99
  8
ASSEMBLY
 10
0.328741
 20
-1.750692
 30
0.0
  0
VERTEX
  5
1C9A
  8
ASSEMBLY
 10
0.422243
 20
-1.750692
 30
0.0
  0
VERTEX
  5
1C9B
  8
ASSEMBLY
 10
0.422243
 20
-1.691106
 30
0.0
  0
SEQEND
  5
1C9C
  8
ASSEMBLY
  0
LINE
  5
C61
  8
ASSEMBLY
 10
0.383
 20
0.1835
 30
0.0
 11
0.383
 21
0.619024
 31
0.0
  0
LINE
  5
C62
  8
ASSEMBLY
 10
0.383
 20
0.619024
 30
0.0
 11
0.283
 21
0.619024
 31
0.0
  0
LINE
  5
C63
  8
ASSEMBLY
 10
0.448885
 20
0.355979
 30
0.0
 11
0.538328
 21
0.445422
 31
0.0
  0
CIRCLE
  5
C64
  8
ASSEMBLY
 10
0.483
 20
0.411307
 30
0.0
 40
0.065
  0
CIRCLE
  5
C65
  8
ASSEMBLY
 10
0.483
 20
0.411307
 30
0.0
 40
0.076
  0
LINE
  5
C67
  8
ASSEMBLY
 10
0.427672
 20
0.377193
 30
0.0
 11
0.517115
 21
0.466635
 31
0.0
  0
POLYLINE
  5
C68
  8
ASSEMBLY
 66
     1
 10
0.0
 20
0.0
 30
0.0
  0
VERTEX
  5
1C9D
  8
ASSEMBLY
 10
0.403
 20
0.548307
 30
0.0
  0
VERTEX
  5
1C9E
  8
ASSEMBLY
 10
0.403
 20
0.602307
 30
0.0
  0
VERTEX
  5
1C9F
  8
ASSEMBLY
 10
0.563
 20
0.602307
 30
0.0
  0
VERTEX
  5
1CA0
  8
ASSEMBLY
 10
0.563
 20
0.548307
 30
0.0
  0
SEQEND
  5
1CA1
  8
ASSEMBLY
  0
LINE
  5
C6E
  8
ASSEMBLY
 10
0.62382
 20
-2.224589
 30
0.0
 11
0.62382
 21
-2.438805
 31
0.0
  0
LINE
  5
C6F
  8
ASSEMBLY
 10
0.727164
 20
-2.224589
 30
0.0
 11
0.727164
 21
-2.438805
 31
0.0
  0
POLYLINE
  5
C70
  8
ASSEMBLY
 66
     1
 10
0.0
 20
0.0
 30
0.0
 70
     1
  0
VERTEX
  5
1CA2
  8
ASSEMBLY
 10
0.59823
 20
-2.224589
 30
0.0
  0
VERTEX
  5
1CA3
  8
ASSEMBLY
 10
0.75177
 20
-2.224589
 30
0.0
  0
VERTEX
  5
1CA4
  8
ASSEMBLY
 10
0.75177
 20
-2.439297
 30
0.0
  0
VERTEX
  5
1CA5
  8
ASSEMBLY
 10
0.59823
 20
-2.439297
 30
0.0
  0
SEQEND
  5
1CA6
  8
ASSEMBLY
  0
LINE
  5
C76
  8
ASSEMBLY
 10
0.527164
 20
-2.224589
 30
0.0
 11
0.527164
 21
-2.438805
 31
0.0
  0
LINE
  5
C77
  8
ASSEMBLY
 10
0.775
 20
-2.479505
 30
0.0
 11
0.775
 21
-1.864691
 31
0.0
  0
LINE
  5
C78
  8
ASSEMBLY
 10
0.675
 20
-1.864691
 30
0.0
 11
0.675
 21
-1.334106
 31
0.0
  0
POLYLINE
  5
C79
  8
ASSEMBLY
 66
     1
 10
0.0
 20
0.0
 30
0.0
  0
VERTEX
  5
1CA7
  8
ASSEMBLY
 10
0.628741
 20
-2.224589
 30
0.0
  0
VERTEX
  5
1CA8
  8
ASSEMBLY
 10
0.628741
 20
-2.284175
 30
0.0
  0
VERTEX
  5
1CA9
  8
ASSEMBLY
 10
0.722243
 20
-2.284175
 30
0.0
  0
VERTEX
  5
1CAA
  8
ASSEMBLY
 10
0.722243
 20
-2.224589
 30
0.0
  0
SEQEND
  5
1CAB
  8
ASSEMBLY
  0
LINE
  5
C7F
  8
ASSEMBLY
 10
0.52382
 20
-1.691106
 30
0.0
 11
0.52382
 21
-1.864691
 31
0.0
  0
LINE
  5
C80
  8
ASSEMBLY
 10
0.627164
 20
-1.691106
 30
0.0
 11
0.627164
 21
-1.864691
 31
0.0
  0
POLYLINE
  5
C81
  8
ASSEMBLY
 66
     1
 10
0.0
 20
0.0
 30
0.0
  0
VERTEX
  5
1CAC
  8
ASSEMBLY
 10
0.49823
 20
-1.864691
 30
0.0
  0
VERTEX
  5
1CAD
  8
ASSEMBLY
 10
0.49823
 20
-1.691106
 30
0.0
  0
VERTEX
  5
1CAE
  8
ASSEMBLY
 10
0.65177
 20
-1.691106
 30
0.0
  0
VERTEX
  5
1CAF
  8
ASSEMBLY
 10
0.65177
 20
-1.864691
 30
0.0
  0
SEQEND
  5
1CB0
  8
ASSEMBLY
  0
POLYLINE
  5
C87
  8
ASSEMBLY
 66
     1
 10
0.0
 20
0.0
 30
0.0
  0
VERTEX
  5
1CB1
  8
ASSEMBLY
 10
0.528741
 20
-1.691106
 30
0.0
  0
VERTEX
  5
1CB2
  8
ASSEMBLY
 10
0.528741
 20
-1.750692
 30
0.0
  0
VERTEX
  5
1CB3
  8
ASSEMBLY
 10
0.622243
 20
-1.750692
 30
0.0
  0
VERTEX
  5
1CB4
  8
ASSEMBLY
 10
0.622243
 20
-1.691106
 30
0.0
  0
SEQEND
  5
1CB5
  8
ASSEMBLY
  0
LINE
  5
C8D
  8
ASSEMBLY
 10
0.983
 20
0.1835
 30
0.0
 11
0.983
 21
0.619024
 31
0.0
  0
POLYLINE
  5
C8F
  8
ASSEMBLY
 66
     1
 10
0.0
 20
0.0
 30
0.0
  0
VERTEX
  5
1CB6
  8
ASSEMBLY
 10
0.803
 20
0.548307
 30
0.0
  0
VERTEX
  5
1CB7
  8
ASSEMBLY
 10
0.803
 20
0.602307
 30
0.0
  0
VERTEX
  5
1CB8
  8
ASSEMBLY
 10
0.963
 20
0.602307
 30
0.0
  0
VERTEX
  5
1CB9
  8
ASSEMBLY
 10
0.963
 20
0.548307
 30
0.0
  0
SEQEND
  5
1CBA
  8
ASSEMBLY
  0
CIRCLE
  5
C95
  8
ASSEMBLY
 10
0.883
 20
0.411307
 30
0.0
 40
0.076
  0
CIRCLE
  5
C96
  8
ASSEMBLY
 10
0.883
 20
0.411307
 30
0.0
 40
0.065
  0
LINE
  5
C97
  8
ASSEMBLY
 10
0.827672
 20
0.377193
 30
0.0
 11
0.917115
 21
0.466635
 31
0.0
  0
LINE
  5
C98
  8
ASSEMBLY
 10
0.848885
 20
0.355979
 30
0.0
 11
0.938328
 21
0.445422
 31
0.0
  0
LINE
  5
C9A
  8
ASSEMBLY
 10
0.648885
 20
0.355979
 30
0.0
 11
0.738328
 21
0.445422
 31
0.0
  0
LINE
  5
C9B
  8
ASSEMBLY
 10
0.983
 20
0.619024
 30
0.0
 11
0.883
 21
0.619024
 31
0.0
  0
LINE
  5
C9C
  8
ASSEMBLY
 10
6.699245
 20
0.186774
 30
0.0
 11
6.699245
 21
0.1835
 31
0.0
  0
POLYLINE
  5
C9D
  8
ASSEMBLY
 66
     1
 10
0.0
 20
0.0
 30
0.0
  0
VERTEX
  5
1CBB
  8
ASSEMBLY
 10
0.638
 20
1.069307
 30
0.0
  0
VERTEX
  5
1CBC
  8
ASSEMBLY
 10
0.638
 20
1.027307
 30
0.0
  0
VERTEX
  5
1CBD
  8
ASSEMBLY
 10
0.528
 20
1.027307
 30
0.0
  0
VERTEX
  5
1CBE
  8
ASSEMBLY
 10
0.528
 20
1.069307
 30
0.0
  0
SEQEND
  5
1CBF
  8
ASSEMBLY
  0
CIRCLE
  5
CA3
  8
ASSEMBLY
 10
0.583
 20
0.848307
 30
0.0
 40
0.076
  0
CIRCLE
  5
CA4
  8
ASSEMBLY
 10
0.583
 20
0.848307
 30
0.0
 40
0.065
  0
LINE
  5
CA5
  8
ASSEMBLY
 10
0.548885
 20
0.792979
 30
0.0
 11
0.638328
 21
0.882422
 31
0.0
  0
LINE
  5
CA6
  8
ASSEMBLY
 10
0.283
 20
0.985307
 30
0.0
 11
4.883
 21
0.985307
 31
0.0
  0
LINE
  5
CA7
  8
ASSEMBLY
 10
0.283
 20
0.758307
 30
0.0
 11
4.883
 21
0.758307
 31
0.0
  0
POLYLINE
  5
CA8
  8
ASSEMBLY
 66
     1
 10
0.0
 20
0.0
 30
0.0
  0
VERTEX
  5
1CC0
  8
ASSEMBLY
 10
0.438
 20
1.069307
 30
0.0
  0
VERTEX
  5
1CC1
  8
ASSEMBLY
 10
0.438
 20
1.027307
 30
0.0
  0
VERTEX
  5
1CC2
  8
ASSEMBLY
 10
0.328
 20
1.027307
 30
0.0
  0
VERTEX
  5
1CC3
  8
ASSEMBLY
 10
0.328
 20
1.069307
 30
0.0
  0
SEQEND
  5
1CC4
  8
ASSEMBLY
  0
CIRCLE
  5
CAF
  8
ASSEMBLY
 10
0.383
 20
0.848307
 30
0.0
 40
0.076
  0
CIRCLE
  5
CB0
  8
ASSEMBLY
 10
0.383
 20
0.848307
 30
0.0
 40
0.065
  0
LINE
  5
CB1
  8
ASSEMBLY
 10
0.327672
 20
0.814193
 30
0.0
 11
0.417115
 21
0.903635
 31
0.0
  0
LINE
  5
CB2
  8
ASSEMBLY
 10
0.348885
 20
0.792979
 30
0.0
 11
0.438328
 21
0.882422
 31
0.0
  0
LINE
  5
CB4
  8
ASSEMBLY
 10
0.527672
 20
0.814193
 30
0.0
 11
0.617115
 21
0.903635
 31
0.0
  0
LINE
  5
CB6
  8
ASSEMBLY
 10
0.748885
 20
0.792979
 30
0.0
 11
0.838328
 21
0.882422
 31
0.0
  0
LINE
  5
CB7
  8
ASSEMBLY
 10
0.727672
 20
0.814193
 30
0.0
 11
0.817115
 21
0.903635
 31
0.0
  0
CIRCLE
  5
CB8
  8
ASSEMBLY
 10
0.783
 20
0.848307
 30
0.0
 40
0.065
  0
CIRCLE
  5
CB9
  8
ASSEMBLY
 10
0.783
 20
0.848307
 30
0.0
 40
0.076
  0
POLYLINE
  5
CBA
  8
ASSEMBLY
 66
     1
 10
0.0
 20
0.0
 30
0.0
  0
VERTEX
  5
1CC5
  8
ASSEMBLY
 10
0.838
 20
1.069307
 30
0.0
  0
VERTEX
  5
1CC6
  8
ASSEMBLY
 10
0.838
 20
1.027307
 30
0.0
  0
VERTEX
  5
1CC7
  8
ASSEMBLY
 10
0.728
 20
1.027307
 30
0.0
  0
VERTEX
  5
1CC8
  8
ASSEMBLY
 10
0.728
 20
1.069307
 30
0.0
  0
SEQEND
  5
1CC9
  8
ASSEMBLY
  0
LINE
  5
CC0
  8
ASSEMBLY
 10
0.283
 20
1.069307
 30
0.0
 11
4.883
 21
1.069307
 31
0.0
  0
POLYLINE
  5
CD1
  8
ASSEMBLY
 66
     1
 10
0.0
 20
0.0
 30
0.0
  0
VERTEX
  5
1CCA
  8
ASSEMBLY
 10
1.038
 20
1.069307
 30
0.0
  0
VERTEX
  5
1CCB
  8
ASSEMBLY
 10
1.038
 20
1.027307
 30
0.0
  0
VERTEX
  5
1CCC
  8
ASSEMBLY
 10
0.928
 20
1.027307
 30
0.0
  0
VERTEX
  5
1CCD
  8
ASSEMBLY
 10
0.928
 20
1.069307
 30
0.0
  0
SEQEND
  5
1CCE
  8
ASSEMBLY
  0
LINE
  5
CD7
  8
ASSEMBLY
 10
0.948885
 20
0.792979
 30
0.0
 11
1.038328
 21
0.882422
 31
0.0
  0
LINE
  5
CD8
  8
ASSEMBLY
 10
0.927672
 20
0.814193
 30
0.0
 11
1.017115
 21
0.903635
 31
0.0
  0
CIRCLE
  5
CD9
  8
ASSEMBLY
 10
0.983
 20
0.848307
 30
0.0
 40
0.065
  0
CIRCLE
  5
CDA
  8
ASSEMBLY
 10
0.983
 20
0.848307
 30
0.0
 40
0.076
  0
CIRCLE
  5
CDC
  8
ASSEMBLY
 10
1.083
 20
0.411307
 30
0.0
 40
0.076
  0
CIRCLE
  5
CDD
  8
ASSEMBLY
 10
1.083
 20
0.411307
 30
0.0
 40
0.065
  0
LINE
  5
CDE
  8
ASSEMBLY
 10
1.027672
 20
0.377193
 30
0.0
 11
1.117115
 21
0.466635
 31
0.0
  0
LINE
  5
CDF
  8
ASSEMBLY
 10
1.048885
 20
0.355979
 30
0.0
 11
1.138328
 21
0.445422
 31
0.0
  0
POLYLINE
  5
CE1
  8
ASSEMBLY
 66
     1
 10
0.0
 20
0.0
 30
0.0
  0
VERTEX
  5
1CCF
  8
ASSEMBLY
 10
1.003
 20
0.548307
 30
0.0
  0
VERTEX
  5
1CD0
  8
ASSEMBLY
 10
1.003
 20
0.602307
 30
0.0
  0
VERTEX
  5
1CD1
  8
ASSEMBLY
 10
1.163
 20
0.602307
 30
0.0
  0
VERTEX
  5
1CD2
  8
ASSEMBLY
 10
1.163
 20
0.548307
 30
0.0
  0
SEQEND
  5
1CD3
  8
ASSEMBLY
  0
POLYLINE
  5
CE7
  8
ASSEMBLY
 66
     1
 10
0.0
 20
0.0
 30
0.0
  0
VERTEX
  5
1CD4
  8
ASSEMBLY
 10
1.238
 20
1.069307
 30
0.0
  0
VERTEX
  5
1CD5
  8
ASSEMBLY
 10
1.238
 20
1.027307
 30
0.0
  0
VERTEX
  5
1CD6
  8
ASSEMBLY
 10
1.128
 20
1.027307
 30
0.0
  0
VERTEX
  5
1CD7
  8
ASSEMBLY
 10
1.128
 20
1.069307
 30
0.0
  0
SEQEND
  5
1CD8
  8
ASSEMBLY
  0
LINE
  5
CED
  8
ASSEMBLY
 10
1.148885
 20
0.792979
 30
0.0
 11
1.238328
 21
0.882422
 31
0.0
  0
LINE
  5
CEE
  8
ASSEMBLY
 10
1.127672
 20
0.814193
 30
0.0
 11
1.217115
 21
0.903635
 31
0.0
  0
CIRCLE
  5
CEF
  8
ASSEMBLY
 10
1.183
 20
0.848307
 30
0.0
 40
0.065
  0
CIRCLE
  5
CF0
  8
ASSEMBLY
 10
1.183
 20
0.848307
 30
0.0
 40
0.076
  0
CIRCLE
  5
CF2
  8
ASSEMBLY
 10
1.283
 20
0.411307
 30
0.0
 40
0.076
  0
CIRCLE
  5
CF3
  8
ASSEMBLY
 10
1.283
 20
0.411307
 30
0.0
 40
0.065
  0
LINE
  5
CF4
  8
ASSEMBLY
 10
1.227672
 20
0.377193
 30
0.0
 11
1.317115
 21
0.466635
 31
0.0
  0
LINE
  5
CF5
  8
ASSEMBLY
 10
1.248885
 20
0.355979
 30
0.0
 11
1.338328
 21
0.445422
 31
0.0
  0
POLYLINE
  5
CF7
  8
ASSEMBLY
 66
     1
 10
0.0
 20
0.0
 30
0.0
  0
VERTEX
  5
1CD9
  8
ASSEMBLY
 10
1.203
 20
0.548307
 30
0.0
  0
VERTEX
  5
1CDA
  8
ASSEMBLY
 10
1.203
 20
0.602307
 30
0.0
  0
VERTEX
  5
1CDB
  8
ASSEMBLY
 10
1.363
 20
0.602307
 30
0.0
  0
VERTEX
  5
1CDC
  8
ASSEMBLY
 10
1.363
 20
0.548307
 30
0.0
  0
SEQEND
  5
1CDD
  8
ASSEMBLY
  0
POLYLINE
  5
CFD
  8
ASSEMBLY
 66
     1
 10
0.0
 20
0.0
 30
0.0
  0
VERTEX
  5
1CDE
  8
ASSEMBLY
 10
1.438
 20
1.069307
 30
0.0
  0
VERTEX
  5
1CDF
  8
ASSEMBLY
 10
1.438
 20
1.027307
 30
0.0
  0
VERTEX
  5
1CE0
  8
ASSEMBLY
 10
1.328
 20
1.027307
 30
0.0
  0
VERTEX
  5
1CE1
  8
ASSEMBLY
 10
1.328
 20
1.069307
 30
0.0
  0
SEQEND
  5
1CE2
  8
ASSEMBLY
  0
LINE
  5
D03
  8
ASSEMBLY
 10
1.348885
 20
0.792979
 30
0.0
 11
1.438328
 21
0.882422
 31
0.0
  0
LINE
  5
D04
  8
ASSEMBLY
 10
1.327672
 20
0.814193
 30
0.0
 11
1.417115
 21
0.903635
 31
0.0
  0
CIRCLE
  5
D05
  8
ASSEMBLY
 10
1.383
 20
0.848307
 30
0.0
 40
0.065
  0
CIRCLE
  5
D06
  8
ASSEMBLY
 10
1.383
 20
0.848307
 30
0.0
 40
0.076
  0
CIRCLE
  5
D08
  8
ASSEMBLY
 10
1.483
 20
0.411307
 30
0.0
 40
0.076
  0
CIRCLE
  5
D09
  8
ASSEMBLY
 10
1.483
 20
0.411307
 30
0.0
 40
0.065
  0
LINE
  5
D0A
  8
ASSEMBLY
 10
1.427672
 20
0.377193
 30
0.0
 11
1.517115
 21
0.466635
 31
0.0
  0
LINE
  5
D0B
  8
ASSEMBLY
 10
1.448885
 20
0.355979
 30
0.0
 11
1.538328
 21
0.445422
 31
0.0
  0
POLYLINE
  5
D0D
  8
ASSEMBLY
 66
     1
 10
0.0
 20
0.0
 30
0.0
  0
VERTEX
  5
1CE3
  8
ASSEMBLY
 10
1.403
 20
0.548307
 30
0.0
  0
VERTEX
  5
1CE4
  8
ASSEMBLY
 10
1.403
 20
0.602307
 30
0.0
  0
VERTEX
  5
1CE5
  8
ASSEMBLY
 10
1.563
 20
0.602307
 30
0.0
  0
VERTEX
  5
1CE6
  8
ASSEMBLY
 10
1.563
 20
0.548307
 30
0.0
  0
SEQEND
  5
1CE7
  8
ASSEMBLY
  0
POLYLINE
  5
D13
  8
ASSEMBLY
 66
     1
 10
0.0
 20
0.0
 30
0.0
  0
VERTEX
  5
1CE8
  8
ASSEMBLY
 10
1.638
 20
1.069307
 30
0.0
  0
VERTEX
  5
1CE9
  8
ASSEMBLY
 10
1.638
 20
1.027307
 30
0.0
  0
VERTEX
  5
1CEA
  8
ASSEMBLY
 10
1.528
 20
1.027307
 30
0.0
  0
VERTEX
  5
1CEB
  8
ASSEMBLY
 10
1.528
 20
1.069307
 30
0.0
  0
SEQEND
  5
1CEC
  8
ASSEMBLY
  0
LINE
  5
D19
  8
ASSEMBLY
 10
1.548885
 20
0.792979
 30
0.0
 11
1.638328
 21
0.882422
 31
0.0
  0
LINE
  5
D1A
  8
ASSEMBLY
 10
1.527672
 20
0.814193
 30
0.0
 11
1.617115
 21
0.903635
 31
0.0
  0
CIRCLE
  5
D1B
  8
ASSEMBLY
 10
1.583
 20
0.848307
 30
0.0
 40
0.065
  0
CIRCLE
  5
D1C
  8
ASSEMBLY
 10
1.583
 20
0.848307
 30
0.0
 40
0.076
  0
CIRCLE
  5
D1E
  8
ASSEMBLY
 10
1.683
 20
0.411307
 30
0.0
 40
0.076
  0
CIRCLE
  5
D1F
  8
ASSEMBLY
 10
1.683
 20
0.411307
 30
0.0
 40
0.065
  0
LINE
  5
D20
  8
ASSEMBLY
 10
1.627672
 20
0.377193
 30
0.0
 11
1.717115
 21
0.466635
 31
0.0
  0
LINE
  5
D21
  8
ASSEMBLY
 10
1.648885
 20
0.355979
 30
0.0
 11
1.738328
 21
0.445422
 31
0.0
  0
POLYLINE
  5
D23
  8
ASSEMBLY
 66
     1
 10
0.0
 20
0.0
 30
0.0
  0
VERTEX
  5
1CED
  8
ASSEMBLY
 10
1.603
 20
0.548307
 30
0.0
  0
VERTEX
  5
1CEE
  8
ASSEMBLY
 10
1.603
 20
0.602307
 30
0.0
  0
VERTEX
  5
1CEF
  8
ASSEMBLY
 10
1.763
 20
0.602307
 30
0.0
  0
VERTEX
  5
1CF0
  8
ASSEMBLY
 10
1.763
 20
0.548307
 30
0.0
  0
SEQEND
  5
1CF1
  8
ASSEMBLY
  0
POLYLINE
  5
D29
  8
ASSEMBLY
 66
     1
 10
0.0
 20
0.0
 30
0.0
  0
VERTEX
  5
1CF2
  8
ASSEMBLY
 10
1.838
 20
1.069307
 30
0.0
  0
VERTEX
  5
1CF3
  8
ASSEMBLY
 10
1.838
 20
1.027307
 30
0.0
  0
VERTEX
  5
1CF4
  8
ASSEMBLY
 10
1.728
 20
1.027307
 30
0.0
  0
VERTEX
  5
1CF5
  8
ASSEMBLY
 10
1.728
 20
1.069307
 30
0.0
  0
SEQEND
  5
1CF6
  8
ASSEMBLY
  0
LINE
  5
D2F
  8
ASSEMBLY
 10
1.748885
 20
0.792979
 30
0.0
 11
1.838328
 21
0.882422
 31
0.0
  0
LINE
  5
D30
  8
ASSEMBLY
 10
1.727672
 20
0.814193
 30
0.0
 11
1.817115
 21
0.903635
 31
0.0
  0
CIRCLE
  5
D31
  8
ASSEMBLY
 10
1.783
 20
0.848307
 30
0.0
 40
0.065
  0
CIRCLE
  5
D32
  8
ASSEMBLY
 10
1.783
 20
0.848307
 30
0.0
 40
0.076
  0
CIRCLE
  5
D34
  8
ASSEMBLY
 10
1.883
 20
0.411307
 30
0.0
 40
0.076
  0
CIRCLE
  5
D35
  8
ASSEMBLY
 10
1.883
 20
0.411307
 30
0.0
 40
0.065
  0
LINE
  5
D36
  8
ASSEMBLY
 10
1.827672
 20
0.377193
 30
0.0
 11
1.917115
 21
0.466635
 31
0.0
  0
LINE
  5
D37
  8
ASSEMBLY
 10
1.848885
 20
0.355979
 30
0.0
 11
1.938328
 21
0.445422
 31
0.0
  0
POLYLINE
  5
D39
  8
ASSEMBLY
 66
     1
 10
0.0
 20
0.0
 30
0.0
  0
VERTEX
  5
1CF7
  8
ASSEMBLY
 10
1.803
 20
0.548307
 30
0.0
  0
VERTEX
  5
1CF8
  8
ASSEMBLY
 10
1.803
 20
0.602307
 30
0.0
  0
VERTEX
  5
1CF9
  8
ASSEMBLY
 10
1.963
 20
0.602307
 30
0.0
  0
VERTEX
  5
1CFA
  8
ASSEMBLY
 10
1.963
 20
0.548307
 30
0.0
  0
SEQEND
  5
1CFB
  8
ASSEMBLY
  0
POLYLINE
  5
D3F
  8
ASSEMBLY
 66
     1
 10
0.0
 20
0.0
 30
0.0
  0
VERTEX
  5
1CFC
  8
ASSEMBLY
 10
2.038
 20
1.069307
 30
0.0
  0
VERTEX
  5
1CFD
  8
ASSEMBLY
 10
2.038
 20
1.027307
 30
0.0
  0
VERTEX
  5
1CFE
  8
ASSEMBLY
 10
1.928
 20
1.027307
 30
0.0
  0
VERTEX
  5
1CFF
  8
ASSEMBLY
 10
1.928
 20
1.069307
 30
0.0
  0
SEQEND
  5
1D00
  8
ASSEMBLY
  0
LINE
  5
D45
  8
ASSEMBLY
 10
1.948885
 20
0.792979
 30
0.0
 11
2.038328
 21
0.882422
 31
0.0
  0
LINE
  5
D46
  8
ASSEMBLY
 10
1.927672
 20
0.814193
 30
0.0
 11
2.017115
 21
0.903635
 31
0.0
  0
CIRCLE
  5
D47
  8
ASSEMBLY
 10
1.983
 20
0.848307
 30
0.0
 40
0.065
  0
CIRCLE
  5
D48
  8
ASSEMBLY
 10
1.983
 20
0.848307
 30
0.0
 40
0.076
  0
CIRCLE
  5
D4A
  8
ASSEMBLY
 10
2.083
 20
0.411307
 30
0.0
 40
0.076
  0
CIRCLE
  5
D4B
  8
ASSEMBLY
 10
2.083
 20
0.411307
 30
0.0
 40
0.065
  0
LINE
  5
D4C
  8
ASSEMBLY
 10
2.027672
 20
0.377193
 30
0.0
 11
2.117115
 21
0.466635
 31
0.0
  0
LINE
  5
D4D
  8
ASSEMBLY
 10
2.048885
 20
0.355979
 30
0.0
 11
2.138328
 21
0.445422
 31
0.0
  0
POLYLINE
  5
D4F
  8
ASSEMBLY
 66
     1
 10
0.0
 20
0.0
 30
0.0
  0
VERTEX
  5
1D01
  8
ASSEMBLY
 10
2.003
 20
0.548307
 30
0.0
  0
VERTEX
  5
1D02
  8
ASSEMBLY
 10
2.003
 20
0.602307
 30
0.0
  0
VERTEX
  5
1D03
  8
ASSEMBLY
 10
2.163
 20
0.602307
 30
0.0
  0
VERTEX
  5
1D04
  8
ASSEMBLY
 10
2.163
 20
0.548307
 30
0.0
  0
SEQEND
  5
1D05
  8
ASSEMBLY
  0
POLYLINE
  5
D55
  8
ASSEMBLY
 66
     1
 10
0.0
 20
0.0
 30
0.0
  0
VERTEX
  5
1D06
  8
ASSEMBLY
 10
2.238
 20
1.069307
 30
0.0
  0
VERTEX
  5
1D07
  8
ASSEMBLY
 10
2.238
 20
1.027307
 30
0.0
  0
VERTEX
  5
1D08
  8
ASSEMBLY
 10
2.128
 20
1.027307
 30
0.0
  0
VERTEX
  5
1D09
  8
ASSEMBLY
 10
2.128
 20
1.069307
 30
0.0
  0
SEQEND
  5
1D0A
  8
ASSEMBLY
  0
LINE
  5
D5B
  8
ASSEMBLY
 10
2.148885
 20
0.792979
 30
0.0
 11
2.238328
 21
0.882422
 31
0.0
  0
LINE
  5
D5C
  8
ASSEMBLY
 10
2.127672
 20
0.814193
 30
0.0
 11
2.217115
 21
0.903635
 31
0.0
  0
CIRCLE
  5
D5D
  8
ASSEMBLY
 10
2.183
 20
0.848307
 30
0.0
 40
0.065
  0
CIRCLE
  5
D5E
  8
ASSEMBLY
 10
2.183
 20
0.848307
 30
0.0
 40
0.076
  0
CIRCLE
  5
D60
  8
ASSEMBLY
 10
2.283
 20
0.411307
 30
0.0
 40
0.076
  0
CIRCLE
  5
D61
  8
ASSEMBLY
 10
2.283
 20
0.411307
 30
0.0
 40
0.065
  0
LINE
  5
D62
  8
ASSEMBLY
 10
2.227672
 20
0.377193
 30
0.0
 11
2.317115
 21
0.466635
 31
0.0
  0
LINE
  5
D63
  8
ASSEMBLY
 10
2.248885
 20
0.355979
 30
0.0
 11
2.338328
 21
0.445422
 31
0.0
  0
POLYLINE
  5
D65
  8
ASSEMBLY
 66
     1
 10
0.0
 20
0.0
 30
0.0
  0
VERTEX
  5
1D0B
  8
ASSEMBLY
 10
2.203
 20
0.548307
 30
0.0
  0
VERTEX
  5
1D0C
  8
ASSEMBLY
 10
2.203
 20
0.602307
 30
0.0
  0
VERTEX
  5
1D0D
  8
ASSEMBLY
 10
2.363
 20
0.602307
 30
0.0
  0
VERTEX
  5
1D0E
  8
ASSEMBLY
 10
2.363
 20
0.548307
 30
0.0
  0
SEQEND
  5
1D0F
  8
ASSEMBLY
  0
POLYLINE
  5
D6B
  8
ASSEMBLY
 66
     1
 10
0.0
 20
0.0
 30
0.0
  0
VERTEX
  5
1D10
  8
ASSEMBLY
 10
2.438
 20
1.069307
 30
0.0
  0
VERTEX
  5
1D11
  8
ASSEMBLY
 10
2.438
 20
1.027307
 30
0.0
  0
VERTEX
  5
1D12
  8
ASSEMBLY
 10
2.328
 20
1.027307
 30
0.0
  0
VERTEX
  5
1D13
  8
ASSEMBLY
 10
2.328
 20
1.069307
 30
0.0
  0
SEQEND
  5
1D14
  8
ASSEMBLY
  0
LINE
  5
D71
  8
ASSEMBLY
 10
2.348885
 20
0.792979
 30
0.0
 11
2.438328
 21
0.882422
 31
0.0
  0
LINE
  5
D72
  8
ASSEMBLY
 10
2.327672
 20
0.814193
 30
0.0
 11
2.417115
 21
0.903635
 31
0.0
  0
CIRCLE
  5
D73
  8
ASSEMBLY
 10
2.383
 20
0.848307
 30
0.0
 40
0.065
  0
CIRCLE
  5
D74
  8
ASSEMBLY
 10
2.383
 20
0.848307
 30
0.0
 40
0.076
  0
CIRCLE
  5
D76
  8
ASSEMBLY
 10
2.483
 20
0.411307
 30
0.0
 40
0.076
  0
CIRCLE
  5
D77
  8
ASSEMBLY
 10
2.483
 20
0.411307
 30
0.0
 40
0.065
  0
LINE
  5
D78
  8
ASSEMBLY
 10
2.427672
 20
0.377193
 30
0.0
 11
2.517115
 21
0.466635
 31
0.0
  0
LINE
  5
D79
  8
ASSEMBLY
 10
2.448885
 20
0.355979
 30
0.0
 11
2.538328
 21
0.445422
 31
0.0
  0
POLYLINE
  5
D7B
  8
ASSEMBLY
 66
     1
 10
0.0
 20
0.0
 30
0.0
  0
VERTEX
  5
1D15
  8
ASSEMBLY
 10
2.403
 20
0.548307
 30
0.0
  0
VERTEX
  5
1D16
  8
ASSEMBLY
 10
2.403
 20
0.602307
 30
0.0
  0
VERTEX
  5
1D17
  8
ASSEMBLY
 10
2.563
 20
0.602307
 30
0.0
  0
VERTEX
  5
1D18
  8
ASSEMBLY
 10
2.563
 20
0.548307
 30
0.0
  0
SEQEND
  5
1D19
  8
ASSEMBLY
  0
POLYLINE
  5
D81
  8
ASSEMBLY
 66
     1
 10
0.0
 20
0.0
 30
0.0
  0
VERTEX
  5
1D1A
  8
ASSEMBLY
 10
2.638
 20
1.069307
 30
0.0
  0
VERTEX
  5
1D1B
  8
ASSEMBLY
 10
2.638
 20
1.027307
 30
0.0
  0
VERTEX
  5
1D1C
  8
ASSEMBLY
 10
2.528
 20
1.027307
 30
0.0
  0
VERTEX
  5
1D1D
  8
ASSEMBLY
 10
2.528
 20
1.069307
 30
0.0
  0
SEQEND
  5
1D1E
  8
ASSEMBLY
  0
LINE
  5
D87
  8
ASSEMBLY
 10
2.548885
 20
0.792979
 30
0.0
 11
2.638328
 21
0.882422
 31
0.0
  0
LINE
  5
D88
  8
ASSEMBLY
 10
2.527672
 20
0.814193
 30
0.0
 11
2.617115
 21
0.903635
 31
0.0
  0
CIRCLE
  5
D89
  8
ASSEMBLY
 10
2.583
 20
0.848307
 30
0.0
 40
0.065
  0
CIRCLE
  5
D8A
  8
ASSEMBLY
 10
2.583
 20
0.848307
 30
0.0
 40
0.076
  0
CIRCLE
  5
D8C
  8
ASSEMBLY
 10
2.683
 20
0.411307
 30
0.0
 40
0.076
  0
CIRCLE
  5
D8D
  8
ASSEMBLY
 10
2.683
 20
0.411307
 30
0.0
 40
0.065
  0
LINE
  5
D8E
  8
ASSEMBLY
 10
2.627672
 20
0.377193
 30
0.0
 11
2.717115
 21
0.466635
 31
0.0
  0
LINE
  5
D8F
  8
ASSEMBLY
 10
2.648885
 20
0.355979
 30
0.0
 11
2.738328
 21
0.445422
 31
0.0
  0
POLYLINE
  5
D91
  8
ASSEMBLY
 66
     1
 10
0.0
 20
0.0
 30
0.0
  0
VERTEX
  5
1D1F
  8
ASSEMBLY
 10
2.603
 20
0.548307
 30
0.0
  0
VERTEX
  5
1D20
  8
ASSEMBLY
 10
2.603
 20
0.602307
 30
0.0
  0
VERTEX
  5
1D21
  8
ASSEMBLY
 10
2.763
 20
0.602307
 30
0.0
  0
VERTEX
  5
1D22
  8
ASSEMBLY
 10
2.763
 20
0.548307
 30
0.0
  0
SEQEND
  5
1D23
  8
ASSEMBLY
  0
POLYLINE
  5
D97
  8
ASSEMBLY
 66
     1
 10
0.0
 20
0.0
 30
0.0
  0
VERTEX
  5
1D24
  8
ASSEMBLY
 10
2.838
 20
1.069307
 30
0.0
  0
VERTEX
  5
1D25
  8
ASSEMBLY
 10
2.838
 20
1.027307
 30
0.0
  0
VERTEX
  5
1D26
  8
ASSEMBLY
 10
2.728
 20
1.027307
 30
0.0
  0
VERTEX
  5
1D27
  8
ASSEMBLY
 10
2.728
 20
1.069307
 30
0.0
  0
SEQEND
  5
1D28
  8
ASSEMBLY
  0
LINE
  5
D9D
  8
ASSEMBLY
 10
2.748885
 20
0.792979
 30
0.0
 11
2.838328
 21
0.882422
 31
0.0
  0
LINE
  5
D9E
  8
ASSEMBLY
 10
2.727672
 20
0.814193
 30
0.0
 11
2.817115
 21
0.903635
 31
0.0
  0
CIRCLE
  5
D9F
  8
ASSEMBLY
 10
2.783
 20
0.848307
 30
0.0
 40
0.065
  0
CIRCLE
  5
DA0
  8
ASSEMBLY
 10
2.783
 20
0.848307
 30
0.0
 40
0.076
  0
CIRCLE
  5
DA2
  8
ASSEMBLY
 10
2.883
 20
0.411307
 30
0.0
 40
0.076
  0
CIRCLE
  5
DA3
  8
ASSEMBLY
 10
2.883
 20
0.411307
 30
0.0
 40
0.065
  0
LINE
  5
DA4
  8
ASSEMBLY
 10
2.827672
 20
0.377193
 30
0.0
 11
2.917115
 21
0.466635
 31
0.0
  0
LINE
  5
DA5
  8
ASSEMBLY
 10
2.848885
 20
0.355979
 30
0.0
 11
2.938328
 21
0.445422
 31
0.0
  0
POLYLINE
  5
DA7
  8
ASSEMBLY
 66
     1
 10
0.0
 20
0.0
 30
0.0
  0
VERTEX
  5
1D29
  8
ASSEMBLY
 10
2.803
 20
0.548307
 30
0.0
  0
VERTEX
  5
1D2A
  8
ASSEMBLY
 10
2.803
 20
0.602307
 30
0.0
  0
VERTEX
  5
1D2B
  8
ASSEMBLY
 10
2.963
 20
0.602307
 30
0.0
  0
VERTEX
  5
1D2C
  8
ASSEMBLY
 10
2.963
 20
0.548307
 30
0.0
  0
SEQEND
  5
1D2D
  8
ASSEMBLY
  0
LINE
  5
DAD
  8
ASSEMBLY
 10
1.583
 20
0.1835
 30
0.0
 11
1.583
 21
0.619024
 31
0.0
  0
LINE
  5
DAE
  8
ASSEMBLY
 10
1.483
 20
0.619024
 30
0.0
 11
1.483
 21
1.069307
 31
0.0
  0
LINE
  5
DAF
  8
ASSEMBLY
 10
1.583
 20
0.619024
 30
0.0
 11
1.483
 21
0.619024
 31
0.0
  0
LINE
  5
DB0
  8
ASSEMBLY
 10
2.183
 20
0.1835
 30
0.0
 11
2.183
 21
0.619024
 31
0.0
  0
LINE
  5
DB1
  8
ASSEMBLY
 10
2.083
 20
0.619024
 30
0.0
 11
2.083
 21
1.069307
 31
0.0
  0
LINE
  5
DB2
  8
ASSEMBLY
 10
2.183
 20
0.619024
 30
0.0
 11
2.083
 21
0.619024
 31
0.0
  0
LINE
  5
DB3
  8
ASSEMBLY
 10
4.983
 20
0.1835
 30
0.0
 11
4.983
 21
0.619024
 31
0.0
  0
LINE
  5
DB4
  8
ASSEMBLY
 10
4.883
 20
0.619024
 30
0.0
 11
4.883
 21
1.069307
 31
0.0
  0
LINE
  5
DB5
  8
ASSEMBLY
 10
4.983
 20
0.619024
 30
0.0
 11
4.883
 21
0.619024
 31
0.0
  0
CIRCLE
  5
DB7
  8
ASSEMBLY
 10
2.983
 20
0.848307
 30
0.0
 40
0.076
  0
CIRCLE
  5
DB8
  8
ASSEMBLY
 10
2.983
 20
0.848307
 30
0.0
 40
0.065
  0
LINE
  5
DB9
  8
ASSEMBLY
 10
2.927672
 20
0.814193
 30
0.0
 11
3.017115
 21
0.903635
 31
0.0
  0
LINE
  5
DBA
  8
ASSEMBLY
 10
2.948885
 20
0.792979
 30
0.0
 11
3.038328
 21
0.882422
 31
0.0
  0
POLYLINE
  5
DBB
  8
ASSEMBLY
 66
     1
 10
0.0
 20
0.0
 30
0.0
  0
VERTEX
  5
1D2E
  8
ASSEMBLY
 10
3.038
 20
1.069307
 30
0.0
  0
VERTEX
  5
1D2F
  8
ASSEMBLY
 10
3.038
 20
1.027307
 30
0.0
  0
VERTEX
  5
1D30
  8
ASSEMBLY
 10
2.928
 20
1.027307
 30
0.0
  0
VERTEX
  5
1D31
  8
ASSEMBLY
 10
2.928
 20
1.069307
 30
0.0
  0
SEQEND
  5
1D32
  8
ASSEMBLY
  0
LINE
  5
DC2
  8
ASSEMBLY
 10
3.048885
 20
0.355979
 30
0.0
 11
3.138328
 21
0.445422
 31
0.0
  0
LINE
  5
DC3
  8
ASSEMBLY
 10
3.027672
 20
0.377193
 30
0.0
 11
3.117115
 21
0.466635
 31
0.0
  0
CIRCLE
  5
DC4
  8
ASSEMBLY
 10
3.083
 20
0.411307
 30
0.0
 40
0.065
  0
CIRCLE
  5
DC5
  8
ASSEMBLY
 10
3.083
 20
0.411307
 30
0.0
 40
0.076
  0
POLYLINE
  5
DC6
  8
ASSEMBLY
 66
     1
 10
0.0
 20
0.0
 30
0.0
  0
VERTEX
  5
1D33
  8
ASSEMBLY
 10
3.003
 20
0.548307
 30
0.0
  0
VERTEX
  5
1D34
  8
ASSEMBLY
 10
3.003
 20
0.602307
 30
0.0
  0
VERTEX
  5
1D35
  8
ASSEMBLY
 10
3.163
 20
0.602307
 30
0.0
  0
VERTEX
  5
1D36
  8
ASSEMBLY
 10
3.163
 20
0.548307
 30
0.0
  0
SEQEND
  5
1D37
  8
ASSEMBLY
  0
LINE
  5
DCC
  8
ASSEMBLY
 10
5.065149
 20
-2.479505
 30
0.0
 11
-0.052636
 21
-2.479505
 31
0.0
  0
LINE
  5
DCD
  8
ASSEMBLY
 10
5.060557
 20
-2.644212
 30
0.0
 11
5.055473
 21
-2.644212
 31
0.0
  0
LINE
  5
DCE
  8
ASSEMBLY
 10
5.060557
 20
-2.875771
 30
0.0
 11
5.053412
 21
-2.875771
 31
0.0
  0
LINE
  5
DCF
  8
ASSEMBLY
 10
5.065149
 20
-2.479505
 30
0.0
 11
5.065149
 21
-3.057967
 31
0.0
  0
LINE
  5
DD0
  8
ASSEMBLY
 10
4.229747
 20
-3.059431
 30
0.0
 11
4.229747
 21
-3.486832
 31
0.0
  0
LINE
  5
DD1
  8
ASSEMBLY
 10
4.229747
 20
-3.486832
 30
0.0
 11
5.016746
 21
-3.486832
 31
0.0
  0
LINE
  5
DD2
  8
ASSEMBLY
 10
5.016746
 20
-3.486832
 30
0.0
 11
5.016746
 21
-3.059431
 31
0.0
  0
LINE
  5
DD3
  8
ASSEMBLY
 10
4.229747
 20
-3.306348
 30
0.0
 11
5.016746
 21
-3.306348
 31
0.0
  0
LINE
  5
DD4
  8
ASSEMBLY
 10
0.390264
 20
-2.479505
 30
0.0
 11
0.390264
 21
-3.057967
 31
0.0
  0
LINE
  5
DD5
  8
ASSEMBLY
 10
4.622249
 20
-2.479505
 30
0.0
 11
4.622249
 21
-3.057967
 31
0.0
  0
LINE
  5
DD6
  8
ASSEMBLY
 10
-0.0031
 20
-3.306348
 30
0.0
 11
0.783899
 21
-3.306348
 31
0.0
  0
LINE
  5
DD7
  8
ASSEMBLY
 10
-0.0031
 20
-3.486832
 30
0.0
 11
0.783899
 21
-3.486832
 31
0.0
  0
LINE
  5
DD8
  8
ASSEMBLY
 10
-0.0031
 20
-3.059431
 30
0.0
 11
-0.0031
 21
-3.486832
 31
0.0
  0
LINE
  5
DD9
  8
ASSEMBLY
 10
0.783899
 20
-3.486832
 30
0.0
 11
0.783899
 21
-3.059431
 31
0.0
  0
LINE
  5
DDA
  8
ASSEMBLY
 10
-0.052636
 20
-3.057967
 30
0.0
 11
5.065149
 21
-3.057967
 31
0.0
  0
LINE
  5
DDB
  8
ASSEMBLY
 10
5.065149
 20
-2.875771
 30
0.0
 11
-0.052636
 21
-2.875771
 31
0.0
  0
LINE
  5
DDC
  8
ASSEMBLY
 10
5.065149
 20
-2.644212
 30
0.0
 11
-0.052636
 21
-2.644212
 31
0.0
  0
LINE
  5
DDD
  8
ASSEMBLY
 10
-0.052636
 20
-2.479505
 30
0.0
 11
-0.052636
 21
-3.057967
 31
0.0
  0
LINE
  5
DDE
  8
ASSEMBLY
 10
2.161864
 20
-2.479505
 30
0.0
 11
2.161864
 21
-3.057967
 31
0.0
  0
TEXT
  5
DDF
  8
ASSEMBLY
 10
0.150714
 20
-1.518106
 30
0.0
 40
0.08
  1
1
 41
0.75
  7
ROMANS
 72
     1
 11
0.175
 21
-1.478106
 31
0.0
 73
     2
  0
TEXT
  5
DE0
  8
ASSEMBLY
 10
0.217857
 20
-2.051589
 30
0.0
 40
0.08
  1
23
 41
0.75
  7
ROMANS
 72
     4
 11
0.275
 21
-2.011589
 31
0.0
  0
TEXT
  5
DE1
  8
ASSEMBLY
 10
0.346429
 20
-1.518106
 30
0.0
 40
0.08
  1
2
 41
0.75
  7
ROMANS
 72
     1
 11
0.375
 21
-1.478106
 31
0.0
 73
     2
  0
TEXT
  5
DE2
  8
ASSEMBLY
 10
0.546429
 20
-1.518106
 30
0.0
 40
0.08
  1
3
 41
0.75
  7
ROMANS
 72
     1
 11
0.575
 21
-1.478106
 31
0.0
 73
     2
  0
TEXT
  5
DE3
  8
ASSEMBLY
 10
0.745
 20
-1.518106
 30
0.0
 40
0.08
  1
4
 41
0.75
  7
ROMANS
 72
     1
 11
0.775
 21
-1.478106
 31
0.0
 73
     2
  0
TEXT
  5
DE4
  8
ASSEMBLY
 10
0.946429
 20
-1.518106
 30
0.0
 40
0.08
  1
5
 41
0.75
  7
ROMANS
 72
     1
 11
0.975
 21
-1.478106
 31
0.0
 73
     2
  0
TEXT
  5
DE5
  8
ASSEMBLY
 10
1.145
 20
-1.518106
 30
0.0
 40
0.08
  1
6
 41
0.75
  7
ROMANS
 72
     1
 11
1.175
 21
-1.478106
 31
0.0
 73
     2
  0
TEXT
  5
DE6
  8
ASSEMBLY
 10
1.346429
 20
-1.518106
 30
0.0
 40
0.08
  1
7
 41
0.75
  7
ROMANS
 72
     1
 11
1.375
 21
-1.478106
 31
0.0
 73
     2
  0
TEXT
  5
DE7
  8
ASSEMBLY
 10
1.546429
 20
-1.518106
 30
0.0
 40
0.08
  1
8
 41
0.75
  7
ROMANS
 72
     1
 11
1.575
 21
-1.478106
 31
0.0
 73
     2
  0
TEXT
  5
DE8
  8
ASSEMBLY
 10
1.747857
 20
-1.518106
 30
0.0
 40
0.08
  1
9
 41
0.75
  7
ROMANS
 72
     1
 11
1.775
 21
-1.478106
 31
0.0
 73
     2
  0
TEXT
  5
DE9
  8
ASSEMBLY
 10
1.913571
 20
-1.518106
 30
0.0
 40
0.08
  1
10
 41
0.75
  7
ROMANS
 72
     1
 11
1.975
 21
-1.478106
 31
0.0
 73
     2
  0
TEXT
  5
DEA
  8
ASSEMBLY
 10
2.122143
 20
-1.518106
 30
0.0
 40
0.08
  1
11
 41
0.75
  7
ROMANS
 72
     1
 11
2.175
 21
-1.478106
 31
0.0
 73
     2
  0
TEXT
  5
DEB
  8
ASSEMBLY
 10
2.313571
 20
-1.518106
 30
0.0
 40
0.08
  1
12
 41
0.75
  7
ROMANS
 72
     1
 11
2.375
 21
-1.478106
 31
0.0
 73
     2
  0
TEXT
  5
DEC
  8
ASSEMBLY
 10
2.513571
 20
-1.518106
 30
0.0
 40
0.08
  1
13
 41
0.75
  7
ROMANS
 72
     1
 11
2.575
 21
-1.478106
 31
0.0
 73
     2
  0
CIRCLE
  5
F49
  8
ASSEMBLY
 10
2.9905
 20
2.131
 30
0.0
 40
0.0175
  0
LINE
  5
F88
  8
ASSEMBLY
 10
0.82382
 20
-2.224589
 30
0.0
 11
0.82382
 21
-2.438805
 31
0.0
  0
LINE
  5
F89
  8
ASSEMBLY
 10
0.927164
 20
-2.224589
 30
0.0
 11
0.927164
 21
-2.438805
 31
0.0
  0
POLYLINE
  5
F8A
  8
ASSEMBLY
 66
     1
 10
0.0
 20
0.0
 30
0.0
 70
     1
  0
VERTEX
  5
1D38
  8
ASSEMBLY
 10
0.79823
 20
-2.224589
 30
0.0
  0
VERTEX
  5
1D39
  8
ASSEMBLY
 10
0.95177
 20
-2.224589
 30
0.0
  0
VERTEX
  5
1D3A
  8
ASSEMBLY
 10
0.95177
 20
-2.439297
 30
0.0
  0
VERTEX
  5
1D3B
  8
ASSEMBLY
 10
0.79823
 20
-2.439297
 30
0.0
  0
SEQEND
  5
1D3C
  8
ASSEMBLY
  0
POLYLINE
  5
F90
  8
ASSEMBLY
 66
     1
 10
0.0
 20
0.0
 30
0.0
  0
VERTEX
  5
1D3D
  8
ASSEMBLY
 10
0.828741
 20
-2.224589
 30
0.0
  0
VERTEX
  5
1D3E
  8
ASSEMBLY
 10
0.828741
 20
-2.284175
 30
0.0
  0
VERTEX
  5
1D3F
  8
ASSEMBLY
 10
0.922243
 20
-2.284175
 30
0.0
  0
VERTEX
  5
1D40
  8
ASSEMBLY
 10
0.922243
 20
-2.224589
 30
0.0
  0
SEQEND
  5
1D41
  8
ASSEMBLY
  0
POLYLINE
  5
F96
  8
ASSEMBLY
 66
     1
 10
0.0
 20
0.0
 30
0.0
  0
VERTEX
  5
1D42
  8
ASSEMBLY
 10
0.69823
 20
-1.864691
 30
0.0
  0
VERTEX
  5
1D43
  8
ASSEMBLY
 10
0.69823
 20
-1.691106
 30
0.0
  0
VERTEX
  5
1D44
  8
ASSEMBLY
 10
0.85177
 20
-1.691106
 30
0.0
  0
VERTEX
  5
1D45
  8
ASSEMBLY
 10
0.85177
 20
-1.864691
 30
0.0
  0
SEQEND
  5
1D46
  8
ASSEMBLY
  0
POLYLINE
  5
F9C
  8
ASSEMBLY
 66
     1
 10
0.0
 20
0.0
 30
0.0
  0
VERTEX
  5
1D47
  8
ASSEMBLY
 10
0.728741
 20
-1.691106
 30
0.0
  0
VERTEX
  5
1D48
  8
ASSEMBLY
 10
0.728741
 20
-1.750692
 30
0.0
  0
VERTEX
  5
1D49
  8
ASSEMBLY
 10
0.822243
 20
-1.750692
 30
0.0
  0
VERTEX
  5
1D4A
  8
ASSEMBLY
 10
0.822243
 20
-1.691106
 30
0.0
  0
SEQEND
  5
1D4B
  8
ASSEMBLY
  0
LINE
  5
FA2
  8
ASSEMBLY
 10
0.72382
 20
-1.691106
 30
0.0
 11
0.72382
 21
-1.864691
 31
0.0
  0
LINE
  5
FA3
  8
ASSEMBLY
 10
0.827164
 20
-1.691106
 30
0.0
 11
0.827164
 21
-1.864691
 31
0.0
  0
LINE
  5
FA4
  8
ASSEMBLY
 10
1.02382
 20
-2.224589
 30
0.0
 11
1.02382
 21
-2.438805
 31
0.0
  0
LINE
  5
FA5
  8
ASSEMBLY
 10
1.127164
 20
-2.224589
 30
0.0
 11
1.127164
 21
-2.438805
 31
0.0
  0
POLYLINE
  5
FA6
  8
ASSEMBLY
 66
     1
 10
0.0
 20
0.0
 30
0.0
 70
     1
  0
VERTEX
  5
1D4C
  8
ASSEMBLY
 10
0.99823
 20
-2.224589
 30
0.0
  0
VERTEX
  5
1D4D
  8
ASSEMBLY
 10
1.15177
 20
-2.224589
 30
0.0
  0
VERTEX
  5
1D4E
  8
ASSEMBLY
 10
1.15177
 20
-2.439297
 30
0.0
  0
VERTEX
  5
1D4F
  8
ASSEMBLY
 10
0.99823
 20
-2.439297
 30
0.0
  0
SEQEND
  5
1D50
  8
ASSEMBLY
  0
POLYLINE
  5
FAC
  8
ASSEMBLY
 66
     1
 10
0.0
 20
0.0
 30
0.0
  0
VERTEX
  5
1D51
  8
ASSEMBLY
 10
1.028741
 20
-2.224589
 30
0.0
  0
VERTEX
  5
1D52
  8
ASSEMBLY
 10
1.028741
 20
-2.284175
 30
0.0
  0
VERTEX
  5
1D53
  8
ASSEMBLY
 10
1.122243
 20
-2.284175
 30
0.0
  0
VERTEX
  5
1D54
  8
ASSEMBLY
 10
1.122243
 20
-2.224589
 30
0.0
  0
SEQEND
  5
1D55
  8
ASSEMBLY
  0
POLYLINE
  5
FB2
  8
ASSEMBLY
 66
     1
 10
0.0
 20
0.0
 30
0.0
  0
VERTEX
  5
1D56
  8
ASSEMBLY
 10
0.89823
 20
-1.864691
 30
0.0
  0
VERTEX
  5
1D57
  8
ASSEMBLY
 10
0.89823
 20
-1.691106
 30
0.0
  0
VERTEX
  5
1D58
  8
ASSEMBLY
 10
1.05177
 20
-1.691106
 30
0.0
  0
VERTEX
  5
1D59
  8
ASSEMBLY
 10
1.05177
 20
-1.864691
 30
0.0
  0
SEQEND
  5
1D5A
  8
ASSEMBLY
  0
POLYLINE
  5
FB8
  8
ASSEMBLY
 66
     1
 10
0.0
 20
0.0
 30
0.0
  0
VERTEX
  5
1D5B
  8
ASSEMBLY
 10
0.928741
 20
-1.691106
 30
0.0
  0
VERTEX
  5
1D5C
  8
ASSEMBLY
 10
0.928741
 20
-1.750692
 30
0.0
  0
VERTEX
  5
1D5D
  8
ASSEMBLY
 10
1.022243
 20
-1.750692
 30
0.0
  0
VERTEX
  5
1D5E
  8
ASSEMBLY
 10
1.022243
 20
-1.691106
 30
0.0
  0
SEQEND
  5
1D5F
  8
ASSEMBLY
  0
LINE
  5
FBE
  8
ASSEMBLY
 10
0.92382
 20
-1.691106
 30
0.0
 11
0.92382
 21
-1.864691
 31
0.0
  0
LINE
  5
FBF
  8
ASSEMBLY
 10
1.027164
 20
-1.691106
 30
0.0
 11
1.027164
 21
-1.864691
 31
0.0
  0
LINE
  5
FC0
  8
ASSEMBLY
 10
1.22382
 20
-2.224589
 30
0.0
 11
1.22382
 21
-2.438805
 31
0.0
  0
LINE
  5
FC1
  8
ASSEMBLY
 10
1.327164
 20
-2.224589
 30
0.0
 11
1.327164
 21
-2.438805
 31
0.0
  0
POLYLINE
  5
FC2
  8
ASSEMBLY
 66
     1
 10
0.0
 20
0.0
 30
0.0
 70
     1
  0
VERTEX
  5
1D60
  8
ASSEMBLY
 10
1.19823
 20
-2.224589
 30
0.0
  0
VERTEX
  5
1D61
  8
ASSEMBLY
 10
1.35177
 20
-2.224589
 30
0.0
  0
VERTEX
  5
1D62
  8
ASSEMBLY
 10
1.35177
 20
-2.439297
 30
0.0
  0
VERTEX
  5
1D63
  8
ASSEMBLY
 10
1.19823
 20
-2.439297
 30
0.0
  0
SEQEND
  5
1D64
  8
ASSEMBLY
  0
POLYLINE
  5
FC8
  8
ASSEMBLY
 66
     1
 10
0.0
 20
0.0
 30
0.0
  0
VERTEX
  5
1D65
  8
ASSEMBLY
 10
1.228741
 20
-2.224589
 30
0.0
  0
VERTEX
  5
1D66
  8
ASSEMBLY
 10
1.228741
 20
-2.284175
 30
0.0
  0
VERTEX
  5
1D67
  8
ASSEMBLY
 10
1.322243
 20
-2.284175
 30
0.0
  0
VERTEX
  5
1D68
  8
ASSEMBLY
 10
1.322243
 20
-2.224589
 30
0.0
  0
SEQEND
  5
1D69
  8
ASSEMBLY
  0
POLYLINE
  5
FCE
  8
ASSEMBLY
 66
     1
 10
0.0
 20
0.0
 30
0.0
  0
VERTEX
  5
1D6A
  8
ASSEMBLY
 10
1.09823
 20
-1.864691
 30
0.0
  0
VERTEX
  5
1D6B
  8
ASSEMBLY
 10
1.09823
 20
-1.691106
 30
0.0
  0
VERTEX
  5
1D6C
  8
ASSEMBLY
 10
1.25177
 20
-1.691106
 30
0.0
  0
VERTEX
  5
1D6D
  8
ASSEMBLY
 10
1.25177
 20
-1.864691
 30
0.0
  0
SEQEND
  5
1D6E
  8
ASSEMBLY
  0
POLYLINE
  5
FD4
  8
ASSEMBLY
 66
     1
 10
0.0
 20
0.0
 30
0.0
  0
VERTEX
  5
1D6F
  8
ASSEMBLY
 10
1.128741
 20
-1.691106
 30
0.0
  0
VERTEX
  5
1D70
  8
ASSEMBLY
 10
1.128741
 20
-1.750692
 30
0.0
  0
VERTEX
  5
1D71
  8
ASSEMBLY
 10
1.222243
 20
-1.750692
 30
0.0
  0
VERTEX
  5
1D72
  8
ASSEMBLY
 10
1.222243
 20
-1.691106
 30
0.0
  0
SEQEND
  5
1D73
  8
ASSEMBLY
  0
LINE
  5
FDA
  8
ASSEMBLY
 10
1.12382
 20
-1.691106
 30
0.0
 11
1.12382
 21
-1.864691
 31
0.0
  0
LINE
  5
FDB
  8
ASSEMBLY
 10
1.227164
 20
-1.691106
 30
0.0
 11
1.227164
 21
-1.864691
 31
0.0
  0
LINE
  5
FDC
  8
ASSEMBLY
 10
1.42382
 20
-2.224589
 30
0.0
 11
1.42382
 21
-2.438805
 31
0.0
  0
LINE
  5
FDD
  8
ASSEMBLY
 10
1.527164
 20
-2.224589
 30
0.0
 11
1.527164
 21
-2.438805
 31
0.0
  0
POLYLINE
  5
FDE
  8
ASSEMBLY
 66
     1
 10
0.0
 20
0.0
 30
0.0
 70
     1
  0
VERTEX
  5
1D74
  8
ASSEMBLY
 10
1.39823
 20
-2.224589
 30
0.0
  0
VERTEX
  5
1D75
  8
ASSEMBLY
 10
1.55177
 20
-2.224589
 30
0.0
  0
VERTEX
  5
1D76
  8
ASSEMBLY
 10
1.55177
 20
-2.439297
 30
0.0
  0
VERTEX
  5
1D77
  8
ASSEMBLY
 10
1.39823
 20
-2.439297
 30
0.0
  0
SEQEND
  5
1D78
  8
ASSEMBLY
  0
POLYLINE
  5
FE4
  8
ASSEMBLY
 66
     1
 10
0.0
 20
0.0
 30
0.0
  0
VERTEX
  5
1D79
  8
ASSEMBLY
 10
1.428741
 20
-2.224589
 30
0.0
  0
VERTEX
  5
1D7A
  8
ASSEMBLY
 10
1.428741
 20
-2.284175
 30
0.0
  0
VERTEX
  5
1D7B
  8
ASSEMBLY
 10
1.522243
 20
-2.284175
 30
0.0
  0
VERTEX
  5
1D7C
  8
ASSEMBLY
 10
1.522243
 20
-2.224589
 30
0.0
  0
SEQEND
  5
1D7D
  8
ASSEMBLY
  0
POLYLINE
  5
FEA
  8
ASSEMBLY
 66
     1
 10
0.0
 20
0.0
 30
0.0
  0
VERTEX
  5
1D7E
  8
ASSEMBLY
 10
1.29823
 20
-1.864691
 30
0.0
  0
VERTEX
  5
1D7F
  8
ASSEMBLY
 10
1.29823
 20
-1.691106
 30
0.0
  0
VERTEX
  5
1D80
  8
ASSEMBLY
 10
1.45177
 20
-1.691106
 30
0.0
  0
VERTEX
  5
1D81
  8
ASSEMBLY
 10
1.45177
 20
-1.864691
 30
0.0
  0
SEQEND
  5
1D82
  8
ASSEMBLY
  0
POLYLINE
  5
FF0
  8
ASSEMBLY
 66
     1
 10
0.0
 20
0.0
 30
0.0
  0
VERTEX
  5
1D83
  8
ASSEMBLY
 10
1.328741
 20
-1.691106
 30
0.0
  0
VERTEX
  5
1D84
  8
ASSEMBLY
 10
1.328741
 20
-1.750692
 30
0.0
  0
VERTEX
  5
1D85
  8
ASSEMBLY
 10
1.422243
 20
-1.750692
 30
0.0
  0
VERTEX
  5
1D86
  8
ASSEMBLY
 10
1.422243
 20
-1.691106
 30
0.0
  0
SEQEND
  5
1D87
  8
ASSEMBLY
  0
LINE
  5
FF6
  8
ASSEMBLY
 10
1.32382
 20
-1.691106
 30
0.0
 11
1.32382
 21
-1.864691
 31
0.0
  0
LINE
  5
FF7
  8
ASSEMBLY
 10
1.427164
 20
-1.691106
 30
0.0
 11
1.427164
 21
-1.864691
 31
0.0
  0
LINE
  5
FF8
  8
ASSEMBLY
 10
1.62382
 20
-2.224589
 30
0.0
 11
1.62382
 21
-2.438805
 31
0.0
  0
LINE
  5
FF9
  8
ASSEMBLY
 10
1.727164
 20
-2.224589
 30
0.0
 11
1.727164
 21
-2.438805
 31
0.0
  0
POLYLINE
  5
FFA
  8
ASSEMBLY
 66
     1
 10
0.0
 20
0.0
 30
0.0
 70
     1
  0
VERTEX
  5
1D88
  8
ASSEMBLY
 10
1.59823
 20
-2.224589
 30
0.0
  0
VERTEX
  5
1D89
  8
ASSEMBLY
 10
1.75177
 20
-2.224589
 30
0.0
  0
VERTEX
  5
1D8A
  8
ASSEMBLY
 10
1.75177
 20
-2.439297
 30
0.0
  0
VERTEX
  5
1D8B
  8
ASSEMBLY
 10
1.59823
 20
-2.439297
 30
0.0
  0
SEQEND
  5
1D8C
  8
ASSEMBLY
  0
POLYLINE
  5
1000
  8
ASSEMBLY
 66
     1
 10
0.0
 20
0.0
 30
0.0
  0
VERTEX
  5
1D8D
  8
ASSEMBLY
 10
1.628741
 20
-2.224589
 30
0.0
  0
VERTEX
  5
1D8E
  8
ASSEMBLY
 10
1.628741
 20
-2.284175
 30
0.0
  0
VERTEX
  5
1D8F
  8
ASSEMBLY
 10
1.722243
 20
-2.284175
 30
0.0
  0
VERTEX
  5
1D90
  8
ASSEMBLY
 10
1.722243
 20
-2.224589
 30
0.0
  0
SEQEND
  5
1D91
  8
ASSEMBLY
  0
POLYLINE
  5
1006
  8
ASSEMBLY
 66
     1
 10
0.0
 20
0.0
 30
0.0
  0
VERTEX
  5
1D92
  8
ASSEMBLY
 10
1.49823
 20
-1.864691
 30
0.0
  0
VERTEX
  5
1D93
  8
ASSEMBLY
 10
1.49823
 20
-1.691106
 30
0.0
  0
VERTEX
  5
1D94
  8
ASSEMBLY
 10
1.65177
 20
-1.691106
 30
0.0
  0
VERTEX
  5
1D95
  8
ASSEMBLY
 10
1.65177
 20
-1.864691
 30
0.0
  0
SEQEND
  5
1D96
  8
ASSEMBLY
  0
POLYLINE
  5
100C
  8
ASSEMBLY
 66
     1
 10
0.0
 20
0.0
 30
0.0
  0
VERTEX
  5
1D97
  8
ASSEMBLY
 10
1.528741
 20
-1.691106
 30
0.0
  0
VERTEX
  5
1D98
  8
ASSEMBLY
 10
1.528741
 20
-1.750692
 30
0.0
  0
VERTEX
  5
1D99
  8
ASSEMBLY
 10
1.622243
 20
-1.750692
 30
0.0
  0
VERTEX
  5
1D9A
  8
ASSEMBLY
 10
1.622243
 20
-1.691106
 30
0.0
  0
SEQEND
  5
1D9B
  8
ASSEMBLY
  0
LINE
  5
1012
  8
ASSEMBLY
 10
1.52382
 20
-1.691106
 30
0.0
 11
1.52382
 21
-1.864691
 31
0.0
  0
LINE
  5
1013
  8
ASSEMBLY
 10
1.627164
 20
-1.691106
 30
0.0
 11
1.627164
 21
-1.864691
 31
0.0
  0
LINE
  5
1014
  8
ASSEMBLY
 10
1.82382
 20
-2.224589
 30
0.0
 11
1.82382
 21
-2.438805
 31
0.0
  0
LINE
  5
1015
  8
ASSEMBLY
 10
1.927164
 20
-2.224589
 30
0.0
 11
1.927164
 21
-2.438805
 31
0.0
  0
POLYLINE
  5
1016
  8
ASSEMBLY
 66
     1
 10
0.0
 20
0.0
 30
0.0
 70
     1
  0
VERTEX
  5
1D9C
  8
ASSEMBLY
 10
1.79823
 20
-2.224589
 30
0.0
  0
VERTEX
  5
1D9D
  8
ASSEMBLY
 10
1.95177
 20
-2.224589
 30
0.0
  0
VERTEX
  5
1D9E
  8
ASSEMBLY
 10
1.95177
 20
-2.439297
 30
0.0
  0
VERTEX
  5
1D9F
  8
ASSEMBLY
 10
1.79823
 20
-2.439297
 30
0.0
  0
SEQEND
  5
1DA0
  8
ASSEMBLY
  0
POLYLINE
  5
101C
  8
ASSEMBLY
 66
     1
 10
0.0
 20
0.0
 30
0.0
  0
VERTEX
  5
1DA1
  8
ASSEMBLY
 10
1.828741
 20
-2.224589
 30
0.0
  0
VERTEX
  5
1DA2
  8
ASSEMBLY
 10
1.828741
 20
-2.284175
 30
0.0
  0
VERTEX
  5
1DA3
  8
ASSEMBLY
 10
1.922243
 20
-2.284175
 30
0.0
  0
VERTEX
  5
1DA4
  8
ASSEMBLY
 10
1.922243
 20
-2.224589
 30
0.0
  0
SEQEND
  5
1DA5
  8
ASSEMBLY
  0
POLYLINE
  5
1022
  8
ASSEMBLY
 66
     1
 10
0.0
 20
0.0
 30
0.0
  0
VERTEX
  5
1DA6
  8
ASSEMBLY
 10
1.69823
 20
-1.864691
 30
0.0
  0
VERTEX
  5
1DA7
  8
ASSEMBLY
 10
1.69823
 20
-1.691106
 30
0.0
  0
VERTEX
  5
1DA8
  8
ASSEMBLY
 10
1.85177
 20
-1.691106
 30
0.0
  0
VERTEX
  5
1DA9
  8
ASSEMBLY
 10
1.85177
 20
-1.864691
 30
0.0
  0
SEQEND
  5
1DAA
  8
ASSEMBLY
  0
POLYLINE
  5
1028
  8
ASSEMBLY
 66
     1
 10
0.0
 20
0.0
 30
0.0
  0
VERTEX
  5
1DAB
  8
ASSEMBLY
 10
1.728741
 20
-1.691106
 30
0.0
  0
VERTEX
  5
1DAC
  8
ASSEMBLY
 10
1.728741
 20
-1.750692
 30
0.0
  0
VERTEX
  5
1DAD
  8
ASSEMBLY
 10
1.822243
 20
-1.750692
 30
0.0
  0
VERTEX
  5
1DAE
  8
ASSEMBLY
 10
1.822243
 20
-1.691106
 30
0.0
  0
SEQEND
  5
1DAF
  8
ASSEMBLY
  0
LINE
  5
102E
  8
ASSEMBLY
 10
1.72382
 20
-1.691106
 30
0.0
 11
1.72382
 21
-1.864691
 31
0.0
  0
LINE
  5
102F
  8
ASSEMBLY
 10
1.827164
 20
-1.691106
 30
0.0
 11
1.827164
 21
-1.864691
 31
0.0
  0
LINE
  5
1030
  8
ASSEMBLY
 10
2.02382
 20
-2.224589
 30
0.0
 11
2.02382
 21
-2.438805
 31
0.0
  0
LINE
  5
1031
  8
ASSEMBLY
 10
2.127164
 20
-2.224589
 30
0.0
 11
2.127164
 21
-2.438805
 31
0.0
  0
POLYLINE
  5
1032
  8
ASSEMBLY
 66
     1
 10
0.0
 20
0.0
 30
0.0
 70
     1
  0
VERTEX
  5
1DB0
  8
ASSEMBLY
 10
1.99823
 20
-2.224589
 30
0.0
  0
VERTEX
  5
1DB1
  8
ASSEMBLY
 10
2.15177
 20
-2.224589
 30
0.0
  0
VERTEX
  5
1DB2
  8
ASSEMBLY
 10
2.15177
 20
-2.439297
 30
0.0
  0
VERTEX
  5
1DB3
  8
ASSEMBLY
 10
1.99823
 20
-2.439297
 30
0.0
  0
SEQEND
  5
1DB4
  8
ASSEMBLY
  0
POLYLINE
  5
1038
  8
ASSEMBLY
 66
     1
 10
0.0
 20
0.0
 30
0.0
  0
VERTEX
  5
1DB5
  8
ASSEMBLY
 10
2.028741
 20
-2.224589
 30
0.0
  0
VERTEX
  5
1DB6
  8
ASSEMBLY
 10
2.028741
 20
-2.284175
 30
0.0
  0
VERTEX
  5
1DB7
  8
ASSEMBLY
 10
2.122243
 20
-2.284175
 30
0.0
  0
VERTEX
  5
1DB8
  8
ASSEMBLY
 10
2.122243
 20
-2.224589
 30
0.0
  0
SEQEND
  5
1DB9
  8
ASSEMBLY
  0
POLYLINE
  5
103E
  8
ASSEMBLY
 66
     1
 10
0.0
 20
0.0
 30
0.0
  0
VERTEX
  5
1DBA
  8
ASSEMBLY
 10
1.89823
 20
-1.864691
 30
0.0
  0
VERTEX
  5
1DBB
  8
ASSEMBLY
 10
1.89823
 20
-1.691106
 30
0.0
  0
VERTEX
  5
1DBC
  8
ASSEMBLY
 10
2.05177
 20
-1.691106
 30
0.0
  0
VERTEX
  5
1DBD
  8
ASSEMBLY
 10
2.05177
 20
-1.864691
 30
0.0
  0
SEQEND
  5
1DBE
  8
ASSEMBLY
  0
POLYLINE
  5
1044
  8
ASSEMBLY
 66
     1
 10
0.0
 20
0.0
 30
0.0
  0
VERTEX
  5
1DBF
  8
ASSEMBLY
 10
1.928741
 20
-1.691106
 30
0.0
  0
VERTEX
  5
1DC0
  8
ASSEMBLY
 10
1.928741
 20
-1.750692
 30
0.0
  0
VERTEX
  5
1DC1
  8
ASSEMBLY
 10
2.022243
 20
-1.750692
 30
0.0
  0
VERTEX
  5
1DC2
  8
ASSEMBLY
 10
2.022243
 20
-1.691106
 30
0.0
  0
SEQEND
  5
1DC3
  8
ASSEMBLY
  0
LINE
  5
104A
  8
ASSEMBLY
 10
1.92382
 20
-1.691106
 30
0.0
 11
1.92382
 21
-1.864691
 31
0.0
  0
LINE
  5
104B
  8
ASSEMBLY
 10
2.027164
 20
-1.691106
 30
0.0
 11
2.027164
 21
-1.864691
 31
0.0
  0
LINE
  5
104C
  8
ASSEMBLY
 10
2.22382
 20
-2.224589
 30
0.0
 11
2.22382
 21
-2.438805
 31
0.0
  0
LINE
  5
104D
  8
ASSEMBLY
 10
2.327164
 20
-2.224589
 30
0.0
 11
2.327164
 21
-2.438805
 31
0.0
  0
POLYLINE
  5
104E
  8
ASSEMBLY
 66
     1
 10
0.0
 20
0.0
 30
0.0
 70
     1
  0
VERTEX
  5
1DC4
  8
ASSEMBLY
 10
2.19823
 20
-2.224589
 30
0.0
  0
VERTEX
  5
1DC5
  8
ASSEMBLY
 10
2.35177
 20
-2.224589
 30
0.0
  0
VERTEX
  5
1DC6
  8
ASSEMBLY
 10
2.35177
 20
-2.439297
 30
0.0
  0
VERTEX
  5
1DC7
  8
ASSEMBLY
 10
2.19823
 20
-2.439297
 30
0.0
  0
SEQEND
  5
1DC8
  8
ASSEMBLY
  0
POLYLINE
  5
1054
  8
ASSEMBLY
 66
     1
 10
0.0
 20
0.0
 30
0.0
  0
VERTEX
  5
1DC9
  8
ASSEMBLY
 10
2.228741
 20
-2.224589
 30
0.0
  0
VERTEX
  5
1DCA
  8
ASSEMBLY
 10
2.228741
 20
-2.284175
 30
0.0
  0
VERTEX
  5
1DCB
  8
ASSEMBLY
 10
2.322243
 20
-2.284175
 30
0.0
  0
VERTEX
  5
1DCC
  8
ASSEMBLY
 10
2.322243
 20
-2.224589
 30
0.0
  0
SEQEND
  5
1DCD
  8
ASSEMBLY
  0
POLYLINE
  5
105A
  8
ASSEMBLY
 66
     1
 10
0.0
 20
0.0
 30
0.0
  0
VERTEX
  5
1DCE
  8
ASSEMBLY
 10
2.09823
 20
-1.864691
 30
0.0
  0
VERTEX
  5
1DCF
  8
ASSEMBLY
 10
2.09823
 20
-1.691106
 30
0.0
  0
VERTEX
  5
1DD0
  8
ASSEMBLY
 10
2.25177
 20
-1.691106
 30
0.0
  0
VERTEX
  5
1DD1
  8
ASSEMBLY
 10
2.25177
 20
-1.864691
 30
0.0
  0
SEQEND
  5
1DD2
  8
ASSEMBLY
  0
POLYLINE
  5
1060
  8
ASSEMBLY
 66
     1
 10
0.0
 20
0.0
 30
0.0
  0
VERTEX
  5
1DD3
  8
ASSEMBLY
 10
2.128741
 20
-1.691106
 30
0.0
  0
VERTEX
  5
1DD4
  8
ASSEMBLY
 10
2.128741
 20
-1.750692
 30
0.0
  0
VERTEX
  5
1DD5
  8
ASSEMBLY
 10
2.222243
 20
-1.750692
 30
0.0
  0
VERTEX
  5
1DD6
  8
ASSEMBLY
 10
2.222243
 20
-1.691106
 30
0.0
  0
SEQEND
  5
1DD7
  8
ASSEMBLY
  0
LINE
  5
1066
  8
ASSEMBLY
 10
2.12382
 20
-1.691106
 30
0.0
 11
2.12382
 21
-1.864691
 31
0.0
  0
LINE
  5
1067
  8
ASSEMBLY
 10
2.227164
 20
-1.691106
 30
0.0
 11
2.227164
 21
-1.864691
 31
0.0
  0
LINE
  5
1068
  8
ASSEMBLY
 10
2.42382
 20
-2.224589
 30
0.0
 11
2.42382
 21
-2.438805
 31
0.0
  0
LINE
  5
1069
  8
ASSEMBLY
 10
2.527164
 20
-2.224589
 30
0.0
 11
2.527164
 21
-2.438805
 31
0.0
  0
POLYLINE
  5
106A
  8
ASSEMBLY
 66
     1
 10
0.0
 20
0.0
 30
0.0
 70
     1
  0
VERTEX
  5
1DD8
  8
ASSEMBLY
 10
2.39823
 20
-2.224589
 30
0.0
  0
VERTEX
  5
1DD9
  8
ASSEMBLY
 10
2.55177
 20
-2.224589
 30
0.0
  0
VERTEX
  5
1DDA
  8
ASSEMBLY
 10
2.55177
 20
-2.439297
 30
0.0
  0
VERTEX
  5
1DDB
  8
ASSEMBLY
 10
2.39823
 20
-2.439297
 30
0.0
  0
SEQEND
  5
1DDC
  8
ASSEMBLY
  0
POLYLINE
  5
1070
  8
ASSEMBLY
 66
     1
 10
0.0
 20
0.0
 30
0.0
  0
VERTEX
  5
1DDD
  8
ASSEMBLY
 10
2.428741
 20
-2.224589
 30
0.0
  0
VERTEX
  5
1DDE
  8
ASSEMBLY
 10
2.428741
 20
-2.284175
 30
0.0
  0
VERTEX
  5
1DDF
  8
ASSEMBLY
 10
2.522243
 20
-2.284175
 30
0.0
  0
VERTEX
  5
1DE0
  8
ASSEMBLY
 10
2.522243
 20
-2.224589
 30
0.0
  0
SEQEND
  5
1DE1
  8
ASSEMBLY
  0
POLYLINE
  5
1076
  8
ASSEMBLY
 66
     1
 10
0.0
 20
0.0
 30
0.0
  0
VERTEX
  5
1DE2
  8
ASSEMBLY
 10
2.29823
 20
-1.864691
 30
0.0
  0
VERTEX
  5
1DE3
  8
ASSEMBLY
 10
2.29823
 20
-1.691106
 30
0.0
  0
VERTEX
  5
1DE4
  8
ASSEMBLY
 10
2.45177
 20
-1.691106
 30
0.0
  0
VERTEX
  5
1DE5
  8
ASSEMBLY
 10
2.45177
 20
-1.864691
 30
0.0
  0
SEQEND
  5
1DE6
  8
ASSEMBLY
  0
POLYLINE
  5
107C
  8
ASSEMBLY
 66
     1
 10
0.0
 20
0.0
 30
0.0
  0
VERTEX
  5
1DE7
  8
ASSEMBLY
 10
2.328741
 20
-1.691106
 30
0.0
  0
VERTEX
  5
1DE8
  8
ASSEMBLY
 10
2.328741
 20
-1.750692
 30
0.0
  0
VERTEX
  5
1DE9
  8
ASSEMBLY
 10
2.422243
 20
-1.750692
 30
0.0
  0
VERTEX
  5
1DEA
  8
ASSEMBLY
 10
2.422243
 20
-1.691106
 30
0.0
  0
SEQEND
  5
1DEB
  8
ASSEMBLY
  0
LINE
  5
1082
  8
ASSEMBLY
 10
2.32382
 20
-1.691106
 30
0.0
 11
2.32382
 21
-1.864691
 31
0.0
  0
LINE
  5
1083
  8
ASSEMBLY
 10
2.427164
 20
-1.691106
 30
0.0
 11
2.427164
 21
-1.864691
 31
0.0
  0
POLYLINE
  5
1084
  8
ASSEMBLY
 66
     1
 10
0.0
 20
0.0
 30
0.0
  0
VERTEX
  5
1DEC
  8
ASSEMBLY
 10
2.69823
 20
-1.864691
 30
0.0
  0
VERTEX
  5
1DED
  8
ASSEMBLY
 10
2.69823
 20
-1.691106
 30
0.0
  0
VERTEX
  5
1DEE
  8
ASSEMBLY
 10
2.85177
 20
-1.691106
 30
0.0
  0
VERTEX
  5
1DEF
  8
ASSEMBLY
 10
2.85177
 20
-1.864691
 30
0.0
  0
SEQEND
  5
1DF0
  8
ASSEMBLY
  0
LINE
  5
108A
  8
ASSEMBLY
 10
2.827164
 20
-1.691106
 30
0.0
 11
2.827164
 21
-1.864691
 31
0.0
  0
LINE
  5
108B
  8
ASSEMBLY
 10
2.72382
 20
-1.691106
 30
0.0
 11
2.72382
 21
-1.864691
 31
0.0
  0
POLYLINE
  5
108C
  8
ASSEMBLY
 66
     1
 10
0.0
 20
0.0
 30
0.0
  0
VERTEX
  5
1DF1
  8
ASSEMBLY
 10
2.728741
 20
-1.691106
 30
0.0
  0
VERTEX
  5
1DF2
  8
ASSEMBLY
 10
2.728741
 20
-1.750692
 30
0.0
  0
VERTEX
  5
1DF3
  8
ASSEMBLY
 10
2.822243
 20
-1.750692
 30
0.0
  0
VERTEX
  5
1DF4
  8
ASSEMBLY
 10
2.822243
 20
-1.691106
 30
0.0
  0
SEQEND
  5
1DF5
  8
ASSEMBLY
  0
POLYLINE
  5
1092
  8
ASSEMBLY
 66
     1
 10
0.0
 20
0.0
 30
0.0
  0
VERTEX
  5
1DF6
  8
ASSEMBLY
 10
2.528741
 20
-1.691106
 30
0.0
  0
VERTEX
  5
1DF7
  8
ASSEMBLY
 10
2.528741
 20
-1.750692
 30
0.0
  0
VERTEX
  5
1DF8
  8
ASSEMBLY
 10
2.622243
 20
-1.750692
 30
0.0
  0
VERTEX
  5
1DF9
  8
ASSEMBLY
 10
2.622243
 20
-1.691106
 30
0.0
  0
SEQEND
  5
1DFA
  8
ASSEMBLY
  0
POLYLINE
  5
1098
  8
ASSEMBLY
 66
     1
 10
0.0
 20
0.0
 30
0.0
  0
VERTEX
  5
1DFB
  8
ASSEMBLY
 10
2.49823
 20
-1.864691
 30
0.0
  0
VERTEX
  5
1DFC
  8
ASSEMBLY
 10
2.49823
 20
-1.691106
 30
0.0
  0
VERTEX
  5
1DFD
  8
ASSEMBLY
 10
2.65177
 20
-1.691106
 30
0.0
  0
VERTEX
  5
1DFE
  8
ASSEMBLY
 10
2.65177
 20
-1.864691
 30
0.0
  0
SEQEND
  5
1DFF
  8
ASSEMBLY
  0
LINE
  5
109E
  8
ASSEMBLY
 10
2.52382
 20
-1.691106
 30
0.0
 11
2.52382
 21
-1.864691
 31
0.0
  0
LINE
  5
109F
  8
ASSEMBLY
 10
2.627164
 20
-1.691106
 30
0.0
 11
2.627164
 21
-1.864691
 31
0.0
  0
POLYLINE
  5
10A0
  8
ASSEMBLY
 66
     1
 10
0.0
 20
0.0
 30
0.0
 70
     1
  0
VERTEX
  5
1E00
  8
ASSEMBLY
 10
2.59823
 20
-2.224589
 30
0.0
  0
VERTEX
  5
1E01
  8
ASSEMBLY
 10
2.75177
 20
-2.224589
 30
0.0
  0
VERTEX
  5
1E02
  8
ASSEMBLY
 10
2.75177
 20
-2.439297
 30
0.0
  0
VERTEX
  5
1E03
  8
ASSEMBLY
 10
2.59823
 20
-2.439297
 30
0.0
  0
SEQEND
  5
1E04
  8
ASSEMBLY
  0
POLYLINE
  5
10A6
  8
ASSEMBLY
 66
     1
 10
0.0
 20
0.0
 30
0.0
  0
VERTEX
  5
1E05
  8
ASSEMBLY
 10
2.828741
 20
-2.224589
 30
0.0
  0
VERTEX
  5
1E06
  8
ASSEMBLY
 10
2.828741
 20
-2.284175
 30
0.0
  0
VERTEX
  5
1E07
  8
ASSEMBLY
 10
2.922243
 20
-2.284175
 30
0.0
  0
VERTEX
  5
1E08
  8
ASSEMBLY
 10
2.922243
 20
-2.224589
 30
0.0
  0
SEQEND
  5
1E09
  8
ASSEMBLY
  0
POLYLINE
  5
10AC
  8
ASSEMBLY
 66
     1
 10
0.0
 20
0.0
 30
0.0
 70
     1
  0
VERTEX
  5
1E0A
  8
ASSEMBLY
 10
2.79823
 20
-2.224589
 30
0.0
  0
VERTEX
  5
1E0B
  8
ASSEMBLY
 10
2.95177
 20
-2.224589
 30
0.0
  0
VERTEX
  5
1E0C
  8
ASSEMBLY
 10
2.95177
 20
-2.439297
 30
0.0
  0
VERTEX
  5
1E0D
  8
ASSEMBLY
 10
2.79823
 20
-2.439297
 30
0.0
  0
SEQEND
  5
1E0E
  8
ASSEMBLY
  0
LINE
  5
10B2
  8
ASSEMBLY
 10
2.82382
 20
-2.224589
 30
0.0
 11
2.82382
 21
-2.438805
 31
0.0
  0
LINE
  5
10B3
  8
ASSEMBLY
 10
2.727164
 20
-2.224589
 30
0.0
 11
2.727164
 21
-2.438805
 31
0.0
  0
LINE
  5
10B4
  8
ASSEMBLY
 10
2.62382
 20
-2.224589
 30
0.0
 11
2.62382
 21
-2.438805
 31
0.0
  0
POLYLINE
  5
10B5
  8
ASSEMBLY
 66
     1
 10
0.0
 20
0.0
 30
0.0
  0
VERTEX
  5
1E0F
  8
ASSEMBLY
 10
2.628741
 20
-2.224589
 30
0.0
  0
VERTEX
  5
1E10
  8
ASSEMBLY
 10
2.628741
 20
-2.284175
 30
0.0
  0
VERTEX
  5
1E11
  8
ASSEMBLY
 10
2.722243
 20
-2.284175
 30
0.0
  0
VERTEX
  5
1E12
  8
ASSEMBLY
 10
2.722243
 20
-2.224589
 30
0.0
  0
SEQEND
  5
1E13
  8
ASSEMBLY
  0
LINE
  5
10BB
  8
ASSEMBLY
 10
2.927164
 20
-2.224589
 30
0.0
 11
2.927164
 21
-2.438805
 31
0.0
  0
LINE
  5
10BC
  8
ASSEMBLY
 10
1.275
 20
-1.864691
 30
0.0
 11
1.275
 21
-1.334106
 31
0.0
  0
LINE
  5
10BD
  8
ASSEMBLY
 10
1.375
 20
-2.479505
 30
0.0
 11
1.375
 21
-1.864691
 31
0.0
  0
LINE
  5
10BE
  8
ASSEMBLY
 10
1.875
 20
-1.864691
 30
0.0
 11
1.875
 21
-1.334106
 31
0.0
  0
LINE
  5
10BF
  8
ASSEMBLY
 10
1.975
 20
-2.479505
 30
0.0
 11
1.975
 21
-1.864691
 31
0.0
  0
LINE
  5
10C0
  8
ASSEMBLY
 10
2.475
 20
-1.864691
 30
0.0
 11
2.475
 21
-1.334106
 31
0.0
  0
LINE
  5
10C1
  8
ASSEMBLY
 10
2.575
 20
-2.479505
 30
0.0
 11
2.575
 21
-1.864691
 31
0.0
  0
LINE
  5
10C2
  8
ASSEMBLY
 10
4.675
 20
-1.864691
 30
0.0
 11
4.675
 21
-1.334106
 31
0.0
  0
LINE
  5
10C3
  8
ASSEMBLY
 10
4.775
 20
-2.479505
 30
0.0
 11
4.775
 21
-1.864691
 31
0.0
  0
POLYLINE
  5
10C4
  8
ASSEMBLY
 66
     1
 10
0.0
 20
0.0
 30
0.0
 40
0.006013
 41
0.006013
  0
VERTEX
  5
1E14
  8
ASSEMBLY
 10
4.581609
 20
-1.407778
 30
0.0
  0
VERTEX
  5
1E15
  8
ASSEMBLY
 10
4.581609
 20
-1.48811
 30
0.0
  0
SEQEND
  5
1E16
  8
ASSEMBLY
  0
POLYLINE
  5
10C8
  8
ASSEMBLY
 66
     1
 10
0.0
 20
0.0
 30
0.0
 40
0.006013
 41
0.006013
  0
VERTEX
  5
1E17
  8
ASSEMBLY
 10
4.521477
 20
-1.48811
 30
0.0
  0
VERTEX
  5
1E18
  8
ASSEMBLY
 10
4.641741
 20
-1.48811
 30
0.0
  0
SEQEND
  5
1E19
  8
ASSEMBLY
  0
POLYLINE
  5
10CC
  8
ASSEMBLY
 66
     1
 10
0.0
 20
0.0
 30
0.0
 40
0.006013
 41
0.006013
  0
VERTEX
  5
1E1A
  8
ASSEMBLY
 10
4.547947
 20
-1.518176
 30
0.0
  0
VERTEX
  5
1E1B
  8
ASSEMBLY
 10
4.615272
 20
-1.518176
 30
0.0
  0
SEQEND
  5
1E1C
  8
ASSEMBLY
  0
POLYLINE
  5
10D0
  8
ASSEMBLY
 66
     1
 10
0.0
 20
0.0
 30
0.0
 40
0.006013
 41
0.006013
  0
VERTEX
  5
1E1D
  8
ASSEMBLY
 10
4.574417
 20
-1.548242
 30
0.0
  0
VERTEX
  5
1E1E
  8
ASSEMBLY
 10
4.588802
 20
-1.548242
 30
0.0
  0
SEQEND
  5
1E1F
  8
ASSEMBLY
  0
POLYLINE
  5
10D4
  8
ASSEMBLY
 66
     1
 10
0.0
 20
0.0
 30
0.0
 40
0.006013
 41
0.006013
  0
VERTEX
  5
1E20
  8
ASSEMBLY
 10
4.681609
 20
-1.941262
 30
0.0
  0
VERTEX
  5
1E21
  8
ASSEMBLY
 10
4.681609
 20
-2.021594
 30
0.0
  0
SEQEND
  5
1E22
  8
ASSEMBLY
  0
POLYLINE
  5
10D8
  8
ASSEMBLY
 66
     1
 10
0.0
 20
0.0
 30
0.0
 40
0.006013
 41
0.006013
  0
VERTEX
  5
1E23
  8
ASSEMBLY
 10
4.674417
 20
-2.081726
 30
0.0
  0
VERTEX
  5
1E24
  8
ASSEMBLY
 10
4.688802
 20
-2.081726
 30
0.0
  0
SEQEND
  5
1E25
  8
ASSEMBLY
  0
POLYLINE
  5
10DC
  8
ASSEMBLY
 66
     1
 10
0.0
 20
0.0
 30
0.0
 40
0.006013
 41
0.006013
  0
VERTEX
  5
1E26
  8
ASSEMBLY
 10
4.647947
 20
-2.05166
 30
0.0
  0
VERTEX
  5
1E27
  8
ASSEMBLY
 10
4.715272
 20
-2.05166
 30
0.0
  0
SEQEND
  5
1E28
  8
ASSEMBLY
  0
POLYLINE
  5
10E0
  8
ASSEMBLY
 66
     1
 10
0.0
 20
0.0
 30
0.0
 40
0.006013
 41
0.006013
  0
VERTEX
  5
1E29
  8
ASSEMBLY
 10
4.621477
 20
-2.021594
 30
0.0
  0
VERTEX
  5
1E2A
  8
ASSEMBLY
 10
4.741741
 20
-2.021594
 30
0.0
  0
SEQEND
  5
1E2B
  8
ASSEMBLY
  0
POLYLINE
  5
1105
  8
ASSEMBLY
  6
CONTINUOUS
 66
     1
 10
0.0
 20
0.0
 30
0.0
 40
0.4
 41
0.4
  0
VERTEX
  5
1E2C
  8
ASSEMBLY
  6
CONTINUOUS
 10
0.219895
 20
1.345472
 30
0.0
  0
VERTEX
  5
1E2D
  8
ASSEMBLY
  6
CONTINUOUS
 10
1.219895
 20
1.345472
 30
0.0
  0
SEQEND
  5
1E2E
  8
ASSEMBLY
  6
CONTINUOUS
  0
CIRCLE
  5
1151
  8
ASSEMBLY
 10
2.1805
 20
2.131
 30
0.0
 40
0.0175
  0
CIRCLE
  5
116C
  8
ASSEMBLY
 10
2.1355
 20
2.053
 30
0.0
 40
0.0175
  0
CIRCLE
  5
1176
  8
ASSEMBLY
 10
2.1805
 20
1.975
 30
0.0
 40
0.0175
  0
CIRCLE
  5
118F
  8
ASSEMBLY
 10
2.0905
 20
2.131
 30
0.0
 40
0.0175
  0
CIRCLE
  5
11AA
  8
ASSEMBLY
 10
2.0455
 20
2.053
 30
0.0
 40
0.0175
  0
CIRCLE
  5
11B4
  8
ASSEMBLY
 10
2.0905
 20
1.975
 30
0.0
 40
0.0175
  0
CIRCLE
  5
11CD
  8
ASSEMBLY
 10
2.0005
 20
2.131
 30
0.0
 40
0.0175
  0
CIRCLE
  5
11E8
  8
ASSEMBLY
 10
1.9555
 20
2.053
 30
0.0
 40
0.0175
  0
CIRCLE
  5
11F2
  8
ASSEMBLY
 10
2.0005
 20
1.975
 30
0.0
 40
0.0175
  0
CIRCLE
  5
121C
  8
ASSEMBLY
 10
3.0805
 20
2.131
 30
0.0
 40
0.0175
  0
CIRCLE
  5
121E
  8
ASSEMBLY
 10
3.0355
 20
2.053
 30
0.0
 40
0.0175
  0
CIRCLE
  5
122F
  8
ASSEMBLY
 10
2.9905
 20
1.975
 30
0.0
 40
0.0175
  0
CIRCLE
  5
125A
  8
ASSEMBLY
 10
3.1705
 20
2.131
 30
0.0
 40
0.0175
  0
CIRCLE
  5
125C
  8
ASSEMBLY
 10
3.1255
 20
2.053
 30
0.0
 40
0.0175
  0
CIRCLE
  5
126D
  8
ASSEMBLY
 10
3.0805
 20
1.975
 30
0.0
 40
0.0175
  0
CIRCLE
  5
1298
  8
ASSEMBLY
 10
3.2605
 20
2.131
 30
0.0
 40
0.0175
  0
CIRCLE
  5
129A
  8
ASSEMBLY
 10
3.2155
 20
2.053
 30
0.0
 40
0.0175
  0
CIRCLE
  5
12AB
  8
ASSEMBLY
 10
3.1705
 20
1.975
 30
0.0
 40
0.0175
  0
LINE
  5
12C5
  8
ASSEMBLY
 10
2.850249
 20
-2.479505
 30
0.0
 11
2.850249
 21
-3.057967
 31
0.0
  0
POLYLINE
  5
12C6
  8
ASSEMBLY
 66
     1
 10
0.0
 20
0.0
 30
0.0
  0
VERTEX
  5
1E2F
  8
ASSEMBLY
 10
2.89823
 20
-1.864691
 30
0.0
  0
VERTEX
  5
1E30
  8
ASSEMBLY
 10
2.89823
 20
-1.691106
 30
0.0
  0
VERTEX
  5
1E31
  8
ASSEMBLY
 10
3.05177
 20
-1.691106
 30
0.0
  0
VERTEX
  5
1E32
  8
ASSEMBLY
 10
3.05177
 20
-1.864691
 30
0.0
  0
SEQEND
  5
1E33
  8
ASSEMBLY
  0
POLYLINE
  5
12CC
  8
ASSEMBLY
 66
     1
 10
0.0
 20
0.0
 30
0.0
  0
VERTEX
  5
1E34
  8
ASSEMBLY
 10
2.928741
 20
-1.691106
 30
0.0
  0
VERTEX
  5
1E35
  8
ASSEMBLY
 10
2.928741
 20
-1.750692
 30
0.0
  0
VERTEX
  5
1E36
  8
ASSEMBLY
 10
3.022243
 20
-1.750692
 30
0.0
  0
VERTEX
  5
1E37
  8
ASSEMBLY
 10
3.022243
 20
-1.691106
 30
0.0
  0
SEQEND
  5
1E38
  8
ASSEMBLY
  0
LINE
  5
12D2
  8
ASSEMBLY
 10
2.92382
 20
-1.691106
 30
0.0
 11
2.92382
 21
-1.864691
 31
0.0
  0
LINE
  5
12D3
  8
ASSEMBLY
 10
3.027164
 20
-1.691106
 30
0.0
 11
3.027164
 21
-1.864691
 31
0.0
  0
POLYLINE
  5
12D4
  8
ASSEMBLY
 66
     1
 10
0.0
 20
0.0
 30
0.0
 70
     1
  0
VERTEX
  5
1E39
  8
ASSEMBLY
 10
2.99823
 20
-2.224589
 30
0.0
  0
VERTEX
  5
1E3A
  8
ASSEMBLY
 10
3.15177
 20
-2.224589
 30
0.0
  0
VERTEX
  5
1E3B
  8
ASSEMBLY
 10
3.15177
 20
-2.439297
 30
0.0
  0
VERTEX
  5
1E3C
  8
ASSEMBLY
 10
2.99823
 20
-2.439297
 30
0.0
  0
SEQEND
  5
1E3D
  8
ASSEMBLY
  0
POLYLINE
  5
12DA
  8
ASSEMBLY
 66
     1
 10
0.0
 20
0.0
 30
0.0
  0
VERTEX
  5
1E3E
  8
ASSEMBLY
 10
3.028741
 20
-2.224589
 30
0.0
  0
VERTEX
  5
1E3F
  8
ASSEMBLY
 10
3.028741
 20
-2.284175
 30
0.0
  0
VERTEX
  5
1E40
  8
ASSEMBLY
 10
3.122243
 20
-2.284175
 30
0.0
  0
VERTEX
  5
1E41
  8
ASSEMBLY
 10
3.122243
 20
-2.224589
 30
0.0
  0
SEQEND
  5
1E42
  8
ASSEMBLY
  0
LINE
  5
12E0
  8
ASSEMBLY
 10
3.02382
 20
-2.224589
 30
0.0
 11
3.02382
 21
-2.438805
 31
0.0
  0
LINE
  5
12E1
  8
ASSEMBLY
 10
3.127164
 20
-2.224589
 30
0.0
 11
3.127164
 21
-2.438805
 31
0.0
  0
POLYLINE
  5
12E2
  8
ASSEMBLY
 66
     1
 10
0.0
 20
0.0
 30
0.0
  0
VERTEX
  5
1E43
  8
ASSEMBLY
 10
3.09823
 20
-1.864691
 30
0.0
  0
VERTEX
  5
1E44
  8
ASSEMBLY
 10
3.09823
 20
-1.691106
 30
0.0
  0
VERTEX
  5
1E45
  8
ASSEMBLY
 10
3.25177
 20
-1.691106
 30
0.0
  0
VERTEX
  5
1E46
  8
ASSEMBLY
 10
3.25177
 20
-1.864691
 30
0.0
  0
SEQEND
  5
1E47
  8
ASSEMBLY
  0
POLYLINE
  5
12E8
  8
ASSEMBLY
 66
     1
 10
0.0
 20
0.0
 30
0.0
  0
VERTEX
  5
1E48
  8
ASSEMBLY
 10
3.128741
 20
-1.691106
 30
0.0
  0
VERTEX
  5
1E49
  8
ASSEMBLY
 10
3.128741
 20
-1.750692
 30
0.0
  0
VERTEX
  5
1E4A
  8
ASSEMBLY
 10
3.222243
 20
-1.750692
 30
0.0
  0
VERTEX
  5
1E4B
  8
ASSEMBLY
 10
3.222243
 20
-1.691106
 30
0.0
  0
SEQEND
  5
1E4C
  8
ASSEMBLY
  0
LINE
  5
12EE
  8
ASSEMBLY
 10
3.12382
 20
-1.691106
 30
0.0
 11
3.12382
 21
-1.864691
 31
0.0
  0
LINE
  5
12EF
  8
ASSEMBLY
 10
3.227164
 20
-1.691106
 30
0.0
 11
3.227164
 21
-1.864691
 31
0.0
  0
POLYLINE
  5
12F0
  8
ASSEMBLY
 66
     1
 10
0.0
 20
0.0
 30
0.0
 70
     1
  0
VERTEX
  5
1E4D
  8
ASSEMBLY
 10
3.19823
 20
-2.224589
 30
0.0
  0
VERTEX
  5
1E4E
  8
ASSEMBLY
 10
3.35177
 20
-2.224589
 30
0.0
  0
VERTEX
  5
1E4F
  8
ASSEMBLY
 10
3.35177
 20
-2.439297
 30
0.0
  0
VERTEX
  5
1E50
  8
ASSEMBLY
 10
3.19823
 20
-2.439297
 30
0.0
  0
SEQEND
  5
1E51
  8
ASSEMBLY
  0
POLYLINE
  5
12F6
  8
ASSEMBLY
 66
     1
 10
0.0
 20
0.0
 30
0.0
  0
VERTEX
  5
1E52
  8
ASSEMBLY
 10
3.228741
 20
-2.224589
 30
0.0
  0
VERTEX
  5
1E53
  8
ASSEMBLY
 10
3.228741
 20
-2.284175
 30
0.0
  0
VERTEX
  5
1E54
  8
ASSEMBLY
 10
3.322243
 20
-2.284175
 30
0.0
  0
VERTEX
  5
1E55
  8
ASSEMBLY
 10
3.322243
 20
-2.224589
 30
0.0
  0
SEQEND
  5
1E56
  8
ASSEMBLY
  0
LINE
  5
12FC
  8
ASSEMBLY
 10
3.22382
 20
-2.224589
 30
0.0
 11
3.22382
 21
-2.438805
 31
0.0
  0
LINE
  5
12FD
  8
ASSEMBLY
 10
3.327164
 20
-2.224589
 30
0.0
 11
3.327164
 21
-2.438805
 31
0.0
  0
POLYLINE
  5
12FE
  8
ASSEMBLY
 66
     1
 10
0.0
 20
0.0
 30
0.0
  0
VERTEX
  5
1E57
  8
ASSEMBLY
 10
3.29823
 20
-1.864691
 30
0.0
  0
VERTEX
  5
1E58
  8
ASSEMBLY
 10
3.29823
 20
-1.691106
 30
0.0
  0
VERTEX
  5
1E59
  8
ASSEMBLY
 10
3.45177
 20
-1.691106
 30
0.0
  0
VERTEX
  5
1E5A
  8
ASSEMBLY
 10
3.45177
 20
-1.864691
 30
0.0
  0
SEQEND
  5
1E5B
  8
ASSEMBLY
  0
POLYLINE
  5
1304
  8
ASSEMBLY
 66
     1
 10
0.0
 20
0.0
 30
0.0
  0
VERTEX
  5
1E5C
  8
ASSEMBLY
 10
3.328741
 20
-1.691106
 30
0.0
  0
VERTEX
  5
1E5D
  8
ASSEMBLY
 10
3.328741
 20
-1.750692
 30
0.0
  0
VERTEX
  5
1E5E
  8
ASSEMBLY
 10
3.422243
 20
-1.750692
 30
0.0
  0
VERTEX
  5
1E5F
  8
ASSEMBLY
 10
3.422243
 20
-1.691106
 30
0.0
  0
SEQEND
  5
1E60
  8
ASSEMBLY
  0
LINE
  5
130A
  8
ASSEMBLY
 10
3.32382
 20
-1.691106
 30
0.0
 11
3.32382
 21
-1.864691
 31
0.0
  0
LINE
  5
130B
  8
ASSEMBLY
 10
3.427164
 20
-1.691106
 30
0.0
 11
3.427164
 21
-1.864691
 31
0.0
  0
POLYLINE
  5
130C
  8
ASSEMBLY
 66
     1
 10
0.0
 20
0.0
 30
0.0
 70
     1
  0
VERTEX
  5
1E61
  8
ASSEMBLY
 10
3.39823
 20
-2.224589
 30
0.0
  0
VERTEX
  5
1E62
  8
ASSEMBLY
 10
3.55177
 20
-2.224589
 30
0.0
  0
VERTEX
  5
1E63
  8
ASSEMBLY
 10
3.55177
 20
-2.439297
 30
0.0
  0
VERTEX
  5
1E64
  8
ASSEMBLY
 10
3.39823
 20
-2.439297
 30
0.0
  0
SEQEND
  5
1E65
  8
ASSEMBLY
  0
POLYLINE
  5
1312
  8
ASSEMBLY
 66
     1
 10
0.0
 20
0.0
 30
0.0
  0
VERTEX
  5
1E66
  8
ASSEMBLY
 10
3.428741
 20
-2.224589
 30
0.0
  0
VERTEX
  5
1E67
  8
ASSEMBLY
 10
3.428741
 20
-2.284175
 30
0.0
  0
VERTEX
  5
1E68
  8
ASSEMBLY
 10
3.522243
 20
-2.284175
 30
0.0
  0
VERTEX
  5
1E69
  8
ASSEMBLY
 10
3.522243
 20
-2.224589
 30
0.0
  0
SEQEND
  5
1E6A
  8
ASSEMBLY
  0
LINE
  5
1318
  8
ASSEMBLY
 10
3.42382
 20
-2.224589
 30
0.0
 11
3.42382
 21
-2.438805
 31
0.0
  0
LINE
  5
1319
  8
ASSEMBLY
 10
3.527164
 20
-2.224589
 30
0.0
 11
3.527164
 21
-2.438805
 31
0.0
  0
POLYLINE
  5
131A
  8
ASSEMBLY
 66
     1
 10
0.0
 20
0.0
 30
0.0
  0
VERTEX
  5
1E6B
  8
ASSEMBLY
 10
3.49823
 20
-1.864691
 30
0.0
  0
VERTEX
  5
1E6C
  8
ASSEMBLY
 10
3.49823
 20
-1.691106
 30
0.0
  0
VERTEX
  5
1E6D
  8
ASSEMBLY
 10
3.65177
 20
-1.691106
 30
0.0
  0
VERTEX
  5
1E6E
  8
ASSEMBLY
 10
3.65177
 20
-1.864691
 30
0.0
  0
SEQEND
  5
1E6F
  8
ASSEMBLY
  0
POLYLINE
  5
1320
  8
ASSEMBLY
 66
     1
 10
0.0
 20
0.0
 30
0.0
  0
VERTEX
  5
1E70
  8
ASSEMBLY
 10
3.528741
 20
-1.691106
 30
0.0
  0
VERTEX
  5
1E71
  8
ASSEMBLY
 10
3.528741
 20
-1.750692
 30
0.0
  0
VERTEX
  5
1E72
  8
ASSEMBLY
 10
3.622243
 20
-1.750692
 30
0.0
  0
VERTEX
  5
1E73
  8
ASSEMBLY
 10
3.622243
 20
-1.691106
 30
0.0
  0
SEQEND
  5
1E74
  8
ASSEMBLY
  0
LINE
  5
1326
  8
ASSEMBLY
 10
3.52382
 20
-1.691106
 30
0.0
 11
3.52382
 21
-1.864691
 31
0.0
  0
LINE
  5
1327
  8
ASSEMBLY
 10
3.627164
 20
-1.691106
 30
0.0
 11
3.627164
 21
-1.864691
 31
0.0
  0
POLYLINE
  5
1328
  8
ASSEMBLY
 66
     1
 10
0.0
 20
0.0
 30
0.0
 70
     1
  0
VERTEX
  5
1E75
  8
ASSEMBLY
 10
3.59823
 20
-2.224589
 30
0.0
  0
VERTEX
  5
1E76
  8
ASSEMBLY
 10
3.75177
 20
-2.224589
 30
0.0
  0
VERTEX
  5
1E77
  8
ASSEMBLY
 10
3.75177
 20
-2.439297
 30
0.0
  0
VERTEX
  5
1E78
  8
ASSEMBLY
 10
3.59823
 20
-2.439297
 30
0.0
  0
SEQEND
  5
1E79
  8
ASSEMBLY
  0
POLYLINE
  5
132E
  8
ASSEMBLY
 66
     1
 10
0.0
 20
0.0
 30
0.0
  0
VERTEX
  5
1E7A
  8
ASSEMBLY
 10
3.628741
 20
-2.224589
 30
0.0
  0
VERTEX
  5
1E7B
  8
ASSEMBLY
 10
3.628741
 20
-2.284175
 30
0.0
  0
VERTEX
  5
1E7C
  8
ASSEMBLY
 10
3.722243
 20
-2.284175
 30
0.0
  0
VERTEX
  5
1E7D
  8
ASSEMBLY
 10
3.722243
 20
-2.224589
 30
0.0
  0
SEQEND
  5
1E7E
  8
ASSEMBLY
  0
LINE
  5
1334
  8
ASSEMBLY
 10
3.62382
 20
-2.224589
 30
0.0
 11
3.62382
 21
-2.438805
 31
0.0
  0
LINE
  5
1335
  8
ASSEMBLY
 10
3.727164
 20
-2.224589
 30
0.0
 11
3.727164
 21
-2.438805
 31
0.0
  0
POLYLINE
  5
1336
  8
ASSEMBLY
 66
     1
 10
0.0
 20
0.0
 30
0.0
  0
VERTEX
  5
1E7F
  8
ASSEMBLY
 10
3.69823
 20
-1.864691
 30
0.0
  0
VERTEX
  5
1E80
  8
ASSEMBLY
 10
3.69823
 20
-1.691106
 30
0.0
  0
VERTEX
  5
1E81
  8
ASSEMBLY
 10
3.85177
 20
-1.691106
 30
0.0
  0
VERTEX
  5
1E82
  8
ASSEMBLY
 10
3.85177
 20
-1.864691
 30
0.0
  0
SEQEND
  5
1E83
  8
ASSEMBLY
  0
POLYLINE
  5
133C
  8
ASSEMBLY
 66
     1
 10
0.0
 20
0.0
 30
0.0
  0
VERTEX
  5
1E84
  8
ASSEMBLY
 10
3.728741
 20
-1.691106
 30
0.0
  0
VERTEX
  5
1E85
  8
ASSEMBLY
 10
3.728741
 20
-1.750692
 30
0.0
  0
VERTEX
  5
1E86
  8
ASSEMBLY
 10
3.822243
 20
-1.750692
 30
0.0
  0
VERTEX
  5
1E87
  8
ASSEMBLY
 10
3.822243
 20
-1.691106
 30
0.0
  0
SEQEND
  5
1E88
  8
ASSEMBLY
  0
LINE
  5
1342
  8
ASSEMBLY
 10
3.72382
 20
-1.691106
 30
0.0
 11
3.72382
 21
-1.864691
 31
0.0
  0
LINE
  5
1343
  8
ASSEMBLY
 10
3.827164
 20
-1.691106
 30
0.0
 11
3.827164
 21
-1.864691
 31
0.0
  0
POLYLINE
  5
1344
  8
ASSEMBLY
 66
     1
 10
0.0
 20
0.0
 30
0.0
 70
     1
  0
VERTEX
  5
1E89
  8
ASSEMBLY
 10
3.79823
 20
-2.224589
 30
0.0
  0
VERTEX
  5
1E8A
  8
ASSEMBLY
 10
3.95177
 20
-2.224589
 30
0.0
  0
VERTEX
  5
1E8B
  8
ASSEMBLY
 10
3.95177
 20
-2.439297
 30
0.0
  0
VERTEX
  5
1E8C
  8
ASSEMBLY
 10
3.79823
 20
-2.439297
 30
0.0
  0
SEQEND
  5
1E8D
  8
ASSEMBLY
  0
POLYLINE
  5
134A
  8
ASSEMBLY
 66
     1
 10
0.0
 20
0.0
 30
0.0
  0
VERTEX
  5
1E8E
  8
ASSEMBLY
 10
3.828741
 20
-2.224589
 30
0.0
  0
VERTEX
  5
1E8F
  8
ASSEMBLY
 10
3.828741
 20
-2.284175
 30
0.0
  0
VERTEX
  5
1E90
  8
ASSEMBLY
 10
3.922243
 20
-2.284175
 30
0.0
  0
VERTEX
  5
1E91
  8
ASSEMBLY
 10
3.922243
 20
-2.224589
 30
0.0
  0
SEQEND
  5
1E92
  8
ASSEMBLY
  0
LINE
  5
1350
  8
ASSEMBLY
 10
3.82382
 20
-2.224589
 30
0.0
 11
3.82382
 21
-2.438805
 31
0.0
  0
LINE
  5
1351
  8
ASSEMBLY
 10
3.927164
 20
-2.224589
 30
0.0
 11
3.927164
 21
-2.438805
 31
0.0
  0
POLYLINE
  5
1352
  8
ASSEMBLY
 66
     1
 10
0.0
 20
0.0
 30
0.0
  0
VERTEX
  5
1E93
  8
ASSEMBLY
 10
3.89823
 20
-1.864691
 30
0.0
  0
VERTEX
  5
1E94
  8
ASSEMBLY
 10
3.89823
 20
-1.691106
 30
0.0
  0
VERTEX
  5
1E95
  8
ASSEMBLY
 10
4.05177
 20
-1.691106
 30
0.0
  0
VERTEX
  5
1E96
  8
ASSEMBLY
 10
4.05177
 20
-1.864691
 30
0.0
  0
SEQEND
  5
1E97
  8
ASSEMBLY
  0
POLYLINE
  5
1358
  8
ASSEMBLY
 66
     1
 10
0.0
 20
0.0
 30
0.0
  0
VERTEX
  5
1E98
  8
ASSEMBLY
 10
3.928741
 20
-1.691106
 30
0.0
  0
VERTEX
  5
1E99
  8
ASSEMBLY
 10
3.928741
 20
-1.750692
 30
0.0
  0
VERTEX
  5
1E9A
  8
ASSEMBLY
 10
4.022243
 20
-1.750692
 30
0.0
  0
VERTEX
  5
1E9B
  8
ASSEMBLY
 10
4.022243
 20
-1.691106
 30
0.0
  0
SEQEND
  5
1E9C
  8
ASSEMBLY
  0
LINE
  5
135E
  8
ASSEMBLY
 10
3.92382
 20
-1.691106
 30
0.0
 11
3.92382
 21
-1.864691
 31
0.0
  0
LINE
  5
135F
  8
ASSEMBLY
 10
4.027164
 20
-1.691106
 30
0.0
 11
4.027164
 21
-1.864691
 31
0.0
  0
POLYLINE
  5
1360
  8
ASSEMBLY
 66
     1
 10
0.0
 20
0.0
 30
0.0
 70
     1
  0
VERTEX
  5
1E9D
  8
ASSEMBLY
 10
3.99823
 20
-2.224589
 30
0.0
  0
VERTEX
  5
1E9E
  8
ASSEMBLY
 10
4.15177
 20
-2.224589
 30
0.0
  0
VERTEX
  5
1E9F
  8
ASSEMBLY
 10
4.15177
 20
-2.439297
 30
0.0
  0
VERTEX
  5
1EA0
  8
ASSEMBLY
 10
3.99823
 20
-2.439297
 30
0.0
  0
SEQEND
  5
1EA1
  8
ASSEMBLY
  0
POLYLINE
  5
1366
  8
ASSEMBLY
 66
     1
 10
0.0
 20
0.0
 30
0.0
  0
VERTEX
  5
1EA2
  8
ASSEMBLY
 10
4.028741
 20
-2.224589
 30
0.0
  0
VERTEX
  5
1EA3
  8
ASSEMBLY
 10
4.028741
 20
-2.284175
 30
0.0
  0
VERTEX
  5
1EA4
  8
ASSEMBLY
 10
4.122243
 20
-2.284175
 30
0.0
  0
VERTEX
  5
1EA5
  8
ASSEMBLY
 10
4.122243
 20
-2.224589
 30
0.0
  0
SEQEND
  5
1EA6
  8
ASSEMBLY
  0
LINE
  5
136C
  8
ASSEMBLY
 10
4.02382
 20
-2.224589
 30
0.0
 11
4.02382
 21
-2.438805
 31
0.0
  0
LINE
  5
136D
  8
ASSEMBLY
 10
4.127164
 20
-2.224589
 30
0.0
 11
4.127164
 21
-2.438805
 31
0.0
  0
POLYLINE
  5
136E
  8
ASSEMBLY
 66
     1
 10
0.0
 20
0.0
 30
0.0
  0
VERTEX
  5
1EA7
  8
ASSEMBLY
 10
4.09823
 20
-1.864691
 30
0.0
  0
VERTEX
  5
1EA8
  8
ASSEMBLY
 10
4.09823
 20
-1.691106
 30
0.0
  0
VERTEX
  5
1EA9
  8
ASSEMBLY
 10
4.25177
 20
-1.691106
 30
0.0
  0
VERTEX
  5
1EAA
  8
ASSEMBLY
 10
4.25177
 20
-1.864691
 30
0.0
  0
SEQEND
  5
1EAB
  8
ASSEMBLY
  0
POLYLINE
  5
1374
  8
ASSEMBLY
 66
     1
 10
0.0
 20
0.0
 30
0.0
  0
VERTEX
  5
1EAC
  8
ASSEMBLY
 10
4.128741
 20
-1.691106
 30
0.0
  0
VERTEX
  5
1EAD
  8
ASSEMBLY
 10
4.128741
 20
-1.750692
 30
0.0
  0
VERTEX
  5
1EAE
  8
ASSEMBLY
 10
4.222243
 20
-1.750692
 30
0.0
  0
VERTEX
  5
1EAF
  8
ASSEMBLY
 10
4.222243
 20
-1.691106
 30
0.0
  0
SEQEND
  5
1EB0
  8
ASSEMBLY
  0
LINE
  5
137A
  8
ASSEMBLY
 10
4.12382
 20
-1.691106
 30
0.0
 11
4.12382
 21
-1.864691
 31
0.0
  0
LINE
  5
137B
  8
ASSEMBLY
 10
4.227164
 20
-1.691106
 30
0.0
 11
4.227164
 21
-1.864691
 31
0.0
  0
POLYLINE
  5
137C
  8
ASSEMBLY
 66
     1
 10
0.0
 20
0.0
 30
0.0
 70
     1
  0
VERTEX
  5
1EB1
  8
ASSEMBLY
 10
4.19823
 20
-2.224589
 30
0.0
  0
VERTEX
  5
1EB2
  8
ASSEMBLY
 10
4.35177
 20
-2.224589
 30
0.0
  0
VERTEX
  5
1EB3
  8
ASSEMBLY
 10
4.35177
 20
-2.439297
 30
0.0
  0
VERTEX
  5
1EB4
  8
ASSEMBLY
 10
4.19823
 20
-2.439297
 30
0.0
  0
SEQEND
  5
1EB5
  8
ASSEMBLY
  0
POLYLINE
  5
1382
  8
ASSEMBLY
 66
     1
 10
0.0
 20
0.0
 30
0.0
  0
VERTEX
  5
1EB6
  8
ASSEMBLY
 10
4.228741
 20
-2.224589
 30
0.0
  0
VERTEX
  5
1EB7
  8
ASSEMBLY
 10
4.228741
 20
-2.284175
 30
0.0
  0
VERTEX
  5
1EB8
  8
ASSEMBLY
 10
4.322243
 20
-2.284175
 30
0.0
  0
VERTEX
  5
1EB9
  8
ASSEMBLY
 10
4.322243
 20
-2.224589
 30
0.0
  0
SEQEND
  5
1EBA
  8
ASSEMBLY
  0
LINE
  5
1388
  8
ASSEMBLY
 10
4.22382
 20
-2.224589
 30
0.0
 11
4.22382
 21
-2.438805
 31
0.0
  0
LINE
  5
1389
  8
ASSEMBLY
 10
4.327164
 20
-2.224589
 30
0.0
 11
4.327164
 21
-2.438805
 31
0.0
  0
POLYLINE
  5
138A
  8
ASSEMBLY
 66
     1
 10
0.0
 20
0.0
 30
0.0
  0
VERTEX
  5
1EBB
  8
ASSEMBLY
 10
4.29823
 20
-1.864691
 30
0.0
  0
VERTEX
  5
1EBC
  8
ASSEMBLY
 10
4.29823
 20
-1.691106
 30
0.0
  0
VERTEX
  5
1EBD
  8
ASSEMBLY
 10
4.45177
 20
-1.691106
 30
0.0
  0
VERTEX
  5
1EBE
  8
ASSEMBLY
 10
4.45177
 20
-1.864691
 30
0.0
  0
SEQEND
  5
1EBF
  8
ASSEMBLY
  0
POLYLINE
  5
1390
  8
ASSEMBLY
 66
     1
 10
0.0
 20
0.0
 30
0.0
  0
VERTEX
  5
1EC0
  8
ASSEMBLY
 10
4.328741
 20
-1.691106
 30
0.0
  0
VERTEX
  5
1EC1
  8
ASSEMBLY
 10
4.328741
 20
-1.750692
 30
0.0
  0
VERTEX
  5
1EC2
  8
ASSEMBLY
 10
4.422243
 20
-1.750692
 30
0.0
  0
VERTEX
  5
1EC3
  8
ASSEMBLY
 10
4.422243
 20
-1.691106
 30
0.0
  0
SEQEND
  5
1EC4
  8
ASSEMBLY
  0
LINE
  5
1396
  8
ASSEMBLY
 10
4.32382
 20
-1.691106
 30
0.0
 11
4.32382
 21
-1.864691
 31
0.0
  0
LINE
  5
1397
  8
ASSEMBLY
 10
4.427164
 20
-1.691106
 30
0.0
 11
4.427164
 21
-1.864691
 31
0.0
  0
POLYLINE
  5
1398
  8
ASSEMBLY
 66
     1
 10
0.0
 20
0.0
 30
0.0
 70
     1
  0
VERTEX
  5
1EC5
  8
ASSEMBLY
 10
4.39823
 20
-2.224589
 30
0.0
  0
VERTEX
  5
1EC6
  8
ASSEMBLY
 10
4.55177
 20
-2.224589
 30
0.0
  0
VERTEX
  5
1EC7
  8
ASSEMBLY
 10
4.55177
 20
-2.439297
 30
0.0
  0
VERTEX
  5
1EC8
  8
ASSEMBLY
 10
4.39823
 20
-2.439297
 30
0.0
  0
SEQEND
  5
1EC9
  8
ASSEMBLY
  0
POLYLINE
  5
139E
  8
ASSEMBLY
 66
     1
 10
0.0
 20
0.0
 30
0.0
  0
VERTEX
  5
1ECA
  8
ASSEMBLY
 10
4.428741
 20
-2.224589
 30
0.0
  0
VERTEX
  5
1ECB
  8
ASSEMBLY
 10
4.428741
 20
-2.284175
 30
0.0
  0
VERTEX
  5
1ECC
  8
ASSEMBLY
 10
4.522243
 20
-2.284175
 30
0.0
  0
VERTEX
  5
1ECD
  8
ASSEMBLY
 10
4.522243
 20
-2.224589
 30
0.0
  0
SEQEND
  5
1ECE
  8
ASSEMBLY
  0
LINE
  5
13A4
  8
ASSEMBLY
 10
4.42382
 20
-2.224589
 30
0.0
 11
4.42382
 21
-2.438805
 31
0.0
  0
LINE
  5
13A5
  8
ASSEMBLY
 10
4.527164
 20
-2.224589
 30
0.0
 11
4.527164
 21
-2.438805
 31
0.0
  0
POLYLINE
  5
13A6
  8
ASSEMBLY
 66
     1
 10
0.0
 20
0.0
 30
0.0
  0
VERTEX
  5
1ECF
  8
ASSEMBLY
 10
4.49823
 20
-1.864691
 30
0.0
  0
VERTEX
  5
1ED0
  8
ASSEMBLY
 10
4.49823
 20
-1.691106
 30
0.0
  0
VERTEX
  5
1ED1
  8
ASSEMBLY
 10
4.65177
 20
-1.691106
 30
0.0
  0
VERTEX
  5
1ED2
  8
ASSEMBLY
 10
4.65177
 20
-1.864691
 30
0.0
  0
SEQEND
  5
1ED3
  8
ASSEMBLY
  0
POLYLINE
  5
13AC
  8
ASSEMBLY
 66
     1
 10
0.0
 20
0.0
 30
0.0
  0
VERTEX
  5
1ED4
  8
ASSEMBLY
 10
4.528741
 20
-1.691106
 30
0.0
  0
VERTEX
  5
1ED5
  8
ASSEMBLY
 10
4.528741
 20
-1.750692
 30
0.0
  0
VERTEX
  5
1ED6
  8
ASSEMBLY
 10
4.622243
 20
-1.750692
 30
0.0
  0
VERTEX
  5
1ED7
  8
ASSEMBLY
 10
4.622243
 20
-1.691106
 30
0.0
  0
SEQEND
  5
1ED8
  8
ASSEMBLY
  0
LINE
  5
13B2
  8
ASSEMBLY
 10
4.52382
 20
-1.691106
 30
0.0
 11
4.52382
 21
-1.864691
 31
0.0
  0
LINE
  5
13B3
  8
ASSEMBLY
 10
4.627164
 20
-1.691106
 30
0.0
 11
4.627164
 21
-1.864691
 31
0.0
  0
POLYLINE
  5
13B4
  8
ASSEMBLY
 66
     1
 10
0.0
 20
0.0
 30
0.0
 70
     1
  0
VERTEX
  5
1ED9
  8
ASSEMBLY
 10
4.59823
 20
-2.224589
 30
0.0
  0
VERTEX
  5
1EDA
  8
ASSEMBLY
 10
4.75177
 20
-2.224589
 30
0.0
  0
VERTEX
  5
1EDB
  8
ASSEMBLY
 10
4.75177
 20
-2.439297
 30
0.0
  0
VERTEX
  5
1EDC
  8
ASSEMBLY
 10
4.59823
 20
-2.439297
 30
0.0
  0
SEQEND
  5
1EDD
  8
ASSEMBLY
  0
POLYLINE
  5
13BA
  8
ASSEMBLY
 66
     1
 10
0.0
 20
0.0
 30
0.0
  0
VERTEX
  5
1EDE
  8
ASSEMBLY
 10
4.628741
 20
-2.224589
 30
0.0
  0
VERTEX
  5
1EDF
  8
ASSEMBLY
 10
4.628741
 20
-2.284175
 30
0.0
  0
VERTEX
  5
1EE0
  8
ASSEMBLY
 10
4.722243
 20
-2.284175
 30
0.0
  0
VERTEX
  5
1EE1
  8
ASSEMBLY
 10
4.722243
 20
-2.224589
 30
0.0
  0
SEQEND
  5
1EE2
  8
ASSEMBLY
  0
LINE
  5
13C0
  8
ASSEMBLY
 10
4.62382
 20
-2.224589
 30
0.0
 11
4.62382
 21
-2.438805
 31
0.0
  0
LINE
  5
13C1
  8
ASSEMBLY
 10
4.727164
 20
-2.224589
 30
0.0
 11
4.727164
 21
-2.438805
 31
0.0
  0
TEXT
  5
13C2
  8
ASSEMBLY
 10
2.712143
 20
-1.518106
 30
0.0
 40
0.08
  1
14
 41
0.75
  7
ROMANS
 72
     1
 11
2.775
 21
-1.478106
 31
0.0
 73
     2
  0
TEXT
  5
13C3
  8
ASSEMBLY
 10
2.913571
 20
-1.518106
 30
0.0
 40
0.08
  1
15
 41
0.75
  7
ROMANS
 72
     1
 11
2.975
 21
-1.478106
 31
0.0
 73
     2
  0
TEXT
  5
13C4
  8
ASSEMBLY
 10
3.113571
 20
-1.518106
 30
0.0
 40
0.08
  1
16
 41
0.75
  7
ROMANS
 72
     1
 11
3.175
 21
-1.478106
 31
0.0
 73
     2
  0
TEXT
  5
13C5
  8
ASSEMBLY
 10
3.313571
 20
-1.518106
 30
0.0
 40
0.08
  1
17
 41
0.75
  7
ROMANS
 72
     1
 11
3.375
 21
-1.478106
 31
0.0
 73
     2
  0
TEXT
  5
13C6
  8
ASSEMBLY
 10
3.513571
 20
-1.518106
 30
0.0
 40
0.08
  1
18
 41
0.75
  7
ROMANS
 72
     1
 11
3.575
 21
-1.478106
 31
0.0
 73
     2
  0
TEXT
  5
13C7
  8
ASSEMBLY
 10
3.715
 20
-1.518106
 30
0.0
 40
0.08
  1
19
 41
0.75
  7
ROMANS
 72
     1
 11
3.775
 21
-1.478106
 31
0.0
 73
     2
  0
TEXT
  5
13C8
  8
ASSEMBLY
 10
3.917857
 20
-1.518106
 30
0.0
 40
0.08
  1
20
 41
0.75
  7
ROMANS
 72
     1
 11
3.975
 21
-1.478106
 31
0.0
 73
     2
  0
TEXT
  5
13C9
  8
ASSEMBLY
 10
4.126429
 20
-1.518106
 30
0.0
 40
0.08
  1
21
 41
0.75
  7
ROMANS
 72
     1
 11
4.175
 21
-1.478106
 31
0.0
 73
     2
  0
TEXT
  5
13CA
  8
ASSEMBLY
 10
4.317857
 20
-1.518106
 30
0.0
 40
0.08
  1
22
 41
0.75
  7
ROMANS
 72
     1
 11
4.375
 21
-1.478106
 31
0.0
 73
     2
  0
TEXT
  5
13CB
  8
ASSEMBLY
 10
0.416429
 20
-2.051589
 30
0.0
 40
0.08
  1
24
 41
0.75
  7
ROMANS
 72
     4
 11
0.475
 21
-2.011589
 31
0.0
  0
TEXT
  5
13CC
  8
ASSEMBLY
 10
0.617857
 20
-2.051589
 30
0.0
 40
0.08
  1
25
 41
0.75
  7
ROMANS
 72
     4
 11
0.675
 21
-2.011589
 31
0.0
  0
TEXT
  5
13CD
  8
ASSEMBLY
 10
0.817857
 20
-2.051589
 30
0.0
 40
0.08
  1
26
 41
0.75
  7
ROMANS
 72
     4
 11
0.875
 21
-2.011589
 31
0.0
  0
TEXT
  5
13CE
  8
ASSEMBLY
 10
1.017857
 20
-2.051589
 30
0.0
 40
0.08
  1
27
 41
0.75
  7
ROMANS
 72
     4
 11
1.075
 21
-2.011589
 31
0.0
  0
TEXT
  5
13CF
  8
ASSEMBLY
 10
1.217857
 20
-2.051589
 30
0.0
 40
0.08
  1
28
 41
0.75
  7
ROMANS
 72
     4
 11
1.275
 21
-2.011589
 31
0.0
  0
TEXT
  5
13D0
  8
ASSEMBLY
 10
1.419286
 20
-2.051589
 30
0.0
 40
0.08
  1
29
 41
0.75
  7
ROMANS
 72
     4
 11
1.475
 21
-2.011589
 31
0.0
  0
TEXT
  5
13D1
  8
ASSEMBLY
 10
1.617857
 20
-2.051589
 30
0.0
 40
0.08
  1
30
 41
0.75
  7
ROMANS
 72
     4
 11
1.675
 21
-2.011589
 31
0.0
  0
TEXT
  5
13D2
  8
ASSEMBLY
 10
1.826429
 20
-2.051589
 30
0.0
 40
0.08
  1
31
 41
0.75
  7
ROMANS
 72
     4
 11
1.875
 21
-2.011589
 31
0.0
  0
TEXT
  5
13D3
  8
ASSEMBLY
 10
2.017857
 20
-2.051589
 30
0.0
 40
0.08
  1
32
 41
0.75
  7
ROMANS
 72
     4
 11
2.075
 21
-2.011589
 31
0.0
  0
TEXT
  5
13D4
  8
ASSEMBLY
 10
2.217857
 20
-2.051589
 30
0.0
 40
0.08
  1
33
 41
0.75
  7
ROMANS
 72
     4
 11
2.275
 21
-2.011589
 31
0.0
  0
TEXT
  5
13D5
  8
ASSEMBLY
 10
2.416429
 20
-2.051589
 30
0.0
 40
0.08
  1
34
 41
0.75
  7
ROMANS
 72
     4
 11
2.475
 21
-2.011589
 31
0.0
  0
TEXT
  5
13D6
  8
ASSEMBLY
 10
2.617857
 20
-2.051589
 30
0.0
 40
0.08
  1
35
 41
0.75
  7
ROMANS
 72
     4
 11
2.675
 21
-2.011589
 31
0.0
  0
TEXT
  5
13D7
  8
ASSEMBLY
 10
2.817857
 20
-2.051589
 30
0.0
 40
0.08
  1
36
 41
0.75
  7
ROMANS
 72
     4
 11
2.875
 21
-2.011589
 31
0.0
  0
TEXT
  5
13D8
  8
ASSEMBLY
 10
3.017857
 20
-2.051589
 30
0.0
 40
0.08
  1
37
 41
0.75
  7
ROMANS
 72
     4
 11
3.075
 21
-2.011589
 31
0.0
  0
TEXT
  5
13D9
  8
ASSEMBLY
 10
3.217857
 20
-2.051589
 30
0.0
 40
0.08
  1
38
 41
0.75
  7
ROMANS
 72
     4
 11
3.275
 21
-2.011589
 31
0.0
  0
TEXT
  5
13DA
  8
ASSEMBLY
 10
3.419286
 20
-2.051589
 30
0.0
 40
0.08
  1
39
 41
0.75
  7
ROMANS
 72
     4
 11
3.475
 21
-2.011589
 31
0.0
  0
TEXT
  5
13DB
  8
ASSEMBLY
 10
3.617857
 20
-2.051589
 30
0.0
 40
0.08
  1
40
 41
0.75
  7
ROMANS
 72
     4
 11
3.675
 21
-2.011589
 31
0.0
  0
TEXT
  5
13DC
  8
ASSEMBLY
 10
3.826429
 20
-2.051589
 30
0.0
 40
0.08
  1
41
 41
0.75
  7
ROMANS
 72
     4
 11
3.875
 21
-2.011589
 31
0.0
  0
TEXT
  5
13DD
  8
ASSEMBLY
 10
4.017857
 20
-2.051589
 30
0.0
 40
0.08
  1
42
 41
0.75
  7
ROMANS
 72
     4
 11
4.075
 21
-2.011589
 31
0.0
  0
TEXT
  5
13DE
  8
ASSEMBLY
 10
4.217857
 20
-2.051589
 30
0.0
 40
0.08
  1
43
 41
0.75
  7
ROMANS
 72
     4
 11
4.275
 21
-2.011589
 31
0.0
  0
TEXT
  5
13DF
  8
ASSEMBLY
 10
4.416429
 20
-2.051589
 30
0.0
 40
0.08
  1
44
 41
0.75
  7
ROMANS
 72
     4
 11
4.475
 21
-2.011589
 31
0.0
  0
LINE
  5
13E0
  8
ASSEMBLY
 10
3.075
 20
-1.864691
 30
0.0
 11
3.075
 21
-1.334106
 31
0.0
  0
LINE
  5
13E1
  8
ASSEMBLY
 10
3.175
 20
-2.479505
 30
0.0
 11
3.175
 21
-1.864691
 31
0.0
  0
LINE
  5
13E2
  8
ASSEMBLY
 10
3.675
 20
-1.864691
 30
0.0
 11
3.675
 21
-1.334106
 31
0.0
  0
LINE
  5
13E3
  8
ASSEMBLY
 10
3.775
 20
-2.479505
 30
0.0
 11
3.775
 21
-1.864691
 31
0.0
  0
LINE
  5
13E4
  8
ASSEMBLY
 10
4.275
 20
-1.864691
 30
0.0
 11
4.275
 21
-1.334106
 31
0.0
  0
LINE
  5
13E5
  8
ASSEMBLY
 10
4.375
 20
-2.479505
 30
0.0
 11
4.375
 21
-1.864691
 31
0.0
  0
LINE
  5
13E6
  8
ASSEMBLY
 10
5.265522
 20
2.932215
 30
0.0
 11
5.265522
 21
-0.099298
 31
0.0
  0
POLYLINE
  5
13E7
  8
ASSEMBLY
 66
     1
 10
0.0
 20
0.0
 30
0.0
  0
VERTEX
  5
1EE3
  8
ASSEMBLY
 10
5.219522
 20
2.786416
 30
0.0
  0
VERTEX
  5
1EE4
  8
ASSEMBLY
 10
5.219522
 20
2.282959
 30
0.0
  0
VERTEX
  5
1EE5
  8
ASSEMBLY
 10
5.165522
 20
2.282959
 30
0.0
  0
VERTEX
  5
1EE6
  8
ASSEMBLY
 10
5.165522
 20
0.549959
 30
0.0
  0
VERTEX
  5
1EE7
  8
ASSEMBLY
 10
5.219522
 20
0.549959
 30
0.0
  0
VERTEX
  5
1EE8
  8
ASSEMBLY
 10
5.219522
 20
0.05238
 30
0.0
  0
SEQEND
  5
1EE9
  8
ASSEMBLY
  0
POLYLINE
  5
13F1
  8
ASSEMBLY
 66
     1
 10
0.0
 20
0.0
 30
0.0
  0
VERTEX
  5
1EEA
  8
ASSEMBLY
 10
-0.003522
 20
2.786416
 30
0.0
  0
VERTEX
  5
1EEB
  8
ASSEMBLY
 10
-0.003522
 20
2.282959
 30
0.0
  0
VERTEX
  5
1EEC
  8
ASSEMBLY
 10
0.050478
 20
2.282959
 30
0.0
  0
VERTEX
  5
1EED
  8
ASSEMBLY
 10
0.050478
 20
0.549959
 30
0.0
  0
VERTEX
  5
1EEE
  8
ASSEMBLY
 10
-0.003522
 20
0.549959
 30
0.0
  0
VERTEX
  5
1EEF
  8
ASSEMBLY
 10
-0.003522
 20
0.05238
 30
0.0
  0
SEQEND
  5
1EF0
  8
ASSEMBLY
  0
LINE
  5
13F9
  8
ASSEMBLY
 10
-0.049522
 20
2.932215
 30
0.0
 11
-0.049522
 21
-0.099298
 31
0.0
  0
LINE
  5
13FA
  8
ASSEMBLY
 10
5.219522
 20
0.05238
 30
0.0
 11
-0.003522
 21
0.05238
 31
0.0
  0
LINE
  5
13FB
  8
ASSEMBLY
 10
-0.049522
 20
-0.067367
 30
0.0
 11
5.265522
 21
-0.067367
 31
0.0
  0
LINE
  5
13FC
  8
ASSEMBLY
 10
-0.049522
 20
-0.099298
 30
0.0
 11
5.265522
 21
-0.099298
 31
0.0
  0
LINE
  5
13FD
  8
ASSEMBLY
 10
-0.049522
 20
0.023702
 30
0.0
 11
5.265522
 21
0.023702
 31
0.0
  0
LINE
  5
13FF
  8
ASSEMBLY
 10
0.393378
 20
0.05238
 30
0.0
 11
0.393378
 21
-0.099298
 31
0.0
  0
LINE
  5
1400
  8
ASSEMBLY
 10
2.165378
 20
0.05238
 30
0.0
 11
2.165378
 21
-0.099298
 31
0.0
  0
LINE
  5
1401
  8
ASSEMBLY
 10
3.050622
 20
0.05238
 30
0.0
 11
3.050622
 21
-0.099298
 31
0.0
  0
LINE
  5
1402
  8
ASSEMBLY
 10
4.822622
 20
0.05238
 30
0.0
 11
4.822622
 21
-0.099298
 31
0.0
  0
LINE
  5
1403
  8
ASSEMBLY
 10
5.265417
 20
2.815679
 30
0.0
 11
-0.049522
 21
2.815679
 31
0.0
  0
LINE
  5
1404
  8
ASSEMBLY
 10
5.265522
 20
2.932215
 30
0.0
 11
-0.049522
 21
2.932215
 31
0.0
  0
LINE
  5
1405
  8
ASSEMBLY
 10
-0.003522
 20
2.786416
 30
0.0
 11
5.219522
 21
2.786416
 31
0.0
  0
LINE
  5
1406
  8
ASSEMBLY
 10
5.265522
 20
2.815679
 30
0.0
 11
0.041962
 21
2.815679
 31
0.0
  0
LINE
  5
1407
  8
ASSEMBLY
 10
-0.049522
 20
2.898692
 30
0.0
 11
5.265522
 21
2.898692
 31
0.0
  0
LINE
  5
1409
  8
ASSEMBLY
 10
-0.049403
 20
2.815679
 30
0.0
 11
-0.049403
 21
2.814803
 31
0.0
  0
LINE
  5
140A
  8
ASSEMBLY
 10
-0.049403
 20
2.815679
 30
0.0
 11
-0.049403
 21
2.814803
 31
0.0
  0
LINE
  5
140B
  8
ASSEMBLY
 10
-0.049403
 20
2.815679
 30
0.0
 11
-0.049403
 21
2.81543
 31
0.0
  0
LINE
  5
140C
  8
ASSEMBLY
 10
0.393378
 20
2.932215
 30
0.0
 11
0.393378
 21
2.786416
 31
0.0
  0
LINE
  5
140D
  8
ASSEMBLY
 10
2.165378
 20
2.932215
 30
0.0
 11
2.165378
 21
2.786416
 31
0.0
  0
LINE
  5
140E
  8
ASSEMBLY
 10
3.050622
 20
2.932215
 30
0.0
 11
3.050622
 21
2.786416
 31
0.0
  0
LINE
  5
140F
  8
ASSEMBLY
 10
4.822622
 20
2.932215
 30
0.0
 11
4.822622
 21
2.786416
 31
0.0
  0
CIRCLE
  5
1410
  8
ASSEMBLY
 10
3.283
 20
0.411307
 30
0.0
 40
0.065
  0
CIRCLE
  5
1411
  8
ASSEMBLY
 10
3.283
 20
0.411307
 30
0.0
 40
0.076
  0
LINE
  5
141A
  8
ASSEMBLY
 10
3.227672
 20
0.377193
 30
0.0
 11
3.317115
 21
0.466635
 31
0.0
  0
LINE
  5
141B
  8
ASSEMBLY
 10
3.248885
 20
0.355979
 30
0.0
 11
3.338328
 21
0.445422
 31
0.0
  0
POLYLINE
  5
141D
  8
ASSEMBLY
 66
     1
 10
0.0
 20
0.0
 30
0.0
  0
VERTEX
  5
1EF1
  8
ASSEMBLY
 10
3.203
 20
0.548307
 30
0.0
  0
VERTEX
  5
1EF2
  8
ASSEMBLY
 10
3.203
 20
0.602307
 30
0.0
  0
VERTEX
  5
1EF3
  8
ASSEMBLY
 10
3.363
 20
0.602307
 30
0.0
  0
VERTEX
  5
1EF4
  8
ASSEMBLY
 10
3.363
 20
0.548307
 30
0.0
  0
SEQEND
  5
1EF5
  8
ASSEMBLY
  0
CIRCLE
  5
1423
  8
ASSEMBLY
 10
3.183
 20
0.848307
 30
0.0
 40
0.065
  0
CIRCLE
  5
1424
  8
ASSEMBLY
 10
3.183
 20
0.848307
 30
0.0
 40
0.076
  0
LINE
  5
1425
  8
ASSEMBLY
 10
3.148885
 20
0.792979
 30
0.0
 11
3.238328
 21
0.882422
 31
0.0
  0
LINE
  5
1426
  8
ASSEMBLY
 10
3.127672
 20
0.814193
 30
0.0
 11
3.217115
 21
0.903635
 31
0.0
  0
POLYLINE
  5
1427
  8
ASSEMBLY
 66
     1
 10
0.0
 20
0.0
 30
0.0
  0
VERTEX
  5
1EF6
  8
ASSEMBLY
 10
3.238
 20
1.069307
 30
0.0
  0
VERTEX
  5
1EF7
  8
ASSEMBLY
 10
3.238
 20
1.027307
 30
0.0
  0
VERTEX
  5
1EF8
  8
ASSEMBLY
 10
3.128
 20
1.027307
 30
0.0
  0
VERTEX
  5
1EF9
  8
ASSEMBLY
 10
3.128
 20
1.069307
 30
0.0
  0
SEQEND
  5
1EFA
  8
ASSEMBLY
  0
CIRCLE
  5
1436
  8
ASSEMBLY
 10
3.483
 20
0.411307
 30
0.0
 40
0.065
  0
CIRCLE
  5
1437
  8
ASSEMBLY
 10
3.483
 20
0.411307
 30
0.0
 40
0.076
  0
LINE
  5
1440
  8
ASSEMBLY
 10
3.427672
 20
0.377193
 30
0.0
 11
3.517115
 21
0.466635
 31
0.0
  0
LINE
  5
1441
  8
ASSEMBLY
 10
3.448885
 20
0.355979
 30
0.0
 11
3.538328
 21
0.445422
 31
0.0
  0
POLYLINE
  5
1443
  8
ASSEMBLY
 66
     1
 10
0.0
 20
0.0
 30
0.0
  0
VERTEX
  5
1EFB
  8
ASSEMBLY
 10
3.403
 20
0.548307
 30
0.0
  0
VERTEX
  5
1EFC
  8
ASSEMBLY
 10
3.403
 20
0.602307
 30
0.0
  0
VERTEX
  5
1EFD
  8
ASSEMBLY
 10
3.563
 20
0.602307
 30
0.0
  0
VERTEX
  5
1EFE
  8
ASSEMBLY
 10
3.563
 20
0.548307
 30
0.0
  0
SEQEND
  5
1EFF
  8
ASSEMBLY
  0
CIRCLE
  5
1449
  8
ASSEMBLY
 10
3.383
 20
0.848307
 30
0.0
 40
0.065
  0
CIRCLE
  5
144A
  8
ASSEMBLY
 10
3.383
 20
0.848307
 30
0.0
 40
0.076
  0
LINE
  5
144B
  8
ASSEMBLY
 10
3.348885
 20
0.792979
 30
0.0
 11
3.438328
 21
0.882422
 31
0.0
  0
LINE
  5
144C
  8
ASSEMBLY
 10
3.327672
 20
0.814193
 30
0.0
 11
3.417115
 21
0.903635
 31
0.0
  0
POLYLINE
  5
144D
  8
ASSEMBLY
 66
     1
 10
0.0
 20
0.0
 30
0.0
  0
VERTEX
  5
1F00
  8
ASSEMBLY
 10
3.438
 20
1.069307
 30
0.0
  0
VERTEX
  5
1F01
  8
ASSEMBLY
 10
3.438
 20
1.027307
 30
0.0
  0
VERTEX
  5
1F02
  8
ASSEMBLY
 10
3.328
 20
1.027307
 30
0.0
  0
VERTEX
  5
1F03
  8
ASSEMBLY
 10
3.328
 20
1.069307
 30
0.0
  0
SEQEND
  5
1F04
  8
ASSEMBLY
  0
CIRCLE
  5
145C
  8
ASSEMBLY
 10
3.683
 20
0.411307
 30
0.0
 40
0.065
  0
CIRCLE
  5
145D
  8
ASSEMBLY
 10
3.683
 20
0.411307
 30
0.0
 40
0.076
  0
LINE
  5
1466
  8
ASSEMBLY
 10
3.627672
 20
0.377193
 30
0.0
 11
3.717115
 21
0.466635
 31
0.0
  0
LINE
  5
1467
  8
ASSEMBLY
 10
3.648885
 20
0.355979
 30
0.0
 11
3.738328
 21
0.445422
 31
0.0
  0
POLYLINE
  5
1469
  8
ASSEMBLY
 66
     1
 10
0.0
 20
0.0
 30
0.0
  0
VERTEX
  5
1F05
  8
ASSEMBLY
 10
3.603
 20
0.548307
 30
0.0
  0
VERTEX
  5
1F06
  8
ASSEMBLY
 10
3.603
 20
0.602307
 30
0.0
  0
VERTEX
  5
1F07
  8
ASSEMBLY
 10
3.763
 20
0.602307
 30
0.0
  0
VERTEX
  5
1F08
  8
ASSEMBLY
 10
3.763
 20
0.548307
 30
0.0
  0
SEQEND
  5
1F09
  8
ASSEMBLY
  0
CIRCLE
  5
146F
  8
ASSEMBLY
 10
3.583
 20
0.848307
 30
0.0
 40
0.065
  0
CIRCLE
  5
1470
  8
ASSEMBLY
 10
3.583
 20
0.848307
 30
0.0
 40
0.076
  0
LINE
  5
1471
  8
ASSEMBLY
 10
3.548885
 20
0.792979
 30
0.0
 11
3.638328
 21
0.882422
 31
0.0
  0
LINE
  5
1472
  8
ASSEMBLY
 10
3.527672
 20
0.814193
 30
0.0
 11
3.617115
 21
0.903635
 31
0.0
  0
POLYLINE
  5
1473
  8
ASSEMBLY
 66
     1
 10
0.0
 20
0.0
 30
0.0
  0
VERTEX
  5
1F0A
  8
ASSEMBLY
 10
3.638
 20
1.069307
 30
0.0
  0
VERTEX
  5
1F0B
  8
ASSEMBLY
 10
3.638
 20
1.027307
 30
0.0
  0
VERTEX
  5
1F0C
  8
ASSEMBLY
 10
3.528
 20
1.027307
 30
0.0
  0
VERTEX
  5
1F0D
  8
ASSEMBLY
 10
3.528
 20
1.069307
 30
0.0
  0
SEQEND
  5
1F0E
  8
ASSEMBLY
  0
CIRCLE
  5
1482
  8
ASSEMBLY
 10
3.883
 20
0.411307
 30
0.0
 40
0.065
  0
CIRCLE
  5
1483
  8
ASSEMBLY
 10
3.883
 20
0.411307
 30
0.0
 40
0.076
  0
LINE
  5
148C
  8
ASSEMBLY
 10
3.827672
 20
0.377193
 30
0.0
 11
3.917115
 21
0.466635
 31
0.0
  0
LINE
  5
148D
  8
ASSEMBLY
 10
3.848885
 20
0.355979
 30
0.0
 11
3.938328
 21
0.445422
 31
0.0
  0
POLYLINE
  5
148F
  8
ASSEMBLY
 66
     1
 10
0.0
 20
0.0
 30
0.0
  0
VERTEX
  5
1F0F
  8
ASSEMBLY
 10
3.803
 20
0.548307
 30
0.0
  0
VERTEX
  5
1F10
  8
ASSEMBLY
 10
3.803
 20
0.602307
 30
0.0
  0
VERTEX
  5
1F11
  8
ASSEMBLY
 10
3.963
 20
0.602307
 30
0.0
  0
VERTEX
  5
1F12
  8
ASSEMBLY
 10
3.963
 20
0.548307
 30
0.0
  0
SEQEND
  5
1F13
  8
ASSEMBLY
  0
CIRCLE
  5
1495
  8
ASSEMBLY
 10
3.783
 20
0.848307
 30
0.0
 40
0.065
  0
CIRCLE
  5
1496
  8
ASSEMBLY
 10
3.783
 20
0.848307
 30
0.0
 40
0.076
  0
LINE
  5
1497
  8
ASSEMBLY
 10
3.748885
 20
0.792979
 30
0.0
 11
3.838328
 21
0.882422
 31
0.0
  0
LINE
  5
1498
  8
ASSEMBLY
 10
3.727672
 20
0.814193
 30
0.0
 11
3.817115
 21
0.903635
 31
0.0
  0
POLYLINE
  5
1499
  8
ASSEMBLY
 66
     1
 10
0.0
 20
0.0
 30
0.0
  0
VERTEX
  5
1F14
  8
ASSEMBLY
 10
3.838
 20
1.069307
 30
0.0
  0
VERTEX
  5
1F15
  8
ASSEMBLY
 10
3.838
 20
1.027307
 30
0.0
  0
VERTEX
  5
1F16
  8
ASSEMBLY
 10
3.728
 20
1.027307
 30
0.0
  0
VERTEX
  5
1F17
  8
ASSEMBLY
 10
3.728
 20
1.069307
 30
0.0
  0
SEQEND
  5
1F18
  8
ASSEMBLY
  0
CIRCLE
  5
14A8
  8
ASSEMBLY
 10
4.083
 20
0.411307
 30
0.0
 40
0.065
  0
CIRCLE
  5
14A9
  8
ASSEMBLY
 10
4.083
 20
0.411307
 30
0.0
 40
0.076
  0
LINE
  5
14B2
  8
ASSEMBLY
 10
4.027672
 20
0.377193
 30
0.0
 11
4.117115
 21
0.466635
 31
0.0
  0
LINE
  5
14B3
  8
ASSEMBLY
 10
4.048885
 20
0.355979
 30
0.0
 11
4.138328
 21
0.445422
 31
0.0
  0
POLYLINE
  5
14B5
  8
ASSEMBLY
 66
     1
 10
0.0
 20
0.0
 30
0.0
  0
VERTEX
  5
1F19
  8
ASSEMBLY
 10
4.003
 20
0.548307
 30
0.0
  0
VERTEX
  5
1F1A
  8
ASSEMBLY
 10
4.003
 20
0.602307
 30
0.0
  0
VERTEX
  5
1F1B
  8
ASSEMBLY
 10
4.163
 20
0.602307
 30
0.0
  0
VERTEX
  5
1F1C
  8
ASSEMBLY
 10
4.163
 20
0.548307
 30
0.0
  0
SEQEND
  5
1F1D
  8
ASSEMBLY
  0
CIRCLE
  5
14BB
  8
ASSEMBLY
 10
3.983
 20
0.848307
 30
0.0
 40
0.065
  0
CIRCLE
  5
14BC
  8
ASSEMBLY
 10
3.983
 20
0.848307
 30
0.0
 40
0.076
  0
LINE
  5
14BD
  8
ASSEMBLY
 10
3.948885
 20
0.792979
 30
0.0
 11
4.038328
 21
0.882422
 31
0.0
  0
LINE
  5
14BE
  8
ASSEMBLY
 10
3.927672
 20
0.814193
 30
0.0
 11
4.017115
 21
0.903635
 31
0.0
  0
POLYLINE
  5
14BF
  8
ASSEMBLY
 66
     1
 10
0.0
 20
0.0
 30
0.0
  0
VERTEX
  5
1F1E
  8
ASSEMBLY
 10
4.038
 20
1.069307
 30
0.0
  0
VERTEX
  5
1F1F
  8
ASSEMBLY
 10
4.038
 20
1.027307
 30
0.0
  0
VERTEX
  5
1F20
  8
ASSEMBLY
 10
3.928
 20
1.027307
 30
0.0
  0
VERTEX
  5
1F21
  8
ASSEMBLY
 10
3.928
 20
1.069307
 30
0.0
  0
SEQEND
  5
1F22
  8
ASSEMBLY
  0
CIRCLE
  5
14CE
  8
ASSEMBLY
 10
4.283
 20
0.411307
 30
0.0
 40
0.065
  0
CIRCLE
  5
14CF
  8
ASSEMBLY
 10
4.283
 20
0.411307
 30
0.0
 40
0.076
  0
LINE
  5
14D8
  8
ASSEMBLY
 10
4.227672
 20
0.377193
 30
0.0
 11
4.317115
 21
0.466635
 31
0.0
  0
LINE
  5
14D9
  8
ASSEMBLY
 10
4.248885
 20
0.355979
 30
0.0
 11
4.338328
 21
0.445422
 31
0.0
  0
POLYLINE
  5
14DB
  8
ASSEMBLY
 66
     1
 10
0.0
 20
0.0
 30
0.0
  0
VERTEX
  5
1F23
  8
ASSEMBLY
 10
4.203
 20
0.548307
 30
0.0
  0
VERTEX
  5
1F24
  8
ASSEMBLY
 10
4.203
 20
0.602307
 30
0.0
  0
VERTEX
  5
1F25
  8
ASSEMBLY
 10
4.363
 20
0.602307
 30
0.0
  0
VERTEX
  5
1F26
  8
ASSEMBLY
 10
4.363
 20
0.548307
 30
0.0
  0
SEQEND
  5
1F27
  8
ASSEMBLY
  0
CIRCLE
  5
14E1
  8
ASSEMBLY
 10
4.183
 20
0.848307
 30
0.0
 40
0.065
  0
CIRCLE
  5
14E2
  8
ASSEMBLY
 10
4.183
 20
0.848307
 30
0.0
 40
0.076
  0
LINE
  5
14E3
  8
ASSEMBLY
 10
4.148885
 20
0.792979
 30
0.0
 11
4.238328
 21
0.882422
 31
0.0
  0
LINE
  5
14E4
  8
ASSEMBLY
 10
4.127672
 20
0.814193
 30
0.0
 11
4.217115
 21
0.903635
 31
0.0
  0
POLYLINE
  5
14E5
  8
ASSEMBLY
 66
     1
 10
0.0
 20
0.0
 30
0.0
  0
VERTEX
  5
1F28
  8
ASSEMBLY
 10
4.238
 20
1.069307
 30
0.0
  0
VERTEX
  5
1F29
  8
ASSEMBLY
 10
4.238
 20
1.027307
 30
0.0
  0
VERTEX
  5
1F2A
  8
ASSEMBLY
 10
4.128
 20
1.027307
 30
0.0
  0
VERTEX
  5
1F2B
  8
ASSEMBLY
 10
4.128
 20
1.069307
 30
0.0
  0
SEQEND
  5
1F2C
  8
ASSEMBLY
  0
CIRCLE
  5
14F4
  8
ASSEMBLY
 10
4.483
 20
0.411307
 30
0.0
 40
0.065
  0
CIRCLE
  5
14F5
  8
ASSEMBLY
 10
4.483
 20
0.411307
 30
0.0
 40
0.076
  0
LINE
  5
14FE
  8
ASSEMBLY
 10
4.427672
 20
0.377193
 30
0.0
 11
4.517115
 21
0.466635
 31
0.0
  0
LINE
  5
14FF
  8
ASSEMBLY
 10
4.448885
 20
0.355979
 30
0.0
 11
4.538328
 21
0.445422
 31
0.0
  0
POLYLINE
  5
1501
  8
ASSEMBLY
 66
     1
 10
0.0
 20
0.0
 30
0.0
  0
VERTEX
  5
1F2D
  8
ASSEMBLY
 10
4.403
 20
0.548307
 30
0.0
  0
VERTEX
  5
1F2E
  8
ASSEMBLY
 10
4.403
 20
0.602307
 30
0.0
  0
VERTEX
  5
1F2F
  8
ASSEMBLY
 10
4.563
 20
0.602307
 30
0.0
  0
VERTEX
  5
1F30
  8
ASSEMBLY
 10
4.563
 20
0.548307
 30
0.0
  0
SEQEND
  5
1F31
  8
ASSEMBLY
  0
CIRCLE
  5
1507
  8
ASSEMBLY
 10
4.383
 20
0.848307
 30
0.0
 40
0.065
  0
CIRCLE
  5
1508
  8
ASSEMBLY
 10
4.383
 20
0.848307
 30
0.0
 40
0.076
  0
LINE
  5
1509
  8
ASSEMBLY
 10
4.348885
 20
0.792979
 30
0.0
 11
4.438328
 21
0.882422
 31
0.0
  0
LINE
  5
150A
  8
ASSEMBLY
 10
4.327672
 20
0.814193
 30
0.0
 11
4.417115
 21
0.903635
 31
0.0
  0
POLYLINE
  5
150B
  8
ASSEMBLY
 66
     1
 10
0.0
 20
0.0
 30
0.0
  0
VERTEX
  5
1F32
  8
ASSEMBLY
 10
4.438
 20
1.069307
 30
0.0
  0
VERTEX
  5
1F33
  8
ASSEMBLY
 10
4.438
 20
1.027307
 30
0.0
  0
VERTEX
  5
1F34
  8
ASSEMBLY
 10
4.328
 20
1.027307
 30
0.0
  0
VERTEX
  5
1F35
  8
ASSEMBLY
 10
4.328
 20
1.069307
 30
0.0
  0
SEQEND
  5
1F36
  8
ASSEMBLY
  0
CIRCLE
  5
151A
  8
ASSEMBLY
 10
4.683
 20
0.411307
 30
0.0
 40
0.065
  0
CIRCLE
  5
151B
  8
ASSEMBLY
 10
4.683
 20
0.411307
 30
0.0
 40
0.076
  0
LINE
  5
1524
  8
ASSEMBLY
 10
4.627672
 20
0.377193
 30
0.0
 11
4.717115
 21
0.466635
 31
0.0
  0
LINE
  5
1525
  8
ASSEMBLY
 10
4.648885
 20
0.355979
 30
0.0
 11
4.738328
 21
0.445422
 31
0.0
  0
POLYLINE
  5
1527
  8
ASSEMBLY
 66
     1
 10
0.0
 20
0.0
 30
0.0
  0
VERTEX
  5
1F37
  8
ASSEMBLY
 10
4.603
 20
0.548307
 30
0.0
  0
VERTEX
  5
1F38
  8
ASSEMBLY
 10
4.603
 20
0.602307
 30
0.0
  0
VERTEX
  5
1F39
  8
ASSEMBLY
 10
4.763
 20
0.602307
 30
0.0
  0
VERTEX
  5
1F3A
  8
ASSEMBLY
 10
4.763
 20
0.548307
 30
0.0
  0
SEQEND
  5
1F3B
  8
ASSEMBLY
  0
CIRCLE
  5
152D
  8
ASSEMBLY
 10
4.583
 20
0.848307
 30
0.0
 40
0.065
  0
CIRCLE
  5
152E
  8
ASSEMBLY
 10
4.583
 20
0.848307
 30
0.0
 40
0.076
  0
LINE
  5
152F
  8
ASSEMBLY
 10
4.548885
 20
0.792979
 30
0.0
 11
4.638328
 21
0.882422
 31
0.0
  0
LINE
  5
1530
  8
ASSEMBLY
 10
4.527672
 20
0.814193
 30
0.0
 11
4.617115
 21
0.903635
 31
0.0
  0
POLYLINE
  5
1531
  8
ASSEMBLY
 66
     1
 10
0.0
 20
0.0
 30
0.0
  0
VERTEX
  5
1F3C
  8
ASSEMBLY
 10
4.638
 20
1.069307
 30
0.0
  0
VERTEX
  5
1F3D
  8
ASSEMBLY
 10
4.638
 20
1.027307
 30
0.0
  0
VERTEX
  5
1F3E
  8
ASSEMBLY
 10
4.528
 20
1.027307
 30
0.0
  0
VERTEX
  5
1F3F
  8
ASSEMBLY
 10
4.528
 20
1.069307
 30
0.0
  0
SEQEND
  5
1F40
  8
ASSEMBLY
  0
CIRCLE
  5
1540
  8
ASSEMBLY
 10
4.883
 20
0.411307
 30
0.0
 40
0.065
  0
CIRCLE
  5
1541
  8
ASSEMBLY
 10
4.883
 20
0.411307
 30
0.0
 40
0.076
  0
LINE
  5
154A
  8
ASSEMBLY
 10
4.827672
 20
0.377193
 30
0.0
 11
4.917115
 21
0.466635
 31
0.0
  0
LINE
  5
154B
  8
ASSEMBLY
 10
4.848885
 20
0.355979
 30
0.0
 11
4.938328
 21
0.445422
 31
0.0
  0
POLYLINE
  5
154D
  8
ASSEMBLY
 66
     1
 10
0.0
 20
0.0
 30
0.0
  0
VERTEX
  5
1F41
  8
ASSEMBLY
 10
4.803
 20
0.548307
 30
0.0
  0
VERTEX
  5
1F42
  8
ASSEMBLY
 10
4.803
 20
0.602307
 30
0.0
  0
VERTEX
  5
1F43
  8
ASSEMBLY
 10
4.963
 20
0.602307
 30
0.0
  0
VERTEX
  5
1F44
  8
ASSEMBLY
 10
4.963
 20
0.548307
 30
0.0
  0
SEQEND
  5
1F45
  8
ASSEMBLY
  0
CIRCLE
  5
1553
  8
ASSEMBLY
 10
4.783
 20
0.848307
 30
0.0
 40
0.065
  0
CIRCLE
  5
1554
  8
ASSEMBLY
 10
4.783
 20
0.848307
 30
0.0
 40
0.076
  0
LINE
  5
1555
  8
ASSEMBLY
 10
4.748885
 20
0.792979
 30
0.0
 11
4.838328
 21
0.882422
 31
0.0
  0
LINE
  5
1556
  8
ASSEMBLY
 10
4.727672
 20
0.814193
 30
0.0
 11
4.817115
 21
0.903635
 31
0.0
  0
POLYLINE
  5
1557
  8
ASSEMBLY
 66
     1
 10
0.0
 20
0.0
 30
0.0
  0
VERTEX
  5
1F46
  8
ASSEMBLY
 10
4.838
 20
1.069307
 30
0.0
  0
VERTEX
  5
1F47
  8
ASSEMBLY
 10
4.838
 20
1.027307
 30
0.0
  0
VERTEX
  5
1F48
  8
ASSEMBLY
 10
4.728
 20
1.027307
 30
0.0
  0
VERTEX
  5
1F49
  8
ASSEMBLY
 10
4.728
 20
1.069307
 30
0.0
  0
SEQEND
  5
1F4A
  8
ASSEMBLY
  0
POLYLINE
  5
1566
  8
ASSEMBLY
 66
     1
 10
0.0
 20
0.0
 30
0.0
  0
VERTEX
  5
1F4B
  8
ASSEMBLY
 10
2.783
 20
0.1835
 30
0.0
  0
VERTEX
  5
1F4C
  8
ASSEMBLY
 10
2.783
 20
0.619024
 30
0.0
  0
VERTEX
  5
1F4D
  8
ASSEMBLY
 10
2.683
 20
0.619024
 30
0.0
  0
VERTEX
  5
1F4E
  8
ASSEMBLY
 10
2.683
 20
1.069307
 30
0.0
  0
SEQEND
  5
1F4F
  8
ASSEMBLY
  0
POLYLINE
  5
156C
  8
ASSEMBLY
 66
     1
 10
0.0
 20
0.0
 30
0.0
  0
VERTEX
  5
1F50
  8
ASSEMBLY
 10
3.383
 20
0.1835
 30
0.0
  0
VERTEX
  5
1F51
  8
ASSEMBLY
 10
3.383
 20
0.619024
 30
0.0
  0
VERTEX
  5
1F52
  8
ASSEMBLY
 10
3.283
 20
0.619024
 30
0.0
  0
VERTEX
  5
1F53
  8
ASSEMBLY
 10
3.283
 20
1.069307
 30
0.0
  0
SEQEND
  5
1F54
  8
ASSEMBLY
  0
POLYLINE
  5
1572
  8
ASSEMBLY
 66
     1
 10
0.0
 20
0.0
 30
0.0
  0
VERTEX
  5
1F55
  8
ASSEMBLY
 10
3.983
 20
0.1835
 30
0.0
  0
VERTEX
  5
1F56
  8
ASSEMBLY
 10
3.983
 20
0.619024
 30
0.0
  0
VERTEX
  5
1F57
  8
ASSEMBLY
 10
3.883
 20
0.619024
 30
0.0
  0
VERTEX
  5
1F58
  8
ASSEMBLY
 10
3.883
 20
1.069307
 30
0.0
  0
SEQEND
  5
1F59
  8
ASSEMBLY
  0
POLYLINE
  5
1578
  8
ASSEMBLY
 66
     1
 10
0.0
 20
0.0
 30
0.0
  0
VERTEX
  5
1F5A
  8
ASSEMBLY
 10
4.583
 20
0.1835
 30
0.0
  0
VERTEX
  5
1F5B
  8
ASSEMBLY
 10
4.583
 20
0.619024
 30
0.0
  0
VERTEX
  5
1F5C
  8
ASSEMBLY
 10
4.483
 20
0.619024
 30
0.0
  0
VERTEX
  5
1F5D
  8
ASSEMBLY
 10
4.483
 20
1.069307
 30
0.0
  0
SEQEND
  5
1F5E
  8
ASSEMBLY
  0
CIRCLE
  5
178E
  8
ASSEMBLY
 10
7.652187
 20
0.297943
 30
0.0
 40
0.058
  0
CIRCLE
  5
178F
  8
ASSEMBLY
 10
7.652187
 20
1.048754
 30
0.0
 40
0.058
  0
TEXT
  5
1790
  8
ASSEMBLY
 10
7.410234
 20
1.469471
 30
0.0
 40
0.06
  1
Type UMK-SE 11.25-1
 50
90.0
  7
ROMANS
  0
POLYLINE
  5
1791
  8
ASSEMBLY
 66
     1
 10
0.0
 20
0.0
 30
0.0
  0
VERTEX
  5
1F5F
  8
ASSEMBLY
 10
7.539595
 20
0.18569
 30
0.0
  0
VERTEX
  5
1F60
  8
ASSEMBLY
 10
7.539595
 20
2.657824
 30
0.0
  0
VERTEX
  5
1F61
  8
ASSEMBLY
 10
7.239691
 20
2.657824
 30
0.0
  0
VERTEX
  5
1F62
  8
ASSEMBLY
 10
7.239691
 20
0.185768
 30
0.0
  0
VERTEX
  5
1F63
  8
ASSEMBLY
 10
7.539691
 20
0.185768
 30
0.0
  0
SEQEND
  5
1F64
  8
ASSEMBLY
  0
TEXT
  5
1798
  8
ASSEMBLY
 10
7.354606
 20
0.547914
 30
0.0
 40
0.06
  1
PHOENIX
 50
90.0
  7
ROMANS
  0
TEXT
  5
1799
  8
ASSEMBLY
 10
7.467686
 20
0.547914
 30
0.0
 40
0.06
  1
CONTACT
 50
90.0
  7
ROMANS
  0
CIRCLE
  5
179A
  8
ASSEMBLY
 10
7.404603
 20
-0.010374
 30
0.0
 40
0.058
  0
POLYLINE
  5
179B
  8
ASSEMBLY
 66
     1
 10
0.0
 20
0.0
 30
0.0
 70
     1
  0
VERTEX
  5
1F65
  8
ASSEMBLY
 10
7.174399
 20
-0.015447
 30
0.0
  0
VERTEX
  5
1F66
  8
ASSEMBLY
 10
7.341496
 20
-0.075152
 30
0.0
 42
0.460448
  0
VERTEX
  5
1F67
  8
ASSEMBLY
 10
7.361255
 20
-0.098244
 30
0.0
  0
VERTEX
  5
1F68
  8
ASSEMBLY
 10
7.541217
 20
-0.098244
 30
0.0
 42
0.229329
  0
VERTEX
  5
1F69
  8
ASSEMBLY
 10
7.556905
 20
-0.090649
 30
0.0
  0
VERTEX
  5
1F6A
  8
ASSEMBLY
 10
7.758683
 20
0.163265
 30
0.0
  0
VERTEX
  5
1F6B
  8
ASSEMBLY
 10
7.758683
 20
2.648513
 30
0.0
 42
0.130729
  0
VERTEX
  5
1F6C
  8
ASSEMBLY
 10
7.745723
 20
2.685729
 30
0.0
  0
VERTEX
  5
1F6D
  8
ASSEMBLY
 10
7.556905
 20
2.924513
 30
0.0
 42
0.229329
  0
VERTEX
  5
1F6E
  8
ASSEMBLY
 10
7.541217
 20
2.932108
 30
0.0
  0
VERTEX
  5
1F6F
  8
ASSEMBLY
 10
7.361255
 20
2.932108
 30
0.0
 42
0.338165
  0
VERTEX
  5
1F70
  8
ASSEMBLY
 10
7.341961
 20
2.917374
 30
0.0
  0
VERTEX
  5
1F71
  8
ASSEMBLY
 10
7.339463
 20
2.908223
 30
0.0
  0
VERTEX
  5
1F72
  8
ASSEMBLY
 10
7.174399
 20
2.849311
 30
0.0
 42
0.31432
  0
VERTEX
  5
1F73
  8
ASSEMBLY
 10
7.161121
 20
2.83061
 30
0.0
  0
VERTEX
  5
1F74
  8
ASSEMBLY
 10
7.161121
 20
0.003389
 30
0.0
 42
0.317019
  0
SEQEND
  5
1F75
  8
ASSEMBLY
  0
POLYLINE
  5
17AD
  8
ASSEMBLY
 66
     1
 10
0.0
 20
0.0
 30
0.0
 70
     1
  0
VERTEX
  5
1F76
  8
ASSEMBLY
 10
7.771562
 20
0.252425
 30
0.0
  0
VERTEX
  5
1F77
  8
ASSEMBLY
 10
7.771562
 20
0.983123
 30
0.0
  0
VERTEX
  5
1F78
  8
ASSEMBLY
 10
7.832538
 20
1.018328
 30
0.0
  0
VERTEX
  5
1F79
  8
ASSEMBLY
 10
7.832538
 20
1.118328
 30
0.0
  0
VERTEX
  5
1F7A
  8
ASSEMBLY
 10
7.771917
 20
1.153328
 30
0.0
  0
VERTEX
  5
1F7B
  8
ASSEMBLY
 10
7.771917
 20
2.302717
 30
0.0
 42
-0.414214
  0
VERTEX
  5
1F7C
  8
ASSEMBLY
 10
7.791917
 20
2.322717
 30
0.0
  0
VERTEX
  5
1F7D
  8
ASSEMBLY
 10
8.038458
 20
2.322717
 30
0.0
 42
-0.414214
  0
VERTEX
  5
1F7E
  8
ASSEMBLY
 10
8.100458
 20
2.260717
 30
0.0
  0
VERTEX
  5
1F7F
  8
ASSEMBLY
 10
8.100458
 20
2.192137
 30
0.0
 42
-0.414214
  0
VERTEX
  5
1F80
  8
ASSEMBLY
 10
8.060458
 20
2.152137
 30
0.0
  0
VERTEX
  5
1F81
  8
ASSEMBLY
 10
8.036635
 20
2.152137
 30
0.0
  0
VERTEX
  5
1F82
  8
ASSEMBLY
 10
8.036635
 20
2.177637
 30
0.0
  0
VERTEX
  5
1F83
  8
ASSEMBLY
 10
7.989691
 20
2.177637
 30
0.0
  0
VERTEX
  5
1F84
  8
ASSEMBLY
 10
7.989691
 20
2.047342
 30
0.0
 42
-0.350633
  0
VERTEX
  5
1F85
  8
ASSEMBLY
 10
7.974036
 20
2.027852
 30
0.0
 42
0.340193
  0
VERTEX
  5
1F86
  8
ASSEMBLY
 10
7.8445
 20
1.869616
 30
0.0
  0
VERTEX
  5
1F87
  8
ASSEMBLY
 10
7.912088
 20
1.869616
 30
0.0
  0
VERTEX
  5
1F88
  8
ASSEMBLY
 10
8.101963
 20
1.933298
 30
0.0
  0
VERTEX
  5
1F89
  8
ASSEMBLY
 10
8.101963
 20
1.872075
 30
0.0
  0
VERTEX
  5
1F8A
  8
ASSEMBLY
 10
8.156065
 20
1.872075
 30
0.0
  0
VERTEX
  5
1F8B
  8
ASSEMBLY
 10
8.156065
 20
1.951603
 30
0.0
  0
VERTEX
  5
1F8C
  8
ASSEMBLY
 10
8.185728
 20
1.953988
 30
0.0
 42
-0.437915
  0
VERTEX
  5
1F8D
  8
ASSEMBLY
 10
8.207331
 20
1.934053
 30
0.0
  0
VERTEX
  5
1F8E
  8
ASSEMBLY
 10
8.207331
 20
1.856612
 30
0.0
 42
-0.348839
  0
VERTEX
  5
1F8F
  8
ASSEMBLY
 10
8.191856
 20
1.837131
 30
0.0
  0
VERTEX
  5
1F90
  8
ASSEMBLY
 10
8.10378
 20
1.816672
 30
0.0
 42
-0.482757
  0
VERTEX
  5
1F91
  8
ASSEMBLY
 10
8.079255
 20
1.836154
 30
0.0
  0
VERTEX
  5
1F92
  8
ASSEMBLY
 10
8.079255
 20
1.860975
 30
0.0
  0
VERTEX
  5
1F93
  8
ASSEMBLY
 10
8.040704
 20
1.860975
 30
0.0
  0
VERTEX
  5
1F94
  8
ASSEMBLY
 10
8.040704
 20
1.810975
 30
0.0
  0
VERTEX
  5
1F95
  8
ASSEMBLY
 10
7.977958
 20
1.786454
 30
0.0
 42
0.308857
  0
VERTEX
  5
1F96
  8
ASSEMBLY
 10
7.965238
 20
1.767826
 30
0.0
  0
VERTEX
  5
1F97
  8
ASSEMBLY
 10
7.965238
 20
1.442728
 30
0.0
 42
-0.414214
  0
VERTEX
  5
1F98
  8
ASSEMBLY
 10
7.945238
 20
1.422728
 30
0.0
  0
VERTEX
  5
1F99
  8
ASSEMBLY
 10
7.860238
 20
1.422728
 30
0.0
 42
0.414214
  0
VERTEX
  5
1F9A
  8
ASSEMBLY
 10
7.840238
 20
1.402728
 30
0.0
  0
VERTEX
  5
1F9B
  8
ASSEMBLY
 10
7.840238
 20
1.375482
 30
0.0
 42
0.414645
  0
VERTEX
  5
1F9C
  8
ASSEMBLY
 10
7.860947
 20
1.355831
 30
0.0
  0
VERTEX
  5
1F9D
  8
ASSEMBLY
 10
8.00036
 20
1.355831
 30
0.0
 42
-0.416736
  0
VERTEX
  5
1F9E
  8
ASSEMBLY
 10
8.040704
 20
1.315832
 30
0.0
  0
VERTEX
  5
1F9F
  8
ASSEMBLY
 10
8.040704
 20
1.286178
 30
0.0
  0
VERTEX
  5
1FA0
  8
ASSEMBLY
 10
8.074972
 20
1.286178
 30
0.0
  0
VERTEX
  5
1FA1
  8
ASSEMBLY
 10
8.077365
 20
1.300529
 30
0.0
 42
-0.455334
  0
VERTEX
  5
1FA2
  8
ASSEMBLY
 10
8.090218
 20
1.308427
 30
0.0
  0
VERTEX
  5
1FA3
  8
ASSEMBLY
 10
8.134725
 20
1.294484
 30
0.0
 42
-0.442728
  0
VERTEX
  5
1FA4
  8
ASSEMBLY
 10
8.147168
 20
1.267611
 30
0.0
 42
-0.109635
  0
VERTEX
  5
1FA5
  8
ASSEMBLY
 10
8.124334
 20
1.23564
 30
0.0
  0
VERTEX
  5
1FA6
  8
ASSEMBLY
 10
8.022025
 20
1.216317
 30
0.0
 42
-0.312474
  0
VERTEX
  5
1FA7
  8
ASSEMBLY
 10
7.963836
 20
1.255397
 30
0.0
 42
0.374283
  0
VERTEX
  5
1FA8
  8
ASSEMBLY
 10
7.953932
 20
1.26402
 30
0.0
  0
VERTEX
  5
1FA9
  8
ASSEMBLY
 10
7.891726
 20
1.26402
 30
0.0
 42
-0.414214
  0
VERTEX
  5
1FAA
  8
ASSEMBLY
 10
7.881726
 20
1.27402
 30
0.0
  0
VERTEX
  5
1FAB
  8
ASSEMBLY
 10
7.881726
 20
1.301958
 30
0.0
 42
0.950047
  0
VERTEX
  5
1FAC
  8
ASSEMBLY
 10
7.840238
 20
1.299882
 30
0.0
  0
VERTEX
  5
1FAD
  8
ASSEMBLY
 10
7.840238
 20
1.200995
 30
0.0
  0
VERTEX
  5
1FAE
  8
ASSEMBLY
 10
7.904276
 20
1.171031
 30
0.0
  0
VERTEX
  5
1FAF
  8
ASSEMBLY
 10
7.904276
 20
0.9707
 30
0.0
  0
VERTEX
  5
1FB0
  8
ASSEMBLY
 10
7.84014
 20
0.932116
 30
0.0
  0
VERTEX
  5
1FB1
  8
ASSEMBLY
 10
7.84014
 20
0.805993
 30
0.0
 42
0.400968
  0
VERTEX
  5
1FB2
  8
ASSEMBLY
 10
7.858286
 20
0.786308
 30
0.0
  0
VERTEX
  5
1FB3
  8
ASSEMBLY
 10
7.925981
 20
0.786308
 30
0.0
  0
VERTEX
  5
1FB4
  8
ASSEMBLY
 10
7.990846
 20
0.821643
 30
0.0
  0
VERTEX
  5
1FB5
  8
ASSEMBLY
 10
7.990846
 20
0.757364
 30
0.0
  0
VERTEX
  5
1FB6
  8
ASSEMBLY
 10
8.035233
 20
0.757364
 30
0.0
  0
VERTEX
  5
1FB7
  8
ASSEMBLY
 10
8.035233
 20
0.822254
 30
0.0
  0
VERTEX
  5
1FB8
  8
ASSEMBLY
 10
8.191893
 20
0.767672
 30
0.0
 42
-0.360941
  0
VERTEX
  5
1FB9
  8
ASSEMBLY
 10
8.20821
 20
0.748014
 30
0.0
  0
VERTEX
  5
1FBA
  8
ASSEMBLY
 10
8.20821
 20
-0.03906
 30
0.0
 42
-0.414214
  0
VERTEX
  5
1FBB
  8
ASSEMBLY
 10
8.18821
 20
-0.05906
 30
0.0
  0
VERTEX
  5
1FBC
  8
ASSEMBLY
 10
8.046683
 20
-0.05906
 30
0.0
 42
-0.414214
  0
VERTEX
  5
1FBD
  8
ASSEMBLY
 10
8.026683
 20
-0.03906
 30
0.0
  0
VERTEX
  5
1FBE
  8
ASSEMBLY
 10
8.026683
 20
0.015344
 30
0.0
 42
-0.472471
  0
VERTEX
  5
1FBF
  8
ASSEMBLY
 10
8.050553
 20
0.034966
 30
0.0
  0
VERTEX
  5
1FC0
  8
ASSEMBLY
 10
8.163973
 20
0.012596
 30
0.0
  0
VERTEX
  5
1FC1
  8
ASSEMBLY
 10
8.163973
 20
0.213921
 30
0.0
 42
0.414214
  0
VERTEX
  5
1FC2
  8
ASSEMBLY
 10
8.143973
 20
0.233921
 30
0.0
  0
VERTEX
  5
1FC3
  8
ASSEMBLY
 10
7.791506
 20
0.233921
 30
0.0
 42
-0.392445
  0
SEQEND
  5
1FC4
  8
ASSEMBLY
  0
POLYLINE
  5
17FD
  8
ASSEMBLY
 66
     1
 10
0.0
 20
0.0
 30
0.0
  0
VERTEX
  5
1FC5
  8
ASSEMBLY
 10
8.186429
 20
0.719085
 30
0.0
 42
-0.75485
  0
VERTEX
  5
1FC6
  8
ASSEMBLY
 10
8.165353
 20
0.687112
 30
0.0
  0
VERTEX
  5
1FC7
  8
ASSEMBLY
 10
8.165353
 20
0.318968
 30
0.0
 42
-1.436234
  0
VERTEX
  5
1FC8
  8
ASSEMBLY
 10
8.132071
 20
0.279855
 30
0.0
  0
VERTEX
  5
1FC9
  8
ASSEMBLY
 10
8.078425
 20
0.279855
 30
0.0
 42
1.0
  0
VERTEX
  5
1FCA
  8
ASSEMBLY
 10
8.034299
 20
0.279855
 30
0.0
  0
VERTEX
  5
1FCB
  8
ASSEMBLY
 10
7.968696
 20
0.279855
 30
0.0
 42
1.0
  0
VERTEX
  5
1FCC
  8
ASSEMBLY
 10
7.92457
 20
0.279855
 30
0.0
  0
VERTEX
  5
1FCD
  8
ASSEMBLY
 10
7.874232
 20
0.279855
 30
0.0
 42
-1.453895
  0
VERTEX
  5
1FCE
  8
ASSEMBLY
 10
7.841137
 20
0.318254
 30
0.0
  0
VERTEX
  5
1FCF
  8
ASSEMBLY
 10
7.841137
 20
0.698767
 30
0.0
 42
-1.629834
  0
VERTEX
  5
1FD0
  8
ASSEMBLY
 10
7.876667
 20
0.731839
 30
0.0
  0
VERTEX
  5
1FD1
  8
ASSEMBLY
 10
8.134232
 20
0.731839
 30
0.0
  0
VERTEX
  5
1FD2
  8
ASSEMBLY
 10
8.186398
 20
0.719075
 30
0.0
  0
SEQEND
  5
1FD3
  8
ASSEMBLY
  0
POLYLINE
  5
180D
  8
ASSEMBLY
 66
     1
 10
0.0
 20
0.0
 30
0.0
 70
     1
  0
VERTEX
  5
1FD4
  8
ASSEMBLY
 10
7.853262
 20
2.028279
 30
0.0
 42
-0.507337
  0
VERTEX
  5
1FD5
  8
ASSEMBLY
 10
7.840238
 20
2.037811
 30
0.0
  0
VERTEX
  5
1FD6
  8
ASSEMBLY
 10
7.840238
 20
2.240162
 30
0.0
 42
-0.414214
  0
VERTEX
  5
1FD7
  8
ASSEMBLY
 10
7.850238
 20
2.250162
 30
0.0
  0
VERTEX
  5
1FD8
  8
ASSEMBLY
 10
7.911195
 20
2.250162
 30
0.0
 42
-0.414214
  0
VERTEX
  5
1FD9
  8
ASSEMBLY
 10
7.921195
 20
2.240162
 30
0.0
  0
VERTEX
  5
1FDA
  8
ASSEMBLY
 10
7.921195
 20
2.05715
 30
0.0
 42
-0.326844
  0
VERTEX
  5
1FDB
  8
ASSEMBLY
 10
7.914219
 20
2.047618
 30
0.0
  0
SEQEND
  5
1FDC
  8
ASSEMBLY
  0
POLYLINE
  5
1817
  8
ASSEMBLY
 66
     1
 10
0.0
 20
0.0
 30
0.0
 70
     1
  0
VERTEX
  5
1FDD
  8
ASSEMBLY
 10
7.840201
 20
1.52518
 30
0.0
  0
VERTEX
  5
1FDE
  8
ASSEMBLY
 10
7.840201
 20
1.73528
 30
0.0
  0
VERTEX
  5
1FDF
  8
ASSEMBLY
 10
7.912892
 20
1.73528
 30
0.0
  0
VERTEX
  5
1FE0
  8
ASSEMBLY
 10
7.912892
 20
1.523535
 30
0.0
 42
-0.977637
  0
SEQEND
  5
1FE1
  8
ASSEMBLY
  0
TEXT
  5
1BF4
  8
ASSEMBLY
 10
2.547285
 20
-4.881404
 30
0.0
 40
0.1
  1
FLKM 44 SUB/B
  7
ROMANS
  0
TEXT
  5
1BF5
  8
ASSEMBLY
 10
2.547285
 20
-4.465456
 30
0.0
 40
0.1
  1
MILLIMETERS IN PARENTHESES
  7
ROMANS
  0
INSERT
  5
1C04
  8
0
  2
RAIL
 10
7.919644
 20
0.704994
 30
0.0
 50
90.0
  0
DIMENSION
  5
1C13
  8
0
  2
*D1
 10
5.612779
 20
2.922361
 30
0.0
 11
5.612779
 21
1.409822
 31
0.0
 70
     0
  1
3.0(77)
 13
5.328952
 23
-0.102717
 33
0.0
 14
5.328952
 24
2.922361
 34
0.0
 50
90.0
1001
ACAD
1000
DSTYLE
1002
{
1070
   140
1040
0.1
1070
   340
1005
2C
1070
   174
1070
     1
1070
   287
1070
     5
1070
    44
1040
0.1
1070
    41
1040
0.1
1002
}
  0
DIMENSION
  5
1C21
  8
0
  2
*D2
 10
5.272186
 20
-0.480851
 30
0.0
 11
2.613664
 21
-0.480851
 31
0.0
 70
     0
  1
5.31(135)
 13
-0.044857
 23
-0.19725
 33
0.0
 14
5.272186
 24
-0.19725
 34
0.0
1001
ACAD
1000
DSTYLE
1002
{
1070
   140
1040
0.1
1070
   340
1005
2C
1070
   174
1070
     1
1070
   287
1070
     5
1070
    44
1040
0.1
1070
    41
1040
0.1
1002
}
  0
DIMENSION
  5
1C30
  8
0
  2
*D3
 10
8.299684
 20
-0.499758
 30
0.0
 11
7.107606
 21
-0.499758
 31
0.0
 70
     0
  1
2.3(58.5)
 13
5.915529
 23
0.615739
 33
0.0
 14
8.299684
 24
0.861527
 34
0.0
1001
ACAD
1000
DSTYLE
1002
{
1070
   140
1040
0.1
1070
   340
1005
2C
1070
   174
1070
     1
1070
   287
1070
     5
1070
    44
1040
0.1
1070
    41
1040
0.1
1002
}
  0
ENDSEC
  0
EOF
