  0
SECTION
  2
HEADER
  9
$ACADVER
  1
AC1009
  9
$INSBASE
 10
0.0
 20
0.0
 30
0.0
  9
$EXTMIN
 10
-0.052636
 20
-5.283731
 30
0.0
  9
$EXTMAX
 10
14.644768
 20
2.962721
 30
0.0
  9
$LIMMIN
 10
0.0
 20
0.0
  9
$LIMMAX
 10
12.0
 20
9.0
  9
$ORTHOMODE
 70
     0
  9
$REGENMODE
 70
     1
  9
$FILLMODE
 70
     1
  9
$QTEXTMODE
 70
     0
  9
$MIRRTEXT
 70
     1
  9
$DRAGMODE
 70
     2
  9
$LTSCALE
 40
1.0
  9
$OSMODE
 70
     0
  9
$ATTMODE
 70
     1
  9
$TEXTSIZE
 40
0.1
  9
$TRACEWID
 40
0.02
  9
$TEXTSTYLE
  7
ROMANS
  9
$CLAYER
  8
0
  9
$CELTYPE
  6
BYLAYER
  9
$CECOLOR
 62
   256
  9
$DIMSCALE
 40
1.0
  9
$DIMASZ
 40
0.1
  9
$DIMEXO
 40
0.0625
  9
$DIMDLI
 40
0.38
  9
$DIMRND
 40
0.0
  9
$DIMDLE
 40
0.0
  9
$DIMEXE
 40
0.1
  9
$DIMTP
 40
0.0
  9
$DIMTM
 40
0.0
  9
$DIMTXT
 40
0.1
  9
$DIMCEN
 40
0.09
  9
$DIMTSZ
 40
0.0
  9
$DIMTOL
 70
     0
  9
$DIMLIM
 70
     0
  9
$DIMTIH
 70
     1
  9
$DIMTOH
 70
     1
  9
$DIMSE1
 70
     0
  9
$DIMSE2
 70
     0
  9
$DIMTAD
 70
     0
  9
$DIMZIN
 70
     0
  9
$DIMBLK
  1

  9
$DIMASO
 70
     1
  9
$DIMSHO
 70
     0
  9
$DIMPOST
  1

  9
$DIMAPOST
  1

  9
$DIMALT
 70
     0
  9
$DIMALTD
 70
     2
  9
$DIMALTF
 40
25.4
  9
$DIMLFAC
 40
1.0
  9
$DIMTOFL
 70
     0
  9
$DIMTVP
 40
0.0
  9
$DIMTIX
 70
     1
  9
$DIMSOXD
 70
     0
  9
$DIMSAH
 70
     0
  9
$DIMBLK1
  1

  9
$DIMBLK2
  1

  9
$DIMSTYLE
  2
STANDARD
  9
$DIMCLRD
 70
     0
  9
$DIMCLRE
 70
     0
  9
$DIMCLRT
 70
     0
  9
$DIMTFAC
 40
1.0
  9
$DIMGAP
 40
0.09
  9
$LUNITS
 70
     2
  9
$LUPREC
 70
     4
  9
$SKETCHINC
 40
0.1
  9
$FILLETRAD
 40
0.0
  9
$AUNITS
 70
     0
  9
$AUPREC
 70
     0
  9
$MENU
  1
acad
  9
$ELEVATION
 40
0.0
  9
$PELEVATION
 40
0.0
  9
$THICKNESS
 40
0.0
  9
$LIMCHECK
 70
     0
  9
$BLIPMODE
 70
     0
  9
$CHAMFERA
 40
0.04
  9
$CHAMFERB
 40
0.04
  9
$SKPOLY
 70
     0
  9
$TDCREATE
 40
2450519.399505
  9
$TDUPDATE
 40
2451655.644608
  9
$TDINDWG
 40
0.296123
  9
$TDUSRTIMER
 40
0.296123
  9
$USRTIMER
 70
     1
  9
$ANGBASE
 50
0.0
  9
$ANGDIR
 70
     0
  9
$PDMODE
 70
     0
  9
$PDSIZE
 40
0.0
  9
$PLINEWID
 40
0.025
  9
$COORDS
 70
     2
  9
$SPLFRAME
 70
     0
  9
$SPLINETYPE
 70
     6
  9
$SPLINESEGS
 70
     8
  9
$ATTDIA
 70
     0
  9
$ATTREQ
 70
     1
  9
$HANDLING
 70
     1
  9
$HANDSEED
  5
1C34
  9
$SURFTAB1
 70
     6
  9
$SURFTAB2
 70
     6
  9
$SURFTYPE
 70
     6
  9
$SURFU
 70
     6
  9
$SURFV
 70
     6
  9
$UCSNAME
  2

  9
$UCSORG
 10
0.0
 20
0.0
 30
0.0
  9
$UCSXDIR
 10
1.0
 20
0.0
 30
0.0
  9
$UCSYDIR
 10
0.0
 20
1.0
 30
0.0
  9
$PUCSNAME
  2

  9
$PUCSORG
 10
0.0
 20
0.0
 30
0.0
  9
$PUCSXDIR
 10
1.0
 20
0.0
 30
0.0
  9
$PUCSYDIR
 10
0.0
 20
1.0
 30
0.0
  9
$USERI1
 70
     0
  9
$USERI2
 70
     0
  9
$USERI3
 70
     0
  9
$USERI4
 70
     0
  9
$USERI5
 70
     0
  9
$USERR1
 40
0.0
  9
$USERR2
 40
0.0
  9
$USERR3
 40
0.0
  9
$USERR4
 40
0.0
  9
$USERR5
 40
0.0
  9
$WORLDVIEW
 70
     1
  9
$SHADEDGE
 70
     3
  9
$SHADEDIF
 70
    70
  9
$TILEMODE
 70
     1
  9
$MAXACTVP
 70
    16
  9
$PLIMCHECK
 70
     0
  9
$PEXTMIN
 10
1.000000E+020
 20
1.000000E+020
 30
1.000000E+020
  9
$PEXTMAX
 10
-1.000000E+020
 20
-1.000000E+020
 30
-1.000000E+020
  9
$PLIMMIN
 10
0.0
 20
0.0
  9
$PLIMMAX
 10
12.0
 20
9.0
  9
$UNITMODE
 70
     0
  9
$VISRETAIN
 70
     0
  9
$PLINEGEN
 70
     0
  9
$PSLTSCALE
 70
     0
  0
ENDSEC
  0
SECTION
  2
TABLES
  0
TABLE
  2
VPORT
 70
     4
  0
VPORT
  2
*ACTIVE
 70
     0
 10
0.0
 20
0.0
 11
1.0
 21
1.0
 12
11.811702
 22
1.661182
 13
0.0
 23
0.0
 14
1.0
 24
1.0
 15
0.0
 25
0.0
 16
0.0
 26
0.0
 36
1.0
 17
0.0
 27
0.0
 37
0.0
 40
16.121327
 41
1.772059
 42
50.0
 43
0.0
 44
0.0
 50
0.0
 51
0.0
 71
     0
 72
   100
 73
     1
 74
     0
 75
     0
 76
     0
 77
     0
 78
     0
  0
ENDTAB
  0
TABLE
  2
LTYPE
 70
     1
  0
LTYPE
  2
CONTINUOUS
 70
     0
  3
Solid line
 72
    65
 73
     0
 40
0.0
  0
ENDTAB
  0
TABLE
  2
LAYER
 70
     4
  0
LAYER
  2
0
 70
     0
 62
     7
  6
CONTINUOUS
  0
LAYER
  2
ASSEMBLY
 70
     0
 62
     2
  6
CONTINUOUS
  0
LAYER
  2
DEFPOINTS
 70
     0
 62
     7
  6
CONTINUOUS
  0
LAYER
  2
6
 70
     0
 62
     6
  6
CONTINUOUS
  0
ENDTAB
  0
TABLE
  2
STYLE
 70
     2
  0
STYLE
  2
STANDARD
 70
     0
 40
0.0
 41
1.0
 50
0.0
 71
     0
 42
0.2
  3
txt
  4

  0
STYLE
  2
ROMANS
 70
     0
 40
0.1
 41
1.0
 50
0.0
 71
     0
 42
0.1
  3
romans
  4

  0
ENDTAB
  0
TABLE
  2
VIEW
 70
     2
  0
VIEW
  2
BD
 70
     0
 40
4.70948
 10
2.660333
 20
0.875745
 41
5.895046
 11
0.0
 21
0.0
 31
1.0
 12
0.0
 22
0.0
 32
0.0
 42
50.0
 43
0.0
 44
0.0
 50
0.0
 71
     0
  0
VIEW
  2
ASS
 70
     0
 40
10.16106
 10
7.142281
 20
-0.394388
 41
16.172124
 11
0.0
 21
0.0
 31
1.0
 12
0.0
 22
0.0
 32
0.0
 42
50.0
 43
0.0
 44
0.0
 50
0.0
 71
     0
  0
ENDTAB
  0
TABLE
  2
UCS
 70
     0
  0
ENDTAB
  0
TABLE
  2
APPID
 70
     1
  0
APPID
  2
ACAD
 70
     0
  0
ENDTAB
  0
TABLE
  2
DIMSTYLE
 70
     1
  0
DIMSTYLE
  2
STANDARD
 70
     0
  3

  4

  5

  6

  7

 40
1.0
 41
0.18
 42
0.0625
 43
0.38
 44
0.18
 45
0.0
 46
0.0
 47
0.0
 48
0.0
140
0.18
141
0.09
142
0.0
143
25.4
144
1.0
145
0.0
146
1.0
147
0.09
 71
     0
 72
     0
 73
     1
 74
     1
 75
     0
 76
     0
 77
     0
 78
     0
170
     0
171
     2
172
     0
173
     0
174
     0
175
     0
176
     0
177
     0
178
     0
  0
ENDTAB
  0
ENDSEC
  0
SECTION
  2
BLOCKS
  0
BLOCK
  8
0
  2
$MODEL_SPACE
 70
     0
 10
0.0
 20
0.0
 30
0.0
  3
$MODEL_SPACE
  1

  0
ENDBLK
  5
3F
  8
0
  0
BLOCK
 67
     1
  8
0
  2
$PAPER_SPACE
 70
     0
 10
0.0
 20
0.0
 30
0.0
  3
$PAPER_SPACE
  1

  0
ENDBLK
  5
3D
 67
     1
  8
0
  0
BLOCK
  8
0
  2
*D0
 70
     1
 10
0.0
 20
0.0
 30
0.0
  3
*D0
  1

  0
LINE
  5
183F
  8
0
  6
BYBLOCK
 62
     0
 10
5.269199
 20
-0.383206
 30
0.0
 11
5.269199
 21
-0.71651
 31
0.0
  0
LINE
  5
1840
  8
0
  6
BYBLOCK
 62
     0
 10
-0.029931
 20
-0.383206
 30
0.0
 11
-0.029931
 21
-0.71651
 31
0.0
  0
LINE
  5
1841
  8
0
  6
BYBLOCK
 62
     0
 10
5.169199
 20
-0.61651
 30
0.0
 11
3.021539
 21
-0.61651
 31
0.0
  0
LINE
  5
1842
  8
0
  6
BYBLOCK
 62
     0
 10
0.070069
 20
-0.61651
 30
0.0
 11
2.217729
 21
-0.61651
 31
0.0
  0
SOLID
  5
1843
  8
0
  6
BYBLOCK
 62
     0
 10
5.169199
 20
-0.599843
 30
0.0
 11
5.169199
 21
-0.633176
 31
0.0
 12
5.269199
 22
-0.61651
 32
0.0
 13
5.269199
 23
-0.61651
 33
0.0
  0
SOLID
  5
1844
  8
0
  6
BYBLOCK
 62
     0
 10
0.070069
 20
-0.599843
 30
0.0
 11
0.070069
 21
-0.633176
 31
0.0
 12
-0.029931
 22
-0.61651
 32
0.0
 13
-0.029931
 23
-0.61651
 33
0.0
  0
TEXT
  8
0
  40
0.1
  5
1C31
  62
0
  72
0
  71
0
 10
2.41963
 20
-0.793510
 30
0.000000
  1
5.3(135)
  7
ROMANS
  0
POINT
  5
1847
  8
DEFPOINTS
  6
BYBLOCK
 62
     0
 10
5.269199
 20
-0.320706
 30
0.0
  0
POINT
  5
1848
  8
DEFPOINTS
  6
BYBLOCK
 62
     0
 10
-0.029931
 20
-0.320706
 30
0.0
  0
POINT
  5
1849
  8
DEFPOINTS
  6
BYBLOCK
 62
     0
 10
-0.029931
 20
-0.61651
 30
0.0
  0
ENDBLK
  5
184A
  8
0
  0
BLOCK
  8
0
  2
*D1
 70
     1
 10
0.0
 20
0.0
 30
0.0
  3
*D1
  1

  0
LINE
  5
184E
  8
0
  6
BYBLOCK
 62
     0
 10
5.420512
 20
-0.084062
 30
0.0
 11
5.724448
 21
-0.084062
 31
0.0
  0
LINE
  5
184F
  8
0
  6
BYBLOCK
 62
     0
 10
5.420512
 20
2.962721
 30
0.0
 11
5.724448
 21
2.962721
 31
0.0
  0
LINE
  5
1850
  8
0
  6
BYBLOCK
 62
     0
 10
5.624448
 20
0.015938
 30
0.0
 11
5.624448
 21
1.273139
 31
0.0
  0
LINE
  5
1851
  8
0
  6
BYBLOCK
 62
     0
 10
5.624448
 20
2.862721
 30
0.0
 11
5.624448
 21
1.60552
 31
0.0
  0
SOLID
  5
1852
  8
0
  6
BYBLOCK
 62
     0
 10
5.607782
 20
0.015938
 30
0.0
 11
5.641115
 21
0.015938
 31
0.0
 12
5.624448
 22
-0.084062
 32
0.0
 13
5.624448
 23
-0.084062
 33
0.0
  0
SOLID
  5
1853
  8
0
  6
BYBLOCK
 62
     0
 10
5.607782
 20
2.862721
 30
0.0
 11
5.641115
 21
2.862721
 31
0.0
 12
5.624448
 22
2.962721
 32
0.0
 13
5.624448
 23
2.962721
 33
0.0
  0
TEXT
  8
0
  40
0.1
  5
1C32
  62
0
  72
0
  71
0
 10
5.42445
 20
1.26233
 30
0.000000
  1
3.0(77)
  7
ROMANS
  0
POINT
  5
1855
  8
DEFPOINTS
  6
BYBLOCK
 62
     0
 10
5.358012
 20
-0.084062
 30
0.0
  0
POINT
  5
1856
  8
DEFPOINTS
  6
BYBLOCK
 62
     0
 10
5.358012
 20
2.962721
 30
0.0
  0
POINT
  5
1857
  8
DEFPOINTS
  6
BYBLOCK
 62
     0
 10
5.624448
 20
2.962721
 30
0.0
  0
ENDBLK
  5
1858
  8
0
  0
BLOCK
  8
0
  2
RAIL
 70
     0
 10
0.0
 20
0.0
 30
0.0
  3
RAIL
  1

  0
TRACE
  5
185B
  8
6
 10
0.306922
 20
-0.347359
 30
0.0
 11
0.306922
 21
-0.387359
 31
0.0
 12
1.226922
 22
-0.347359
 32
0.0
 13
1.226922
 23
-0.387359
 33
0.0
  0
POLYLINE
  5
185C
  8
6
 66
     1
 10
0.0
 20
0.0
 30
0.0
 40
0.04
 41
0.04
  0
VERTEX
  5
1C24
  8
6
 10
0.255422
 20
-0.163559
 30
0.0
 42
0.414214
  0
VERTEX
  5
1C25
  8
6
 10
0.203922
 20
-0.112059
 30
0.0
 42
1.0
  0
SEQEND
  5
1C26
  8
6
  0
TRACE
  5
185D
  8
6
 10
0.077922
 20
-0.092059
 30
0.0
 11
0.077922
 21
-0.132059
 31
0.0
 12
0.203922
 22
-0.092059
 32
0.0
 13
0.203922
 23
-0.132059
 33
0.0
  0
TRACE
  5
185E
  8
6
 10
0.275422
 20
-0.163559
 30
0.0
 11
0.235422
 21
-0.163559
 31
0.0
 12
0.275422
 22
-0.315859
 32
0.0
 13
0.235422
 23
-0.315859
 33
0.0
  0
POLYLINE
  5
185F
  8
6
 66
     1
 10
0.0
 20
0.0
 30
0.0
 40
0.04
 41
0.04
  0
VERTEX
  5
1C27
  8
6
 10
0.255422
 20
-0.315859
 30
0.0
 42
0.414214
  0
VERTEX
  5
1C28
  8
6
 10
0.306922
 20
-0.367359
 30
0.0
 42
1.0
  0
SEQEND
  5
1C29
  8
6
  0
TRACE
  5
1860
  8
6
 10
1.455922
 20
-0.092059
 30
0.0
 11
1.455922
 21
-0.132059
 31
0.0
 12
1.329922
 22
-0.092059
 32
0.0
 13
1.329922
 23
-0.132059
 33
0.0
  0
TRACE
  5
1861
  8
6
 10
1.258422
 20
-0.163559
 30
0.0
 11
1.298422
 21
-0.163559
 31
0.0
 12
1.258422
 22
-0.315859
 32
0.0
 13
1.298422
 23
-0.315859
 33
0.0
  0
POLYLINE
  5
1862
  8
6
 66
     1
 10
0.0
 20
0.0
 30
0.0
 40
0.04
 41
0.04
  0
VERTEX
  5
1C2A
  8
6
 10
1.278422
 20
-0.315859
 30
0.0
 42
-0.414214
  0
VERTEX
  5
1C2B
  8
6
 10
1.226922
 20
-0.367359
 30
0.0
 42
-1.0
  0
SEQEND
  5
1C2C
  8
6
  0
POLYLINE
  5
1863
  8
6
 66
     1
 10
0.0
 20
0.0
 30
0.0
 40
0.04
 41
0.04
  0
VERTEX
  5
1C2D
  8
6
 10
1.278422
 20
-0.163559
 30
0.0
 42
-0.414214
  0
VERTEX
  5
1C2E
  8
6
 10
1.329922
 20
-0.112059
 30
0.0
 42
-1.0
  0
SEQEND
  5
1C2F
  8
6
  0
ENDBLK
  5
1865
  8
0
  0
BLOCK
  8
0
  2
*D3
 70
     1
 10
0.0
 20
0.0
 30
0.0
  3
*D3
  1

  0
LINE
  5
186B
  8
0
  6
BYBLOCK
 62
     0
 10
5.9244
 20
0.582799
 30
0.0
 11
5.9244
 21
-0.540764
 31
0.0
  0
LINE
  5
186C
  8
0
  6
BYBLOCK
 62
     0
 10
8.293161
 20
0.792521
 30
0.0
 11
8.293161
 21
-0.540764
 31
0.0
  0
LINE
  5
186D
  8
0
  6
BYBLOCK
 62
     0
 10
6.0244
 20
-0.440764
 30
0.0
 11
6.683067
 21
-0.440764
 31
0.0
  0
LINE
  5
186E
  8
0
  6
BYBLOCK
 62
     0
 10
8.193161
 20
-0.440764
 30
0.0
 11
7.534495
 21
-0.440764
 31
0.0
  0
SOLID
  5
186F
  8
0
  6
BYBLOCK
 62
     0
 10
6.0244
 20
-0.424097
 30
0.0
 11
6.0244
 21
-0.457431
 31
0.0
 12
5.9244
 22
-0.440764
 32
0.0
 13
5.9244
 23
-0.440764
 33
0.0
  0
SOLID
  5
1870
  8
0
  6
BYBLOCK
 62
     0
 10
8.193161
 20
-0.424097
 30
0.0
 11
8.193161
 21
-0.457431
 31
0.0
 12
8.293161
 22
-0.440764
 32
0.0
 13
8.293161
 23
-0.440764
 33
0.0
  0
TEXT
  8
0
  40
0.1
  5
1C33
  62
0
  72
0
  71
0
 10
6.90878
 20
-0.617764
 30
0.000000
  1
2.3(58.5)
  7
ROMANS
  0
POINT
  5
1872
  8
DEFPOINTS
  6
BYBLOCK
 62
     0
 10
5.9244
 20
0.645299
 30
0.0
  0
POINT
  5
1873
  8
DEFPOINTS
  6
BYBLOCK
 62
     0
 10
8.293161
 20
0.855021
 30
0.0
  0
POINT
  5
1874
  8
DEFPOINTS
  6
BYBLOCK
 62
     0
 10
8.293161
 20
-0.440764
 30
0.0
  0
ENDBLK
  5
1875
  8
0
  0
ENDSEC
  0
SECTION
  2
ENTITIES
  0
TEXT
  5
7D4
  8
0
 10
4.655754
 20
-4.892388
 30
0.0
 40
0.1
  1
 
  7
ROMANS
  0
TEXT
  5
7EB
  8
0
 10
5.872494
 20
-4.51464
 30
0.0
 40
0.1
  1
MILLIMETERS IN PARENTHESES
  7
ROMANS
  0
TEXT
  5
856
  8
ASSEMBLY
 10
5.543662
 20
-5.027842
 30
0.0
 40
0.1
  1
5528370
  7
ROMANS
  0
TEXT
  5
861
  8
ASSEMBLY
 10
5.887466
 20
-4.295295
 30
0.0
 40
0.1
  1
DIMENSIONS ARE IN INCHES
  7
ROMANS
  0
TEXT
  5
8BE
  8
0
 10
5.917994
 20
-3.59514
 30
0.0
 40
0.1
  1
 
  7
ROMANS
  0
TEXT
  5
8BF
  8
0
 10
5.887466
 20
-3.974976
 30
0.0
 40
0.1
  1
44/F
  7
ROMANS
  0
TEXT
  5
8C0
  8
0
 10
12.488923
 20
-3.500918
 30
0.0
 40
0.1
  1

  7
ROMANS
  0
TEXT
  5
8C1
  8
0
 10
5.887466
 20
-3.816562
 30
0.0
 40
0.1
  1
FLKM HDSUB
  7
ROMANS
  0
CIRCLE
  5
92A
  8
ASSEMBLY
 10
3.534
 20
2.053
 30
0.0
 40
0.0625
  0
POLYLINE
  5
92C
  8
ASSEMBLY
 66
     1
 10
0.0
 20
0.0
 30
0.0
 70
     1
  0
VERTEX
  5
1878
  8
ASSEMBLY
 10
3.589
 20
2.148
 30
0.0
  0
VERTEX
  5
1879
  8
ASSEMBLY
 10
3.63975
 20
2.053
 30
0.0
  0
VERTEX
  5
187A
  8
ASSEMBLY
 10
3.589
 20
1.958
 30
0.0
  0
VERTEX
  5
187B
  8
ASSEMBLY
 10
3.479
 20
1.958
 30
0.0
  0
VERTEX
  5
187C
  8
ASSEMBLY
 10
3.42825
 20
2.053
 30
0.0
  0
VERTEX
  5
187D
  8
ASSEMBLY
 10
3.479
 20
2.148
 30
0.0
  0
SEQEND
  5
187E
  8
ASSEMBLY
  0
POLYLINE
  5
934
  8
ASSEMBLY
 66
     1
 10
0.0
 20
0.0
 30
0.0
 70
     1
  0
VERTEX
  5
187F
  8
ASSEMBLY
 10
3.6205
 20
2.303
 30
0.0
 42
-0.414214
  0
VERTEX
  5
1880
  8
ASSEMBLY
 10
3.6505
 20
2.273
 30
0.0
  0
VERTEX
  5
1881
  8
ASSEMBLY
 10
3.6505
 20
1.833
 30
0.0
 42
-0.414214
  0
VERTEX
  5
1882
  8
ASSEMBLY
 10
3.6205
 20
1.803
 30
0.0
  0
VERTEX
  5
1883
  8
ASSEMBLY
 10
1.5955
 20
1.803
 30
0.0
 42
-0.414214
  0
VERTEX
  5
1884
  8
ASSEMBLY
 10
1.5655
 20
1.833
 30
0.0
  0
VERTEX
  5
1885
  8
ASSEMBLY
 10
1.5655
 20
2.273
 30
0.0
 42
-0.414214
  0
VERTEX
  5
1886
  8
ASSEMBLY
 10
1.5955
 20
2.303
 30
0.0
  0
SEQEND
  5
1887
  8
ASSEMBLY
  0
CIRCLE
  5
B10
  8
ASSEMBLY
 10
2.2705
 20
2.131
 30
0.0
 40
0.0175
  0
CIRCLE
  5
B13
  8
ASSEMBLY
 10
2.2705
 20
1.975
 30
0.0
 40
0.0175
  0
CIRCLE
  5
B14
  8
ASSEMBLY
 10
2.2255
 20
2.053
 30
0.0
 40
0.0175
  0
CIRCLE
  5
B17
  8
ASSEMBLY
 10
2.9005
 20
1.975
 30
0.0
 40
0.0175
  0
CIRCLE
  5
B19
  8
ASSEMBLY
 10
2.9005
 20
2.131
 30
0.0
 40
0.0175
  0
CIRCLE
  5
B1A
  8
ASSEMBLY
 10
2.9455
 20
2.053
 30
0.0
 40
0.0175
  0
CIRCLE
  5
B1C
  8
ASSEMBLY
 10
2.8555
 20
2.053
 30
0.0
 40
0.0175
  0
CIRCLE
  5
B1E
  8
ASSEMBLY
 10
2.8105
 20
2.131
 30
0.0
 40
0.0175
  0
CIRCLE
  5
B21
  8
ASSEMBLY
 10
2.8105
 20
1.975
 30
0.0
 40
0.0175
  0
CIRCLE
  5
B22
  8
ASSEMBLY
 10
2.7655
 20
2.053
 30
0.0
 40
0.0175
  0
CIRCLE
  5
B24
  8
ASSEMBLY
 10
2.7205
 20
2.131
 30
0.0
 40
0.0175
  0
CIRCLE
  5
B27
  8
ASSEMBLY
 10
2.7205
 20
1.975
 30
0.0
 40
0.0175
  0
CIRCLE
  5
B28
  8
ASSEMBLY
 10
2.6755
 20
2.053
 30
0.0
 40
0.0175
  0
CIRCLE
  5
B2A
  8
ASSEMBLY
 10
2.6305
 20
2.131
 30
0.0
 40
0.0175
  0
CIRCLE
  5
B2D
  8
ASSEMBLY
 10
2.6305
 20
1.975
 30
0.0
 40
0.0175
  0
CIRCLE
  5
B2E
  8
ASSEMBLY
 10
2.5855
 20
2.053
 30
0.0
 40
0.0175
  0
CIRCLE
  5
B30
  8
ASSEMBLY
 10
2.5405
 20
2.131
 30
0.0
 40
0.0175
  0
CIRCLE
  5
B33
  8
ASSEMBLY
 10
2.5405
 20
1.975
 30
0.0
 40
0.0175
  0
CIRCLE
  5
B34
  8
ASSEMBLY
 10
2.4955
 20
2.053
 30
0.0
 40
0.0175
  0
CIRCLE
  5
B36
  8
ASSEMBLY
 10
2.4505
 20
2.131
 30
0.0
 40
0.0175
  0
CIRCLE
  5
B39
  8
ASSEMBLY
 10
2.4505
 20
1.975
 30
0.0
 40
0.0175
  0
CIRCLE
  5
B3A
  8
ASSEMBLY
 10
2.4055
 20
2.053
 30
0.0
 40
0.0175
  0
CIRCLE
  5
B3C
  8
ASSEMBLY
 10
2.3605
 20
2.131
 30
0.0
 40
0.0175
  0
CIRCLE
  5
B3F
  8
ASSEMBLY
 10
2.3605
 20
1.975
 30
0.0
 40
0.0175
  0
CIRCLE
  5
B40
  8
ASSEMBLY
 10
1.682
 20
2.053
 30
0.0
 40
0.0625
  0
POLYLINE
  5
B42
  8
ASSEMBLY
 66
     1
 10
0.0
 20
0.0
 30
0.0
 70
     1
  0
VERTEX
  5
1888
  8
ASSEMBLY
 10
1.737
 20
2.148
 30
0.0
  0
VERTEX
  5
1889
  8
ASSEMBLY
 10
1.78775
 20
2.053
 30
0.0
  0
VERTEX
  5
188A
  8
ASSEMBLY
 10
1.737
 20
1.958
 30
0.0
  0
VERTEX
  5
188B
  8
ASSEMBLY
 10
1.627
 20
1.958
 30
0.0
  0
VERTEX
  5
188C
  8
ASSEMBLY
 10
1.57625
 20
2.053
 30
0.0
  0
VERTEX
  5
188D
  8
ASSEMBLY
 10
1.627
 20
2.148
 30
0.0
  0
SEQEND
  5
188E
  8
ASSEMBLY
  0
POLYLINE
  5
B4A
  8
ASSEMBLY
 66
     1
 10
0.0
 20
0.0
 30
0.0
 70
     1
  0
VERTEX
  5
188F
  8
ASSEMBLY
 10
1.840313
 20
1.888
 30
0.0
  0
VERTEX
  5
1890
  8
ASSEMBLY
 10
3.375687
 20
1.888
 30
0.0
 42
0.473267
  0
VERTEX
  5
1891
  8
ASSEMBLY
 10
3.405105
 20
1.923882
 30
0.0
  0
VERTEX
  5
1892
  8
ASSEMBLY
 10
3.32393
 20
2.193882
 30
0.0
 42
0.357528
  0
VERTEX
  5
1893
  8
ASSEMBLY
 10
3.294512
 20
2.218
 30
0.0
  0
VERTEX
  5
1894
  8
ASSEMBLY
 10
1.921488
 20
2.218
 30
0.0
 42
0.357528
  0
VERTEX
  5
1895
  8
ASSEMBLY
 10
1.89207
 20
2.193882
 30
0.0
  0
VERTEX
  5
1896
  8
ASSEMBLY
 10
1.810895
 20
1.923882
 30
0.0
 42
0.473267
  0
SEQEND
  5
1897
  8
ASSEMBLY
  0
CIRCLE
  5
B54
  8
ASSEMBLY
 10
2.3155
 20
2.053
 30
0.0
 40
0.0175
  0
LINE
  5
B57
  8
ASSEMBLY
 10
6.698093
 20
2.14705
 30
0.0
 11
6.698093
 21
2.189525
 31
0.0
  0
ARC
  5
B58
  8
ASSEMBLY
 10
6.867731
 20
1.969808
 30
0.0
 40
0.01
 50
270.0
 51
0.0
  0
ARC
  5
B59
  8
ASSEMBLY
 10
6.867731
 20
2.137259
 30
0.0
 40
0.01
 50
0.0
 51
90.0
  0
ARC
  5
B5A
  8
ASSEMBLY
 10
6.762944
 20
2.100397
 30
0.0
 40
0.114806
 50
335.908754
 51
24.091246
  0
ARC
  5
B5B
  8
ASSEMBLY
 10
6.762909
 20
2.006671
 30
0.0
 40
0.114806
 50
335.908754
 51
24.091246
  0
ARC
  5
B5C
  8
ASSEMBLY
 10
6.700129
 20
2.137259
 30
0.0
 40
0.01
 50
90.0
 51
180.0
  0
ARC
  5
B5D
  8
ASSEMBLY
 10
6.700129
 20
1.969808
 30
0.0
 40
0.01
 50
180.0
 51
270.0
  0
ARC
  5
B5E
  8
ASSEMBLY
 10
6.804935
 20
2.100397
 30
0.0
 40
0.114806
 50
155.908754
 51
204.091246
  0
ARC
  5
B5F
  8
ASSEMBLY
 10
6.804935
 20
2.006671
 30
0.0
 40
0.114806
 50
155.908754
 51
204.091246
  0
LINE
  5
B60
  8
ASSEMBLY
 10
6.690129
 20
2.053534
 30
0.0
 11
6.690129
 21
2.137259
 31
0.0
  0
LINE
  5
B61
  8
ASSEMBLY
 10
7.161121
 20
2.029525
 30
0.0
 11
7.126093
 21
2.029525
 31
0.0
  0
LINE
  5
B62
  8
ASSEMBLY
 10
7.161121
 20
2.079525
 30
0.0
 11
7.126093
 21
2.079525
 31
0.0
  0
LINE
  5
B63
  8
ASSEMBLY
 10
6.905142
 20
1.948698
 30
0.0
 11
6.905142
 21
2.158559
 31
0.0
  0
ARC
  5
B64
  8
ASSEMBLY
 10
7.126093
 20
1.939525
 30
0.0
 40
0.02
 50
270.0
 51
0.0
  0
ARC
  5
B65
  8
ASSEMBLY
 10
7.126093
 20
2.169525
 30
0.0
 40
0.02
 50
0.0
 51
90.0
  0
LINE
  5
B66
  8
ASSEMBLY
 10
7.126093
 20
1.919525
 30
0.0
 11
7.096093
 21
1.919525
 31
0.0
  0
LINE
  5
B67
  8
ASSEMBLY
 10
7.126093
 20
2.189525
 30
0.0
 11
7.096093
 21
2.189525
 31
0.0
  0
ARC
  5
B68
  8
ASSEMBLY
 10
6.718093
 20
1.919525
 30
0.0
 40
0.02
 50
180.0
 51
270.0
  0
ARC
  5
B69
  8
ASSEMBLY
 10
6.718093
 20
2.189525
 30
0.0
 40
0.02
 50
90.0
 51
180.0
  0
ARC
  5
B6A
  8
ASSEMBLY
 10
6.896093
 20
2.229525
 30
0.0
 40
0.02
 50
270.0
 51
0.0
  0
ARC
  5
B6B
  8
ASSEMBLY
 10
6.896093
 20
1.879525
 30
0.0
 40
0.02
 50
0.0
 51
90.0
  0
ARC
  5
B6C
  8
ASSEMBLY
 10
7.076093
 20
1.859525
 30
0.0
 40
0.02
 50
270.0
 51
0.0
  0
ARC
  5
B6D
  8
ASSEMBLY
 10
7.076093
 20
2.249525
 30
0.0
 40
0.02
 50
360.0
 51
90.0
  0
LINE
  5
B6E
  8
ASSEMBLY
 10
6.956093
 20
1.999525
 30
0.0
 11
7.161121
 21
1.999525
 31
0.0
  0
LINE
  5
B6F
  8
ASSEMBLY
 10
6.956093
 20
2.109525
 30
0.0
 11
7.161121
 21
2.109525
 31
0.0
  0
LINE
  5
B70
  8
ASSEMBLY
 10
7.126093
 20
2.079525
 30
0.0
 11
7.126093
 21
2.029525
 31
0.0
  0
LINE
  5
B71
  8
ASSEMBLY
 10
6.906093
 20
1.964525
 30
0.0
 11
6.916093
 21
1.964525
 31
0.0
  0
LINE
  5
B72
  8
ASSEMBLY
 10
6.906093
 20
2.144525
 30
0.0
 11
6.916093
 21
2.144525
 31
0.0
  0
LINE
  5
B73
  8
ASSEMBLY
 10
6.906093
 20
2.144525
 30
0.0
 11
6.906093
 21
1.964525
 31
0.0
  0
LINE
  5
B74
  8
ASSEMBLY
 10
7.096093
 20
1.961025
 30
0.0
 11
7.096093
 21
1.859525
 31
0.0
  0
LINE
  5
B75
  8
ASSEMBLY
 10
6.956093
 20
1.961025
 30
0.0
 11
7.161121
 21
1.961025
 31
0.0
  0
LINE
  5
B76
  8
ASSEMBLY
 10
6.956093
 20
2.148025
 30
0.0
 11
7.161121
 21
2.148025
 31
0.0
  0
LINE
  5
B77
  8
ASSEMBLY
 10
7.096093
 20
2.249525
 30
0.0
 11
7.096093
 21
2.148025
 31
0.0
  0
LINE
  5
B78
  8
ASSEMBLY
 10
7.076093
 20
1.839525
 30
0.0
 11
6.956093
 21
1.839525
 31
0.0
  0
LINE
  5
B79
  8
ASSEMBLY
 10
6.956093
 20
2.269525
 30
0.0
 11
7.076093
 21
2.269525
 31
0.0
  0
LINE
  5
B7A
  8
ASSEMBLY
 10
6.956093
 20
1.804525
 30
0.0
 11
6.916093
 21
1.804525
 31
0.0
  0
LINE
  5
B7B
  8
ASSEMBLY
 10
6.916093
 20
2.304525
 30
0.0
 11
6.956093
 21
2.304525
 31
0.0
  0
LINE
  5
B7C
  8
ASSEMBLY
 10
6.956093
 20
2.304525
 30
0.0
 11
6.956093
 21
1.804525
 31
0.0
  0
LINE
  5
B7D
  8
ASSEMBLY
 10
6.896093
 20
1.899525
 30
0.0
 11
6.718093
 21
1.899525
 31
0.0
  0
LINE
  5
B7E
  8
ASSEMBLY
 10
6.916093
 20
2.304525
 30
0.0
 11
6.916093
 21
1.804525
 31
0.0
  0
LINE
  5
B7F
  8
ASSEMBLY
 10
6.718093
 20
2.209525
 30
0.0
 11
6.896093
 21
2.209525
 31
0.0
  0
LINE
  5
B80
  8
ASSEMBLY
 10
6.698093
 20
1.919525
 30
0.0
 11
6.698093
 21
1.960018
 31
0.0
  0
LINE
  5
B81
  8
ASSEMBLY
 10
6.877731
 20
1.969808
 30
0.0
 11
6.877731
 21
2.137259
 31
0.0
  0
LINE
  5
B82
  8
ASSEMBLY
 10
6.878642
 20
2.158559
 30
0.0
 11
6.905142
 21
2.158559
 31
0.0
  0
LINE
  5
B83
  8
ASSEMBLY
 10
6.905142
 20
1.948698
 30
0.0
 11
6.878642
 21
1.948698
 31
0.0
  0
LINE
  5
B84
  8
ASSEMBLY
 10
6.878642
 20
1.948698
 30
0.0
 11
6.878642
 21
2.158559
 31
0.0
  0
LINE
  5
B85
  8
ASSEMBLY
 10
6.867731
 20
1.959808
 30
0.0
 11
6.700129
 21
1.959808
 31
0.0
  0
LINE
  5
B86
  8
ASSEMBLY
 10
6.690129
 20
1.969808
 30
0.0
 11
6.690129
 21
2.053534
 31
0.0
  0
LINE
  5
B87
  8
ASSEMBLY
 10
6.700129
 20
2.147259
 30
0.0
 11
6.867731
 21
2.147259
 31
0.0
  0
LINE
  5
B88
  8
ASSEMBLY
 10
6.690129
 20
2.053534
 30
0.0
 11
6.878161
 21
2.053534
 31
0.0
  0
POLYLINE
  5
BEB
  8
ASSEMBLY
 66
     1
 10
0.0
 20
0.0
 30
0.0
  0
VERTEX
  5
1898
  8
ASSEMBLY
 10
7.161121
 20
0.66885
 30
0.0
  0
VERTEX
  5
1899
  8
ASSEMBLY
 10
7.12159
 20
0.678998
 30
0.0
  0
VERTEX
  5
189A
  8
ASSEMBLY
 10
6.685121
 20
0.678998
 30
0.0
  0
VERTEX
  5
189B
  8
ASSEMBLY
 10
6.685121
 20
0.698998
 30
0.0
  0
VERTEX
  5
189C
  8
ASSEMBLY
 10
7.12159
 20
0.698998
 30
0.0
  0
VERTEX
  5
189D
  8
ASSEMBLY
 10
7.161121
 20
0.708561
 30
0.0
  0
SEQEND
  5
189E
  8
ASSEMBLY
  0
POLYLINE
  5
BF3
  8
ASSEMBLY
 66
     1
 10
0.0
 20
0.0
 30
0.0
  0
VERTEX
  5
189F
  8
ASSEMBLY
 10
7.161121
 20
0.23555
 30
0.0
  0
VERTEX
  5
18A0
  8
ASSEMBLY
 10
7.12159
 20
0.245699
 30
0.0
  0
VERTEX
  5
18A1
  8
ASSEMBLY
 10
6.685121
 20
0.245699
 30
0.0
  0
VERTEX
  5
18A2
  8
ASSEMBLY
 10
6.685121
 20
0.265699
 30
0.0
  0
VERTEX
  5
18A3
  8
ASSEMBLY
 10
7.12159
 20
0.265699
 30
0.0
  0
VERTEX
  5
18A4
  8
ASSEMBLY
 10
7.161121
 20
0.275262
 30
0.0
  0
SEQEND
  5
18A5
  8
ASSEMBLY
  0
LINE
  5
BFB
  8
ASSEMBLY
 10
7.161121
 20
0.619024
 30
0.0
 11
6.508174
 21
0.619024
 31
0.0
  0
POLYLINE
  5
BFC
  8
ASSEMBLY
 66
     1
 10
0.0
 20
0.0
 30
0.0
 70
     1
  0
VERTEX
  5
18A6
  8
ASSEMBLY
 10
6.508174
 20
0.312307
 30
0.0
  0
VERTEX
  5
18A7
  8
ASSEMBLY
 10
6.699245
 20
0.194155
 30
0.0
  0
VERTEX
  5
18A8
  8
ASSEMBLY
 10
6.699245
 20
0.1835
 30
0.0
  0
VERTEX
  5
18A9
  8
ASSEMBLY
 10
7.161121
 20
0.1835
 30
0.0
  0
VERTEX
  5
18AA
  8
ASSEMBLY
 10
7.161121
 20
1.069307
 30
0.0
  0
VERTEX
  5
18AB
  8
ASSEMBLY
 10
6.240998
 20
1.069307
 30
0.0
  0
VERTEX
  5
18AC
  8
ASSEMBLY
 10
6.240998
 20
0.985307
 30
0.0
  0
VERTEX
  5
18AD
  8
ASSEMBLY
 10
5.920998
 20
0.985307
 30
0.0
  0
VERTEX
  5
18AE
  8
ASSEMBLY
 10
5.920998
 20
0.758307
 30
0.0
  0
VERTEX
  5
18AF
  8
ASSEMBLY
 10
5.968998
 20
0.758307
 30
0.0
  0
VERTEX
  5
18B0
  8
ASSEMBLY
 10
6.168659
 20
0.666825
 30
0.0
  0
VERTEX
  5
18B1
  8
ASSEMBLY
 10
6.168659
 20
0.656307
 30
0.0
  0
VERTEX
  5
18B2
  8
ASSEMBLY
 10
6.508174
 20
0.656307
 30
0.0
  0
VERTEX
  5
18B3
  8
ASSEMBLY
 10
6.508174
 20
0.548307
 30
0.0
  0
VERTEX
  5
18B4
  8
ASSEMBLY
 10
6.451584
 20
0.548307
 30
0.0
  0
VERTEX
  5
18B5
  8
ASSEMBLY
 10
6.451584
 20
0.312307
 30
0.0
  0
SEQEND
  5
18B6
  8
ASSEMBLY
  0
LINE
  5
C0E
  8
ASSEMBLY
 10
0.883
 20
0.619024
 30
0.0
 11
0.883
 21
1.069307
 31
0.0
  0
LINE
  5
C0F
  8
ASSEMBLY
 10
0.283
 20
0.619024
 30
0.0
 11
0.283
 21
1.069307
 31
0.0
  0
POLYLINE
  5
C10
  8
ASSEMBLY
 66
     1
 10
0.0
 20
0.0
 30
0.0
  0
VERTEX
  5
18B7
  8
ASSEMBLY
 10
0.428741
 20
-2.224589
 30
0.0
  0
VERTEX
  5
18B8
  8
ASSEMBLY
 10
0.428741
 20
-2.284175
 30
0.0
  0
VERTEX
  5
18B9
  8
ASSEMBLY
 10
0.522243
 20
-2.284175
 30
0.0
  0
VERTEX
  5
18BA
  8
ASSEMBLY
 10
0.522243
 20
-2.224589
 30
0.0
  0
SEQEND
  5
18BB
  8
ASSEMBLY
  0
POLYLINE
  5
C16
  8
ASSEMBLY
 66
     1
 10
0.0
 20
0.0
 30
0.0
 70
     1
  0
VERTEX
  5
18BC
  8
ASSEMBLY
 10
0.39823
 20
-2.224589
 30
0.0
  0
VERTEX
  5
18BD
  8
ASSEMBLY
 10
0.55177
 20
-2.224589
 30
0.0
  0
VERTEX
  5
18BE
  8
ASSEMBLY
 10
0.55177
 20
-2.439297
 30
0.0
  0
VERTEX
  5
18BF
  8
ASSEMBLY
 10
0.39823
 20
-2.439297
 30
0.0
  0
SEQEND
  5
18C0
  8
ASSEMBLY
  0
POLYLINE
  5
C1C
  8
ASSEMBLY
 66
     1
 10
0.0
 20
0.0
 30
0.0
  0
VERTEX
  5
18C1
  8
ASSEMBLY
 10
0.29823
 20
-1.864691
 30
0.0
  0
VERTEX
  5
18C2
  8
ASSEMBLY
 10
0.29823
 20
-1.691106
 30
0.0
  0
VERTEX
  5
18C3
  8
ASSEMBLY
 10
0.45177
 20
-1.691106
 30
0.0
  0
VERTEX
  5
18C4
  8
ASSEMBLY
 10
0.45177
 20
-1.864691
 30
0.0
  0
SEQEND
  5
18C5
  8
ASSEMBLY
  0
POLYLINE
  5
C22
  8
ASSEMBLY
 66
     1
 10
0.0
 20
0.0
 30
0.0
  0
VERTEX
  5
18C6
  8
ASSEMBLY
 10
0.603
 20
0.548307
 30
0.0
  0
VERTEX
  5
18C7
  8
ASSEMBLY
 10
0.603
 20
0.602307
 30
0.0
  0
VERTEX
  5
18C8
  8
ASSEMBLY
 10
0.763
 20
0.602307
 30
0.0
  0
VERTEX
  5
18C9
  8
ASSEMBLY
 10
0.763
 20
0.548307
 30
0.0
  0
SEQEND
  5
18CA
  8
ASSEMBLY
  0
LINE
  5
C28
  8
ASSEMBLY
 10
4.675
 20
-1.382106
 30
0.0
 11
0.075
 21
-1.382106
 31
0.0
  0
LINE
  5
C29
  8
ASSEMBLY
 10
4.775
 20
-1.921281
 30
0.0
 11
0.175
 21
-1.921281
 31
0.0
  0
LINE
  5
C2A
  8
ASSEMBLY
 10
4.775
 20
-2.112352
 30
0.0
 11
0.175
 21
-2.112352
 31
0.0
  0
LINE
  5
C2B
  8
ASSEMBLY
 10
4.775
 20
-1.864691
 30
0.0
 11
0.175
 21
-1.864691
 31
0.0
  0
LINE
  5
C2C
  8
ASSEMBLY
 10
4.675
 20
-1.581766
 30
0.0
 11
0.075
 21
-1.581766
 31
0.0
  0
LINE
  5
C2D
  8
ASSEMBLY
 10
4.675
 20
-1.334106
 30
0.0
 11
0.075
 21
-1.334106
 31
0.0
  0
LINE
  5
C2E
  8
ASSEMBLY
 10
0.627672
 20
0.377193
 30
0.0
 11
0.717115
 21
0.466635
 31
0.0
  0
CIRCLE
  5
C2F
  8
ASSEMBLY
 10
0.683
 20
0.411307
 30
0.0
 40
0.065
  0
CIRCLE
  5
C30
  8
ASSEMBLY
 10
0.683
 20
0.411307
 30
0.0
 40
0.076
  0
LINE
  5
C31
  8
ASSEMBLY
 10
4.983
 20
0.194155
 30
0.0
 11
0.383
 21
0.194155
 31
0.0
  0
LINE
  5
C32
  8
ASSEMBLY
 10
4.883
 20
0.666825
 30
0.0
 11
0.283
 21
0.666825
 31
0.0
  0
LINE
  5
C33
  8
ASSEMBLY
 10
0.383
 20
0.548307
 30
0.0
 11
4.983
 21
0.548307
 31
0.0
  0
LINE
  5
C34
  8
ASSEMBLY
 10
0.283
 20
0.656307
 30
0.0
 11
4.883
 21
0.656307
 31
0.0
  0
LINE
  5
C35
  8
ASSEMBLY
 10
0.383
 20
0.312307
 30
0.0
 11
4.983
 21
0.312307
 31
0.0
  0
LINE
  5
C36
  8
ASSEMBLY
 10
0.383
 20
0.1835
 30
0.0
 11
4.983
 21
0.1835
 31
0.0
  0
LINE
  5
C37
  8
ASSEMBLY
 10
0.42382
 20
-2.224589
 30
0.0
 11
0.42382
 21
-2.438805
 31
0.0
  0
POLYLINE
  5
C38
  8
ASSEMBLY
 66
     1
 10
0.0
 20
0.0
 30
0.0
 70
     1
  0
VERTEX
  5
18CB
  8
ASSEMBLY
 10
0.19823
 20
-2.224589
 30
0.0
  0
VERTEX
  5
18CC
  8
ASSEMBLY
 10
0.35177
 20
-2.224589
 30
0.0
  0
VERTEX
  5
18CD
  8
ASSEMBLY
 10
0.35177
 20
-2.439297
 30
0.0
  0
VERTEX
  5
18CE
  8
ASSEMBLY
 10
0.19823
 20
-2.439297
 30
0.0
  0
SEQEND
  5
18CF
  8
ASSEMBLY
  0
LINE
  5
C3E
  8
ASSEMBLY
 10
0.22382
 20
-2.224589
 30
0.0
 11
0.22382
 21
-2.438805
 31
0.0
  0
LINE
  5
C3F
  8
ASSEMBLY
 10
0.327164
 20
-2.224589
 30
0.0
 11
0.327164
 21
-2.438805
 31
0.0
  0
LINE
  5
C40
  8
ASSEMBLY
 10
0.047
 20
-2.479505
 30
0.0
 11
0.047
 21
-2.098229
 31
0.0
  0
LINE
  5
C41
  8
ASSEMBLY
 10
0.147
 20
-2.479505
 30
0.0
 11
0.147
 21
-2.098229
 31
0.0
  0
LINE
  5
C42
  8
ASSEMBLY
 10
0.075
 20
-2.479505
 30
0.0
 11
0.075
 21
-1.334106
 31
0.0
  0
LINE
  5
C43
  8
ASSEMBLY
 10
0.175
 20
-2.479505
 30
0.0
 11
0.175
 21
-1.864691
 31
0.0
  0
LINE
  5
C44
  8
ASSEMBLY
 10
0.047
 20
-2.098229
 30
0.0
 11
0.075
 21
-2.098229
 31
0.0
  0
LINE
  5
C45
  8
ASSEMBLY
 10
0.147
 20
-2.098229
 30
0.0
 11
0.175
 21
-2.098229
 31
0.0
  0
POLYLINE
  5
C46
  8
ASSEMBLY
 66
     1
 10
0.0
 20
0.0
 30
0.0
  0
VERTEX
  5
18D0
  8
ASSEMBLY
 10
0.228741
 20
-2.224589
 30
0.0
  0
VERTEX
  5
18D1
  8
ASSEMBLY
 10
0.228741
 20
-2.284175
 30
0.0
  0
VERTEX
  5
18D2
  8
ASSEMBLY
 10
0.322243
 20
-2.284175
 30
0.0
  0
VERTEX
  5
18D3
  8
ASSEMBLY
 10
0.322243
 20
-2.224589
 30
0.0
  0
SEQEND
  5
18D4
  8
ASSEMBLY
  0
LINE
  5
C4C
  8
ASSEMBLY
 10
0.247448
 20
-2.112352
 30
0.0
 11
0.244175
 21
-2.112352
 31
0.0
  0
POLYLINE
  5
C4D
  8
ASSEMBLY
 66
     1
 10
0.0
 20
0.0
 30
0.0
  0
VERTEX
  5
18D5
  8
ASSEMBLY
 10
0.128741
 20
-1.691106
 30
0.0
  0
VERTEX
  5
18D6
  8
ASSEMBLY
 10
0.128741
 20
-1.750692
 30
0.0
  0
VERTEX
  5
18D7
  8
ASSEMBLY
 10
0.222243
 20
-1.750692
 30
0.0
  0
VERTEX
  5
18D8
  8
ASSEMBLY
 10
0.222243
 20
-1.691106
 30
0.0
  0
SEQEND
  5
18D9
  8
ASSEMBLY
  0
LINE
  5
C53
  8
ASSEMBLY
 10
0.09823
 20
-1.691106
 30
0.0
 11
0.25177
 21
-1.691106
 31
0.0
  0
LINE
  5
C54
  8
ASSEMBLY
 10
0.09823
 20
-1.895672
 30
0.0
 11
0.09823
 21
-1.691106
 31
0.0
  0
LINE
  5
C55
  8
ASSEMBLY
 10
0.12382
 20
-1.691106
 30
0.0
 11
0.12382
 21
-1.895179
 31
0.0
  0
LINE
  5
C56
  8
ASSEMBLY
 10
0.175
 20
-1.895672
 30
0.0
 11
0.09823
 21
-1.895672
 31
0.0
  0
LINE
  5
C57
  8
ASSEMBLY
 10
0.427164
 20
-1.691106
 30
0.0
 11
0.427164
 21
-1.864691
 31
0.0
  0
LINE
  5
C58
  8
ASSEMBLY
 10
0.32382
 20
-1.691106
 30
0.0
 11
0.32382
 21
-1.864691
 31
0.0
  0
LINE
  5
C59
  8
ASSEMBLY
 10
0.25177
 20
-1.864691
 30
0.0
 11
0.25177
 21
-1.691106
 31
0.0
  0
LINE
  5
C5A
  8
ASSEMBLY
 10
0.227164
 20
-1.691106
 30
0.0
 11
0.227164
 21
-1.864691
 31
0.0
  0
POLYLINE
  5
C5B
  8
ASSEMBLY
 66
     1
 10
0.0
 20
0.0
 30
0.0
  0
VERTEX
  5
18DA
  8
ASSEMBLY
 10
0.328741
 20
-1.691106
 30
0.0
  0
VERTEX
  5
18DB
  8
ASSEMBLY
 10
0.328741
 20
-1.750692
 30
0.0
  0
VERTEX
  5
18DC
  8
ASSEMBLY
 10
0.422243
 20
-1.750692
 30
0.0
  0
VERTEX
  5
18DD
  8
ASSEMBLY
 10
0.422243
 20
-1.691106
 30
0.0
  0
SEQEND
  5
18DE
  8
ASSEMBLY
  0
LINE
  5
C61
  8
ASSEMBLY
 10
0.383
 20
0.1835
 30
0.0
 11
0.383
 21
0.619024
 31
0.0
  0
LINE
  5
C62
  8
ASSEMBLY
 10
0.383
 20
0.619024
 30
0.0
 11
0.283
 21
0.619024
 31
0.0
  0
LINE
  5
C63
  8
ASSEMBLY
 10
0.448885
 20
0.355979
 30
0.0
 11
0.538328
 21
0.445422
 31
0.0
  0
CIRCLE
  5
C64
  8
ASSEMBLY
 10
0.483
 20
0.411307
 30
0.0
 40
0.065
  0
CIRCLE
  5
C65
  8
ASSEMBLY
 10
0.483
 20
0.411307
 30
0.0
 40
0.076
  0
LINE
  5
C67
  8
ASSEMBLY
 10
0.427672
 20
0.377193
 30
0.0
 11
0.517115
 21
0.466635
 31
0.0
  0
POLYLINE
  5
C68
  8
ASSEMBLY
 66
     1
 10
0.0
 20
0.0
 30
0.0
  0
VERTEX
  5
18DF
  8
ASSEMBLY
 10
0.403
 20
0.548307
 30
0.0
  0
VERTEX
  5
18E0
  8
ASSEMBLY
 10
0.403
 20
0.602307
 30
0.0
  0
VERTEX
  5
18E1
  8
ASSEMBLY
 10
0.563
 20
0.602307
 30
0.0
  0
VERTEX
  5
18E2
  8
ASSEMBLY
 10
0.563
 20
0.548307
 30
0.0
  0
SEQEND
  5
18E3
  8
ASSEMBLY
  0
LINE
  5
C6E
  8
ASSEMBLY
 10
0.62382
 20
-2.224589
 30
0.0
 11
0.62382
 21
-2.438805
 31
0.0
  0
LINE
  5
C6F
  8
ASSEMBLY
 10
0.727164
 20
-2.224589
 30
0.0
 11
0.727164
 21
-2.438805
 31
0.0
  0
POLYLINE
  5
C70
  8
ASSEMBLY
 66
     1
 10
0.0
 20
0.0
 30
0.0
 70
     1
  0
VERTEX
  5
18E4
  8
ASSEMBLY
 10
0.59823
 20
-2.224589
 30
0.0
  0
VERTEX
  5
18E5
  8
ASSEMBLY
 10
0.75177
 20
-2.224589
 30
0.0
  0
VERTEX
  5
18E6
  8
ASSEMBLY
 10
0.75177
 20
-2.439297
 30
0.0
  0
VERTEX
  5
18E7
  8
ASSEMBLY
 10
0.59823
 20
-2.439297
 30
0.0
  0
SEQEND
  5
18E8
  8
ASSEMBLY
  0
LINE
  5
C76
  8
ASSEMBLY
 10
0.527164
 20
-2.224589
 30
0.0
 11
0.527164
 21
-2.438805
 31
0.0
  0
LINE
  5
C77
  8
ASSEMBLY
 10
0.775
 20
-2.479505
 30
0.0
 11
0.775
 21
-1.864691
 31
0.0
  0
LINE
  5
C78
  8
ASSEMBLY
 10
0.675
 20
-1.864691
 30
0.0
 11
0.675
 21
-1.334106
 31
0.0
  0
POLYLINE
  5
C79
  8
ASSEMBLY
 66
     1
 10
0.0
 20
0.0
 30
0.0
  0
VERTEX
  5
18E9
  8
ASSEMBLY
 10
0.628741
 20
-2.224589
 30
0.0
  0
VERTEX
  5
18EA
  8
ASSEMBLY
 10
0.628741
 20
-2.284175
 30
0.0
  0
VERTEX
  5
18EB
  8
ASSEMBLY
 10
0.722243
 20
-2.284175
 30
0.0
  0
VERTEX
  5
18EC
  8
ASSEMBLY
 10
0.722243
 20
-2.224589
 30
0.0
  0
SEQEND
  5
18ED
  8
ASSEMBLY
  0
LINE
  5
C7F
  8
ASSEMBLY
 10
0.52382
 20
-1.691106
 30
0.0
 11
0.52382
 21
-1.864691
 31
0.0
  0
LINE
  5
C80
  8
ASSEMBLY
 10
0.627164
 20
-1.691106
 30
0.0
 11
0.627164
 21
-1.864691
 31
0.0
  0
POLYLINE
  5
C81
  8
ASSEMBLY
 66
     1
 10
0.0
 20
0.0
 30
0.0
  0
VERTEX
  5
18EE
  8
ASSEMBLY
 10
0.49823
 20
-1.864691
 30
0.0
  0
VERTEX
  5
18EF
  8
ASSEMBLY
 10
0.49823
 20
-1.691106
 30
0.0
  0
VERTEX
  5
18F0
  8
ASSEMBLY
 10
0.65177
 20
-1.691106
 30
0.0
  0
VERTEX
  5
18F1
  8
ASSEMBLY
 10
0.65177
 20
-1.864691
 30
0.0
  0
SEQEND
  5
18F2
  8
ASSEMBLY
  0
POLYLINE
  5
C87
  8
ASSEMBLY
 66
     1
 10
0.0
 20
0.0
 30
0.0
  0
VERTEX
  5
18F3
  8
ASSEMBLY
 10
0.528741
 20
-1.691106
 30
0.0
  0
VERTEX
  5
18F4
  8
ASSEMBLY
 10
0.528741
 20
-1.750692
 30
0.0
  0
VERTEX
  5
18F5
  8
ASSEMBLY
 10
0.622243
 20
-1.750692
 30
0.0
  0
VERTEX
  5
18F6
  8
ASSEMBLY
 10
0.622243
 20
-1.691106
 30
0.0
  0
SEQEND
  5
18F7
  8
ASSEMBLY
  0
LINE
  5
C8D
  8
ASSEMBLY
 10
0.983
 20
0.1835
 30
0.0
 11
0.983
 21
0.619024
 31
0.0
  0
POLYLINE
  5
C8F
  8
ASSEMBLY
 66
     1
 10
0.0
 20
0.0
 30
0.0
  0
VERTEX
  5
18F8
  8
ASSEMBLY
 10
0.803
 20
0.548307
 30
0.0
  0
VERTEX
  5
18F9
  8
ASSEMBLY
 10
0.803
 20
0.602307
 30
0.0
  0
VERTEX
  5
18FA
  8
ASSEMBLY
 10
0.963
 20
0.602307
 30
0.0
  0
VERTEX
  5
18FB
  8
ASSEMBLY
 10
0.963
 20
0.548307
 30
0.0
  0
SEQEND
  5
18FC
  8
ASSEMBLY
  0
CIRCLE
  5
C95
  8
ASSEMBLY
 10
0.883
 20
0.411307
 30
0.0
 40
0.076
  0
CIRCLE
  5
C96
  8
ASSEMBLY
 10
0.883
 20
0.411307
 30
0.0
 40
0.065
  0
LINE
  5
C97
  8
ASSEMBLY
 10
0.827672
 20
0.377193
 30
0.0
 11
0.917115
 21
0.466635
 31
0.0
  0
LINE
  5
C98
  8
ASSEMBLY
 10
0.848885
 20
0.355979
 30
0.0
 11
0.938328
 21
0.445422
 31
0.0
  0
LINE
  5
C9A
  8
ASSEMBLY
 10
0.648885
 20
0.355979
 30
0.0
 11
0.738328
 21
0.445422
 31
0.0
  0
LINE
  5
C9B
  8
ASSEMBLY
 10
0.983
 20
0.619024
 30
0.0
 11
0.883
 21
0.619024
 31
0.0
  0
LINE
  5
C9C
  8
ASSEMBLY
 10
6.699245
 20
0.186774
 30
0.0
 11
6.699245
 21
0.1835
 31
0.0
  0
POLYLINE
  5
C9D
  8
ASSEMBLY
 66
     1
 10
0.0
 20
0.0
 30
0.0
  0
VERTEX
  5
18FD
  8
ASSEMBLY
 10
0.638
 20
1.069307
 30
0.0
  0
VERTEX
  5
18FE
  8
ASSEMBLY
 10
0.638
 20
1.027307
 30
0.0
  0
VERTEX
  5
18FF
  8
ASSEMBLY
 10
0.528
 20
1.027307
 30
0.0
  0
VERTEX
  5
1900
  8
ASSEMBLY
 10
0.528
 20
1.069307
 30
0.0
  0
SEQEND
  5
1901
  8
ASSEMBLY
  0
CIRCLE
  5
CA3
  8
ASSEMBLY
 10
0.583
 20
0.848307
 30
0.0
 40
0.076
  0
CIRCLE
  5
CA4
  8
ASSEMBLY
 10
0.583
 20
0.848307
 30
0.0
 40
0.065
  0
LINE
  5
CA5
  8
ASSEMBLY
 10
0.548885
 20
0.792979
 30
0.0
 11
0.638328
 21
0.882422
 31
0.0
  0
LINE
  5
CA6
  8
ASSEMBLY
 10
0.283
 20
0.985307
 30
0.0
 11
4.883
 21
0.985307
 31
0.0
  0
LINE
  5
CA7
  8
ASSEMBLY
 10
0.283
 20
0.758307
 30
0.0
 11
4.883
 21
0.758307
 31
0.0
  0
POLYLINE
  5
CA8
  8
ASSEMBLY
 66
     1
 10
0.0
 20
0.0
 30
0.0
  0
VERTEX
  5
1902
  8
ASSEMBLY
 10
0.438
 20
1.069307
 30
0.0
  0
VERTEX
  5
1903
  8
ASSEMBLY
 10
0.438
 20
1.027307
 30
0.0
  0
VERTEX
  5
1904
  8
ASSEMBLY
 10
0.328
 20
1.027307
 30
0.0
  0
VERTEX
  5
1905
  8
ASSEMBLY
 10
0.328
 20
1.069307
 30
0.0
  0
SEQEND
  5
1906
  8
ASSEMBLY
  0
CIRCLE
  5
CAF
  8
ASSEMBLY
 10
0.383
 20
0.848307
 30
0.0
 40
0.076
  0
CIRCLE
  5
CB0
  8
ASSEMBLY
 10
0.383
 20
0.848307
 30
0.0
 40
0.065
  0
LINE
  5
CB1
  8
ASSEMBLY
 10
0.327672
 20
0.814193
 30
0.0
 11
0.417115
 21
0.903635
 31
0.0
  0
LINE
  5
CB2
  8
ASSEMBLY
 10
0.348885
 20
0.792979
 30
0.0
 11
0.438328
 21
0.882422
 31
0.0
  0
LINE
  5
CB4
  8
ASSEMBLY
 10
0.527672
 20
0.814193
 30
0.0
 11
0.617115
 21
0.903635
 31
0.0
  0
LINE
  5
CB6
  8
ASSEMBLY
 10
0.748885
 20
0.792979
 30
0.0
 11
0.838328
 21
0.882422
 31
0.0
  0
LINE
  5
CB7
  8
ASSEMBLY
 10
0.727672
 20
0.814193
 30
0.0
 11
0.817115
 21
0.903635
 31
0.0
  0
CIRCLE
  5
CB8
  8
ASSEMBLY
 10
0.783
 20
0.848307
 30
0.0
 40
0.065
  0
CIRCLE
  5
CB9
  8
ASSEMBLY
 10
0.783
 20
0.848307
 30
0.0
 40
0.076
  0
POLYLINE
  5
CBA
  8
ASSEMBLY
 66
     1
 10
0.0
 20
0.0
 30
0.0
  0
VERTEX
  5
1907
  8
ASSEMBLY
 10
0.838
 20
1.069307
 30
0.0
  0
VERTEX
  5
1908
  8
ASSEMBLY
 10
0.838
 20
1.027307
 30
0.0
  0
VERTEX
  5
1909
  8
ASSEMBLY
 10
0.728
 20
1.027307
 30
0.0
  0
VERTEX
  5
190A
  8
ASSEMBLY
 10
0.728
 20
1.069307
 30
0.0
  0
SEQEND
  5
190B
  8
ASSEMBLY
  0
LINE
  5
CC0
  8
ASSEMBLY
 10
0.283
 20
1.069307
 30
0.0
 11
4.883
 21
1.069307
 31
0.0
  0
POLYLINE
  5
CD1
  8
ASSEMBLY
 66
     1
 10
0.0
 20
0.0
 30
0.0
  0
VERTEX
  5
190C
  8
ASSEMBLY
 10
1.038
 20
1.069307
 30
0.0
  0
VERTEX
  5
190D
  8
ASSEMBLY
 10
1.038
 20
1.027307
 30
0.0
  0
VERTEX
  5
190E
  8
ASSEMBLY
 10
0.928
 20
1.027307
 30
0.0
  0
VERTEX
  5
190F
  8
ASSEMBLY
 10
0.928
 20
1.069307
 30
0.0
  0
SEQEND
  5
1910
  8
ASSEMBLY
  0
LINE
  5
CD7
  8
ASSEMBLY
 10
0.948885
 20
0.792979
 30
0.0
 11
1.038328
 21
0.882422
 31
0.0
  0
LINE
  5
CD8
  8
ASSEMBLY
 10
0.927672
 20
0.814193
 30
0.0
 11
1.017115
 21
0.903635
 31
0.0
  0
CIRCLE
  5
CD9
  8
ASSEMBLY
 10
0.983
 20
0.848307
 30
0.0
 40
0.065
  0
CIRCLE
  5
CDA
  8
ASSEMBLY
 10
0.983
 20
0.848307
 30
0.0
 40
0.076
  0
CIRCLE
  5
CDC
  8
ASSEMBLY
 10
1.083
 20
0.411307
 30
0.0
 40
0.076
  0
CIRCLE
  5
CDD
  8
ASSEMBLY
 10
1.083
 20
0.411307
 30
0.0
 40
0.065
  0
LINE
  5
CDE
  8
ASSEMBLY
 10
1.027672
 20
0.377193
 30
0.0
 11
1.117115
 21
0.466635
 31
0.0
  0
LINE
  5
CDF
  8
ASSEMBLY
 10
1.048885
 20
0.355979
 30
0.0
 11
1.138328
 21
0.445422
 31
0.0
  0
POLYLINE
  5
CE1
  8
ASSEMBLY
 66
     1
 10
0.0
 20
0.0
 30
0.0
  0
VERTEX
  5
1911
  8
ASSEMBLY
 10
1.003
 20
0.548307
 30
0.0
  0
VERTEX
  5
1912
  8
ASSEMBLY
 10
1.003
 20
0.602307
 30
0.0
  0
VERTEX
  5
1913
  8
ASSEMBLY
 10
1.163
 20
0.602307
 30
0.0
  0
VERTEX
  5
1914
  8
ASSEMBLY
 10
1.163
 20
0.548307
 30
0.0
  0
SEQEND
  5
1915
  8
ASSEMBLY
  0
POLYLINE
  5
CE7
  8
ASSEMBLY
 66
     1
 10
0.0
 20
0.0
 30
0.0
  0
VERTEX
  5
1916
  8
ASSEMBLY
 10
1.238
 20
1.069307
 30
0.0
  0
VERTEX
  5
1917
  8
ASSEMBLY
 10
1.238
 20
1.027307
 30
0.0
  0
VERTEX
  5
1918
  8
ASSEMBLY
 10
1.128
 20
1.027307
 30
0.0
  0
VERTEX
  5
1919
  8
ASSEMBLY
 10
1.128
 20
1.069307
 30
0.0
  0
SEQEND
  5
191A
  8
ASSEMBLY
  0
LINE
  5
CED
  8
ASSEMBLY
 10
1.148885
 20
0.792979
 30
0.0
 11
1.238328
 21
0.882422
 31
0.0
  0
LINE
  5
CEE
  8
ASSEMBLY
 10
1.127672
 20
0.814193
 30
0.0
 11
1.217115
 21
0.903635
 31
0.0
  0
CIRCLE
  5
CEF
  8
ASSEMBLY
 10
1.183
 20
0.848307
 30
0.0
 40
0.065
  0
CIRCLE
  5
CF0
  8
ASSEMBLY
 10
1.183
 20
0.848307
 30
0.0
 40
0.076
  0
CIRCLE
  5
CF2
  8
ASSEMBLY
 10
1.283
 20
0.411307
 30
0.0
 40
0.076
  0
CIRCLE
  5
CF3
  8
ASSEMBLY
 10
1.283
 20
0.411307
 30
0.0
 40
0.065
  0
LINE
  5
CF4
  8
ASSEMBLY
 10
1.227672
 20
0.377193
 30
0.0
 11
1.317115
 21
0.466635
 31
0.0
  0
LINE
  5
CF5
  8
ASSEMBLY
 10
1.248885
 20
0.355979
 30
0.0
 11
1.338328
 21
0.445422
 31
0.0
  0
POLYLINE
  5
CF7
  8
ASSEMBLY
 66
     1
 10
0.0
 20
0.0
 30
0.0
  0
VERTEX
  5
191B
  8
ASSEMBLY
 10
1.203
 20
0.548307
 30
0.0
  0
VERTEX
  5
191C
  8
ASSEMBLY
 10
1.203
 20
0.602307
 30
0.0
  0
VERTEX
  5
191D
  8
ASSEMBLY
 10
1.363
 20
0.602307
 30
0.0
  0
VERTEX
  5
191E
  8
ASSEMBLY
 10
1.363
 20
0.548307
 30
0.0
  0
SEQEND
  5
191F
  8
ASSEMBLY
  0
POLYLINE
  5
CFD
  8
ASSEMBLY
 66
     1
 10
0.0
 20
0.0
 30
0.0
  0
VERTEX
  5
1920
  8
ASSEMBLY
 10
1.438
 20
1.069307
 30
0.0
  0
VERTEX
  5
1921
  8
ASSEMBLY
 10
1.438
 20
1.027307
 30
0.0
  0
VERTEX
  5
1922
  8
ASSEMBLY
 10
1.328
 20
1.027307
 30
0.0
  0
VERTEX
  5
1923
  8
ASSEMBLY
 10
1.328
 20
1.069307
 30
0.0
  0
SEQEND
  5
1924
  8
ASSEMBLY
  0
LINE
  5
D03
  8
ASSEMBLY
 10
1.348885
 20
0.792979
 30
0.0
 11
1.438328
 21
0.882422
 31
0.0
  0
LINE
  5
D04
  8
ASSEMBLY
 10
1.327672
 20
0.814193
 30
0.0
 11
1.417115
 21
0.903635
 31
0.0
  0
CIRCLE
  5
D05
  8
ASSEMBLY
 10
1.383
 20
0.848307
 30
0.0
 40
0.065
  0
CIRCLE
  5
D06
  8
ASSEMBLY
 10
1.383
 20
0.848307
 30
0.0
 40
0.076
  0
CIRCLE
  5
D08
  8
ASSEMBLY
 10
1.483
 20
0.411307
 30
0.0
 40
0.076
  0
CIRCLE
  5
D09
  8
ASSEMBLY
 10
1.483
 20
0.411307
 30
0.0
 40
0.065
  0
LINE
  5
D0A
  8
ASSEMBLY
 10
1.427672
 20
0.377193
 30
0.0
 11
1.517115
 21
0.466635
 31
0.0
  0
LINE
  5
D0B
  8
ASSEMBLY
 10
1.448885
 20
0.355979
 30
0.0
 11
1.538328
 21
0.445422
 31
0.0
  0
POLYLINE
  5
D0D
  8
ASSEMBLY
 66
     1
 10
0.0
 20
0.0
 30
0.0
  0
VERTEX
  5
1925
  8
ASSEMBLY
 10
1.403
 20
0.548307
 30
0.0
  0
VERTEX
  5
1926
  8
ASSEMBLY
 10
1.403
 20
0.602307
 30
0.0
  0
VERTEX
  5
1927
  8
ASSEMBLY
 10
1.563
 20
0.602307
 30
0.0
  0
VERTEX
  5
1928
  8
ASSEMBLY
 10
1.563
 20
0.548307
 30
0.0
  0
SEQEND
  5
1929
  8
ASSEMBLY
  0
POLYLINE
  5
D13
  8
ASSEMBLY
 66
     1
 10
0.0
 20
0.0
 30
0.0
  0
VERTEX
  5
192A
  8
ASSEMBLY
 10
1.638
 20
1.069307
 30
0.0
  0
VERTEX
  5
192B
  8
ASSEMBLY
 10
1.638
 20
1.027307
 30
0.0
  0
VERTEX
  5
192C
  8
ASSEMBLY
 10
1.528
 20
1.027307
 30
0.0
  0
VERTEX
  5
192D
  8
ASSEMBLY
 10
1.528
 20
1.069307
 30
0.0
  0
SEQEND
  5
192E
  8
ASSEMBLY
  0
LINE
  5
D19
  8
ASSEMBLY
 10
1.548885
 20
0.792979
 30
0.0
 11
1.638328
 21
0.882422
 31
0.0
  0
LINE
  5
D1A
  8
ASSEMBLY
 10
1.527672
 20
0.814193
 30
0.0
 11
1.617115
 21
0.903635
 31
0.0
  0
CIRCLE
  5
D1B
  8
ASSEMBLY
 10
1.583
 20
0.848307
 30
0.0
 40
0.065
  0
CIRCLE
  5
D1C
  8
ASSEMBLY
 10
1.583
 20
0.848307
 30
0.0
 40
0.076
  0
CIRCLE
  5
D1E
  8
ASSEMBLY
 10
1.683
 20
0.411307
 30
0.0
 40
0.076
  0
CIRCLE
  5
D1F
  8
ASSEMBLY
 10
1.683
 20
0.411307
 30
0.0
 40
0.065
  0
LINE
  5
D20
  8
ASSEMBLY
 10
1.627672
 20
0.377193
 30
0.0
 11
1.717115
 21
0.466635
 31
0.0
  0
LINE
  5
D21
  8
ASSEMBLY
 10
1.648885
 20
0.355979
 30
0.0
 11
1.738328
 21
0.445422
 31
0.0
  0
POLYLINE
  5
D23
  8
ASSEMBLY
 66
     1
 10
0.0
 20
0.0
 30
0.0
  0
VERTEX
  5
192F
  8
ASSEMBLY
 10
1.603
 20
0.548307
 30
0.0
  0
VERTEX
  5
1930
  8
ASSEMBLY
 10
1.603
 20
0.602307
 30
0.0
  0
VERTEX
  5
1931
  8
ASSEMBLY
 10
1.763
 20
0.602307
 30
0.0
  0
VERTEX
  5
1932
  8
ASSEMBLY
 10
1.763
 20
0.548307
 30
0.0
  0
SEQEND
  5
1933
  8
ASSEMBLY
  0
POLYLINE
  5
D29
  8
ASSEMBLY
 66
     1
 10
0.0
 20
0.0
 30
0.0
  0
VERTEX
  5
1934
  8
ASSEMBLY
 10
1.838
 20
1.069307
 30
0.0
  0
VERTEX
  5
1935
  8
ASSEMBLY
 10
1.838
 20
1.027307
 30
0.0
  0
VERTEX
  5
1936
  8
ASSEMBLY
 10
1.728
 20
1.027307
 30
0.0
  0
VERTEX
  5
1937
  8
ASSEMBLY
 10
1.728
 20
1.069307
 30
0.0
  0
SEQEND
  5
1938
  8
ASSEMBLY
  0
LINE
  5
D2F
  8
ASSEMBLY
 10
1.748885
 20
0.792979
 30
0.0
 11
1.838328
 21
0.882422
 31
0.0
  0
LINE
  5
D30
  8
ASSEMBLY
 10
1.727672
 20
0.814193
 30
0.0
 11
1.817115
 21
0.903635
 31
0.0
  0
CIRCLE
  5
D31
  8
ASSEMBLY
 10
1.783
 20
0.848307
 30
0.0
 40
0.065
  0
CIRCLE
  5
D32
  8
ASSEMBLY
 10
1.783
 20
0.848307
 30
0.0
 40
0.076
  0
CIRCLE
  5
D34
  8
ASSEMBLY
 10
1.883
 20
0.411307
 30
0.0
 40
0.076
  0
CIRCLE
  5
D35
  8
ASSEMBLY
 10
1.883
 20
0.411307
 30
0.0
 40
0.065
  0
LINE
  5
D36
  8
ASSEMBLY
 10
1.827672
 20
0.377193
 30
0.0
 11
1.917115
 21
0.466635
 31
0.0
  0
LINE
  5
D37
  8
ASSEMBLY
 10
1.848885
 20
0.355979
 30
0.0
 11
1.938328
 21
0.445422
 31
0.0
  0
POLYLINE
  5
D39
  8
ASSEMBLY
 66
     1
 10
0.0
 20
0.0
 30
0.0
  0
VERTEX
  5
1939
  8
ASSEMBLY
 10
1.803
 20
0.548307
 30
0.0
  0
VERTEX
  5
193A
  8
ASSEMBLY
 10
1.803
 20
0.602307
 30
0.0
  0
VERTEX
  5
193B
  8
ASSEMBLY
 10
1.963
 20
0.602307
 30
0.0
  0
VERTEX
  5
193C
  8
ASSEMBLY
 10
1.963
 20
0.548307
 30
0.0
  0
SEQEND
  5
193D
  8
ASSEMBLY
  0
POLYLINE
  5
D3F
  8
ASSEMBLY
 66
     1
 10
0.0
 20
0.0
 30
0.0
  0
VERTEX
  5
193E
  8
ASSEMBLY
 10
2.038
 20
1.069307
 30
0.0
  0
VERTEX
  5
193F
  8
ASSEMBLY
 10
2.038
 20
1.027307
 30
0.0
  0
VERTEX
  5
1940
  8
ASSEMBLY
 10
1.928
 20
1.027307
 30
0.0
  0
VERTEX
  5
1941
  8
ASSEMBLY
 10
1.928
 20
1.069307
 30
0.0
  0
SEQEND
  5
1942
  8
ASSEMBLY
  0
LINE
  5
D45
  8
ASSEMBLY
 10
1.948885
 20
0.792979
 30
0.0
 11
2.038328
 21
0.882422
 31
0.0
  0
LINE
  5
D46
  8
ASSEMBLY
 10
1.927672
 20
0.814193
 30
0.0
 11
2.017115
 21
0.903635
 31
0.0
  0
CIRCLE
  5
D47
  8
ASSEMBLY
 10
1.983
 20
0.848307
 30
0.0
 40
0.065
  0
CIRCLE
  5
D48
  8
ASSEMBLY
 10
1.983
 20
0.848307
 30
0.0
 40
0.076
  0
CIRCLE
  5
D4A
  8
ASSEMBLY
 10
2.083
 20
0.411307
 30
0.0
 40
0.076
  0
CIRCLE
  5
D4B
  8
ASSEMBLY
 10
2.083
 20
0.411307
 30
0.0
 40
0.065
  0
LINE
  5
D4C
  8
ASSEMBLY
 10
2.027672
 20
0.377193
 30
0.0
 11
2.117115
 21
0.466635
 31
0.0
  0
LINE
  5
D4D
  8
ASSEMBLY
 10
2.048885
 20
0.355979
 30
0.0
 11
2.138328
 21
0.445422
 31
0.0
  0
POLYLINE
  5
D4F
  8
ASSEMBLY
 66
     1
 10
0.0
 20
0.0
 30
0.0
  0
VERTEX
  5
1943
  8
ASSEMBLY
 10
2.003
 20
0.548307
 30
0.0
  0
VERTEX
  5
1944
  8
ASSEMBLY
 10
2.003
 20
0.602307
 30
0.0
  0
VERTEX
  5
1945
  8
ASSEMBLY
 10
2.163
 20
0.602307
 30
0.0
  0
VERTEX
  5
1946
  8
ASSEMBLY
 10
2.163
 20
0.548307
 30
0.0
  0
SEQEND
  5
1947
  8
ASSEMBLY
  0
POLYLINE
  5
D55
  8
ASSEMBLY
 66
     1
 10
0.0
 20
0.0
 30
0.0
  0
VERTEX
  5
1948
  8
ASSEMBLY
 10
2.238
 20
1.069307
 30
0.0
  0
VERTEX
  5
1949
  8
ASSEMBLY
 10
2.238
 20
1.027307
 30
0.0
  0
VERTEX
  5
194A
  8
ASSEMBLY
 10
2.128
 20
1.027307
 30
0.0
  0
VERTEX
  5
194B
  8
ASSEMBLY
 10
2.128
 20
1.069307
 30
0.0
  0
SEQEND
  5
194C
  8
ASSEMBLY
  0
LINE
  5
D5B
  8
ASSEMBLY
 10
2.148885
 20
0.792979
 30
0.0
 11
2.238328
 21
0.882422
 31
0.0
  0
LINE
  5
D5C
  8
ASSEMBLY
 10
2.127672
 20
0.814193
 30
0.0
 11
2.217115
 21
0.903635
 31
0.0
  0
CIRCLE
  5
D5D
  8
ASSEMBLY
 10
2.183
 20
0.848307
 30
0.0
 40
0.065
  0
CIRCLE
  5
D5E
  8
ASSEMBLY
 10
2.183
 20
0.848307
 30
0.0
 40
0.076
  0
CIRCLE
  5
D60
  8
ASSEMBLY
 10
2.283
 20
0.411307
 30
0.0
 40
0.076
  0
CIRCLE
  5
D61
  8
ASSEMBLY
 10
2.283
 20
0.411307
 30
0.0
 40
0.065
  0
LINE
  5
D62
  8
ASSEMBLY
 10
2.227672
 20
0.377193
 30
0.0
 11
2.317115
 21
0.466635
 31
0.0
  0
LINE
  5
D63
  8
ASSEMBLY
 10
2.248885
 20
0.355979
 30
0.0
 11
2.338328
 21
0.445422
 31
0.0
  0
POLYLINE
  5
D65
  8
ASSEMBLY
 66
     1
 10
0.0
 20
0.0
 30
0.0
  0
VERTEX
  5
194D
  8
ASSEMBLY
 10
2.203
 20
0.548307
 30
0.0
  0
VERTEX
  5
194E
  8
ASSEMBLY
 10
2.203
 20
0.602307
 30
0.0
  0
VERTEX
  5
194F
  8
ASSEMBLY
 10
2.363
 20
0.602307
 30
0.0
  0
VERTEX
  5
1950
  8
ASSEMBLY
 10
2.363
 20
0.548307
 30
0.0
  0
SEQEND
  5
1951
  8
ASSEMBLY
  0
POLYLINE
  5
D6B
  8
ASSEMBLY
 66
     1
 10
0.0
 20
0.0
 30
0.0
  0
VERTEX
  5
1952
  8
ASSEMBLY
 10
2.438
 20
1.069307
 30
0.0
  0
VERTEX
  5
1953
  8
ASSEMBLY
 10
2.438
 20
1.027307
 30
0.0
  0
VERTEX
  5
1954
  8
ASSEMBLY
 10
2.328
 20
1.027307
 30
0.0
  0
VERTEX
  5
1955
  8
ASSEMBLY
 10
2.328
 20
1.069307
 30
0.0
  0
SEQEND
  5
1956
  8
ASSEMBLY
  0
LINE
  5
D71
  8
ASSEMBLY
 10
2.348885
 20
0.792979
 30
0.0
 11
2.438328
 21
0.882422
 31
0.0
  0
LINE
  5
D72
  8
ASSEMBLY
 10
2.327672
 20
0.814193
 30
0.0
 11
2.417115
 21
0.903635
 31
0.0
  0
CIRCLE
  5
D73
  8
ASSEMBLY
 10
2.383
 20
0.848307
 30
0.0
 40
0.065
  0
CIRCLE
  5
D74
  8
ASSEMBLY
 10
2.383
 20
0.848307
 30
0.0
 40
0.076
  0
CIRCLE
  5
D76
  8
ASSEMBLY
 10
2.483
 20
0.411307
 30
0.0
 40
0.076
  0
CIRCLE
  5
D77
  8
ASSEMBLY
 10
2.483
 20
0.411307
 30
0.0
 40
0.065
  0
LINE
  5
D78
  8
ASSEMBLY
 10
2.427672
 20
0.377193
 30
0.0
 11
2.517115
 21
0.466635
 31
0.0
  0
LINE
  5
D79
  8
ASSEMBLY
 10
2.448885
 20
0.355979
 30
0.0
 11
2.538328
 21
0.445422
 31
0.0
  0
POLYLINE
  5
D7B
  8
ASSEMBLY
 66
     1
 10
0.0
 20
0.0
 30
0.0
  0
VERTEX
  5
1957
  8
ASSEMBLY
 10
2.403
 20
0.548307
 30
0.0
  0
VERTEX
  5
1958
  8
ASSEMBLY
 10
2.403
 20
0.602307
 30
0.0
  0
VERTEX
  5
1959
  8
ASSEMBLY
 10
2.563
 20
0.602307
 30
0.0
  0
VERTEX
  5
195A
  8
ASSEMBLY
 10
2.563
 20
0.548307
 30
0.0
  0
SEQEND
  5
195B
  8
ASSEMBLY
  0
POLYLINE
  5
D81
  8
ASSEMBLY
 66
     1
 10
0.0
 20
0.0
 30
0.0
  0
VERTEX
  5
195C
  8
ASSEMBLY
 10
2.638
 20
1.069307
 30
0.0
  0
VERTEX
  5
195D
  8
ASSEMBLY
 10
2.638
 20
1.027307
 30
0.0
  0
VERTEX
  5
195E
  8
ASSEMBLY
 10
2.528
 20
1.027307
 30
0.0
  0
VERTEX
  5
195F
  8
ASSEMBLY
 10
2.528
 20
1.069307
 30
0.0
  0
SEQEND
  5
1960
  8
ASSEMBLY
  0
LINE
  5
D87
  8
ASSEMBLY
 10
2.548885
 20
0.792979
 30
0.0
 11
2.638328
 21
0.882422
 31
0.0
  0
LINE
  5
D88
  8
ASSEMBLY
 10
2.527672
 20
0.814193
 30
0.0
 11
2.617115
 21
0.903635
 31
0.0
  0
CIRCLE
  5
D89
  8
ASSEMBLY
 10
2.583
 20
0.848307
 30
0.0
 40
0.065
  0
CIRCLE
  5
D8A
  8
ASSEMBLY
 10
2.583
 20
0.848307
 30
0.0
 40
0.076
  0
CIRCLE
  5
D8C
  8
ASSEMBLY
 10
2.683
 20
0.411307
 30
0.0
 40
0.076
  0
CIRCLE
  5
D8D
  8
ASSEMBLY
 10
2.683
 20
0.411307
 30
0.0
 40
0.065
  0
LINE
  5
D8E
  8
ASSEMBLY
 10
2.627672
 20
0.377193
 30
0.0
 11
2.717115
 21
0.466635
 31
0.0
  0
LINE
  5
D8F
  8
ASSEMBLY
 10
2.648885
 20
0.355979
 30
0.0
 11
2.738328
 21
0.445422
 31
0.0
  0
POLYLINE
  5
D91
  8
ASSEMBLY
 66
     1
 10
0.0
 20
0.0
 30
0.0
  0
VERTEX
  5
1961
  8
ASSEMBLY
 10
2.603
 20
0.548307
 30
0.0
  0
VERTEX
  5
1962
  8
ASSEMBLY
 10
2.603
 20
0.602307
 30
0.0
  0
VERTEX
  5
1963
  8
ASSEMBLY
 10
2.763
 20
0.602307
 30
0.0
  0
VERTEX
  5
1964
  8
ASSEMBLY
 10
2.763
 20
0.548307
 30
0.0
  0
SEQEND
  5
1965
  8
ASSEMBLY
  0
POLYLINE
  5
D97
  8
ASSEMBLY
 66
     1
 10
0.0
 20
0.0
 30
0.0
  0
VERTEX
  5
1966
  8
ASSEMBLY
 10
2.838
 20
1.069307
 30
0.0
  0
VERTEX
  5
1967
  8
ASSEMBLY
 10
2.838
 20
1.027307
 30
0.0
  0
VERTEX
  5
1968
  8
ASSEMBLY
 10
2.728
 20
1.027307
 30
0.0
  0
VERTEX
  5
1969
  8
ASSEMBLY
 10
2.728
 20
1.069307
 30
0.0
  0
SEQEND
  5
196A
  8
ASSEMBLY
  0
LINE
  5
D9D
  8
ASSEMBLY
 10
2.748885
 20
0.792979
 30
0.0
 11
2.838328
 21
0.882422
 31
0.0
  0
LINE
  5
D9E
  8
ASSEMBLY
 10
2.727672
 20
0.814193
 30
0.0
 11
2.817115
 21
0.903635
 31
0.0
  0
CIRCLE
  5
D9F
  8
ASSEMBLY
 10
2.783
 20
0.848307
 30
0.0
 40
0.065
  0
CIRCLE
  5
DA0
  8
ASSEMBLY
 10
2.783
 20
0.848307
 30
0.0
 40
0.076
  0
CIRCLE
  5
DA2
  8
ASSEMBLY
 10
2.883
 20
0.411307
 30
0.0
 40
0.076
  0
CIRCLE
  5
DA3
  8
ASSEMBLY
 10
2.883
 20
0.411307
 30
0.0
 40
0.065
  0
LINE
  5
DA4
  8
ASSEMBLY
 10
2.827672
 20
0.377193
 30
0.0
 11
2.917115
 21
0.466635
 31
0.0
  0
LINE
  5
DA5
  8
ASSEMBLY
 10
2.848885
 20
0.355979
 30
0.0
 11
2.938328
 21
0.445422
 31
0.0
  0
POLYLINE
  5
DA7
  8
ASSEMBLY
 66
     1
 10
0.0
 20
0.0
 30
0.0
  0
VERTEX
  5
196B
  8
ASSEMBLY
 10
2.803
 20
0.548307
 30
0.0
  0
VERTEX
  5
196C
  8
ASSEMBLY
 10
2.803
 20
0.602307
 30
0.0
  0
VERTEX
  5
196D
  8
ASSEMBLY
 10
2.963
 20
0.602307
 30
0.0
  0
VERTEX
  5
196E
  8
ASSEMBLY
 10
2.963
 20
0.548307
 30
0.0
  0
SEQEND
  5
196F
  8
ASSEMBLY
  0
LINE
  5
DAD
  8
ASSEMBLY
 10
1.583
 20
0.1835
 30
0.0
 11
1.583
 21
0.619024
 31
0.0
  0
LINE
  5
DAE
  8
ASSEMBLY
 10
1.483
 20
0.619024
 30
0.0
 11
1.483
 21
1.069307
 31
0.0
  0
LINE
  5
DAF
  8
ASSEMBLY
 10
1.583
 20
0.619024
 30
0.0
 11
1.483
 21
0.619024
 31
0.0
  0
LINE
  5
DB0
  8
ASSEMBLY
 10
2.183
 20
0.1835
 30
0.0
 11
2.183
 21
0.619024
 31
0.0
  0
LINE
  5
DB1
  8
ASSEMBLY
 10
2.083
 20
0.619024
 30
0.0
 11
2.083
 21
1.069307
 31
0.0
  0
LINE
  5
DB2
  8
ASSEMBLY
 10
2.183
 20
0.619024
 30
0.0
 11
2.083
 21
0.619024
 31
0.0
  0
LINE
  5
DB3
  8
ASSEMBLY
 10
4.983
 20
0.1835
 30
0.0
 11
4.983
 21
0.619024
 31
0.0
  0
LINE
  5
DB4
  8
ASSEMBLY
 10
4.883
 20
0.619024
 30
0.0
 11
4.883
 21
1.069307
 31
0.0
  0
LINE
  5
DB5
  8
ASSEMBLY
 10
4.983
 20
0.619024
 30
0.0
 11
4.883
 21
0.619024
 31
0.0
  0
CIRCLE
  5
DB7
  8
ASSEMBLY
 10
2.983
 20
0.848307
 30
0.0
 40
0.076
  0
CIRCLE
  5
DB8
  8
ASSEMBLY
 10
2.983
 20
0.848307
 30
0.0
 40
0.065
  0
LINE
  5
DB9
  8
ASSEMBLY
 10
2.927672
 20
0.814193
 30
0.0
 11
3.017115
 21
0.903635
 31
0.0
  0
LINE
  5
DBA
  8
ASSEMBLY
 10
2.948885
 20
0.792979
 30
0.0
 11
3.038328
 21
0.882422
 31
0.0
  0
POLYLINE
  5
DBB
  8
ASSEMBLY
 66
     1
 10
0.0
 20
0.0
 30
0.0
  0
VERTEX
  5
1970
  8
ASSEMBLY
 10
3.038
 20
1.069307
 30
0.0
  0
VERTEX
  5
1971
  8
ASSEMBLY
 10
3.038
 20
1.027307
 30
0.0
  0
VERTEX
  5
1972
  8
ASSEMBLY
 10
2.928
 20
1.027307
 30
0.0
  0
VERTEX
  5
1973
  8
ASSEMBLY
 10
2.928
 20
1.069307
 30
0.0
  0
SEQEND
  5
1974
  8
ASSEMBLY
  0
LINE
  5
DC2
  8
ASSEMBLY
 10
3.048885
 20
0.355979
 30
0.0
 11
3.138328
 21
0.445422
 31
0.0
  0
LINE
  5
DC3
  8
ASSEMBLY
 10
3.027672
 20
0.377193
 30
0.0
 11
3.117115
 21
0.466635
 31
0.0
  0
CIRCLE
  5
DC4
  8
ASSEMBLY
 10
3.083
 20
0.411307
 30
0.0
 40
0.065
  0
CIRCLE
  5
DC5
  8
ASSEMBLY
 10
3.083
 20
0.411307
 30
0.0
 40
0.076
  0
POLYLINE
  5
DC6
  8
ASSEMBLY
 66
     1
 10
0.0
 20
0.0
 30
0.0
  0
VERTEX
  5
1975
  8
ASSEMBLY
 10
3.003
 20
0.548307
 30
0.0
  0
VERTEX
  5
1976
  8
ASSEMBLY
 10
3.003
 20
0.602307
 30
0.0
  0
VERTEX
  5
1977
  8
ASSEMBLY
 10
3.163
 20
0.602307
 30
0.0
  0
VERTEX
  5
1978
  8
ASSEMBLY
 10
3.163
 20
0.548307
 30
0.0
  0
SEQEND
  5
1979
  8
ASSEMBLY
  0
LINE
  5
DCC
  8
ASSEMBLY
 10
5.065149
 20
-2.479505
 30
0.0
 11
-0.052636
 21
-2.479505
 31
0.0
  0
LINE
  5
DCD
  8
ASSEMBLY
 10
5.060557
 20
-2.644212
 30
0.0
 11
5.055473
 21
-2.644212
 31
0.0
  0
LINE
  5
DCE
  8
ASSEMBLY
 10
5.060557
 20
-2.875771
 30
0.0
 11
5.053412
 21
-2.875771
 31
0.0
  0
LINE
  5
DCF
  8
ASSEMBLY
 10
5.065149
 20
-2.479505
 30
0.0
 11
5.065149
 21
-3.057967
 31
0.0
  0
LINE
  5
DD0
  8
ASSEMBLY
 10
4.229747
 20
-3.059431
 30
0.0
 11
4.229747
 21
-3.486832
 31
0.0
  0
LINE
  5
DD1
  8
ASSEMBLY
 10
4.229747
 20
-3.486832
 30
0.0
 11
5.016746
 21
-3.486832
 31
0.0
  0
LINE
  5
DD2
  8
ASSEMBLY
 10
5.016746
 20
-3.486832
 30
0.0
 11
5.016746
 21
-3.059431
 31
0.0
  0
LINE
  5
DD3
  8
ASSEMBLY
 10
4.229747
 20
-3.306348
 30
0.0
 11
5.016746
 21
-3.306348
 31
0.0
  0
LINE
  5
DD4
  8
ASSEMBLY
 10
0.390264
 20
-2.479505
 30
0.0
 11
0.390264
 21
-3.057967
 31
0.0
  0
LINE
  5
DD5
  8
ASSEMBLY
 10
4.622249
 20
-2.479505
 30
0.0
 11
4.622249
 21
-3.057967
 31
0.0
  0
LINE
  5
DD6
  8
ASSEMBLY
 10
-0.0031
 20
-3.306348
 30
0.0
 11
0.783899
 21
-3.306348
 31
0.0
  0
LINE
  5
DD7
  8
ASSEMBLY
 10
-0.0031
 20
-3.486832
 30
0.0
 11
0.783899
 21
-3.486832
 31
0.0
  0
LINE
  5
DD8
  8
ASSEMBLY
 10
-0.0031
 20
-3.059431
 30
0.0
 11
-0.0031
 21
-3.486832
 31
0.0
  0
LINE
  5
DD9
  8
ASSEMBLY
 10
0.783899
 20
-3.486832
 30
0.0
 11
0.783899
 21
-3.059431
 31
0.0
  0
LINE
  5
DDA
  8
ASSEMBLY
 10
-0.052636
 20
-3.057967
 30
0.0
 11
5.065149
 21
-3.057967
 31
0.0
  0
LINE
  5
DDB
  8
ASSEMBLY
 10
5.065149
 20
-2.875771
 30
0.0
 11
-0.052636
 21
-2.875771
 31
0.0
  0
LINE
  5
DDC
  8
ASSEMBLY
 10
5.065149
 20
-2.644212
 30
0.0
 11
-0.052636
 21
-2.644212
 31
0.0
  0
LINE
  5
DDD
  8
ASSEMBLY
 10
-0.052636
 20
-2.479505
 30
0.0
 11
-0.052636
 21
-3.057967
 31
0.0
  0
LINE
  5
DDE
  8
ASSEMBLY
 10
2.161864
 20
-2.479505
 30
0.0
 11
2.161864
 21
-3.057967
 31
0.0
  0
TEXT
  5
DDF
  8
ASSEMBLY
 10
0.150714
 20
-1.518106
 30
0.0
 40
0.08
  1
1
 41
0.75
  7
ROMANS
 72
     1
 11
0.175
 21
-1.478106
 31
0.0
 73
     2
  0
TEXT
  5
DE0
  8
ASSEMBLY
 10
0.217857
 20
-2.051589
 30
0.0
 40
0.08
  1
23
 41
0.75
  7
ROMANS
 72
     4
 11
0.275
 21
-2.011589
 31
0.0
  0
TEXT
  5
DE1
  8
ASSEMBLY
 10
0.346429
 20
-1.518106
 30
0.0
 40
0.08
  1
2
 41
0.75
  7
ROMANS
 72
     1
 11
0.375
 21
-1.478106
 31
0.0
 73
     2
  0
TEXT
  5
DE2
  8
ASSEMBLY
 10
0.546429
 20
-1.518106
 30
0.0
 40
0.08
  1
3
 41
0.75
  7
ROMANS
 72
     1
 11
0.575
 21
-1.478106
 31
0.0
 73
     2
  0
TEXT
  5
DE3
  8
ASSEMBLY
 10
0.745
 20
-1.518106
 30
0.0
 40
0.08
  1
4
 41
0.75
  7
ROMANS
 72
     1
 11
0.775
 21
-1.478106
 31
0.0
 73
     2
  0
TEXT
  5
DE4
  8
ASSEMBLY
 10
0.946429
 20
-1.518106
 30
0.0
 40
0.08
  1
5
 41
0.75
  7
ROMANS
 72
     1
 11
0.975
 21
-1.478106
 31
0.0
 73
     2
  0
TEXT
  5
DE5
  8
ASSEMBLY
 10
1.145
 20
-1.518106
 30
0.0
 40
0.08
  1
6
 41
0.75
  7
ROMANS
 72
     1
 11
1.175
 21
-1.478106
 31
0.0
 73
     2
  0
TEXT
  5
DE6
  8
ASSEMBLY
 10
1.346429
 20
-1.518106
 30
0.0
 40
0.08
  1
7
 41
0.75
  7
ROMANS
 72
     1
 11
1.375
 21
-1.478106
 31
0.0
 73
     2
  0
TEXT
  5
DE7
  8
ASSEMBLY
 10
1.546429
 20
-1.518106
 30
0.0
 40
0.08
  1
8
 41
0.75
  7
ROMANS
 72
     1
 11
1.575
 21
-1.478106
 31
0.0
 73
     2
  0
TEXT
  5
DE8
  8
ASSEMBLY
 10
1.747857
 20
-1.518106
 30
0.0
 40
0.08
  1
9
 41
0.75
  7
ROMANS
 72
     1
 11
1.775
 21
-1.478106
 31
0.0
 73
     2
  0
TEXT
  5
DE9
  8
ASSEMBLY
 10
1.913571
 20
-1.518106
 30
0.0
 40
0.08
  1
10
 41
0.75
  7
ROMANS
 72
     1
 11
1.975
 21
-1.478106
 31
0.0
 73
     2
  0
TEXT
  5
DEA
  8
ASSEMBLY
 10
2.122143
 20
-1.518106
 30
0.0
 40
0.08
  1
11
 41
0.75
  7
ROMANS
 72
     1
 11
2.175
 21
-1.478106
 31
0.0
 73
     2
  0
TEXT
  5
DEB
  8
ASSEMBLY
 10
2.313571
 20
-1.518106
 30
0.0
 40
0.08
  1
12
 41
0.75
  7
ROMANS
 72
     1
 11
2.375
 21
-1.478106
 31
0.0
 73
     2
  0
TEXT
  5
DEC
  8
ASSEMBLY
 10
2.513571
 20
-1.518106
 30
0.0
 40
0.08
  1
13
 41
0.75
  7
ROMANS
 72
     1
 11
2.575
 21
-1.478106
 31
0.0
 73
     2
  0
CIRCLE
  5
F49
  8
ASSEMBLY
 10
2.9905
 20
1.975
 30
0.0
 40
0.0175
  0
LINE
  5
F70
  8
ASSEMBLY
 10
0.82382
 20
-2.224589
 30
0.0
 11
0.82382
 21
-2.438805
 31
0.0
  0
LINE
  5
F71
  8
ASSEMBLY
 10
0.927164
 20
-2.224589
 30
0.0
 11
0.927164
 21
-2.438805
 31
0.0
  0
POLYLINE
  5
F72
  8
ASSEMBLY
 66
     1
 10
0.0
 20
0.0
 30
0.0
 70
     1
  0
VERTEX
  5
197A
  8
ASSEMBLY
 10
0.79823
 20
-2.224589
 30
0.0
  0
VERTEX
  5
197B
  8
ASSEMBLY
 10
0.95177
 20
-2.224589
 30
0.0
  0
VERTEX
  5
197C
  8
ASSEMBLY
 10
0.95177
 20
-2.439297
 30
0.0
  0
VERTEX
  5
197D
  8
ASSEMBLY
 10
0.79823
 20
-2.439297
 30
0.0
  0
SEQEND
  5
197E
  8
ASSEMBLY
  0
POLYLINE
  5
F78
  8
ASSEMBLY
 66
     1
 10
0.0
 20
0.0
 30
0.0
  0
VERTEX
  5
197F
  8
ASSEMBLY
 10
0.828741
 20
-2.224589
 30
0.0
  0
VERTEX
  5
1980
  8
ASSEMBLY
 10
0.828741
 20
-2.284175
 30
0.0
  0
VERTEX
  5
1981
  8
ASSEMBLY
 10
0.922243
 20
-2.284175
 30
0.0
  0
VERTEX
  5
1982
  8
ASSEMBLY
 10
0.922243
 20
-2.224589
 30
0.0
  0
SEQEND
  5
1983
  8
ASSEMBLY
  0
POLYLINE
  5
F7E
  8
ASSEMBLY
 66
     1
 10
0.0
 20
0.0
 30
0.0
  0
VERTEX
  5
1984
  8
ASSEMBLY
 10
0.69823
 20
-1.864691
 30
0.0
  0
VERTEX
  5
1985
  8
ASSEMBLY
 10
0.69823
 20
-1.691106
 30
0.0
  0
VERTEX
  5
1986
  8
ASSEMBLY
 10
0.85177
 20
-1.691106
 30
0.0
  0
VERTEX
  5
1987
  8
ASSEMBLY
 10
0.85177
 20
-1.864691
 30
0.0
  0
SEQEND
  5
1988
  8
ASSEMBLY
  0
POLYLINE
  5
F84
  8
ASSEMBLY
 66
     1
 10
0.0
 20
0.0
 30
0.0
  0
VERTEX
  5
1989
  8
ASSEMBLY
 10
0.728741
 20
-1.691106
 30
0.0
  0
VERTEX
  5
198A
  8
ASSEMBLY
 10
0.728741
 20
-1.750692
 30
0.0
  0
VERTEX
  5
198B
  8
ASSEMBLY
 10
0.822243
 20
-1.750692
 30
0.0
  0
VERTEX
  5
198C
  8
ASSEMBLY
 10
0.822243
 20
-1.691106
 30
0.0
  0
SEQEND
  5
198D
  8
ASSEMBLY
  0
LINE
  5
F8A
  8
ASSEMBLY
 10
0.72382
 20
-1.691106
 30
0.0
 11
0.72382
 21
-1.864691
 31
0.0
  0
LINE
  5
F8B
  8
ASSEMBLY
 10
0.827164
 20
-1.691106
 30
0.0
 11
0.827164
 21
-1.864691
 31
0.0
  0
LINE
  5
F8C
  8
ASSEMBLY
 10
1.02382
 20
-2.224589
 30
0.0
 11
1.02382
 21
-2.438805
 31
0.0
  0
LINE
  5
F8D
  8
ASSEMBLY
 10
1.127164
 20
-2.224589
 30
0.0
 11
1.127164
 21
-2.438805
 31
0.0
  0
POLYLINE
  5
F8E
  8
ASSEMBLY
 66
     1
 10
0.0
 20
0.0
 30
0.0
 70
     1
  0
VERTEX
  5
198E
  8
ASSEMBLY
 10
0.99823
 20
-2.224589
 30
0.0
  0
VERTEX
  5
198F
  8
ASSEMBLY
 10
1.15177
 20
-2.224589
 30
0.0
  0
VERTEX
  5
1990
  8
ASSEMBLY
 10
1.15177
 20
-2.439297
 30
0.0
  0
VERTEX
  5
1991
  8
ASSEMBLY
 10
0.99823
 20
-2.439297
 30
0.0
  0
SEQEND
  5
1992
  8
ASSEMBLY
  0
POLYLINE
  5
F94
  8
ASSEMBLY
 66
     1
 10
0.0
 20
0.0
 30
0.0
  0
VERTEX
  5
1993
  8
ASSEMBLY
 10
1.028741
 20
-2.224589
 30
0.0
  0
VERTEX
  5
1994
  8
ASSEMBLY
 10
1.028741
 20
-2.284175
 30
0.0
  0
VERTEX
  5
1995
  8
ASSEMBLY
 10
1.122243
 20
-2.284175
 30
0.0
  0
VERTEX
  5
1996
  8
ASSEMBLY
 10
1.122243
 20
-2.224589
 30
0.0
  0
SEQEND
  5
1997
  8
ASSEMBLY
  0
POLYLINE
  5
F9A
  8
ASSEMBLY
 66
     1
 10
0.0
 20
0.0
 30
0.0
  0
VERTEX
  5
1998
  8
ASSEMBLY
 10
0.89823
 20
-1.864691
 30
0.0
  0
VERTEX
  5
1999
  8
ASSEMBLY
 10
0.89823
 20
-1.691106
 30
0.0
  0
VERTEX
  5
199A
  8
ASSEMBLY
 10
1.05177
 20
-1.691106
 30
0.0
  0
VERTEX
  5
199B
  8
ASSEMBLY
 10
1.05177
 20
-1.864691
 30
0.0
  0
SEQEND
  5
199C
  8
ASSEMBLY
  0
POLYLINE
  5
FA0
  8
ASSEMBLY
 66
     1
 10
0.0
 20
0.0
 30
0.0
  0
VERTEX
  5
199D
  8
ASSEMBLY
 10
0.928741
 20
-1.691106
 30
0.0
  0
VERTEX
  5
199E
  8
ASSEMBLY
 10
0.928741
 20
-1.750692
 30
0.0
  0
VERTEX
  5
199F
  8
ASSEMBLY
 10
1.022243
 20
-1.750692
 30
0.0
  0
VERTEX
  5
19A0
  8
ASSEMBLY
 10
1.022243
 20
-1.691106
 30
0.0
  0
SEQEND
  5
19A1
  8
ASSEMBLY
  0
LINE
  5
FA6
  8
ASSEMBLY
 10
0.92382
 20
-1.691106
 30
0.0
 11
0.92382
 21
-1.864691
 31
0.0
  0
LINE
  5
FA7
  8
ASSEMBLY
 10
1.027164
 20
-1.691106
 30
0.0
 11
1.027164
 21
-1.864691
 31
0.0
  0
LINE
  5
FA8
  8
ASSEMBLY
 10
1.22382
 20
-2.224589
 30
0.0
 11
1.22382
 21
-2.438805
 31
0.0
  0
LINE
  5
FA9
  8
ASSEMBLY
 10
1.327164
 20
-2.224589
 30
0.0
 11
1.327164
 21
-2.438805
 31
0.0
  0
POLYLINE
  5
FAA
  8
ASSEMBLY
 66
     1
 10
0.0
 20
0.0
 30
0.0
 70
     1
  0
VERTEX
  5
19A2
  8
ASSEMBLY
 10
1.19823
 20
-2.224589
 30
0.0
  0
VERTEX
  5
19A3
  8
ASSEMBLY
 10
1.35177
 20
-2.224589
 30
0.0
  0
VERTEX
  5
19A4
  8
ASSEMBLY
 10
1.35177
 20
-2.439297
 30
0.0
  0
VERTEX
  5
19A5
  8
ASSEMBLY
 10
1.19823
 20
-2.439297
 30
0.0
  0
SEQEND
  5
19A6
  8
ASSEMBLY
  0
POLYLINE
  5
FB0
  8
ASSEMBLY
 66
     1
 10
0.0
 20
0.0
 30
0.0
  0
VERTEX
  5
19A7
  8
ASSEMBLY
 10
1.228741
 20
-2.224589
 30
0.0
  0
VERTEX
  5
19A8
  8
ASSEMBLY
 10
1.228741
 20
-2.284175
 30
0.0
  0
VERTEX
  5
19A9
  8
ASSEMBLY
 10
1.322243
 20
-2.284175
 30
0.0
  0
VERTEX
  5
19AA
  8
ASSEMBLY
 10
1.322243
 20
-2.224589
 30
0.0
  0
SEQEND
  5
19AB
  8
ASSEMBLY
  0
POLYLINE
  5
FB6
  8
ASSEMBLY
 66
     1
 10
0.0
 20
0.0
 30
0.0
  0
VERTEX
  5
19AC
  8
ASSEMBLY
 10
1.09823
 20
-1.864691
 30
0.0
  0
VERTEX
  5
19AD
  8
ASSEMBLY
 10
1.09823
 20
-1.691106
 30
0.0
  0
VERTEX
  5
19AE
  8
ASSEMBLY
 10
1.25177
 20
-1.691106
 30
0.0
  0
VERTEX
  5
19AF
  8
ASSEMBLY
 10
1.25177
 20
-1.864691
 30
0.0
  0
SEQEND
  5
19B0
  8
ASSEMBLY
  0
POLYLINE
  5
FBC
  8
ASSEMBLY
 66
     1
 10
0.0
 20
0.0
 30
0.0
  0
VERTEX
  5
19B1
  8
ASSEMBLY
 10
1.128741
 20
-1.691106
 30
0.0
  0
VERTEX
  5
19B2
  8
ASSEMBLY
 10
1.128741
 20
-1.750692
 30
0.0
  0
VERTEX
  5
19B3
  8
ASSEMBLY
 10
1.222243
 20
-1.750692
 30
0.0
  0
VERTEX
  5
19B4
  8
ASSEMBLY
 10
1.222243
 20
-1.691106
 30
0.0
  0
SEQEND
  5
19B5
  8
ASSEMBLY
  0
LINE
  5
FC2
  8
ASSEMBLY
 10
1.12382
 20
-1.691106
 30
0.0
 11
1.12382
 21
-1.864691
 31
0.0
  0
LINE
  5
FC3
  8
ASSEMBLY
 10
1.227164
 20
-1.691106
 30
0.0
 11
1.227164
 21
-1.864691
 31
0.0
  0
LINE
  5
FC4
  8
ASSEMBLY
 10
1.42382
 20
-2.224589
 30
0.0
 11
1.42382
 21
-2.438805
 31
0.0
  0
LINE
  5
FC5
  8
ASSEMBLY
 10
1.527164
 20
-2.224589
 30
0.0
 11
1.527164
 21
-2.438805
 31
0.0
  0
POLYLINE
  5
FC6
  8
ASSEMBLY
 66
     1
 10
0.0
 20
0.0
 30
0.0
 70
     1
  0
VERTEX
  5
19B6
  8
ASSEMBLY
 10
1.39823
 20
-2.224589
 30
0.0
  0
VERTEX
  5
19B7
  8
ASSEMBLY
 10
1.55177
 20
-2.224589
 30
0.0
  0
VERTEX
  5
19B8
  8
ASSEMBLY
 10
1.55177
 20
-2.439297
 30
0.0
  0
VERTEX
  5
19B9
  8
ASSEMBLY
 10
1.39823
 20
-2.439297
 30
0.0
  0
SEQEND
  5
19BA
  8
ASSEMBLY
  0
POLYLINE
  5
FCC
  8
ASSEMBLY
 66
     1
 10
0.0
 20
0.0
 30
0.0
  0
VERTEX
  5
19BB
  8
ASSEMBLY
 10
1.428741
 20
-2.224589
 30
0.0
  0
VERTEX
  5
19BC
  8
ASSEMBLY
 10
1.428741
 20
-2.284175
 30
0.0
  0
VERTEX
  5
19BD
  8
ASSEMBLY
 10
1.522243
 20
-2.284175
 30
0.0
  0
VERTEX
  5
19BE
  8
ASSEMBLY
 10
1.522243
 20
-2.224589
 30
0.0
  0
SEQEND
  5
19BF
  8
ASSEMBLY
  0
POLYLINE
  5
FD2
  8
ASSEMBLY
 66
     1
 10
0.0
 20
0.0
 30
0.0
  0
VERTEX
  5
19C0
  8
ASSEMBLY
 10
1.29823
 20
-1.864691
 30
0.0
  0
VERTEX
  5
19C1
  8
ASSEMBLY
 10
1.29823
 20
-1.691106
 30
0.0
  0
VERTEX
  5
19C2
  8
ASSEMBLY
 10
1.45177
 20
-1.691106
 30
0.0
  0
VERTEX
  5
19C3
  8
ASSEMBLY
 10
1.45177
 20
-1.864691
 30
0.0
  0
SEQEND
  5
19C4
  8
ASSEMBLY
  0
POLYLINE
  5
FD8
  8
ASSEMBLY
 66
     1
 10
0.0
 20
0.0
 30
0.0
  0
VERTEX
  5
19C5
  8
ASSEMBLY
 10
1.328741
 20
-1.691106
 30
0.0
  0
VERTEX
  5
19C6
  8
ASSEMBLY
 10
1.328741
 20
-1.750692
 30
0.0
  0
VERTEX
  5
19C7
  8
ASSEMBLY
 10
1.422243
 20
-1.750692
 30
0.0
  0
VERTEX
  5
19C8
  8
ASSEMBLY
 10
1.422243
 20
-1.691106
 30
0.0
  0
SEQEND
  5
19C9
  8
ASSEMBLY
  0
LINE
  5
FDE
  8
ASSEMBLY
 10
1.32382
 20
-1.691106
 30
0.0
 11
1.32382
 21
-1.864691
 31
0.0
  0
LINE
  5
FDF
  8
ASSEMBLY
 10
1.427164
 20
-1.691106
 30
0.0
 11
1.427164
 21
-1.864691
 31
0.0
  0
LINE
  5
FE0
  8
ASSEMBLY
 10
1.62382
 20
-2.224589
 30
0.0
 11
1.62382
 21
-2.438805
 31
0.0
  0
LINE
  5
FE1
  8
ASSEMBLY
 10
1.727164
 20
-2.224589
 30
0.0
 11
1.727164
 21
-2.438805
 31
0.0
  0
POLYLINE
  5
FE2
  8
ASSEMBLY
 66
     1
 10
0.0
 20
0.0
 30
0.0
 70
     1
  0
VERTEX
  5
19CA
  8
ASSEMBLY
 10
1.59823
 20
-2.224589
 30
0.0
  0
VERTEX
  5
19CB
  8
ASSEMBLY
 10
1.75177
 20
-2.224589
 30
0.0
  0
VERTEX
  5
19CC
  8
ASSEMBLY
 10
1.75177
 20
-2.439297
 30
0.0
  0
VERTEX
  5
19CD
  8
ASSEMBLY
 10
1.59823
 20
-2.439297
 30
0.0
  0
SEQEND
  5
19CE
  8
ASSEMBLY
  0
POLYLINE
  5
FE8
  8
ASSEMBLY
 66
     1
 10
0.0
 20
0.0
 30
0.0
  0
VERTEX
  5
19CF
  8
ASSEMBLY
 10
1.628741
 20
-2.224589
 30
0.0
  0
VERTEX
  5
19D0
  8
ASSEMBLY
 10
1.628741
 20
-2.284175
 30
0.0
  0
VERTEX
  5
19D1
  8
ASSEMBLY
 10
1.722243
 20
-2.284175
 30
0.0
  0
VERTEX
  5
19D2
  8
ASSEMBLY
 10
1.722243
 20
-2.224589
 30
0.0
  0
SEQEND
  5
19D3
  8
ASSEMBLY
  0
POLYLINE
  5
FEE
  8
ASSEMBLY
 66
     1
 10
0.0
 20
0.0
 30
0.0
  0
VERTEX
  5
19D4
  8
ASSEMBLY
 10
1.49823
 20
-1.864691
 30
0.0
  0
VERTEX
  5
19D5
  8
ASSEMBLY
 10
1.49823
 20
-1.691106
 30
0.0
  0
VERTEX
  5
19D6
  8
ASSEMBLY
 10
1.65177
 20
-1.691106
 30
0.0
  0
VERTEX
  5
19D7
  8
ASSEMBLY
 10
1.65177
 20
-1.864691
 30
0.0
  0
SEQEND
  5
19D8
  8
ASSEMBLY
  0
POLYLINE
  5
FF4
  8
ASSEMBLY
 66
     1
 10
0.0
 20
0.0
 30
0.0
  0
VERTEX
  5
19D9
  8
ASSEMBLY
 10
1.528741
 20
-1.691106
 30
0.0
  0
VERTEX
  5
19DA
  8
ASSEMBLY
 10
1.528741
 20
-1.750692
 30
0.0
  0
VERTEX
  5
19DB
  8
ASSEMBLY
 10
1.622243
 20
-1.750692
 30
0.0
  0
VERTEX
  5
19DC
  8
ASSEMBLY
 10
1.622243
 20
-1.691106
 30
0.0
  0
SEQEND
  5
19DD
  8
ASSEMBLY
  0
LINE
  5
FFA
  8
ASSEMBLY
 10
1.52382
 20
-1.691106
 30
0.0
 11
1.52382
 21
-1.864691
 31
0.0
  0
LINE
  5
FFB
  8
ASSEMBLY
 10
1.627164
 20
-1.691106
 30
0.0
 11
1.627164
 21
-1.864691
 31
0.0
  0
LINE
  5
FFC
  8
ASSEMBLY
 10
1.82382
 20
-2.224589
 30
0.0
 11
1.82382
 21
-2.438805
 31
0.0
  0
LINE
  5
FFD
  8
ASSEMBLY
 10
1.927164
 20
-2.224589
 30
0.0
 11
1.927164
 21
-2.438805
 31
0.0
  0
POLYLINE
  5
FFE
  8
ASSEMBLY
 66
     1
 10
0.0
 20
0.0
 30
0.0
 70
     1
  0
VERTEX
  5
19DE
  8
ASSEMBLY
 10
1.79823
 20
-2.224589
 30
0.0
  0
VERTEX
  5
19DF
  8
ASSEMBLY
 10
1.95177
 20
-2.224589
 30
0.0
  0
VERTEX
  5
19E0
  8
ASSEMBLY
 10
1.95177
 20
-2.439297
 30
0.0
  0
VERTEX
  5
19E1
  8
ASSEMBLY
 10
1.79823
 20
-2.439297
 30
0.0
  0
SEQEND
  5
19E2
  8
ASSEMBLY
  0
POLYLINE
  5
1004
  8
ASSEMBLY
 66
     1
 10
0.0
 20
0.0
 30
0.0
  0
VERTEX
  5
19E3
  8
ASSEMBLY
 10
1.828741
 20
-2.224589
 30
0.0
  0
VERTEX
  5
19E4
  8
ASSEMBLY
 10
1.828741
 20
-2.284175
 30
0.0
  0
VERTEX
  5
19E5
  8
ASSEMBLY
 10
1.922243
 20
-2.284175
 30
0.0
  0
VERTEX
  5
19E6
  8
ASSEMBLY
 10
1.922243
 20
-2.224589
 30
0.0
  0
SEQEND
  5
19E7
  8
ASSEMBLY
  0
POLYLINE
  5
100A
  8
ASSEMBLY
 66
     1
 10
0.0
 20
0.0
 30
0.0
  0
VERTEX
  5
19E8
  8
ASSEMBLY
 10
1.69823
 20
-1.864691
 30
0.0
  0
VERTEX
  5
19E9
  8
ASSEMBLY
 10
1.69823
 20
-1.691106
 30
0.0
  0
VERTEX
  5
19EA
  8
ASSEMBLY
 10
1.85177
 20
-1.691106
 30
0.0
  0
VERTEX
  5
19EB
  8
ASSEMBLY
 10
1.85177
 20
-1.864691
 30
0.0
  0
SEQEND
  5
19EC
  8
ASSEMBLY
  0
POLYLINE
  5
1010
  8
ASSEMBLY
 66
     1
 10
0.0
 20
0.0
 30
0.0
  0
VERTEX
  5
19ED
  8
ASSEMBLY
 10
1.728741
 20
-1.691106
 30
0.0
  0
VERTEX
  5
19EE
  8
ASSEMBLY
 10
1.728741
 20
-1.750692
 30
0.0
  0
VERTEX
  5
19EF
  8
ASSEMBLY
 10
1.822243
 20
-1.750692
 30
0.0
  0
VERTEX
  5
19F0
  8
ASSEMBLY
 10
1.822243
 20
-1.691106
 30
0.0
  0
SEQEND
  5
19F1
  8
ASSEMBLY
  0
LINE
  5
1016
  8
ASSEMBLY
 10
1.72382
 20
-1.691106
 30
0.0
 11
1.72382
 21
-1.864691
 31
0.0
  0
LINE
  5
1017
  8
ASSEMBLY
 10
1.827164
 20
-1.691106
 30
0.0
 11
1.827164
 21
-1.864691
 31
0.0
  0
LINE
  5
1018
  8
ASSEMBLY
 10
2.02382
 20
-2.224589
 30
0.0
 11
2.02382
 21
-2.438805
 31
0.0
  0
LINE
  5
1019
  8
ASSEMBLY
 10
2.127164
 20
-2.224589
 30
0.0
 11
2.127164
 21
-2.438805
 31
0.0
  0
POLYLINE
  5
101A
  8
ASSEMBLY
 66
     1
 10
0.0
 20
0.0
 30
0.0
 70
     1
  0
VERTEX
  5
19F2
  8
ASSEMBLY
 10
1.99823
 20
-2.224589
 30
0.0
  0
VERTEX
  5
19F3
  8
ASSEMBLY
 10
2.15177
 20
-2.224589
 30
0.0
  0
VERTEX
  5
19F4
  8
ASSEMBLY
 10
2.15177
 20
-2.439297
 30
0.0
  0
VERTEX
  5
19F5
  8
ASSEMBLY
 10
1.99823
 20
-2.439297
 30
0.0
  0
SEQEND
  5
19F6
  8
ASSEMBLY
  0
POLYLINE
  5
1020
  8
ASSEMBLY
 66
     1
 10
0.0
 20
0.0
 30
0.0
  0
VERTEX
  5
19F7
  8
ASSEMBLY
 10
2.028741
 20
-2.224589
 30
0.0
  0
VERTEX
  5
19F8
  8
ASSEMBLY
 10
2.028741
 20
-2.284175
 30
0.0
  0
VERTEX
  5
19F9
  8
ASSEMBLY
 10
2.122243
 20
-2.284175
 30
0.0
  0
VERTEX
  5
19FA
  8
ASSEMBLY
 10
2.122243
 20
-2.224589
 30
0.0
  0
SEQEND
  5
19FB
  8
ASSEMBLY
  0
POLYLINE
  5
1026
  8
ASSEMBLY
 66
     1
 10
0.0
 20
0.0
 30
0.0
  0
VERTEX
  5
19FC
  8
ASSEMBLY
 10
1.89823
 20
-1.864691
 30
0.0
  0
VERTEX
  5
19FD
  8
ASSEMBLY
 10
1.89823
 20
-1.691106
 30
0.0
  0
VERTEX
  5
19FE
  8
ASSEMBLY
 10
2.05177
 20
-1.691106
 30
0.0
  0
VERTEX
  5
19FF
  8
ASSEMBLY
 10
2.05177
 20
-1.864691
 30
0.0
  0
SEQEND
  5
1A00
  8
ASSEMBLY
  0
POLYLINE
  5
102C
  8
ASSEMBLY
 66
     1
 10
0.0
 20
0.0
 30
0.0
  0
VERTEX
  5
1A01
  8
ASSEMBLY
 10
1.928741
 20
-1.691106
 30
0.0
  0
VERTEX
  5
1A02
  8
ASSEMBLY
 10
1.928741
 20
-1.750692
 30
0.0
  0
VERTEX
  5
1A03
  8
ASSEMBLY
 10
2.022243
 20
-1.750692
 30
0.0
  0
VERTEX
  5
1A04
  8
ASSEMBLY
 10
2.022243
 20
-1.691106
 30
0.0
  0
SEQEND
  5
1A05
  8
ASSEMBLY
  0
LINE
  5
1032
  8
ASSEMBLY
 10
1.92382
 20
-1.691106
 30
0.0
 11
1.92382
 21
-1.864691
 31
0.0
  0
LINE
  5
1033
  8
ASSEMBLY
 10
2.027164
 20
-1.691106
 30
0.0
 11
2.027164
 21
-1.864691
 31
0.0
  0
LINE
  5
1034
  8
ASSEMBLY
 10
2.22382
 20
-2.224589
 30
0.0
 11
2.22382
 21
-2.438805
 31
0.0
  0
LINE
  5
1035
  8
ASSEMBLY
 10
2.327164
 20
-2.224589
 30
0.0
 11
2.327164
 21
-2.438805
 31
0.0
  0
POLYLINE
  5
1036
  8
ASSEMBLY
 66
     1
 10
0.0
 20
0.0
 30
0.0
 70
     1
  0
VERTEX
  5
1A06
  8
ASSEMBLY
 10
2.19823
 20
-2.224589
 30
0.0
  0
VERTEX
  5
1A07
  8
ASSEMBLY
 10
2.35177
 20
-2.224589
 30
0.0
  0
VERTEX
  5
1A08
  8
ASSEMBLY
 10
2.35177
 20
-2.439297
 30
0.0
  0
VERTEX
  5
1A09
  8
ASSEMBLY
 10
2.19823
 20
-2.439297
 30
0.0
  0
SEQEND
  5
1A0A
  8
ASSEMBLY
  0
POLYLINE
  5
103C
  8
ASSEMBLY
 66
     1
 10
0.0
 20
0.0
 30
0.0
  0
VERTEX
  5
1A0B
  8
ASSEMBLY
 10
2.228741
 20
-2.224589
 30
0.0
  0
VERTEX
  5
1A0C
  8
ASSEMBLY
 10
2.228741
 20
-2.284175
 30
0.0
  0
VERTEX
  5
1A0D
  8
ASSEMBLY
 10
2.322243
 20
-2.284175
 30
0.0
  0
VERTEX
  5
1A0E
  8
ASSEMBLY
 10
2.322243
 20
-2.224589
 30
0.0
  0
SEQEND
  5
1A0F
  8
ASSEMBLY
  0
POLYLINE
  5
1042
  8
ASSEMBLY
 66
     1
 10
0.0
 20
0.0
 30
0.0
  0
VERTEX
  5
1A10
  8
ASSEMBLY
 10
2.09823
 20
-1.864691
 30
0.0
  0
VERTEX
  5
1A11
  8
ASSEMBLY
 10
2.09823
 20
-1.691106
 30
0.0
  0
VERTEX
  5
1A12
  8
ASSEMBLY
 10
2.25177
 20
-1.691106
 30
0.0
  0
VERTEX
  5
1A13
  8
ASSEMBLY
 10
2.25177
 20
-1.864691
 30
0.0
  0
SEQEND
  5
1A14
  8
ASSEMBLY
  0
POLYLINE
  5
1048
  8
ASSEMBLY
 66
     1
 10
0.0
 20
0.0
 30
0.0
  0
VERTEX
  5
1A15
  8
ASSEMBLY
 10
2.128741
 20
-1.691106
 30
0.0
  0
VERTEX
  5
1A16
  8
ASSEMBLY
 10
2.128741
 20
-1.750692
 30
0.0
  0
VERTEX
  5
1A17
  8
ASSEMBLY
 10
2.222243
 20
-1.750692
 30
0.0
  0
VERTEX
  5
1A18
  8
ASSEMBLY
 10
2.222243
 20
-1.691106
 30
0.0
  0
SEQEND
  5
1A19
  8
ASSEMBLY
  0
LINE
  5
104E
  8
ASSEMBLY
 10
2.12382
 20
-1.691106
 30
0.0
 11
2.12382
 21
-1.864691
 31
0.0
  0
LINE
  5
104F
  8
ASSEMBLY
 10
2.227164
 20
-1.691106
 30
0.0
 11
2.227164
 21
-1.864691
 31
0.0
  0
LINE
  5
1050
  8
ASSEMBLY
 10
2.42382
 20
-2.224589
 30
0.0
 11
2.42382
 21
-2.438805
 31
0.0
  0
LINE
  5
1051
  8
ASSEMBLY
 10
2.527164
 20
-2.224589
 30
0.0
 11
2.527164
 21
-2.438805
 31
0.0
  0
POLYLINE
  5
1052
  8
ASSEMBLY
 66
     1
 10
0.0
 20
0.0
 30
0.0
 70
     1
  0
VERTEX
  5
1A1A
  8
ASSEMBLY
 10
2.39823
 20
-2.224589
 30
0.0
  0
VERTEX
  5
1A1B
  8
ASSEMBLY
 10
2.55177
 20
-2.224589
 30
0.0
  0
VERTEX
  5
1A1C
  8
ASSEMBLY
 10
2.55177
 20
-2.439297
 30
0.0
  0
VERTEX
  5
1A1D
  8
ASSEMBLY
 10
2.39823
 20
-2.439297
 30
0.0
  0
SEQEND
  5
1A1E
  8
ASSEMBLY
  0
POLYLINE
  5
1058
  8
ASSEMBLY
 66
     1
 10
0.0
 20
0.0
 30
0.0
  0
VERTEX
  5
1A1F
  8
ASSEMBLY
 10
2.428741
 20
-2.224589
 30
0.0
  0
VERTEX
  5
1A20
  8
ASSEMBLY
 10
2.428741
 20
-2.284175
 30
0.0
  0
VERTEX
  5
1A21
  8
ASSEMBLY
 10
2.522243
 20
-2.284175
 30
0.0
  0
VERTEX
  5
1A22
  8
ASSEMBLY
 10
2.522243
 20
-2.224589
 30
0.0
  0
SEQEND
  5
1A23
  8
ASSEMBLY
  0
POLYLINE
  5
105E
  8
ASSEMBLY
 66
     1
 10
0.0
 20
0.0
 30
0.0
  0
VERTEX
  5
1A24
  8
ASSEMBLY
 10
2.29823
 20
-1.864691
 30
0.0
  0
VERTEX
  5
1A25
  8
ASSEMBLY
 10
2.29823
 20
-1.691106
 30
0.0
  0
VERTEX
  5
1A26
  8
ASSEMBLY
 10
2.45177
 20
-1.691106
 30
0.0
  0
VERTEX
  5
1A27
  8
ASSEMBLY
 10
2.45177
 20
-1.864691
 30
0.0
  0
SEQEND
  5
1A28
  8
ASSEMBLY
  0
POLYLINE
  5
1064
  8
ASSEMBLY
 66
     1
 10
0.0
 20
0.0
 30
0.0
  0
VERTEX
  5
1A29
  8
ASSEMBLY
 10
2.328741
 20
-1.691106
 30
0.0
  0
VERTEX
  5
1A2A
  8
ASSEMBLY
 10
2.328741
 20
-1.750692
 30
0.0
  0
VERTEX
  5
1A2B
  8
ASSEMBLY
 10
2.422243
 20
-1.750692
 30
0.0
  0
VERTEX
  5
1A2C
  8
ASSEMBLY
 10
2.422243
 20
-1.691106
 30
0.0
  0
SEQEND
  5
1A2D
  8
ASSEMBLY
  0
LINE
  5
106A
  8
ASSEMBLY
 10
2.32382
 20
-1.691106
 30
0.0
 11
2.32382
 21
-1.864691
 31
0.0
  0
LINE
  5
106B
  8
ASSEMBLY
 10
2.427164
 20
-1.691106
 30
0.0
 11
2.427164
 21
-1.864691
 31
0.0
  0
POLYLINE
  5
106C
  8
ASSEMBLY
 66
     1
 10
0.0
 20
0.0
 30
0.0
  0
VERTEX
  5
1A2E
  8
ASSEMBLY
 10
2.69823
 20
-1.864691
 30
0.0
  0
VERTEX
  5
1A2F
  8
ASSEMBLY
 10
2.69823
 20
-1.691106
 30
0.0
  0
VERTEX
  5
1A30
  8
ASSEMBLY
 10
2.85177
 20
-1.691106
 30
0.0
  0
VERTEX
  5
1A31
  8
ASSEMBLY
 10
2.85177
 20
-1.864691
 30
0.0
  0
SEQEND
  5
1A32
  8
ASSEMBLY
  0
LINE
  5
1072
  8
ASSEMBLY
 10
2.827164
 20
-1.691106
 30
0.0
 11
2.827164
 21
-1.864691
 31
0.0
  0
LINE
  5
1073
  8
ASSEMBLY
 10
2.72382
 20
-1.691106
 30
0.0
 11
2.72382
 21
-1.864691
 31
0.0
  0
POLYLINE
  5
1074
  8
ASSEMBLY
 66
     1
 10
0.0
 20
0.0
 30
0.0
  0
VERTEX
  5
1A33
  8
ASSEMBLY
 10
2.728741
 20
-1.691106
 30
0.0
  0
VERTEX
  5
1A34
  8
ASSEMBLY
 10
2.728741
 20
-1.750692
 30
0.0
  0
VERTEX
  5
1A35
  8
ASSEMBLY
 10
2.822243
 20
-1.750692
 30
0.0
  0
VERTEX
  5
1A36
  8
ASSEMBLY
 10
2.822243
 20
-1.691106
 30
0.0
  0
SEQEND
  5
1A37
  8
ASSEMBLY
  0
POLYLINE
  5
107A
  8
ASSEMBLY
 66
     1
 10
0.0
 20
0.0
 30
0.0
  0
VERTEX
  5
1A38
  8
ASSEMBLY
 10
2.528741
 20
-1.691106
 30
0.0
  0
VERTEX
  5
1A39
  8
ASSEMBLY
 10
2.528741
 20
-1.750692
 30
0.0
  0
VERTEX
  5
1A3A
  8
ASSEMBLY
 10
2.622243
 20
-1.750692
 30
0.0
  0
VERTEX
  5
1A3B
  8
ASSEMBLY
 10
2.622243
 20
-1.691106
 30
0.0
  0
SEQEND
  5
1A3C
  8
ASSEMBLY
  0
POLYLINE
  5
1080
  8
ASSEMBLY
 66
     1
 10
0.0
 20
0.0
 30
0.0
  0
VERTEX
  5
1A3D
  8
ASSEMBLY
 10
2.49823
 20
-1.864691
 30
0.0
  0
VERTEX
  5
1A3E
  8
ASSEMBLY
 10
2.49823
 20
-1.691106
 30
0.0
  0
VERTEX
  5
1A3F
  8
ASSEMBLY
 10
2.65177
 20
-1.691106
 30
0.0
  0
VERTEX
  5
1A40
  8
ASSEMBLY
 10
2.65177
 20
-1.864691
 30
0.0
  0
SEQEND
  5
1A41
  8
ASSEMBLY
  0
LINE
  5
1086
  8
ASSEMBLY
 10
2.52382
 20
-1.691106
 30
0.0
 11
2.52382
 21
-1.864691
 31
0.0
  0
LINE
  5
1087
  8
ASSEMBLY
 10
2.627164
 20
-1.691106
 30
0.0
 11
2.627164
 21
-1.864691
 31
0.0
  0
POLYLINE
  5
1088
  8
ASSEMBLY
 66
     1
 10
0.0
 20
0.0
 30
0.0
 70
     1
  0
VERTEX
  5
1A42
  8
ASSEMBLY
 10
2.59823
 20
-2.224589
 30
0.0
  0
VERTEX
  5
1A43
  8
ASSEMBLY
 10
2.75177
 20
-2.224589
 30
0.0
  0
VERTEX
  5
1A44
  8
ASSEMBLY
 10
2.75177
 20
-2.439297
 30
0.0
  0
VERTEX
  5
1A45
  8
ASSEMBLY
 10
2.59823
 20
-2.439297
 30
0.0
  0
SEQEND
  5
1A46
  8
ASSEMBLY
  0
POLYLINE
  5
108E
  8
ASSEMBLY
 66
     1
 10
0.0
 20
0.0
 30
0.0
  0
VERTEX
  5
1A47
  8
ASSEMBLY
 10
2.828741
 20
-2.224589
 30
0.0
  0
VERTEX
  5
1A48
  8
ASSEMBLY
 10
2.828741
 20
-2.284175
 30
0.0
  0
VERTEX
  5
1A49
  8
ASSEMBLY
 10
2.922243
 20
-2.284175
 30
0.0
  0
VERTEX
  5
1A4A
  8
ASSEMBLY
 10
2.922243
 20
-2.224589
 30
0.0
  0
SEQEND
  5
1A4B
  8
ASSEMBLY
  0
POLYLINE
  5
1094
  8
ASSEMBLY
 66
     1
 10
0.0
 20
0.0
 30
0.0
 70
     1
  0
VERTEX
  5
1A4C
  8
ASSEMBLY
 10
2.79823
 20
-2.224589
 30
0.0
  0
VERTEX
  5
1A4D
  8
ASSEMBLY
 10
2.95177
 20
-2.224589
 30
0.0
  0
VERTEX
  5
1A4E
  8
ASSEMBLY
 10
2.95177
 20
-2.439297
 30
0.0
  0
VERTEX
  5
1A4F
  8
ASSEMBLY
 10
2.79823
 20
-2.439297
 30
0.0
  0
SEQEND
  5
1A50
  8
ASSEMBLY
  0
LINE
  5
109A
  8
ASSEMBLY
 10
2.82382
 20
-2.224589
 30
0.0
 11
2.82382
 21
-2.438805
 31
0.0
  0
LINE
  5
109B
  8
ASSEMBLY
 10
2.727164
 20
-2.224589
 30
0.0
 11
2.727164
 21
-2.438805
 31
0.0
  0
LINE
  5
109C
  8
ASSEMBLY
 10
2.62382
 20
-2.224589
 30
0.0
 11
2.62382
 21
-2.438805
 31
0.0
  0
POLYLINE
  5
109D
  8
ASSEMBLY
 66
     1
 10
0.0
 20
0.0
 30
0.0
  0
VERTEX
  5
1A51
  8
ASSEMBLY
 10
2.628741
 20
-2.224589
 30
0.0
  0
VERTEX
  5
1A52
  8
ASSEMBLY
 10
2.628741
 20
-2.284175
 30
0.0
  0
VERTEX
  5
1A53
  8
ASSEMBLY
 10
2.722243
 20
-2.284175
 30
0.0
  0
VERTEX
  5
1A54
  8
ASSEMBLY
 10
2.722243
 20
-2.224589
 30
0.0
  0
SEQEND
  5
1A55
  8
ASSEMBLY
  0
LINE
  5
10A3
  8
ASSEMBLY
 10
2.927164
 20
-2.224589
 30
0.0
 11
2.927164
 21
-2.438805
 31
0.0
  0
LINE
  5
10A4
  8
ASSEMBLY
 10
1.275
 20
-1.864691
 30
0.0
 11
1.275
 21
-1.334106
 31
0.0
  0
LINE
  5
10A5
  8
ASSEMBLY
 10
1.375
 20
-2.479505
 30
0.0
 11
1.375
 21
-1.864691
 31
0.0
  0
LINE
  5
10A6
  8
ASSEMBLY
 10
1.875
 20
-1.864691
 30
0.0
 11
1.875
 21
-1.334106
 31
0.0
  0
LINE
  5
10A7
  8
ASSEMBLY
 10
1.975
 20
-2.479505
 30
0.0
 11
1.975
 21
-1.864691
 31
0.0
  0
LINE
  5
10A8
  8
ASSEMBLY
 10
2.475
 20
-1.864691
 30
0.0
 11
2.475
 21
-1.334106
 31
0.0
  0
LINE
  5
10A9
  8
ASSEMBLY
 10
2.575
 20
-2.479505
 30
0.0
 11
2.575
 21
-1.864691
 31
0.0
  0
LINE
  5
10AA
  8
ASSEMBLY
 10
4.675
 20
-1.864691
 30
0.0
 11
4.675
 21
-1.334106
 31
0.0
  0
LINE
  5
10AB
  8
ASSEMBLY
 10
4.775
 20
-2.479505
 30
0.0
 11
4.775
 21
-1.864691
 31
0.0
  0
POLYLINE
  5
10AC
  8
ASSEMBLY
 66
     1
 10
0.0
 20
0.0
 30
0.0
 40
0.006013
 41
0.006013
  0
VERTEX
  5
1A56
  8
ASSEMBLY
 10
4.581609
 20
-1.407778
 30
0.0
  0
VERTEX
  5
1A57
  8
ASSEMBLY
 10
4.581609
 20
-1.48811
 30
0.0
  0
SEQEND
  5
1A58
  8
ASSEMBLY
  0
POLYLINE
  5
10B0
  8
ASSEMBLY
 66
     1
 10
0.0
 20
0.0
 30
0.0
 40
0.006013
 41
0.006013
  0
VERTEX
  5
1A59
  8
ASSEMBLY
 10
4.521477
 20
-1.48811
 30
0.0
  0
VERTEX
  5
1A5A
  8
ASSEMBLY
 10
4.641741
 20
-1.48811
 30
0.0
  0
SEQEND
  5
1A5B
  8
ASSEMBLY
  0
POLYLINE
  5
10B4
  8
ASSEMBLY
 66
     1
 10
0.0
 20
0.0
 30
0.0
 40
0.006013
 41
0.006013
  0
VERTEX
  5
1A5C
  8
ASSEMBLY
 10
4.547947
 20
-1.518176
 30
0.0
  0
VERTEX
  5
1A5D
  8
ASSEMBLY
 10
4.615272
 20
-1.518176
 30
0.0
  0
SEQEND
  5
1A5E
  8
ASSEMBLY
  0
POLYLINE
  5
10B8
  8
ASSEMBLY
 66
     1
 10
0.0
 20
0.0
 30
0.0
 40
0.006013
 41
0.006013
  0
VERTEX
  5
1A5F
  8
ASSEMBLY
 10
4.574417
 20
-1.548242
 30
0.0
  0
VERTEX
  5
1A60
  8
ASSEMBLY
 10
4.588802
 20
-1.548242
 30
0.0
  0
SEQEND
  5
1A61
  8
ASSEMBLY
  0
POLYLINE
  5
10BC
  8
ASSEMBLY
 66
     1
 10
0.0
 20
0.0
 30
0.0
 40
0.006013
 41
0.006013
  0
VERTEX
  5
1A62
  8
ASSEMBLY
 10
4.681609
 20
-1.941262
 30
0.0
  0
VERTEX
  5
1A63
  8
ASSEMBLY
 10
4.681609
 20
-2.021594
 30
0.0
  0
SEQEND
  5
1A64
  8
ASSEMBLY
  0
POLYLINE
  5
10C0
  8
ASSEMBLY
 66
     1
 10
0.0
 20
0.0
 30
0.0
 40
0.006013
 41
0.006013
  0
VERTEX
  5
1A65
  8
ASSEMBLY
 10
4.674417
 20
-2.081726
 30
0.0
  0
VERTEX
  5
1A66
  8
ASSEMBLY
 10
4.688802
 20
-2.081726
 30
0.0
  0
SEQEND
  5
1A67
  8
ASSEMBLY
  0
POLYLINE
  5
10C4
  8
ASSEMBLY
 66
     1
 10
0.0
 20
0.0
 30
0.0
 40
0.006013
 41
0.006013
  0
VERTEX
  5
1A68
  8
ASSEMBLY
 10
4.647947
 20
-2.05166
 30
0.0
  0
VERTEX
  5
1A69
  8
ASSEMBLY
 10
4.715272
 20
-2.05166
 30
0.0
  0
SEQEND
  5
1A6A
  8
ASSEMBLY
  0
POLYLINE
  5
10C8
  8
ASSEMBLY
 66
     1
 10
0.0
 20
0.0
 30
0.0
 40
0.006013
 41
0.006013
  0
VERTEX
  5
1A6B
  8
ASSEMBLY
 10
4.621477
 20
-2.021594
 30
0.0
  0
VERTEX
  5
1A6C
  8
ASSEMBLY
 10
4.741741
 20
-2.021594
 30
0.0
  0
SEQEND
  5
1A6D
  8
ASSEMBLY
  0
POLYLINE
  5
10ED
  8
ASSEMBLY
  6
CONTINUOUS
 66
     1
 10
0.0
 20
0.0
 30
0.0
 40
0.4
 41
0.4
  0
VERTEX
  5
1A6E
  8
ASSEMBLY
  6
CONTINUOUS
 10
3.819895
 20
1.345472
 30
0.0
  0
VERTEX
  5
1A6F
  8
ASSEMBLY
  6
CONTINUOUS
 10
4.819895
 20
1.345472
 30
0.0
  0
SEQEND
  5
1A70
  8
ASSEMBLY
  6
CONTINUOUS
  0
CIRCLE
  5
1139
  8
ASSEMBLY
 10
2.1805
 20
1.975
 30
0.0
 40
0.0175
  0
CIRCLE
  5
1154
  8
ASSEMBLY
 10
2.1355
 20
2.053
 30
0.0
 40
0.0175
  0
CIRCLE
  5
115E
  8
ASSEMBLY
 10
2.1805
 20
2.131
 30
0.0
 40
0.0175
  0
CIRCLE
  5
1177
  8
ASSEMBLY
 10
2.0905
 20
1.975
 30
0.0
 40
0.0175
  0
CIRCLE
  5
1192
  8
ASSEMBLY
 10
2.0455
 20
2.053
 30
0.0
 40
0.0175
  0
CIRCLE
  5
119C
  8
ASSEMBLY
 10
2.0905
 20
2.131
 30
0.0
 40
0.0175
  0
CIRCLE
  5
11B5
  8
ASSEMBLY
 10
2.0005
 20
1.975
 30
0.0
 40
0.0175
  0
CIRCLE
  5
11D0
  8
ASSEMBLY
 10
1.9555
 20
2.053
 30
0.0
 40
0.0175
  0
CIRCLE
  5
11DA
  8
ASSEMBLY
 10
2.0005
 20
2.131
 30
0.0
 40
0.0175
  0
CIRCLE
  5
1204
  8
ASSEMBLY
 10
3.0805
 20
1.975
 30
0.0
 40
0.0175
  0
CIRCLE
  5
1206
  8
ASSEMBLY
 10
3.0355
 20
2.053
 30
0.0
 40
0.0175
  0
CIRCLE
  5
1217
  8
ASSEMBLY
 10
2.9905
 20
2.131
 30
0.0
 40
0.0175
  0
CIRCLE
  5
1242
  8
ASSEMBLY
 10
3.1705
 20
1.975
 30
0.0
 40
0.0175
  0
CIRCLE
  5
1244
  8
ASSEMBLY
 10
3.1255
 20
2.053
 30
0.0
 40
0.0175
  0
CIRCLE
  5
1255
  8
ASSEMBLY
 10
3.0805
 20
2.131
 30
0.0
 40
0.0175
  0
CIRCLE
  5
1280
  8
ASSEMBLY
 10
3.2605
 20
1.975
 30
0.0
 40
0.0175
  0
CIRCLE
  5
1282
  8
ASSEMBLY
 10
3.2155
 20
2.053
 30
0.0
 40
0.0175
  0
CIRCLE
  5
1293
  8
ASSEMBLY
 10
3.1705
 20
2.131
 30
0.0
 40
0.0175
  0
LINE
  5
12AD
  8
ASSEMBLY
 10
2.850249
 20
-2.479505
 30
0.0
 11
2.850249
 21
-3.057967
 31
0.0
  0
POLYLINE
  5
12AE
  8
ASSEMBLY
 66
     1
 10
0.0
 20
0.0
 30
0.0
  0
VERTEX
  5
1A71
  8
ASSEMBLY
 10
2.89823
 20
-1.864691
 30
0.0
  0
VERTEX
  5
1A72
  8
ASSEMBLY
 10
2.89823
 20
-1.691106
 30
0.0
  0
VERTEX
  5
1A73
  8
ASSEMBLY
 10
3.05177
 20
-1.691106
 30
0.0
  0
VERTEX
  5
1A74
  8
ASSEMBLY
 10
3.05177
 20
-1.864691
 30
0.0
  0
SEQEND
  5
1A75
  8
ASSEMBLY
  0
POLYLINE
  5
12B4
  8
ASSEMBLY
 66
     1
 10
0.0
 20
0.0
 30
0.0
  0
VERTEX
  5
1A76
  8
ASSEMBLY
 10
2.928741
 20
-1.691106
 30
0.0
  0
VERTEX
  5
1A77
  8
ASSEMBLY
 10
2.928741
 20
-1.750692
 30
0.0
  0
VERTEX
  5
1A78
  8
ASSEMBLY
 10
3.022243
 20
-1.750692
 30
0.0
  0
VERTEX
  5
1A79
  8
ASSEMBLY
 10
3.022243
 20
-1.691106
 30
0.0
  0
SEQEND
  5
1A7A
  8
ASSEMBLY
  0
LINE
  5
12BA
  8
ASSEMBLY
 10
2.92382
 20
-1.691106
 30
0.0
 11
2.92382
 21
-1.864691
 31
0.0
  0
LINE
  5
12BB
  8
ASSEMBLY
 10
3.027164
 20
-1.691106
 30
0.0
 11
3.027164
 21
-1.864691
 31
0.0
  0
POLYLINE
  5
12BC
  8
ASSEMBLY
 66
     1
 10
0.0
 20
0.0
 30
0.0
 70
     1
  0
VERTEX
  5
1A7B
  8
ASSEMBLY
 10
2.99823
 20
-2.224589
 30
0.0
  0
VERTEX
  5
1A7C
  8
ASSEMBLY
 10
3.15177
 20
-2.224589
 30
0.0
  0
VERTEX
  5
1A7D
  8
ASSEMBLY
 10
3.15177
 20
-2.439297
 30
0.0
  0
VERTEX
  5
1A7E
  8
ASSEMBLY
 10
2.99823
 20
-2.439297
 30
0.0
  0
SEQEND
  5
1A7F
  8
ASSEMBLY
  0
POLYLINE
  5
12C2
  8
ASSEMBLY
 66
     1
 10
0.0
 20
0.0
 30
0.0
  0
VERTEX
  5
1A80
  8
ASSEMBLY
 10
3.028741
 20
-2.224589
 30
0.0
  0
VERTEX
  5
1A81
  8
ASSEMBLY
 10
3.028741
 20
-2.284175
 30
0.0
  0
VERTEX
  5
1A82
  8
ASSEMBLY
 10
3.122243
 20
-2.284175
 30
0.0
  0
VERTEX
  5
1A83
  8
ASSEMBLY
 10
3.122243
 20
-2.224589
 30
0.0
  0
SEQEND
  5
1A84
  8
ASSEMBLY
  0
LINE
  5
12C8
  8
ASSEMBLY
 10
3.02382
 20
-2.224589
 30
0.0
 11
3.02382
 21
-2.438805
 31
0.0
  0
LINE
  5
12C9
  8
ASSEMBLY
 10
3.127164
 20
-2.224589
 30
0.0
 11
3.127164
 21
-2.438805
 31
0.0
  0
POLYLINE
  5
12CA
  8
ASSEMBLY
 66
     1
 10
0.0
 20
0.0
 30
0.0
  0
VERTEX
  5
1A85
  8
ASSEMBLY
 10
3.09823
 20
-1.864691
 30
0.0
  0
VERTEX
  5
1A86
  8
ASSEMBLY
 10
3.09823
 20
-1.691106
 30
0.0
  0
VERTEX
  5
1A87
  8
ASSEMBLY
 10
3.25177
 20
-1.691106
 30
0.0
  0
VERTEX
  5
1A88
  8
ASSEMBLY
 10
3.25177
 20
-1.864691
 30
0.0
  0
SEQEND
  5
1A89
  8
ASSEMBLY
  0
POLYLINE
  5
12D0
  8
ASSEMBLY
 66
     1
 10
0.0
 20
0.0
 30
0.0
  0
VERTEX
  5
1A8A
  8
ASSEMBLY
 10
3.128741
 20
-1.691106
 30
0.0
  0
VERTEX
  5
1A8B
  8
ASSEMBLY
 10
3.128741
 20
-1.750692
 30
0.0
  0
VERTEX
  5
1A8C
  8
ASSEMBLY
 10
3.222243
 20
-1.750692
 30
0.0
  0
VERTEX
  5
1A8D
  8
ASSEMBLY
 10
3.222243
 20
-1.691106
 30
0.0
  0
SEQEND
  5
1A8E
  8
ASSEMBLY
  0
LINE
  5
12D6
  8
ASSEMBLY
 10
3.12382
 20
-1.691106
 30
0.0
 11
3.12382
 21
-1.864691
 31
0.0
  0
LINE
  5
12D7
  8
ASSEMBLY
 10
3.227164
 20
-1.691106
 30
0.0
 11
3.227164
 21
-1.864691
 31
0.0
  0
POLYLINE
  5
12D8
  8
ASSEMBLY
 66
     1
 10
0.0
 20
0.0
 30
0.0
 70
     1
  0
VERTEX
  5
1A8F
  8
ASSEMBLY
 10
3.19823
 20
-2.224589
 30
0.0
  0
VERTEX
  5
1A90
  8
ASSEMBLY
 10
3.35177
 20
-2.224589
 30
0.0
  0
VERTEX
  5
1A91
  8
ASSEMBLY
 10
3.35177
 20
-2.439297
 30
0.0
  0
VERTEX
  5
1A92
  8
ASSEMBLY
 10
3.19823
 20
-2.439297
 30
0.0
  0
SEQEND
  5
1A93
  8
ASSEMBLY
  0
POLYLINE
  5
12DE
  8
ASSEMBLY
 66
     1
 10
0.0
 20
0.0
 30
0.0
  0
VERTEX
  5
1A94
  8
ASSEMBLY
 10
3.228741
 20
-2.224589
 30
0.0
  0
VERTEX
  5
1A95
  8
ASSEMBLY
 10
3.228741
 20
-2.284175
 30
0.0
  0
VERTEX
  5
1A96
  8
ASSEMBLY
 10
3.322243
 20
-2.284175
 30
0.0
  0
VERTEX
  5
1A97
  8
ASSEMBLY
 10
3.322243
 20
-2.224589
 30
0.0
  0
SEQEND
  5
1A98
  8
ASSEMBLY
  0
LINE
  5
12E4
  8
ASSEMBLY
 10
3.22382
 20
-2.224589
 30
0.0
 11
3.22382
 21
-2.438805
 31
0.0
  0
LINE
  5
12E5
  8
ASSEMBLY
 10
3.327164
 20
-2.224589
 30
0.0
 11
3.327164
 21
-2.438805
 31
0.0
  0
POLYLINE
  5
12E6
  8
ASSEMBLY
 66
     1
 10
0.0
 20
0.0
 30
0.0
  0
VERTEX
  5
1A99
  8
ASSEMBLY
 10
3.29823
 20
-1.864691
 30
0.0
  0
VERTEX
  5
1A9A
  8
ASSEMBLY
 10
3.29823
 20
-1.691106
 30
0.0
  0
VERTEX
  5
1A9B
  8
ASSEMBLY
 10
3.45177
 20
-1.691106
 30
0.0
  0
VERTEX
  5
1A9C
  8
ASSEMBLY
 10
3.45177
 20
-1.864691
 30
0.0
  0
SEQEND
  5
1A9D
  8
ASSEMBLY
  0
POLYLINE
  5
12EC
  8
ASSEMBLY
 66
     1
 10
0.0
 20
0.0
 30
0.0
  0
VERTEX
  5
1A9E
  8
ASSEMBLY
 10
3.328741
 20
-1.691106
 30
0.0
  0
VERTEX
  5
1A9F
  8
ASSEMBLY
 10
3.328741
 20
-1.750692
 30
0.0
  0
VERTEX
  5
1AA0
  8
ASSEMBLY
 10
3.422243
 20
-1.750692
 30
0.0
  0
VERTEX
  5
1AA1
  8
ASSEMBLY
 10
3.422243
 20
-1.691106
 30
0.0
  0
SEQEND
  5
1AA2
  8
ASSEMBLY
  0
LINE
  5
12F2
  8
ASSEMBLY
 10
3.32382
 20
-1.691106
 30
0.0
 11
3.32382
 21
-1.864691
 31
0.0
  0
LINE
  5
12F3
  8
ASSEMBLY
 10
3.427164
 20
-1.691106
 30
0.0
 11
3.427164
 21
-1.864691
 31
0.0
  0
POLYLINE
  5
12F4
  8
ASSEMBLY
 66
     1
 10
0.0
 20
0.0
 30
0.0
 70
     1
  0
VERTEX
  5
1AA3
  8
ASSEMBLY
 10
3.39823
 20
-2.224589
 30
0.0
  0
VERTEX
  5
1AA4
  8
ASSEMBLY
 10
3.55177
 20
-2.224589
 30
0.0
  0
VERTEX
  5
1AA5
  8
ASSEMBLY
 10
3.55177
 20
-2.439297
 30
0.0
  0
VERTEX
  5
1AA6
  8
ASSEMBLY
 10
3.39823
 20
-2.439297
 30
0.0
  0
SEQEND
  5
1AA7
  8
ASSEMBLY
  0
POLYLINE
  5
12FA
  8
ASSEMBLY
 66
     1
 10
0.0
 20
0.0
 30
0.0
  0
VERTEX
  5
1AA8
  8
ASSEMBLY
 10
3.428741
 20
-2.224589
 30
0.0
  0
VERTEX
  5
1AA9
  8
ASSEMBLY
 10
3.428741
 20
-2.284175
 30
0.0
  0
VERTEX
  5
1AAA
  8
ASSEMBLY
 10
3.522243
 20
-2.284175
 30
0.0
  0
VERTEX
  5
1AAB
  8
ASSEMBLY
 10
3.522243
 20
-2.224589
 30
0.0
  0
SEQEND
  5
1AAC
  8
ASSEMBLY
  0
LINE
  5
1300
  8
ASSEMBLY
 10
3.42382
 20
-2.224589
 30
0.0
 11
3.42382
 21
-2.438805
 31
0.0
  0
LINE
  5
1301
  8
ASSEMBLY
 10
3.527164
 20
-2.224589
 30
0.0
 11
3.527164
 21
-2.438805
 31
0.0
  0
POLYLINE
  5
1302
  8
ASSEMBLY
 66
     1
 10
0.0
 20
0.0
 30
0.0
  0
VERTEX
  5
1AAD
  8
ASSEMBLY
 10
3.49823
 20
-1.864691
 30
0.0
  0
VERTEX
  5
1AAE
  8
ASSEMBLY
 10
3.49823
 20
-1.691106
 30
0.0
  0
VERTEX
  5
1AAF
  8
ASSEMBLY
 10
3.65177
 20
-1.691106
 30
0.0
  0
VERTEX
  5
1AB0
  8
ASSEMBLY
 10
3.65177
 20
-1.864691
 30
0.0
  0
SEQEND
  5
1AB1
  8
ASSEMBLY
  0
POLYLINE
  5
1308
  8
ASSEMBLY
 66
     1
 10
0.0
 20
0.0
 30
0.0
  0
VERTEX
  5
1AB2
  8
ASSEMBLY
 10
3.528741
 20
-1.691106
 30
0.0
  0
VERTEX
  5
1AB3
  8
ASSEMBLY
 10
3.528741
 20
-1.750692
 30
0.0
  0
VERTEX
  5
1AB4
  8
ASSEMBLY
 10
3.622243
 20
-1.750692
 30
0.0
  0
VERTEX
  5
1AB5
  8
ASSEMBLY
 10
3.622243
 20
-1.691106
 30
0.0
  0
SEQEND
  5
1AB6
  8
ASSEMBLY
  0
LINE
  5
130E
  8
ASSEMBLY
 10
3.52382
 20
-1.691106
 30
0.0
 11
3.52382
 21
-1.864691
 31
0.0
  0
LINE
  5
130F
  8
ASSEMBLY
 10
3.627164
 20
-1.691106
 30
0.0
 11
3.627164
 21
-1.864691
 31
0.0
  0
POLYLINE
  5
1310
  8
ASSEMBLY
 66
     1
 10
0.0
 20
0.0
 30
0.0
 70
     1
  0
VERTEX
  5
1AB7
  8
ASSEMBLY
 10
3.59823
 20
-2.224589
 30
0.0
  0
VERTEX
  5
1AB8
  8
ASSEMBLY
 10
3.75177
 20
-2.224589
 30
0.0
  0
VERTEX
  5
1AB9
  8
ASSEMBLY
 10
3.75177
 20
-2.439297
 30
0.0
  0
VERTEX
  5
1ABA
  8
ASSEMBLY
 10
3.59823
 20
-2.439297
 30
0.0
  0
SEQEND
  5
1ABB
  8
ASSEMBLY
  0
POLYLINE
  5
1316
  8
ASSEMBLY
 66
     1
 10
0.0
 20
0.0
 30
0.0
  0
VERTEX
  5
1ABC
  8
ASSEMBLY
 10
3.628741
 20
-2.224589
 30
0.0
  0
VERTEX
  5
1ABD
  8
ASSEMBLY
 10
3.628741
 20
-2.284175
 30
0.0
  0
VERTEX
  5
1ABE
  8
ASSEMBLY
 10
3.722243
 20
-2.284175
 30
0.0
  0
VERTEX
  5
1ABF
  8
ASSEMBLY
 10
3.722243
 20
-2.224589
 30
0.0
  0
SEQEND
  5
1AC0
  8
ASSEMBLY
  0
LINE
  5
131C
  8
ASSEMBLY
 10
3.62382
 20
-2.224589
 30
0.0
 11
3.62382
 21
-2.438805
 31
0.0
  0
LINE
  5
131D
  8
ASSEMBLY
 10
3.727164
 20
-2.224589
 30
0.0
 11
3.727164
 21
-2.438805
 31
0.0
  0
POLYLINE
  5
131E
  8
ASSEMBLY
 66
     1
 10
0.0
 20
0.0
 30
0.0
  0
VERTEX
  5
1AC1
  8
ASSEMBLY
 10
3.69823
 20
-1.864691
 30
0.0
  0
VERTEX
  5
1AC2
  8
ASSEMBLY
 10
3.69823
 20
-1.691106
 30
0.0
  0
VERTEX
  5
1AC3
  8
ASSEMBLY
 10
3.85177
 20
-1.691106
 30
0.0
  0
VERTEX
  5
1AC4
  8
ASSEMBLY
 10
3.85177
 20
-1.864691
 30
0.0
  0
SEQEND
  5
1AC5
  8
ASSEMBLY
  0
POLYLINE
  5
1324
  8
ASSEMBLY
 66
     1
 10
0.0
 20
0.0
 30
0.0
  0
VERTEX
  5
1AC6
  8
ASSEMBLY
 10
3.728741
 20
-1.691106
 30
0.0
  0
VERTEX
  5
1AC7
  8
ASSEMBLY
 10
3.728741
 20
-1.750692
 30
0.0
  0
VERTEX
  5
1AC8
  8
ASSEMBLY
 10
3.822243
 20
-1.750692
 30
0.0
  0
VERTEX
  5
1AC9
  8
ASSEMBLY
 10
3.822243
 20
-1.691106
 30
0.0
  0
SEQEND
  5
1ACA
  8
ASSEMBLY
  0
LINE
  5
132A
  8
ASSEMBLY
 10
3.72382
 20
-1.691106
 30
0.0
 11
3.72382
 21
-1.864691
 31
0.0
  0
LINE
  5
132B
  8
ASSEMBLY
 10
3.827164
 20
-1.691106
 30
0.0
 11
3.827164
 21
-1.864691
 31
0.0
  0
POLYLINE
  5
132C
  8
ASSEMBLY
 66
     1
 10
0.0
 20
0.0
 30
0.0
 70
     1
  0
VERTEX
  5
1ACB
  8
ASSEMBLY
 10
3.79823
 20
-2.224589
 30
0.0
  0
VERTEX
  5
1ACC
  8
ASSEMBLY
 10
3.95177
 20
-2.224589
 30
0.0
  0
VERTEX
  5
1ACD
  8
ASSEMBLY
 10
3.95177
 20
-2.439297
 30
0.0
  0
VERTEX
  5
1ACE
  8
ASSEMBLY
 10
3.79823
 20
-2.439297
 30
0.0
  0
SEQEND
  5
1ACF
  8
ASSEMBLY
  0
POLYLINE
  5
1332
  8
ASSEMBLY
 66
     1
 10
0.0
 20
0.0
 30
0.0
  0
VERTEX
  5
1AD0
  8
ASSEMBLY
 10
3.828741
 20
-2.224589
 30
0.0
  0
VERTEX
  5
1AD1
  8
ASSEMBLY
 10
3.828741
 20
-2.284175
 30
0.0
  0
VERTEX
  5
1AD2
  8
ASSEMBLY
 10
3.922243
 20
-2.284175
 30
0.0
  0
VERTEX
  5
1AD3
  8
ASSEMBLY
 10
3.922243
 20
-2.224589
 30
0.0
  0
SEQEND
  5
1AD4
  8
ASSEMBLY
  0
LINE
  5
1338
  8
ASSEMBLY
 10
3.82382
 20
-2.224589
 30
0.0
 11
3.82382
 21
-2.438805
 31
0.0
  0
LINE
  5
1339
  8
ASSEMBLY
 10
3.927164
 20
-2.224589
 30
0.0
 11
3.927164
 21
-2.438805
 31
0.0
  0
POLYLINE
  5
133A
  8
ASSEMBLY
 66
     1
 10
0.0
 20
0.0
 30
0.0
  0
VERTEX
  5
1AD5
  8
ASSEMBLY
 10
3.89823
 20
-1.864691
 30
0.0
  0
VERTEX
  5
1AD6
  8
ASSEMBLY
 10
3.89823
 20
-1.691106
 30
0.0
  0
VERTEX
  5
1AD7
  8
ASSEMBLY
 10
4.05177
 20
-1.691106
 30
0.0
  0
VERTEX
  5
1AD8
  8
ASSEMBLY
 10
4.05177
 20
-1.864691
 30
0.0
  0
SEQEND
  5
1AD9
  8
ASSEMBLY
  0
POLYLINE
  5
1340
  8
ASSEMBLY
 66
     1
 10
0.0
 20
0.0
 30
0.0
  0
VERTEX
  5
1ADA
  8
ASSEMBLY
 10
3.928741
 20
-1.691106
 30
0.0
  0
VERTEX
  5
1ADB
  8
ASSEMBLY
 10
3.928741
 20
-1.750692
 30
0.0
  0
VERTEX
  5
1ADC
  8
ASSEMBLY
 10
4.022243
 20
-1.750692
 30
0.0
  0
VERTEX
  5
1ADD
  8
ASSEMBLY
 10
4.022243
 20
-1.691106
 30
0.0
  0
SEQEND
  5
1ADE
  8
ASSEMBLY
  0
LINE
  5
1346
  8
ASSEMBLY
 10
3.92382
 20
-1.691106
 30
0.0
 11
3.92382
 21
-1.864691
 31
0.0
  0
LINE
  5
1347
  8
ASSEMBLY
 10
4.027164
 20
-1.691106
 30
0.0
 11
4.027164
 21
-1.864691
 31
0.0
  0
POLYLINE
  5
1348
  8
ASSEMBLY
 66
     1
 10
0.0
 20
0.0
 30
0.0
 70
     1
  0
VERTEX
  5
1ADF
  8
ASSEMBLY
 10
3.99823
 20
-2.224589
 30
0.0
  0
VERTEX
  5
1AE0
  8
ASSEMBLY
 10
4.15177
 20
-2.224589
 30
0.0
  0
VERTEX
  5
1AE1
  8
ASSEMBLY
 10
4.15177
 20
-2.439297
 30
0.0
  0
VERTEX
  5
1AE2
  8
ASSEMBLY
 10
3.99823
 20
-2.439297
 30
0.0
  0
SEQEND
  5
1AE3
  8
ASSEMBLY
  0
POLYLINE
  5
134E
  8
ASSEMBLY
 66
     1
 10
0.0
 20
0.0
 30
0.0
  0
VERTEX
  5
1AE4
  8
ASSEMBLY
 10
4.028741
 20
-2.224589
 30
0.0
  0
VERTEX
  5
1AE5
  8
ASSEMBLY
 10
4.028741
 20
-2.284175
 30
0.0
  0
VERTEX
  5
1AE6
  8
ASSEMBLY
 10
4.122243
 20
-2.284175
 30
0.0
  0
VERTEX
  5
1AE7
  8
ASSEMBLY
 10
4.122243
 20
-2.224589
 30
0.0
  0
SEQEND
  5
1AE8
  8
ASSEMBLY
  0
LINE
  5
1354
  8
ASSEMBLY
 10
4.02382
 20
-2.224589
 30
0.0
 11
4.02382
 21
-2.438805
 31
0.0
  0
LINE
  5
1355
  8
ASSEMBLY
 10
4.127164
 20
-2.224589
 30
0.0
 11
4.127164
 21
-2.438805
 31
0.0
  0
POLYLINE
  5
1356
  8
ASSEMBLY
 66
     1
 10
0.0
 20
0.0
 30
0.0
  0
VERTEX
  5
1AE9
  8
ASSEMBLY
 10
4.09823
 20
-1.864691
 30
0.0
  0
VERTEX
  5
1AEA
  8
ASSEMBLY
 10
4.09823
 20
-1.691106
 30
0.0
  0
VERTEX
  5
1AEB
  8
ASSEMBLY
 10
4.25177
 20
-1.691106
 30
0.0
  0
VERTEX
  5
1AEC
  8
ASSEMBLY
 10
4.25177
 20
-1.864691
 30
0.0
  0
SEQEND
  5
1AED
  8
ASSEMBLY
  0
POLYLINE
  5
135C
  8
ASSEMBLY
 66
     1
 10
0.0
 20
0.0
 30
0.0
  0
VERTEX
  5
1AEE
  8
ASSEMBLY
 10
4.128741
 20
-1.691106
 30
0.0
  0
VERTEX
  5
1AEF
  8
ASSEMBLY
 10
4.128741
 20
-1.750692
 30
0.0
  0
VERTEX
  5
1AF0
  8
ASSEMBLY
 10
4.222243
 20
-1.750692
 30
0.0
  0
VERTEX
  5
1AF1
  8
ASSEMBLY
 10
4.222243
 20
-1.691106
 30
0.0
  0
SEQEND
  5
1AF2
  8
ASSEMBLY
  0
LINE
  5
1362
  8
ASSEMBLY
 10
4.12382
 20
-1.691106
 30
0.0
 11
4.12382
 21
-1.864691
 31
0.0
  0
LINE
  5
1363
  8
ASSEMBLY
 10
4.227164
 20
-1.691106
 30
0.0
 11
4.227164
 21
-1.864691
 31
0.0
  0
POLYLINE
  5
1364
  8
ASSEMBLY
 66
     1
 10
0.0
 20
0.0
 30
0.0
 70
     1
  0
VERTEX
  5
1AF3
  8
ASSEMBLY
 10
4.19823
 20
-2.224589
 30
0.0
  0
VERTEX
  5
1AF4
  8
ASSEMBLY
 10
4.35177
 20
-2.224589
 30
0.0
  0
VERTEX
  5
1AF5
  8
ASSEMBLY
 10
4.35177
 20
-2.439297
 30
0.0
  0
VERTEX
  5
1AF6
  8
ASSEMBLY
 10
4.19823
 20
-2.439297
 30
0.0
  0
SEQEND
  5
1AF7
  8
ASSEMBLY
  0
POLYLINE
  5
136A
  8
ASSEMBLY
 66
     1
 10
0.0
 20
0.0
 30
0.0
  0
VERTEX
  5
1AF8
  8
ASSEMBLY
 10
4.228741
 20
-2.224589
 30
0.0
  0
VERTEX
  5
1AF9
  8
ASSEMBLY
 10
4.228741
 20
-2.284175
 30
0.0
  0
VERTEX
  5
1AFA
  8
ASSEMBLY
 10
4.322243
 20
-2.284175
 30
0.0
  0
VERTEX
  5
1AFB
  8
ASSEMBLY
 10
4.322243
 20
-2.224589
 30
0.0
  0
SEQEND
  5
1AFC
  8
ASSEMBLY
  0
LINE
  5
1370
  8
ASSEMBLY
 10
4.22382
 20
-2.224589
 30
0.0
 11
4.22382
 21
-2.438805
 31
0.0
  0
LINE
  5
1371
  8
ASSEMBLY
 10
4.327164
 20
-2.224589
 30
0.0
 11
4.327164
 21
-2.438805
 31
0.0
  0
POLYLINE
  5
1372
  8
ASSEMBLY
 66
     1
 10
0.0
 20
0.0
 30
0.0
  0
VERTEX
  5
1AFD
  8
ASSEMBLY
 10
4.29823
 20
-1.864691
 30
0.0
  0
VERTEX
  5
1AFE
  8
ASSEMBLY
 10
4.29823
 20
-1.691106
 30
0.0
  0
VERTEX
  5
1AFF
  8
ASSEMBLY
 10
4.45177
 20
-1.691106
 30
0.0
  0
VERTEX
  5
1B00
  8
ASSEMBLY
 10
4.45177
 20
-1.864691
 30
0.0
  0
SEQEND
  5
1B01
  8
ASSEMBLY
  0
POLYLINE
  5
1378
  8
ASSEMBLY
 66
     1
 10
0.0
 20
0.0
 30
0.0
  0
VERTEX
  5
1B02
  8
ASSEMBLY
 10
4.328741
 20
-1.691106
 30
0.0
  0
VERTEX
  5
1B03
  8
ASSEMBLY
 10
4.328741
 20
-1.750692
 30
0.0
  0
VERTEX
  5
1B04
  8
ASSEMBLY
 10
4.422243
 20
-1.750692
 30
0.0
  0
VERTEX
  5
1B05
  8
ASSEMBLY
 10
4.422243
 20
-1.691106
 30
0.0
  0
SEQEND
  5
1B06
  8
ASSEMBLY
  0
LINE
  5
137E
  8
ASSEMBLY
 10
4.32382
 20
-1.691106
 30
0.0
 11
4.32382
 21
-1.864691
 31
0.0
  0
LINE
  5
137F
  8
ASSEMBLY
 10
4.427164
 20
-1.691106
 30
0.0
 11
4.427164
 21
-1.864691
 31
0.0
  0
POLYLINE
  5
1380
  8
ASSEMBLY
 66
     1
 10
0.0
 20
0.0
 30
0.0
 70
     1
  0
VERTEX
  5
1B07
  8
ASSEMBLY
 10
4.39823
 20
-2.224589
 30
0.0
  0
VERTEX
  5
1B08
  8
ASSEMBLY
 10
4.55177
 20
-2.224589
 30
0.0
  0
VERTEX
  5
1B09
  8
ASSEMBLY
 10
4.55177
 20
-2.439297
 30
0.0
  0
VERTEX
  5
1B0A
  8
ASSEMBLY
 10
4.39823
 20
-2.439297
 30
0.0
  0
SEQEND
  5
1B0B
  8
ASSEMBLY
  0
POLYLINE
  5
1386
  8
ASSEMBLY
 66
     1
 10
0.0
 20
0.0
 30
0.0
  0
VERTEX
  5
1B0C
  8
ASSEMBLY
 10
4.428741
 20
-2.224589
 30
0.0
  0
VERTEX
  5
1B0D
  8
ASSEMBLY
 10
4.428741
 20
-2.284175
 30
0.0
  0
VERTEX
  5
1B0E
  8
ASSEMBLY
 10
4.522243
 20
-2.284175
 30
0.0
  0
VERTEX
  5
1B0F
  8
ASSEMBLY
 10
4.522243
 20
-2.224589
 30
0.0
  0
SEQEND
  5
1B10
  8
ASSEMBLY
  0
LINE
  5
138C
  8
ASSEMBLY
 10
4.42382
 20
-2.224589
 30
0.0
 11
4.42382
 21
-2.438805
 31
0.0
  0
LINE
  5
138D
  8
ASSEMBLY
 10
4.527164
 20
-2.224589
 30
0.0
 11
4.527164
 21
-2.438805
 31
0.0
  0
POLYLINE
  5
138E
  8
ASSEMBLY
 66
     1
 10
0.0
 20
0.0
 30
0.0
  0
VERTEX
  5
1B11
  8
ASSEMBLY
 10
4.49823
 20
-1.864691
 30
0.0
  0
VERTEX
  5
1B12
  8
ASSEMBLY
 10
4.49823
 20
-1.691106
 30
0.0
  0
VERTEX
  5
1B13
  8
ASSEMBLY
 10
4.65177
 20
-1.691106
 30
0.0
  0
VERTEX
  5
1B14
  8
ASSEMBLY
 10
4.65177
 20
-1.864691
 30
0.0
  0
SEQEND
  5
1B15
  8
ASSEMBLY
  0
POLYLINE
  5
1394
  8
ASSEMBLY
 66
     1
 10
0.0
 20
0.0
 30
0.0
  0
VERTEX
  5
1B16
  8
ASSEMBLY
 10
4.528741
 20
-1.691106
 30
0.0
  0
VERTEX
  5
1B17
  8
ASSEMBLY
 10
4.528741
 20
-1.750692
 30
0.0
  0
VERTEX
  5
1B18
  8
ASSEMBLY
 10
4.622243
 20
-1.750692
 30
0.0
  0
VERTEX
  5
1B19
  8
ASSEMBLY
 10
4.622243
 20
-1.691106
 30
0.0
  0
SEQEND
  5
1B1A
  8
ASSEMBLY
  0
LINE
  5
139A
  8
ASSEMBLY
 10
4.52382
 20
-1.691106
 30
0.0
 11
4.52382
 21
-1.864691
 31
0.0
  0
LINE
  5
139B
  8
ASSEMBLY
 10
4.627164
 20
-1.691106
 30
0.0
 11
4.627164
 21
-1.864691
 31
0.0
  0
POLYLINE
  5
139C
  8
ASSEMBLY
 66
     1
 10
0.0
 20
0.0
 30
0.0
 70
     1
  0
VERTEX
  5
1B1B
  8
ASSEMBLY
 10
4.59823
 20
-2.224589
 30
0.0
  0
VERTEX
  5
1B1C
  8
ASSEMBLY
 10
4.75177
 20
-2.224589
 30
0.0
  0
VERTEX
  5
1B1D
  8
ASSEMBLY
 10
4.75177
 20
-2.439297
 30
0.0
  0
VERTEX
  5
1B1E
  8
ASSEMBLY
 10
4.59823
 20
-2.439297
 30
0.0
  0
SEQEND
  5
1B1F
  8
ASSEMBLY
  0
POLYLINE
  5
13A2
  8
ASSEMBLY
 66
     1
 10
0.0
 20
0.0
 30
0.0
  0
VERTEX
  5
1B20
  8
ASSEMBLY
 10
4.628741
 20
-2.224589
 30
0.0
  0
VERTEX
  5
1B21
  8
ASSEMBLY
 10
4.628741
 20
-2.284175
 30
0.0
  0
VERTEX
  5
1B22
  8
ASSEMBLY
 10
4.722243
 20
-2.284175
 30
0.0
  0
VERTEX
  5
1B23
  8
ASSEMBLY
 10
4.722243
 20
-2.224589
 30
0.0
  0
SEQEND
  5
1B24
  8
ASSEMBLY
  0
LINE
  5
13A8
  8
ASSEMBLY
 10
4.62382
 20
-2.224589
 30
0.0
 11
4.62382
 21
-2.438805
 31
0.0
  0
LINE
  5
13A9
  8
ASSEMBLY
 10
4.727164
 20
-2.224589
 30
0.0
 11
4.727164
 21
-2.438805
 31
0.0
  0
TEXT
  5
13AA
  8
ASSEMBLY
 10
2.712143
 20
-1.518106
 30
0.0
 40
0.08
  1
14
 41
0.75
  7
ROMANS
 72
     1
 11
2.775
 21
-1.478106
 31
0.0
 73
     2
  0
TEXT
  5
13AB
  8
ASSEMBLY
 10
2.913571
 20
-1.518106
 30
0.0
 40
0.08
  1
15
 41
0.75
  7
ROMANS
 72
     1
 11
2.975
 21
-1.478106
 31
0.0
 73
     2
  0
TEXT
  5
13AC
  8
ASSEMBLY
 10
3.113571
 20
-1.518106
 30
0.0
 40
0.08
  1
16
 41
0.75
  7
ROMANS
 72
     1
 11
3.175
 21
-1.478106
 31
0.0
 73
     2
  0
TEXT
  5
13AD
  8
ASSEMBLY
 10
3.313571
 20
-1.518106
 30
0.0
 40
0.08
  1
17
 41
0.75
  7
ROMANS
 72
     1
 11
3.375
 21
-1.478106
 31
0.0
 73
     2
  0
TEXT
  5
13AE
  8
ASSEMBLY
 10
3.513571
 20
-1.518106
 30
0.0
 40
0.08
  1
18
 41
0.75
  7
ROMANS
 72
     1
 11
3.575
 21
-1.478106
 31
0.0
 73
     2
  0
TEXT
  5
13AF
  8
ASSEMBLY
 10
3.715
 20
-1.518106
 30
0.0
 40
0.08
  1
19
 41
0.75
  7
ROMANS
 72
     1
 11
3.775
 21
-1.478106
 31
0.0
 73
     2
  0
TEXT
  5
13B0
  8
ASSEMBLY
 10
3.917857
 20
-1.518106
 30
0.0
 40
0.08
  1
20
 41
0.75
  7
ROMANS
 72
     1
 11
3.975
 21
-1.478106
 31
0.0
 73
     2
  0
TEXT
  5
13B1
  8
ASSEMBLY
 10
4.126429
 20
-1.518106
 30
0.0
 40
0.08
  1
21
 41
0.75
  7
ROMANS
 72
     1
 11
4.175
 21
-1.478106
 31
0.0
 73
     2
  0
TEXT
  5
13B2
  8
ASSEMBLY
 10
4.317857
 20
-1.518106
 30
0.0
 40
0.08
  1
22
 41
0.75
  7
ROMANS
 72
     1
 11
4.375
 21
-1.478106
 31
0.0
 73
     2
  0
TEXT
  5
13B3
  8
ASSEMBLY
 10
0.416429
 20
-2.051589
 30
0.0
 40
0.08
  1
24
 41
0.75
  7
ROMANS
 72
     4
 11
0.475
 21
-2.011589
 31
0.0
  0
TEXT
  5
13B4
  8
ASSEMBLY
 10
0.617857
 20
-2.051589
 30
0.0
 40
0.08
  1
25
 41
0.75
  7
ROMANS
 72
     4
 11
0.675
 21
-2.011589
 31
0.0
  0
TEXT
  5
13B5
  8
ASSEMBLY
 10
0.817857
 20
-2.051589
 30
0.0
 40
0.08
  1
26
 41
0.75
  7
ROMANS
 72
     4
 11
0.875
 21
-2.011589
 31
0.0
  0
TEXT
  5
13B6
  8
ASSEMBLY
 10
1.017857
 20
-2.051589
 30
0.0
 40
0.08
  1
27
 41
0.75
  7
ROMANS
 72
     4
 11
1.075
 21
-2.011589
 31
0.0
  0
TEXT
  5
13B7
  8
ASSEMBLY
 10
1.217857
 20
-2.051589
 30
0.0
 40
0.08
  1
28
 41
0.75
  7
ROMANS
 72
     4
 11
1.275
 21
-2.011589
 31
0.0
  0
TEXT
  5
13B8
  8
ASSEMBLY
 10
1.419286
 20
-2.051589
 30
0.0
 40
0.08
  1
29
 41
0.75
  7
ROMANS
 72
     4
 11
1.475
 21
-2.011589
 31
0.0
  0
TEXT
  5
13B9
  8
ASSEMBLY
 10
1.617857
 20
-2.051589
 30
0.0
 40
0.08
  1
30
 41
0.75
  7
ROMANS
 72
     4
 11
1.675
 21
-2.011589
 31
0.0
  0
TEXT
  5
13BA
  8
ASSEMBLY
 10
1.826429
 20
-2.051589
 30
0.0
 40
0.08
  1
31
 41
0.75
  7
ROMANS
 72
     4
 11
1.875
 21
-2.011589
 31
0.0
  0
TEXT
  5
13BB
  8
ASSEMBLY
 10
2.017857
 20
-2.051589
 30
0.0
 40
0.08
  1
32
 41
0.75
  7
ROMANS
 72
     4
 11
2.075
 21
-2.011589
 31
0.0
  0
TEXT
  5
13BC
  8
ASSEMBLY
 10
2.217857
 20
-2.051589
 30
0.0
 40
0.08
  1
33
 41
0.75
  7
ROMANS
 72
     4
 11
2.275
 21
-2.011589
 31
0.0
  0
TEXT
  5
13BD
  8
ASSEMBLY
 10
2.416429
 20
-2.051589
 30
0.0
 40
0.08
  1
34
 41
0.75
  7
ROMANS
 72
     4
 11
2.475
 21
-2.011589
 31
0.0
  0
TEXT
  5
13BE
  8
ASSEMBLY
 10
2.617857
 20
-2.051589
 30
0.0
 40
0.08
  1
35
 41
0.75
  7
ROMANS
 72
     4
 11
2.675
 21
-2.011589
 31
0.0
  0
TEXT
  5
13BF
  8
ASSEMBLY
 10
2.817857
 20
-2.051589
 30
0.0
 40
0.08
  1
36
 41
0.75
  7
ROMANS
 72
     4
 11
2.875
 21
-2.011589
 31
0.0
  0
TEXT
  5
13C0
  8
ASSEMBLY
 10
3.017857
 20
-2.051589
 30
0.0
 40
0.08
  1
37
 41
0.75
  7
ROMANS
 72
     4
 11
3.075
 21
-2.011589
 31
0.0
  0
TEXT
  5
13C1
  8
ASSEMBLY
 10
3.217857
 20
-2.051589
 30
0.0
 40
0.08
  1
38
 41
0.75
  7
ROMANS
 72
     4
 11
3.275
 21
-2.011589
 31
0.0
  0
TEXT
  5
13C2
  8
ASSEMBLY
 10
3.419286
 20
-2.051589
 30
0.0
 40
0.08
  1
39
 41
0.75
  7
ROMANS
 72
     4
 11
3.475
 21
-2.011589
 31
0.0
  0
TEXT
  5
13C3
  8
ASSEMBLY
 10
3.617857
 20
-2.051589
 30
0.0
 40
0.08
  1
40
 41
0.75
  7
ROMANS
 72
     4
 11
3.675
 21
-2.011589
 31
0.0
  0
TEXT
  5
13C4
  8
ASSEMBLY
 10
3.826429
 20
-2.051589
 30
0.0
 40
0.08
  1
41
 41
0.75
  7
ROMANS
 72
     4
 11
3.875
 21
-2.011589
 31
0.0
  0
TEXT
  5
13C5
  8
ASSEMBLY
 10
4.017857
 20
-2.051589
 30
0.0
 40
0.08
  1
42
 41
0.75
  7
ROMANS
 72
     4
 11
4.075
 21
-2.011589
 31
0.0
  0
TEXT
  5
13C6
  8
ASSEMBLY
 10
4.217857
 20
-2.051589
 30
0.0
 40
0.08
  1
43
 41
0.75
  7
ROMANS
 72
     4
 11
4.275
 21
-2.011589
 31
0.0
  0
TEXT
  5
13C7
  8
ASSEMBLY
 10
4.416429
 20
-2.051589
 30
0.0
 40
0.08
  1
44
 41
0.75
  7
ROMANS
 72
     4
 11
4.475
 21
-2.011589
 31
0.0
  0
LINE
  5
13C8
  8
ASSEMBLY
 10
3.075
 20
-1.864691
 30
0.0
 11
3.075
 21
-1.334106
 31
0.0
  0
LINE
  5
13C9
  8
ASSEMBLY
 10
3.175
 20
-2.479505
 30
0.0
 11
3.175
 21
-1.864691
 31
0.0
  0
LINE
  5
13CA
  8
ASSEMBLY
 10
3.675
 20
-1.864691
 30
0.0
 11
3.675
 21
-1.334106
 31
0.0
  0
LINE
  5
13CB
  8
ASSEMBLY
 10
3.775
 20
-2.479505
 30
0.0
 11
3.775
 21
-1.864691
 31
0.0
  0
LINE
  5
13CC
  8
ASSEMBLY
 10
4.275
 20
-1.864691
 30
0.0
 11
4.275
 21
-1.334106
 31
0.0
  0
LINE
  5
13CD
  8
ASSEMBLY
 10
4.375
 20
-2.479505
 30
0.0
 11
4.375
 21
-1.864691
 31
0.0
  0
LINE
  5
13CE
  8
ASSEMBLY
 10
5.265522
 20
2.932215
 30
0.0
 11
5.265522
 21
-0.099298
 31
0.0
  0
POLYLINE
  5
13CF
  8
ASSEMBLY
 66
     1
 10
0.0
 20
0.0
 30
0.0
  0
VERTEX
  5
1B25
  8
ASSEMBLY
 10
5.219522
 20
2.786416
 30
0.0
  0
VERTEX
  5
1B26
  8
ASSEMBLY
 10
5.219522
 20
2.282959
 30
0.0
  0
VERTEX
  5
1B27
  8
ASSEMBLY
 10
5.165522
 20
2.282959
 30
0.0
  0
VERTEX
  5
1B28
  8
ASSEMBLY
 10
5.165522
 20
0.549959
 30
0.0
  0
VERTEX
  5
1B29
  8
ASSEMBLY
 10
5.219522
 20
0.549959
 30
0.0
  0
VERTEX
  5
1B2A
  8
ASSEMBLY
 10
5.219522
 20
0.05238
 30
0.0
  0
SEQEND
  5
1B2B
  8
ASSEMBLY
  0
POLYLINE
  5
13D9
  8
ASSEMBLY
 66
     1
 10
0.0
 20
0.0
 30
0.0
  0
VERTEX
  5
1B2C
  8
ASSEMBLY
 10
-0.003522
 20
2.786416
 30
0.0
  0
VERTEX
  5
1B2D
  8
ASSEMBLY
 10
-0.003522
 20
2.282959
 30
0.0
  0
VERTEX
  5
1B2E
  8
ASSEMBLY
 10
0.050478
 20
2.282959
 30
0.0
  0
VERTEX
  5
1B2F
  8
ASSEMBLY
 10
0.050478
 20
0.549959
 30
0.0
  0
VERTEX
  5
1B30
  8
ASSEMBLY
 10
-0.003522
 20
0.549959
 30
0.0
  0
VERTEX
  5
1B31
  8
ASSEMBLY
 10
-0.003522
 20
0.05238
 30
0.0
  0
SEQEND
  5
1B32
  8
ASSEMBLY
  0
LINE
  5
13E1
  8
ASSEMBLY
 10
-0.049522
 20
2.932215
 30
0.0
 11
-0.049522
 21
-0.099298
 31
0.0
  0
LINE
  5
13E2
  8
ASSEMBLY
 10
5.219522
 20
0.05238
 30
0.0
 11
-0.003522
 21
0.05238
 31
0.0
  0
LINE
  5
13E3
  8
ASSEMBLY
 10
-0.049522
 20
-0.067367
 30
0.0
 11
5.265522
 21
-0.067367
 31
0.0
  0
LINE
  5
13E4
  8
ASSEMBLY
 10
-0.049522
 20
-0.099298
 30
0.0
 11
5.265522
 21
-0.099298
 31
0.0
  0
LINE
  5
13E5
  8
ASSEMBLY
 10
-0.049522
 20
0.023702
 30
0.0
 11
5.265522
 21
0.023702
 31
0.0
  0
LINE
  5
13E7
  8
ASSEMBLY
 10
0.393378
 20
0.05238
 30
0.0
 11
0.393378
 21
-0.099298
 31
0.0
  0
LINE
  5
13E8
  8
ASSEMBLY
 10
2.165378
 20
0.05238
 30
0.0
 11
2.165378
 21
-0.099298
 31
0.0
  0
LINE
  5
13E9
  8
ASSEMBLY
 10
3.050622
 20
0.05238
 30
0.0
 11
3.050622
 21
-0.099298
 31
0.0
  0
LINE
  5
13EA
  8
ASSEMBLY
 10
4.822622
 20
0.05238
 30
0.0
 11
4.822622
 21
-0.099298
 31
0.0
  0
LINE
  5
13EB
  8
ASSEMBLY
 10
5.265417
 20
2.815679
 30
0.0
 11
-0.049522
 21
2.815679
 31
0.0
  0
LINE
  5
13EC
  8
ASSEMBLY
 10
5.265522
 20
2.932215
 30
0.0
 11
-0.049522
 21
2.932215
 31
0.0
  0
LINE
  5
13ED
  8
ASSEMBLY
 10
-0.003522
 20
2.786416
 30
0.0
 11
5.219522
 21
2.786416
 31
0.0
  0
LINE
  5
13EE
  8
ASSEMBLY
 10
5.265522
 20
2.815679
 30
0.0
 11
0.041962
 21
2.815679
 31
0.0
  0
LINE
  5
13EF
  8
ASSEMBLY
 10
-0.049522
 20
2.898692
 30
0.0
 11
5.265522
 21
2.898692
 31
0.0
  0
LINE
  5
13F1
  8
ASSEMBLY
 10
-0.049403
 20
2.815679
 30
0.0
 11
-0.049403
 21
2.814803
 31
0.0
  0
LINE
  5
13F2
  8
ASSEMBLY
 10
-0.049403
 20
2.815679
 30
0.0
 11
-0.049403
 21
2.814803
 31
0.0
  0
LINE
  5
13F3
  8
ASSEMBLY
 10
-0.049403
 20
2.815679
 30
0.0
 11
-0.049403
 21
2.81543
 31
0.0
  0
LINE
  5
13F4
  8
ASSEMBLY
 10
0.393378
 20
2.932215
 30
0.0
 11
0.393378
 21
2.786416
 31
0.0
  0
LINE
  5
13F5
  8
ASSEMBLY
 10
2.165378
 20
2.932215
 30
0.0
 11
2.165378
 21
2.786416
 31
0.0
  0
LINE
  5
13F6
  8
ASSEMBLY
 10
3.050622
 20
2.932215
 30
0.0
 11
3.050622
 21
2.786416
 31
0.0
  0
LINE
  5
13F7
  8
ASSEMBLY
 10
4.822622
 20
2.932215
 30
0.0
 11
4.822622
 21
2.786416
 31
0.0
  0
CIRCLE
  5
13F8
  8
ASSEMBLY
 10
3.283
 20
0.411307
 30
0.0
 40
0.065
  0
CIRCLE
  5
13F9
  8
ASSEMBLY
 10
3.283
 20
0.411307
 30
0.0
 40
0.076
  0
LINE
  5
1402
  8
ASSEMBLY
 10
3.227672
 20
0.377193
 30
0.0
 11
3.317115
 21
0.466635
 31
0.0
  0
LINE
  5
1403
  8
ASSEMBLY
 10
3.248885
 20
0.355979
 30
0.0
 11
3.338328
 21
0.445422
 31
0.0
  0
POLYLINE
  5
1405
  8
ASSEMBLY
 66
     1
 10
0.0
 20
0.0
 30
0.0
  0
VERTEX
  5
1B33
  8
ASSEMBLY
 10
3.203
 20
0.548307
 30
0.0
  0
VERTEX
  5
1B34
  8
ASSEMBLY
 10
3.203
 20
0.602307
 30
0.0
  0
VERTEX
  5
1B35
  8
ASSEMBLY
 10
3.363
 20
0.602307
 30
0.0
  0
VERTEX
  5
1B36
  8
ASSEMBLY
 10
3.363
 20
0.548307
 30
0.0
  0
SEQEND
  5
1B37
  8
ASSEMBLY
  0
CIRCLE
  5
140B
  8
ASSEMBLY
 10
3.183
 20
0.848307
 30
0.0
 40
0.065
  0
CIRCLE
  5
140C
  8
ASSEMBLY
 10
3.183
 20
0.848307
 30
0.0
 40
0.076
  0
LINE
  5
140D
  8
ASSEMBLY
 10
3.148885
 20
0.792979
 30
0.0
 11
3.238328
 21
0.882422
 31
0.0
  0
LINE
  5
140E
  8
ASSEMBLY
 10
3.127672
 20
0.814193
 30
0.0
 11
3.217115
 21
0.903635
 31
0.0
  0
POLYLINE
  5
140F
  8
ASSEMBLY
 66
     1
 10
0.0
 20
0.0
 30
0.0
  0
VERTEX
  5
1B38
  8
ASSEMBLY
 10
3.238
 20
1.069307
 30
0.0
  0
VERTEX
  5
1B39
  8
ASSEMBLY
 10
3.238
 20
1.027307
 30
0.0
  0
VERTEX
  5
1B3A
  8
ASSEMBLY
 10
3.128
 20
1.027307
 30
0.0
  0
VERTEX
  5
1B3B
  8
ASSEMBLY
 10
3.128
 20
1.069307
 30
0.0
  0
SEQEND
  5
1B3C
  8
ASSEMBLY
  0
CIRCLE
  5
141E
  8
ASSEMBLY
 10
3.483
 20
0.411307
 30
0.0
 40
0.065
  0
CIRCLE
  5
141F
  8
ASSEMBLY
 10
3.483
 20
0.411307
 30
0.0
 40
0.076
  0
LINE
  5
1428
  8
ASSEMBLY
 10
3.427672
 20
0.377193
 30
0.0
 11
3.517115
 21
0.466635
 31
0.0
  0
LINE
  5
1429
  8
ASSEMBLY
 10
3.448885
 20
0.355979
 30
0.0
 11
3.538328
 21
0.445422
 31
0.0
  0
POLYLINE
  5
142B
  8
ASSEMBLY
 66
     1
 10
0.0
 20
0.0
 30
0.0
  0
VERTEX
  5
1B3D
  8
ASSEMBLY
 10
3.403
 20
0.548307
 30
0.0
  0
VERTEX
  5
1B3E
  8
ASSEMBLY
 10
3.403
 20
0.602307
 30
0.0
  0
VERTEX
  5
1B3F
  8
ASSEMBLY
 10
3.563
 20
0.602307
 30
0.0
  0
VERTEX
  5
1B40
  8
ASSEMBLY
 10
3.563
 20
0.548307
 30
0.0
  0
SEQEND
  5
1B41
  8
ASSEMBLY
  0
CIRCLE
  5
1431
  8
ASSEMBLY
 10
3.383
 20
0.848307
 30
0.0
 40
0.065
  0
CIRCLE
  5
1432
  8
ASSEMBLY
 10
3.383
 20
0.848307
 30
0.0
 40
0.076
  0
LINE
  5
1433
  8
ASSEMBLY
 10
3.348885
 20
0.792979
 30
0.0
 11
3.438328
 21
0.882422
 31
0.0
  0
LINE
  5
1434
  8
ASSEMBLY
 10
3.327672
 20
0.814193
 30
0.0
 11
3.417115
 21
0.903635
 31
0.0
  0
POLYLINE
  5
1435
  8
ASSEMBLY
 66
     1
 10
0.0
 20
0.0
 30
0.0
  0
VERTEX
  5
1B42
  8
ASSEMBLY
 10
3.438
 20
1.069307
 30
0.0
  0
VERTEX
  5
1B43
  8
ASSEMBLY
 10
3.438
 20
1.027307
 30
0.0
  0
VERTEX
  5
1B44
  8
ASSEMBLY
 10
3.328
 20
1.027307
 30
0.0
  0
VERTEX
  5
1B45
  8
ASSEMBLY
 10
3.328
 20
1.069307
 30
0.0
  0
SEQEND
  5
1B46
  8
ASSEMBLY
  0
CIRCLE
  5
1444
  8
ASSEMBLY
 10
3.683
 20
0.411307
 30
0.0
 40
0.065
  0
CIRCLE
  5
1445
  8
ASSEMBLY
 10
3.683
 20
0.411307
 30
0.0
 40
0.076
  0
LINE
  5
144E
  8
ASSEMBLY
 10
3.627672
 20
0.377193
 30
0.0
 11
3.717115
 21
0.466635
 31
0.0
  0
LINE
  5
144F
  8
ASSEMBLY
 10
3.648885
 20
0.355979
 30
0.0
 11
3.738328
 21
0.445422
 31
0.0
  0
POLYLINE
  5
1451
  8
ASSEMBLY
 66
     1
 10
0.0
 20
0.0
 30
0.0
  0
VERTEX
  5
1B47
  8
ASSEMBLY
 10
3.603
 20
0.548307
 30
0.0
  0
VERTEX
  5
1B48
  8
ASSEMBLY
 10
3.603
 20
0.602307
 30
0.0
  0
VERTEX
  5
1B49
  8
ASSEMBLY
 10
3.763
 20
0.602307
 30
0.0
  0
VERTEX
  5
1B4A
  8
ASSEMBLY
 10
3.763
 20
0.548307
 30
0.0
  0
SEQEND
  5
1B4B
  8
ASSEMBLY
  0
CIRCLE
  5
1457
  8
ASSEMBLY
 10
3.583
 20
0.848307
 30
0.0
 40
0.065
  0
CIRCLE
  5
1458
  8
ASSEMBLY
 10
3.583
 20
0.848307
 30
0.0
 40
0.076
  0
LINE
  5
1459
  8
ASSEMBLY
 10
3.548885
 20
0.792979
 30
0.0
 11
3.638328
 21
0.882422
 31
0.0
  0
LINE
  5
145A
  8
ASSEMBLY
 10
3.527672
 20
0.814193
 30
0.0
 11
3.617115
 21
0.903635
 31
0.0
  0
POLYLINE
  5
145B
  8
ASSEMBLY
 66
     1
 10
0.0
 20
0.0
 30
0.0
  0
VERTEX
  5
1B4C
  8
ASSEMBLY
 10
3.638
 20
1.069307
 30
0.0
  0
VERTEX
  5
1B4D
  8
ASSEMBLY
 10
3.638
 20
1.027307
 30
0.0
  0
VERTEX
  5
1B4E
  8
ASSEMBLY
 10
3.528
 20
1.027307
 30
0.0
  0
VERTEX
  5
1B4F
  8
ASSEMBLY
 10
3.528
 20
1.069307
 30
0.0
  0
SEQEND
  5
1B50
  8
ASSEMBLY
  0
CIRCLE
  5
146A
  8
ASSEMBLY
 10
3.883
 20
0.411307
 30
0.0
 40
0.065
  0
CIRCLE
  5
146B
  8
ASSEMBLY
 10
3.883
 20
0.411307
 30
0.0
 40
0.076
  0
LINE
  5
1474
  8
ASSEMBLY
 10
3.827672
 20
0.377193
 30
0.0
 11
3.917115
 21
0.466635
 31
0.0
  0
LINE
  5
1475
  8
ASSEMBLY
 10
3.848885
 20
0.355979
 30
0.0
 11
3.938328
 21
0.445422
 31
0.0
  0
POLYLINE
  5
1477
  8
ASSEMBLY
 66
     1
 10
0.0
 20
0.0
 30
0.0
  0
VERTEX
  5
1B51
  8
ASSEMBLY
 10
3.803
 20
0.548307
 30
0.0
  0
VERTEX
  5
1B52
  8
ASSEMBLY
 10
3.803
 20
0.602307
 30
0.0
  0
VERTEX
  5
1B53
  8
ASSEMBLY
 10
3.963
 20
0.602307
 30
0.0
  0
VERTEX
  5
1B54
  8
ASSEMBLY
 10
3.963
 20
0.548307
 30
0.0
  0
SEQEND
  5
1B55
  8
ASSEMBLY
  0
CIRCLE
  5
147D
  8
ASSEMBLY
 10
3.783
 20
0.848307
 30
0.0
 40
0.065
  0
CIRCLE
  5
147E
  8
ASSEMBLY
 10
3.783
 20
0.848307
 30
0.0
 40
0.076
  0
LINE
  5
147F
  8
ASSEMBLY
 10
3.748885
 20
0.792979
 30
0.0
 11
3.838328
 21
0.882422
 31
0.0
  0
LINE
  5
1480
  8
ASSEMBLY
 10
3.727672
 20
0.814193
 30
0.0
 11
3.817115
 21
0.903635
 31
0.0
  0
POLYLINE
  5
1481
  8
ASSEMBLY
 66
     1
 10
0.0
 20
0.0
 30
0.0
  0
VERTEX
  5
1B56
  8
ASSEMBLY
 10
3.838
 20
1.069307
 30
0.0
  0
VERTEX
  5
1B57
  8
ASSEMBLY
 10
3.838
 20
1.027307
 30
0.0
  0
VERTEX
  5
1B58
  8
ASSEMBLY
 10
3.728
 20
1.027307
 30
0.0
  0
VERTEX
  5
1B59
  8
ASSEMBLY
 10
3.728
 20
1.069307
 30
0.0
  0
SEQEND
  5
1B5A
  8
ASSEMBLY
  0
CIRCLE
  5
1490
  8
ASSEMBLY
 10
4.083
 20
0.411307
 30
0.0
 40
0.065
  0
CIRCLE
  5
1491
  8
ASSEMBLY
 10
4.083
 20
0.411307
 30
0.0
 40
0.076
  0
LINE
  5
149A
  8
ASSEMBLY
 10
4.027672
 20
0.377193
 30
0.0
 11
4.117115
 21
0.466635
 31
0.0
  0
LINE
  5
149B
  8
ASSEMBLY
 10
4.048885
 20
0.355979
 30
0.0
 11
4.138328
 21
0.445422
 31
0.0
  0
POLYLINE
  5
149D
  8
ASSEMBLY
 66
     1
 10
0.0
 20
0.0
 30
0.0
  0
VERTEX
  5
1B5B
  8
ASSEMBLY
 10
4.003
 20
0.548307
 30
0.0
  0
VERTEX
  5
1B5C
  8
ASSEMBLY
 10
4.003
 20
0.602307
 30
0.0
  0
VERTEX
  5
1B5D
  8
ASSEMBLY
 10
4.163
 20
0.602307
 30
0.0
  0
VERTEX
  5
1B5E
  8
ASSEMBLY
 10
4.163
 20
0.548307
 30
0.0
  0
SEQEND
  5
1B5F
  8
ASSEMBLY
  0
CIRCLE
  5
14A3
  8
ASSEMBLY
 10
3.983
 20
0.848307
 30
0.0
 40
0.065
  0
CIRCLE
  5
14A4
  8
ASSEMBLY
 10
3.983
 20
0.848307
 30
0.0
 40
0.076
  0
LINE
  5
14A5
  8
ASSEMBLY
 10
3.948885
 20
0.792979
 30
0.0
 11
4.038328
 21
0.882422
 31
0.0
  0
LINE
  5
14A6
  8
ASSEMBLY
 10
3.927672
 20
0.814193
 30
0.0
 11
4.017115
 21
0.903635
 31
0.0
  0
POLYLINE
  5
14A7
  8
ASSEMBLY
 66
     1
 10
0.0
 20
0.0
 30
0.0
  0
VERTEX
  5
1B60
  8
ASSEMBLY
 10
4.038
 20
1.069307
 30
0.0
  0
VERTEX
  5
1B61
  8
ASSEMBLY
 10
4.038
 20
1.027307
 30
0.0
  0
VERTEX
  5
1B62
  8
ASSEMBLY
 10
3.928
 20
1.027307
 30
0.0
  0
VERTEX
  5
1B63
  8
ASSEMBLY
 10
3.928
 20
1.069307
 30
0.0
  0
SEQEND
  5
1B64
  8
ASSEMBLY
  0
CIRCLE
  5
14B6
  8
ASSEMBLY
 10
4.283
 20
0.411307
 30
0.0
 40
0.065
  0
CIRCLE
  5
14B7
  8
ASSEMBLY
 10
4.283
 20
0.411307
 30
0.0
 40
0.076
  0
LINE
  5
14C0
  8
ASSEMBLY
 10
4.227672
 20
0.377193
 30
0.0
 11
4.317115
 21
0.466635
 31
0.0
  0
LINE
  5
14C1
  8
ASSEMBLY
 10
4.248885
 20
0.355979
 30
0.0
 11
4.338328
 21
0.445422
 31
0.0
  0
POLYLINE
  5
14C3
  8
ASSEMBLY
 66
     1
 10
0.0
 20
0.0
 30
0.0
  0
VERTEX
  5
1B65
  8
ASSEMBLY
 10
4.203
 20
0.548307
 30
0.0
  0
VERTEX
  5
1B66
  8
ASSEMBLY
 10
4.203
 20
0.602307
 30
0.0
  0
VERTEX
  5
1B67
  8
ASSEMBLY
 10
4.363
 20
0.602307
 30
0.0
  0
VERTEX
  5
1B68
  8
ASSEMBLY
 10
4.363
 20
0.548307
 30
0.0
  0
SEQEND
  5
1B69
  8
ASSEMBLY
  0
CIRCLE
  5
14C9
  8
ASSEMBLY
 10
4.183
 20
0.848307
 30
0.0
 40
0.065
  0
CIRCLE
  5
14CA
  8
ASSEMBLY
 10
4.183
 20
0.848307
 30
0.0
 40
0.076
  0
LINE
  5
14CB
  8
ASSEMBLY
 10
4.148885
 20
0.792979
 30
0.0
 11
4.238328
 21
0.882422
 31
0.0
  0
LINE
  5
14CC
  8
ASSEMBLY
 10
4.127672
 20
0.814193
 30
0.0
 11
4.217115
 21
0.903635
 31
0.0
  0
POLYLINE
  5
14CD
  8
ASSEMBLY
 66
     1
 10
0.0
 20
0.0
 30
0.0
  0
VERTEX
  5
1B6A
  8
ASSEMBLY
 10
4.238
 20
1.069307
 30
0.0
  0
VERTEX
  5
1B6B
  8
ASSEMBLY
 10
4.238
 20
1.027307
 30
0.0
  0
VERTEX
  5
1B6C
  8
ASSEMBLY
 10
4.128
 20
1.027307
 30
0.0
  0
VERTEX
  5
1B6D
  8
ASSEMBLY
 10
4.128
 20
1.069307
 30
0.0
  0
SEQEND
  5
1B6E
  8
ASSEMBLY
  0
CIRCLE
  5
14DC
  8
ASSEMBLY
 10
4.483
 20
0.411307
 30
0.0
 40
0.065
  0
CIRCLE
  5
14DD
  8
ASSEMBLY
 10
4.483
 20
0.411307
 30
0.0
 40
0.076
  0
LINE
  5
14E6
  8
ASSEMBLY
 10
4.427672
 20
0.377193
 30
0.0
 11
4.517115
 21
0.466635
 31
0.0
  0
LINE
  5
14E7
  8
ASSEMBLY
 10
4.448885
 20
0.355979
 30
0.0
 11
4.538328
 21
0.445422
 31
0.0
  0
POLYLINE
  5
14E9
  8
ASSEMBLY
 66
     1
 10
0.0
 20
0.0
 30
0.0
  0
VERTEX
  5
1B6F
  8
ASSEMBLY
 10
4.403
 20
0.548307
 30
0.0
  0
VERTEX
  5
1B70
  8
ASSEMBLY
 10
4.403
 20
0.602307
 30
0.0
  0
VERTEX
  5
1B71
  8
ASSEMBLY
 10
4.563
 20
0.602307
 30
0.0
  0
VERTEX
  5
1B72
  8
ASSEMBLY
 10
4.563
 20
0.548307
 30
0.0
  0
SEQEND
  5
1B73
  8
ASSEMBLY
  0
CIRCLE
  5
14EF
  8
ASSEMBLY
 10
4.383
 20
0.848307
 30
0.0
 40
0.065
  0
CIRCLE
  5
14F0
  8
ASSEMBLY
 10
4.383
 20
0.848307
 30
0.0
 40
0.076
  0
LINE
  5
14F1
  8
ASSEMBLY
 10
4.348885
 20
0.792979
 30
0.0
 11
4.438328
 21
0.882422
 31
0.0
  0
LINE
  5
14F2
  8
ASSEMBLY
 10
4.327672
 20
0.814193
 30
0.0
 11
4.417115
 21
0.903635
 31
0.0
  0
POLYLINE
  5
14F3
  8
ASSEMBLY
 66
     1
 10
0.0
 20
0.0
 30
0.0
  0
VERTEX
  5
1B74
  8
ASSEMBLY
 10
4.438
 20
1.069307
 30
0.0
  0
VERTEX
  5
1B75
  8
ASSEMBLY
 10
4.438
 20
1.027307
 30
0.0
  0
VERTEX
  5
1B76
  8
ASSEMBLY
 10
4.328
 20
1.027307
 30
0.0
  0
VERTEX
  5
1B77
  8
ASSEMBLY
 10
4.328
 20
1.069307
 30
0.0
  0
SEQEND
  5
1B78
  8
ASSEMBLY
  0
CIRCLE
  5
1502
  8
ASSEMBLY
 10
4.683
 20
0.411307
 30
0.0
 40
0.065
  0
CIRCLE
  5
1503
  8
ASSEMBLY
 10
4.683
 20
0.411307
 30
0.0
 40
0.076
  0
LINE
  5
150C
  8
ASSEMBLY
 10
4.627672
 20
0.377193
 30
0.0
 11
4.717115
 21
0.466635
 31
0.0
  0
LINE
  5
150D
  8
ASSEMBLY
 10
4.648885
 20
0.355979
 30
0.0
 11
4.738328
 21
0.445422
 31
0.0
  0
POLYLINE
  5
150F
  8
ASSEMBLY
 66
     1
 10
0.0
 20
0.0
 30
0.0
  0
VERTEX
  5
1B79
  8
ASSEMBLY
 10
4.603
 20
0.548307
 30
0.0
  0
VERTEX
  5
1B7A
  8
ASSEMBLY
 10
4.603
 20
0.602307
 30
0.0
  0
VERTEX
  5
1B7B
  8
ASSEMBLY
 10
4.763
 20
0.602307
 30
0.0
  0
VERTEX
  5
1B7C
  8
ASSEMBLY
 10
4.763
 20
0.548307
 30
0.0
  0
SEQEND
  5
1B7D
  8
ASSEMBLY
  0
CIRCLE
  5
1515
  8
ASSEMBLY
 10
4.583
 20
0.848307
 30
0.0
 40
0.065
  0
CIRCLE
  5
1516
  8
ASSEMBLY
 10
4.583
 20
0.848307
 30
0.0
 40
0.076
  0
LINE
  5
1517
  8
ASSEMBLY
 10
4.548885
 20
0.792979
 30
0.0
 11
4.638328
 21
0.882422
 31
0.0
  0
LINE
  5
1518
  8
ASSEMBLY
 10
4.527672
 20
0.814193
 30
0.0
 11
4.617115
 21
0.903635
 31
0.0
  0
POLYLINE
  5
1519
  8
ASSEMBLY
 66
     1
 10
0.0
 20
0.0
 30
0.0
  0
VERTEX
  5
1B7E
  8
ASSEMBLY
 10
4.638
 20
1.069307
 30
0.0
  0
VERTEX
  5
1B7F
  8
ASSEMBLY
 10
4.638
 20
1.027307
 30
0.0
  0
VERTEX
  5
1B80
  8
ASSEMBLY
 10
4.528
 20
1.027307
 30
0.0
  0
VERTEX
  5
1B81
  8
ASSEMBLY
 10
4.528
 20
1.069307
 30
0.0
  0
SEQEND
  5
1B82
  8
ASSEMBLY
  0
CIRCLE
  5
1528
  8
ASSEMBLY
 10
4.883
 20
0.411307
 30
0.0
 40
0.065
  0
CIRCLE
  5
1529
  8
ASSEMBLY
 10
4.883
 20
0.411307
 30
0.0
 40
0.076
  0
LINE
  5
1532
  8
ASSEMBLY
 10
4.827672
 20
0.377193
 30
0.0
 11
4.917115
 21
0.466635
 31
0.0
  0
LINE
  5
1533
  8
ASSEMBLY
 10
4.848885
 20
0.355979
 30
0.0
 11
4.938328
 21
0.445422
 31
0.0
  0
POLYLINE
  5
1535
  8
ASSEMBLY
 66
     1
 10
0.0
 20
0.0
 30
0.0
  0
VERTEX
  5
1B83
  8
ASSEMBLY
 10
4.803
 20
0.548307
 30
0.0
  0
VERTEX
  5
1B84
  8
ASSEMBLY
 10
4.803
 20
0.602307
 30
0.0
  0
VERTEX
  5
1B85
  8
ASSEMBLY
 10
4.963
 20
0.602307
 30
0.0
  0
VERTEX
  5
1B86
  8
ASSEMBLY
 10
4.963
 20
0.548307
 30
0.0
  0
SEQEND
  5
1B87
  8
ASSEMBLY
  0
CIRCLE
  5
153B
  8
ASSEMBLY
 10
4.783
 20
0.848307
 30
0.0
 40
0.065
  0
CIRCLE
  5
153C
  8
ASSEMBLY
 10
4.783
 20
0.848307
 30
0.0
 40
0.076
  0
LINE
  5
153D
  8
ASSEMBLY
 10
4.748885
 20
0.792979
 30
0.0
 11
4.838328
 21
0.882422
 31
0.0
  0
LINE
  5
153E
  8
ASSEMBLY
 10
4.727672
 20
0.814193
 30
0.0
 11
4.817115
 21
0.903635
 31
0.0
  0
POLYLINE
  5
153F
  8
ASSEMBLY
 66
     1
 10
0.0
 20
0.0
 30
0.0
  0
VERTEX
  5
1B88
  8
ASSEMBLY
 10
4.838
 20
1.069307
 30
0.0
  0
VERTEX
  5
1B89
  8
ASSEMBLY
 10
4.838
 20
1.027307
 30
0.0
  0
VERTEX
  5
1B8A
  8
ASSEMBLY
 10
4.728
 20
1.027307
 30
0.0
  0
VERTEX
  5
1B8B
  8
ASSEMBLY
 10
4.728
 20
1.069307
 30
0.0
  0
SEQEND
  5
1B8C
  8
ASSEMBLY
  0
POLYLINE
  5
154E
  8
ASSEMBLY
 66
     1
 10
0.0
 20
0.0
 30
0.0
  0
VERTEX
  5
1B8D
  8
ASSEMBLY
 10
2.783
 20
0.1835
 30
0.0
  0
VERTEX
  5
1B8E
  8
ASSEMBLY
 10
2.783
 20
0.619024
 30
0.0
  0
VERTEX
  5
1B8F
  8
ASSEMBLY
 10
2.683
 20
0.619024
 30
0.0
  0
VERTEX
  5
1B90
  8
ASSEMBLY
 10
2.683
 20
1.069307
 30
0.0
  0
SEQEND
  5
1B91
  8
ASSEMBLY
  0
POLYLINE
  5
1554
  8
ASSEMBLY
 66
     1
 10
0.0
 20
0.0
 30
0.0
  0
VERTEX
  5
1B92
  8
ASSEMBLY
 10
3.383
 20
0.1835
 30
0.0
  0
VERTEX
  5
1B93
  8
ASSEMBLY
 10
3.383
 20
0.619024
 30
0.0
  0
VERTEX
  5
1B94
  8
ASSEMBLY
 10
3.283
 20
0.619024
 30
0.0
  0
VERTEX
  5
1B95
  8
ASSEMBLY
 10
3.283
 20
1.069307
 30
0.0
  0
SEQEND
  5
1B96
  8
ASSEMBLY
  0
POLYLINE
  5
155A
  8
ASSEMBLY
 66
     1
 10
0.0
 20
0.0
 30
0.0
  0
VERTEX
  5
1B97
  8
ASSEMBLY
 10
3.983
 20
0.1835
 30
0.0
  0
VERTEX
  5
1B98
  8
ASSEMBLY
 10
3.983
 20
0.619024
 30
0.0
  0
VERTEX
  5
1B99
  8
ASSEMBLY
 10
3.883
 20
0.619024
 30
0.0
  0
VERTEX
  5
1B9A
  8
ASSEMBLY
 10
3.883
 20
1.069307
 30
0.0
  0
SEQEND
  5
1B9B
  8
ASSEMBLY
  0
POLYLINE
  5
1560
  8
ASSEMBLY
 66
     1
 10
0.0
 20
0.0
 30
0.0
  0
VERTEX
  5
1B9C
  8
ASSEMBLY
 10
4.583
 20
0.1835
 30
0.0
  0
VERTEX
  5
1B9D
  8
ASSEMBLY
 10
4.583
 20
0.619024
 30
0.0
  0
VERTEX
  5
1B9E
  8
ASSEMBLY
 10
4.483
 20
0.619024
 30
0.0
  0
VERTEX
  5
1B9F
  8
ASSEMBLY
 10
4.483
 20
1.069307
 30
0.0
  0
SEQEND
  5
1BA0
  8
ASSEMBLY
  0
CIRCLE
  5
1735
  8
ASSEMBLY
 10
7.652187
 20
0.297943
 30
0.0
 40
0.058
  0
CIRCLE
  5
1736
  8
ASSEMBLY
 10
7.652187
 20
1.048754
 30
0.0
 40
0.058
  0
TEXT
  5
1737
  8
ASSEMBLY
 10
7.410234
 20
1.469471
 30
0.0
 40
0.06
  1
Type UMK-SE 11.25-1
 50
90.0
  7
ROMANS
  0
POLYLINE
  5
1738
  8
ASSEMBLY
 66
     1
 10
0.0
 20
0.0
 30
0.0
  0
VERTEX
  5
1BA1
  8
ASSEMBLY
 10
7.539595
 20
0.18569
 30
0.0
  0
VERTEX
  5
1BA2
  8
ASSEMBLY
 10
7.539595
 20
2.657824
 30
0.0
  0
VERTEX
  5
1BA3
  8
ASSEMBLY
 10
7.239691
 20
2.657824
 30
0.0
  0
VERTEX
  5
1BA4
  8
ASSEMBLY
 10
7.239691
 20
0.185768
 30
0.0
  0
VERTEX
  5
1BA5
  8
ASSEMBLY
 10
7.539691
 20
0.185768
 30
0.0
  0
SEQEND
  5
1BA6
  8
ASSEMBLY
  0
TEXT
  5
173F
  8
ASSEMBLY
 10
7.354606
 20
0.547914
 30
0.0
 40
0.06
  1
PHOENIX
 50
90.0
  7
ROMANS
  0
TEXT
  5
1740
  8
ASSEMBLY
 10
7.467686
 20
0.547914
 30
0.0
 40
0.06
  1
CONTACT
 50
90.0
  7
ROMANS
  0
CIRCLE
  5
1741
  8
ASSEMBLY
 10
7.404603
 20
-0.010374
 30
0.0
 40
0.058
  0
POLYLINE
  5
1742
  8
ASSEMBLY
 66
     1
 10
0.0
 20
0.0
 30
0.0
 70
     1
  0
VERTEX
  5
1BA7
  8
ASSEMBLY
 10
7.174399
 20
-0.015447
 30
0.0
  0
VERTEX
  5
1BA8
  8
ASSEMBLY
 10
7.341496
 20
-0.075152
 30
0.0
 42
0.460448
  0
VERTEX
  5
1BA9
  8
ASSEMBLY
 10
7.361255
 20
-0.098244
 30
0.0
  0
VERTEX
  5
1BAA
  8
ASSEMBLY
 10
7.541217
 20
-0.098244
 30
0.0
 42
0.229329
  0
VERTEX
  5
1BAB
  8
ASSEMBLY
 10
7.556905
 20
-0.090649
 30
0.0
  0
VERTEX
  5
1BAC
  8
ASSEMBLY
 10
7.758683
 20
0.163265
 30
0.0
  0
VERTEX
  5
1BAD
  8
ASSEMBLY
 10
7.758683
 20
2.648513
 30
0.0
 42
0.130729
  0
VERTEX
  5
1BAE
  8
ASSEMBLY
 10
7.745723
 20
2.685729
 30
0.0
  0
VERTEX
  5
1BAF
  8
ASSEMBLY
 10
7.556905
 20
2.924513
 30
0.0
 42
0.229329
  0
VERTEX
  5
1BB0
  8
ASSEMBLY
 10
7.541217
 20
2.932108
 30
0.0
  0
VERTEX
  5
1BB1
  8
ASSEMBLY
 10
7.361255
 20
2.932108
 30
0.0
 42
0.338165
  0
VERTEX
  5
1BB2
  8
ASSEMBLY
 10
7.341961
 20
2.917374
 30
0.0
  0
VERTEX
  5
1BB3
  8
ASSEMBLY
 10
7.339463
 20
2.908223
 30
0.0
  0
VERTEX
  5
1BB4
  8
ASSEMBLY
 10
7.174399
 20
2.849311
 30
0.0
 42
0.31432
  0
VERTEX
  5
1BB5
  8
ASSEMBLY
 10
7.161121
 20
2.83061
 30
0.0
  0
VERTEX
  5
1BB6
  8
ASSEMBLY
 10
7.161121
 20
0.003389
 30
0.0
 42
0.317019
  0
SEQEND
  5
1BB7
  8
ASSEMBLY
  0
POLYLINE
  5
1754
  8
ASSEMBLY
 66
     1
 10
0.0
 20
0.0
 30
0.0
 70
     1
  0
VERTEX
  5
1BB8
  8
ASSEMBLY
 10
7.771562
 20
0.252425
 30
0.0
  0
VERTEX
  5
1BB9
  8
ASSEMBLY
 10
7.771562
 20
0.983123
 30
0.0
  0
VERTEX
  5
1BBA
  8
ASSEMBLY
 10
7.832538
 20
1.018328
 30
0.0
  0
VERTEX
  5
1BBB
  8
ASSEMBLY
 10
7.832538
 20
1.118328
 30
0.0
  0
VERTEX
  5
1BBC
  8
ASSEMBLY
 10
7.771917
 20
1.153328
 30
0.0
  0
VERTEX
  5
1BBD
  8
ASSEMBLY
 10
7.771917
 20
2.302717
 30
0.0
 42
-0.414214
  0
VERTEX
  5
1BBE
  8
ASSEMBLY
 10
7.791917
 20
2.322717
 30
0.0
  0
VERTEX
  5
1BBF
  8
ASSEMBLY
 10
8.038458
 20
2.322717
 30
0.0
 42
-0.414214
  0
VERTEX
  5
1BC0
  8
ASSEMBLY
 10
8.100458
 20
2.260717
 30
0.0
  0
VERTEX
  5
1BC1
  8
ASSEMBLY
 10
8.100458
 20
2.192137
 30
0.0
 42
-0.414214
  0
VERTEX
  5
1BC2
  8
ASSEMBLY
 10
8.060458
 20
2.152137
 30
0.0
  0
VERTEX
  5
1BC3
  8
ASSEMBLY
 10
8.036635
 20
2.152137
 30
0.0
  0
VERTEX
  5
1BC4
  8
ASSEMBLY
 10
8.036635
 20
2.177637
 30
0.0
  0
VERTEX
  5
1BC5
  8
ASSEMBLY
 10
7.989691
 20
2.177637
 30
0.0
  0
VERTEX
  5
1BC6
  8
ASSEMBLY
 10
7.989691
 20
2.047342
 30
0.0
 42
-0.350633
  0
VERTEX
  5
1BC7
  8
ASSEMBLY
 10
7.974036
 20
2.027852
 30
0.0
 42
0.340193
  0
VERTEX
  5
1BC8
  8
ASSEMBLY
 10
7.8445
 20
1.869616
 30
0.0
  0
VERTEX
  5
1BC9
  8
ASSEMBLY
 10
7.912088
 20
1.869616
 30
0.0
  0
VERTEX
  5
1BCA
  8
ASSEMBLY
 10
8.101963
 20
1.933298
 30
0.0
  0
VERTEX
  5
1BCB
  8
ASSEMBLY
 10
8.101963
 20
1.872075
 30
0.0
  0
VERTEX
  5
1BCC
  8
ASSEMBLY
 10
8.156065
 20
1.872075
 30
0.0
  0
VERTEX
  5
1BCD
  8
ASSEMBLY
 10
8.156065
 20
1.951603
 30
0.0
  0
VERTEX
  5
1BCE
  8
ASSEMBLY
 10
8.185728
 20
1.953988
 30
0.0
 42
-0.437915
  0
VERTEX
  5
1BCF
  8
ASSEMBLY
 10
8.207331
 20
1.934053
 30
0.0
  0
VERTEX
  5
1BD0
  8
ASSEMBLY
 10
8.207331
 20
1.856612
 30
0.0
 42
-0.348839
  0
VERTEX
  5
1BD1
  8
ASSEMBLY
 10
8.191856
 20
1.837131
 30
0.0
  0
VERTEX
  5
1BD2
  8
ASSEMBLY
 10
8.10378
 20
1.816672
 30
0.0
 42
-0.482757
  0
VERTEX
  5
1BD3
  8
ASSEMBLY
 10
8.079255
 20
1.836154
 30
0.0
  0
VERTEX
  5
1BD4
  8
ASSEMBLY
 10
8.079255
 20
1.860975
 30
0.0
  0
VERTEX
  5
1BD5
  8
ASSEMBLY
 10
8.040704
 20
1.860975
 30
0.0
  0
VERTEX
  5
1BD6
  8
ASSEMBLY
 10
8.040704
 20
1.810975
 30
0.0
  0
VERTEX
  5
1BD7
  8
ASSEMBLY
 10
7.977958
 20
1.786454
 30
0.0
 42
0.308857
  0
VERTEX
  5
1BD8
  8
ASSEMBLY
 10
7.965238
 20
1.767826
 30
0.0
  0
VERTEX
  5
1BD9
  8
ASSEMBLY
 10
7.965238
 20
1.442728
 30
0.0
 42
-0.414214
  0
VERTEX
  5
1BDA
  8
ASSEMBLY
 10
7.945238
 20
1.422728
 30
0.0
  0
VERTEX
  5
1BDB
  8
ASSEMBLY
 10
7.860238
 20
1.422728
 30
0.0
 42
0.414214
  0
VERTEX
  5
1BDC
  8
ASSEMBLY
 10
7.840238
 20
1.402728
 30
0.0
  0
VERTEX
  5
1BDD
  8
ASSEMBLY
 10
7.840238
 20
1.375482
 30
0.0
 42
0.414645
  0
VERTEX
  5
1BDE
  8
ASSEMBLY
 10
7.860947
 20
1.355831
 30
0.0
  0
VERTEX
  5
1BDF
  8
ASSEMBLY
 10
8.00036
 20
1.355831
 30
0.0
 42
-0.416736
  0
VERTEX
  5
1BE0
  8
ASSEMBLY
 10
8.040704
 20
1.315832
 30
0.0
  0
VERTEX
  5
1BE1
  8
ASSEMBLY
 10
8.040704
 20
1.286178
 30
0.0
  0
VERTEX
  5
1BE2
  8
ASSEMBLY
 10
8.074972
 20
1.286178
 30
0.0
  0
VERTEX
  5
1BE3
  8
ASSEMBLY
 10
8.077365
 20
1.300529
 30
0.0
 42
-0.455334
  0
VERTEX
  5
1BE4
  8
ASSEMBLY
 10
8.090218
 20
1.308427
 30
0.0
  0
VERTEX
  5
1BE5
  8
ASSEMBLY
 10
8.134725
 20
1.294484
 30
0.0
 42
-0.442728
  0
VERTEX
  5
1BE6
  8
ASSEMBLY
 10
8.147168
 20
1.267611
 30
0.0
 42
-0.109635
  0
VERTEX
  5
1BE7
  8
ASSEMBLY
 10
8.124334
 20
1.23564
 30
0.0
  0
VERTEX
  5
1BE8
  8
ASSEMBLY
 10
8.022025
 20
1.216317
 30
0.0
 42
-0.312474
  0
VERTEX
  5
1BE9
  8
ASSEMBLY
 10
7.963836
 20
1.255397
 30
0.0
 42
0.374283
  0
VERTEX
  5
1BEA
  8
ASSEMBLY
 10
7.953932
 20
1.26402
 30
0.0
  0
VERTEX
  5
1BEB
  8
ASSEMBLY
 10
7.891726
 20
1.26402
 30
0.0
 42
-0.414214
  0
VERTEX
  5
1BEC
  8
ASSEMBLY
 10
7.881726
 20
1.27402
 30
0.0
  0
VERTEX
  5
1BED
  8
ASSEMBLY
 10
7.881726
 20
1.301958
 30
0.0
 42
0.950047
  0
VERTEX
  5
1BEE
  8
ASSEMBLY
 10
7.840238
 20
1.299882
 30
0.0
  0
VERTEX
  5
1BEF
  8
ASSEMBLY
 10
7.840238
 20
1.200995
 30
0.0
  0
VERTEX
  5
1BF0
  8
ASSEMBLY
 10
7.904276
 20
1.171031
 30
0.0
  0
VERTEX
  5
1BF1
  8
ASSEMBLY
 10
7.904276
 20
0.9707
 30
0.0
  0
VERTEX
  5
1BF2
  8
ASSEMBLY
 10
7.84014
 20
0.932116
 30
0.0
  0
VERTEX
  5
1BF3
  8
ASSEMBLY
 10
7.84014
 20
0.805993
 30
0.0
 42
0.400968
  0
VERTEX
  5
1BF4
  8
ASSEMBLY
 10
7.858286
 20
0.786308
 30
0.0
  0
VERTEX
  5
1BF5
  8
ASSEMBLY
 10
7.925981
 20
0.786308
 30
0.0
  0
VERTEX
  5
1BF6
  8
ASSEMBLY
 10
7.990846
 20
0.821643
 30
0.0
  0
VERTEX
  5
1BF7
  8
ASSEMBLY
 10
7.990846
 20
0.757364
 30
0.0
  0
VERTEX
  5
1BF8
  8
ASSEMBLY
 10
8.035233
 20
0.757364
 30
0.0
  0
VERTEX
  5
1BF9
  8
ASSEMBLY
 10
8.035233
 20
0.822254
 30
0.0
  0
VERTEX
  5
1BFA
  8
ASSEMBLY
 10
8.191893
 20
0.767672
 30
0.0
 42
-0.360941
  0
VERTEX
  5
1BFB
  8
ASSEMBLY
 10
8.20821
 20
0.748014
 30
0.0
  0
VERTEX
  5
1BFC
  8
ASSEMBLY
 10
8.20821
 20
-0.03906
 30
0.0
 42
-0.414214
  0
VERTEX
  5
1BFD
  8
ASSEMBLY
 10
8.18821
 20
-0.05906
 30
0.0
  0
VERTEX
  5
1BFE
  8
ASSEMBLY
 10
8.046683
 20
-0.05906
 30
0.0
 42
-0.414214
  0
VERTEX
  5
1BFF
  8
ASSEMBLY
 10
8.026683
 20
-0.03906
 30
0.0
  0
VERTEX
  5
1C00
  8
ASSEMBLY
 10
8.026683
 20
0.015344
 30
0.0
 42
-0.472471
  0
VERTEX
  5
1C01
  8
ASSEMBLY
 10
8.050553
 20
0.034966
 30
0.0
  0
VERTEX
  5
1C02
  8
ASSEMBLY
 10
8.163973
 20
0.012596
 30
0.0
  0
VERTEX
  5
1C03
  8
ASSEMBLY
 10
8.163973
 20
0.213921
 30
0.0
 42
0.414214
  0
VERTEX
  5
1C04
  8
ASSEMBLY
 10
8.143973
 20
0.233921
 30
0.0
  0
VERTEX
  5
1C05
  8
ASSEMBLY
 10
7.791506
 20
0.233921
 30
0.0
 42
-0.392445
  0
SEQEND
  5
1C06
  8
ASSEMBLY
  0
POLYLINE
  5
17A4
  8
ASSEMBLY
 66
     1
 10
0.0
 20
0.0
 30
0.0
  0
VERTEX
  5
1C07
  8
ASSEMBLY
 10
8.186429
 20
0.719085
 30
0.0
 42
-0.75485
  0
VERTEX
  5
1C08
  8
ASSEMBLY
 10
8.165353
 20
0.687112
 30
0.0
  0
VERTEX
  5
1C09
  8
ASSEMBLY
 10
8.165353
 20
0.318968
 30
0.0
 42
-1.436234
  0
VERTEX
  5
1C0A
  8
ASSEMBLY
 10
8.132071
 20
0.279855
 30
0.0
  0
VERTEX
  5
1C0B
  8
ASSEMBLY
 10
8.078425
 20
0.279855
 30
0.0
 42
1.0
  0
VERTEX
  5
1C0C
  8
ASSEMBLY
 10
8.034299
 20
0.279855
 30
0.0
  0
VERTEX
  5
1C0D
  8
ASSEMBLY
 10
7.968696
 20
0.279855
 30
0.0
 42
1.0
  0
VERTEX
  5
1C0E
  8
ASSEMBLY
 10
7.92457
 20
0.279855
 30
0.0
  0
VERTEX
  5
1C0F
  8
ASSEMBLY
 10
7.874232
 20
0.279855
 30
0.0
 42
-1.453895
  0
VERTEX
  5
1C10
  8
ASSEMBLY
 10
7.841137
 20
0.318254
 30
0.0
  0
VERTEX
  5
1C11
  8
ASSEMBLY
 10
7.841137
 20
0.698767
 30
0.0
 42
-1.629834
  0
VERTEX
  5
1C12
  8
ASSEMBLY
 10
7.876667
 20
0.731839
 30
0.0
  0
VERTEX
  5
1C13
  8
ASSEMBLY
 10
8.134232
 20
0.731839
 30
0.0
  0
VERTEX
  5
1C14
  8
ASSEMBLY
 10
8.186398
 20
0.719075
 30
0.0
  0
SEQEND
  5
1C15
  8
ASSEMBLY
  0
POLYLINE
  5
17B4
  8
ASSEMBLY
 66
     1
 10
0.0
 20
0.0
 30
0.0
 70
     1
  0
VERTEX
  5
1C16
  8
ASSEMBLY
 10
7.853262
 20
2.028279
 30
0.0
 42
-0.507337
  0
VERTEX
  5
1C17
  8
ASSEMBLY
 10
7.840238
 20
2.037811
 30
0.0
  0
VERTEX
  5
1C18
  8
ASSEMBLY
 10
7.840238
 20
2.240162
 30
0.0
 42
-0.414214
  0
VERTEX
  5
1C19
  8
ASSEMBLY
 10
7.850238
 20
2.250162
 30
0.0
  0
VERTEX
  5
1C1A
  8
ASSEMBLY
 10
7.911195
 20
2.250162
 30
0.0
 42
-0.414214
  0
VERTEX
  5
1C1B
  8
ASSEMBLY
 10
7.921195
 20
2.240162
 30
0.0
  0
VERTEX
  5
1C1C
  8
ASSEMBLY
 10
7.921195
 20
2.05715
 30
0.0
 42
-0.326844
  0
VERTEX
  5
1C1D
  8
ASSEMBLY
 10
7.914219
 20
2.047618
 30
0.0
  0
SEQEND
  5
1C1E
  8
ASSEMBLY
  0
POLYLINE
  5
17BE
  8
ASSEMBLY
 66
     1
 10
0.0
 20
0.0
 30
0.0
 70
     1
  0
VERTEX
  5
1C1F
  8
ASSEMBLY
 10
7.840201
 20
1.52518
 30
0.0
  0
VERTEX
  5
1C20
  8
ASSEMBLY
 10
7.840201
 20
1.73528
 30
0.0
  0
VERTEX
  5
1C21
  8
ASSEMBLY
 10
7.912892
 20
1.73528
 30
0.0
  0
VERTEX
  5
1C22
  8
ASSEMBLY
 10
7.912892
 20
1.523535
 30
0.0
 42
-0.977637
  0
SEQEND
  5
1C23
  8
ASSEMBLY
  0
DIMENSION
  5
184B
  8
0
  2
*D0
 10
-0.029931
 20
-0.61651
 30
0.0
 11
2.619634
 21
-0.61651
 31
0.0
 70
     0
  1
5.3(135)
 13
5.269199
 23
-0.320706
 33
0.0
 14
-0.029931
 24
-0.320706
 34
0.0
1001
ACAD
1000
DSTYLE
1002
{
1070
   140
1040
0.1
1070
   340
1005
2C
1070
   174
1070
     1
1070
   287
1070
     5
1070
    44
1040
0.1
1070
    41
1040
0.1
1002
}
  0
DIMENSION
  5
1859
  8
0
  2
*D1
 10
5.624448
 20
2.962721
 30
0.0
 11
5.624448
 21
1.439329
 31
0.0
 70
     0
  1
3.0(77)
 13
5.358012
 23
-0.084062
 33
0.0
 14
5.358012
 24
2.962721
 34
0.0
 50
90.0
1001
ACAD
1000
DSTYLE
1002
{
1070
   140
1040
0.1
1070
   340
1005
2C
1070
   174
1070
     1
1070
   287
1070
     5
1070
    44
1040
0.1
1070
    41
1040
0.1
1002
}
  0
INSERT
  5
1867
  8
0
  2
RAIL
 10
7.91381
 20
0.713653
 30
0.0
 50
90.0
  0
DIMENSION
  5
1876
  8
0
  2
*D3
 10
8.293161
 20
-0.440764
 30
0.0
 11
7.108781
 21
-0.440764
 31
0.0
 70
     0
  1
2.3(58.5)
 13
5.9244
 23
0.645299
 33
0.0
 14
8.293161
 24
0.855021
 34
0.0
1001
ACAD
1000
DSTYLE
1002
{
1070
   140
1040
0.1
1070
   340
1005
2C
1070
   174
1070
     1
1070
   287
1070
     5
1070
    44
1040
0.1
1070
    41
1040
0.1
1002
}
  0
ENDSEC
  0
EOF
