  0
SECTION
  2
HEADER
  9
$ACADVER
  1
AC1009
  9
$INSBASE
 10
0.0
 20
0.0
 30
0.0
  9
$EXTMIN
 10
-0.052636
 20
-4.600494
 30
0.0
  9
$EXTMAX
 10
5.617429
 20
2.932215
 30
0.0
  9
$LIMMIN
 10
0.0
 20
0.0
  9
$LIMMAX
 10
12.0
 20
9.0
  9
$ORTHOMODE
 70
     1
  9
$REGENMODE
 70
     1
  9
$FILLMODE
 70
     1
  9
$QTEXTMODE
 70
     0
  9
$MIRRTEXT
 70
     1
  9
$DRAGMODE
 70
     2
  9
$LTSCALE
 40
1.0
  9
$OSMODE
 70
     0
  9
$ATTMODE
 70
     1
  9
$TEXTSIZE
 40
0.1
  9
$TRACEWID
 40
0.05
  9
$TEXTSTYLE
  7
ROMANS
  9
$CLAYER
  8
0
  9
$CELTYPE
  6
BYLAYER
  9
$CECOLOR
 62
   256
  9
$DIMSCALE
 40
1.0
  9
$DIMASZ
 40
0.18
  9
$DIMEXO
 40
0.0625
  9
$DIMDLI
 40
0.38
  9
$DIMRND
 40
0.0
  9
$DIMDLE
 40
0.0
  9
$DIMEXE
 40
0.18
  9
$DIMTP
 40
0.0
  9
$DIMTM
 40
0.0
  9
$DIMTXT
 40
0.1
  9
$DIMCEN
 40
0.09
  9
$DIMTSZ
 40
0.0
  9
$DIMTOL
 70
     0
  9
$DIMLIM
 70
     0
  9
$DIMTIH
 70
     1
  9
$DIMTOH
 70
     1
  9
$DIMSE1
 70
     0
  9
$DIMSE2
 70
     0
  9
$DIMTAD
 70
     0
  9
$DIMZIN
 70
     0
  9
$DIMBLK
  1

  9
$DIMASO
 70
     1
  9
$DIMSHO
 70
     1
  9
$DIMPOST
  1

  9
$DIMAPOST
  1

  9
$DIMALT
 70
     0
  9
$DIMALTD
 70
     2
  9
$DIMALTF
 40
25.4
  9
$DIMLFAC
 40
1.0
  9
$DIMTOFL
 70
     0
  9
$DIMTVP
 40
0.0
  9
$DIMTIX
 70
     0
  9
$DIMSOXD
 70
     0
  9
$DIMSAH
 70
     0
  9
$DIMBLK1
  1

  9
$DIMBLK2
  1

  9
$DIMSTYLE
  2
FURNIX
  9
$DIMCLRD
 70
     0
  9
$DIMCLRE
 70
     0
  9
$DIMCLRT
 70
     0
  9
$DIMTFAC
 40
1.0
  9
$DIMGAP
 40
0.09
  9
$LUNITS
 70
     2
  9
$LUPREC
 70
     4
  9
$SKETCHINC
 40
0.1
  9
$FILLETRAD
 40
0.0
  9
$AUNITS
 70
     0
  9
$AUPREC
 70
     0
  9
$MENU
  1
acad
  9
$ELEVATION
 40
0.0
  9
$PELEVATION
 40
0.0
  9
$THICKNESS
 40
0.0
  9
$LIMCHECK
 70
     0
  9
$BLIPMODE
 70
     0
  9
$CHAMFERA
 40
0.025
  9
$CHAMFERB
 40
0.025
  9
$SKPOLY
 70
     0
  9
$TDCREATE
 40
2450318.607597
  9
$TDUPDATE
 40
2451655.63892
  9
$TDINDWG
 40
0.287195
  9
$TDUSRTIMER
 40
0.287195
  9
$USRTIMER
 70
     1
  9
$ANGBASE
 50
0.0
  9
$ANGDIR
 70
     0
  9
$PDMODE
 70
     0
  9
$PDSIZE
 40
0.0
  9
$PLINEWID
 40
0.025
  9
$COORDS
 70
     2
  9
$SPLFRAME
 70
     0
  9
$SPLINETYPE
 70
     6
  9
$SPLINESEGS
 70
     8
  9
$ATTDIA
 70
     0
  9
$ATTREQ
 70
     1
  9
$HANDLING
 70
     1
  9
$HANDSEED
  5
2CAD
  9
$SURFTAB1
 70
     6
  9
$SURFTAB2
 70
     6
  9
$SURFTYPE
 70
     6
  9
$SURFU
 70
     6
  9
$SURFV
 70
     6
  9
$UCSNAME
  2

  9
$UCSORG
 10
0.0
 20
0.0
 30
0.0
  9
$UCSXDIR
 10
1.0
 20
0.0
 30
0.0
  9
$UCSYDIR
 10
0.0
 20
1.0
 30
0.0
  9
$PUCSNAME
  2

  9
$PUCSORG
 10
0.0
 20
0.0
 30
0.0
  9
$PUCSXDIR
 10
1.0
 20
0.0
 30
0.0
  9
$PUCSYDIR
 10
0.0
 20
1.0
 30
0.0
  9
$USERI1
 70
     0
  9
$USERI2
 70
     0
  9
$USERI3
 70
     0
  9
$USERI4
 70
     0
  9
$USERI5
 70
     0
  9
$USERR1
 40
0.0
  9
$USERR2
 40
0.0
  9
$USERR3
 40
0.0
  9
$USERR4
 40
0.0
  9
$USERR5
 40
0.0
  9
$WORLDVIEW
 70
     1
  9
$SHADEDGE
 70
     3
  9
$SHADEDIF
 70
    70
  9
$TILEMODE
 70
     1
  9
$MAXACTVP
 70
    16
  9
$PLIMCHECK
 70
     0
  9
$PEXTMIN
 10
1.000000E+020
 20
1.000000E+020
 30
1.000000E+020
  9
$PEXTMAX
 10
-1.000000E+020
 20
-1.000000E+020
 30
-1.000000E+020
  9
$PLIMMIN
 10
0.0
 20
0.0
  9
$PLIMMAX
 10
12.0
 20
9.0
  9
$UNITMODE
 70
     0
  9
$VISRETAIN
 70
     0
  9
$PLINEGEN
 70
     0
  9
$PSLTSCALE
 70
     1
  0
ENDSEC
  0
SECTION
  2
TABLES
  0
TABLE
  2
VPORT
 70
     3
  0
VPORT
  2
*ACTIVE
 70
     0
 10
0.0
 20
0.0
 11
1.0
 21
1.0
 12
6.044999
 22
0.169819
 13
0.0
 23
0.0
 14
1.0
 24
1.0
 15
0.0
 25
0.0
 16
0.0
 26
0.0
 36
1.0
 17
0.0
 27
0.0
 37
0.0
 40
10.303261
 41
1.772059
 42
50.0
 43
0.0
 44
0.0
 50
0.0
 51
0.0
 71
     0
 72
   100
 73
     1
 74
     0
 75
     0
 76
     0
 77
     0
 78
     0
  0
ENDTAB
  0
TABLE
  2
LTYPE
 70
     1
  0
LTYPE
  2
CONTINUOUS
 70
     0
  3
Solid line
 72
    65
 73
     0
 40
0.0
  0
ENDTAB
  0
TABLE
  2
LAYER
 70
     4
  0
LAYER
  2
0
 70
     0
 62
     7
  6
CONTINUOUS
  0
LAYER
  2
ASSEMBLY
 70
     0
 62
     2
  6
CONTINUOUS
  0
LAYER
  2
DEFPOINTS
 70
     0
 62
     7
  6
CONTINUOUS
  0
LAYER
  2
6
 70
     0
 62
     6
  6
CONTINUOUS
  0
ENDTAB
  0
TABLE
  2
STYLE
 70
     3
  0
STYLE
  2
STANDARD
 70
     0
 40
0.0
 41
1.0
 50
0.0
 71
     0
 42
0.2
  3
txt
  4

  0
STYLE
  2
ROMANS
 70
     0
 40
0.1
 41
1.0
 50
0.0
 71
     0
 42
0.1
  3
romans.shx
  4

  0
STYLE
  2
ROMAND
 70
     0
 40
0.1
 41
1.0
 50
0.0
 71
     0
 42
0.1
  3
ROMAND.SHX
  4

  0
ENDTAB
  0
TABLE
  2
VIEW
 70
     0
  0
ENDTAB
  0
TABLE
  2
UCS
 70
     0
  0
ENDTAB
  0
TABLE
  2
APPID
 70
     1
  0
APPID
  2
ACAD
 70
     0
  0
ENDTAB
  0
TABLE
  2
DIMSTYLE
 70
     2
  0
DIMSTYLE
  2
STANDARD
 70
     0
  3

  4

  5

  6

  7

 40
1.0
 41
0.18
 42
0.0625
 43
0.38
 44
0.18
 45
0.0
 46
0.0
 47
0.0
 48
0.0
140
0.1
141
0.09
142
0.0
143
25.4
144
1.0
145
0.0
146
1.0
147
0.09
 71
     0
 72
     0
 73
     1
 74
     1
 75
     0
 76
     0
 77
     0
 78
     0
170
     0
171
     2
172
     0
173
     0
174
     0
175
     0
176
     0
177
     0
178
     0
  0
DIMSTYLE
  2
FURNIX
 70
     0
  3

  4

  5

  6

  7

 40
1.0
 41
0.18
 42
0.0625
 43
0.38
 44
0.18
 45
0.0
 46
0.0
 47
0.0
 48
0.0
140
0.1
141
0.09
142
0.0
143
25.4
144
1.0
145
0.0
146
1.0
147
0.09
 71
     0
 72
     0
 73
     1
 74
     1
 75
     0
 76
     0
 77
     0
 78
     0
170
     0
171
     2
172
     0
173
     0
174
     0
175
     0
176
     0
177
     0
178
     0
  0
ENDTAB
  0
ENDSEC
  0
SECTION
  2
BLOCKS
  0
BLOCK
  8
0
  2
$MODEL_SPACE
 70
     0
 10
0.0
 20
0.0
 30
0.0
  3
$MODEL_SPACE
  1

  0
ENDBLK
  5
1C
  8
0
  0
BLOCK
 67
     1
  8
0
  2
$PAPER_SPACE
 70
     0
 10
0.0
 20
0.0
 30
0.0
  3
$PAPER_SPACE
  1

  0
ENDBLK
  5
19
 67
     1
  8
0
  0
BLOCK
  8
0
  2
*D0
 70
     1
 10
0.0
 20
0.0
 30
0.0
  3
*D0
  1

  0
LINE
  5
2B58
  8
0
  6
BYBLOCK
 62
     0
 10
-0.047303
 20
-0.327497
 30
0.0
 11
-0.047303
 21
-0.577333
 31
0.0
  0
LINE
  5
2B59
  8
0
  6
BYBLOCK
 62
     0
 10
2.16636
 20
-0.327497
 30
0.0
 11
2.16636
 21
-0.577333
 31
0.0
  0
LINE
  5
2B5A
  8
0
  6
BYBLOCK
 62
     0
 10
0.132697
 20
-0.397333
 30
0.0
 11
0.586195
 21
-0.397333
 31
0.0
  0
LINE
  5
2B5B
  8
0
  6
BYBLOCK
 62
     0
 10
1.98636
 20
-0.397333
 30
0.0
 11
1.532862
 21
-0.397333
 31
0.0
  0
SOLID
  5
2B5C
  8
0
  6
BYBLOCK
 62
     0
 10
0.132697
 20
-0.367333
 30
0.0
 11
0.132697
 21
-0.427333
 31
0.0
 12
-0.047303
 22
-0.397333
 32
0.0
 13
-0.047303
 23
-0.397333
 33
0.0
  0
SOLID
  5
2B5D
  8
0
  6
BYBLOCK
 62
     0
 10
1.98636
 20
-0.367333
 30
0.0
 11
1.98636
 21
-0.427333
 31
0.0
 12
2.16636
 22
-0.397333
 32
0.0
 13
2.16636
 23
-0.397333
 33
0.0
  0
TEXT
  8
0
  40
0.1
  5
2CAA
  62
0
  72
0
  71
0
 10
0.859528
 20
-0.574333
 30
0.000000
  1
2.22(56.3)
  7
ROMANS
  0
POINT
  5
2B5F
  8
DEFPOINTS
  6
BYBLOCK
 62
     0
 10
-0.047303
 20
-0.264997
 30
0.0
  0
POINT
  5
2B60
  8
DEFPOINTS
  6
BYBLOCK
 62
     0
 10
2.16636
 20
-0.264997
 30
0.0
  0
POINT
  5
2B61
  8
DEFPOINTS
  6
BYBLOCK
 62
     0
 10
2.16636
 20
-0.397333
 30
0.0
  0
ENDBLK
  5
2B62
  8
0
  0
BLOCK
  8
0
  2
*D1
 70
     1
 10
0.0
 20
0.0
 30
0.0
  3
*D1
  1

  0
LINE
  5
2B1C
  8
0
  6
BYBLOCK
 62
     0
 10
4.16616
 20
-0.094852
 30
0.0
 11
2.591806
 21
-0.094852
 31
0.0
  0
LINE
  5
2B1D
  8
0
  6
BYBLOCK
 62
     0
 10
4.16616
 20
2.929959
 30
0.0
 11
2.591806
 21
2.929959
 31
0.0
  0
LINE
  5
2B1E
  8
0
  6
BYBLOCK
 62
     0
 10
2.771806
 20
0.085148
 30
0.0
 11
2.771806
 21
1.251363
 31
0.0
  0
LINE
  5
2B1F
  8
0
  6
BYBLOCK
 62
     0
 10
2.771806
 20
2.749959
 30
0.0
 11
2.771806
 21
1.583744
 31
0.0
  0
SOLID
  5
2B20
  8
0
  6
BYBLOCK
 62
     0
 10
2.741806
 20
0.085148
 30
0.0
 11
2.801806
 21
0.085148
 31
0.0
 12
2.771806
 22
-0.094852
 32
0.0
 13
2.771806
 23
-0.094852
 33
0.0
  0
SOLID
  5
2B21
  8
0
  6
BYBLOCK
 62
     0
 10
2.741806
 20
2.749959
 30
0.0
 11
2.801806
 21
2.749959
 31
0.0
 12
2.771806
 22
2.929959
 32
0.0
 13
2.771806
 23
2.929959
 33
0.0
  0
TEXT
  8
0
  40
0.1
  5
2CAB
  62
0
  72
0
  71
0
 10
2.57181
 20
1.24055
 30
0.000000
  1
3.0(77)
  7
ROMANS
  0
POINT
  5
2B23
  8
DEFPOINTS
  6
BYBLOCK
 62
     0
 10
4.22866
 20
-0.094852
 30
0.0
  0
POINT
  5
2B24
  8
DEFPOINTS
  6
BYBLOCK
 62
     0
 10
4.22866
 20
2.929959
 30
0.0
  0
POINT
  5
2B25
  8
DEFPOINTS
  6
BYBLOCK
 62
     0
 10
2.771806
 20
2.929959
 30
0.0
  0
ENDBLK
  5
2B26
  8
0
  0
BLOCK
  8
0
  2
RAIL
 70
     0
 10
0.0
 20
0.0
 30
0.0
  3
RAIL
  1

  0
TRACE
  5
2B2A
  8
6
 10
0.306922
 20
-0.347359
 30
0.0
 11
0.306922
 21
-0.387359
 31
0.0
 12
1.226922
 22
-0.347359
 32
0.0
 13
1.226922
 23
-0.387359
 33
0.0
  0
POLYLINE
  5
2B2B
  8
6
 66
     1
 10
0.0
 20
0.0
 30
0.0
 40
0.04
 41
0.04
  0
VERTEX
  5
2C9D
  8
6
 10
0.255422
 20
-0.163559
 30
0.0
 42
0.414214
  0
VERTEX
  5
2C9E
  8
6
 10
0.203922
 20
-0.112059
 30
0.0
 42
1.0
  0
SEQEND
  5
2C9F
  8
6
  0
TRACE
  5
2B2C
  8
6
 10
0.077922
 20
-0.092059
 30
0.0
 11
0.077922
 21
-0.132059
 31
0.0
 12
0.203922
 22
-0.092059
 32
0.0
 13
0.203922
 23
-0.132059
 33
0.0
  0
TRACE
  5
2B2D
  8
6
 10
0.275422
 20
-0.163559
 30
0.0
 11
0.235422
 21
-0.163559
 31
0.0
 12
0.275422
 22
-0.315859
 32
0.0
 13
0.235422
 23
-0.315859
 33
0.0
  0
POLYLINE
  5
2B2E
  8
6
 66
     1
 10
0.0
 20
0.0
 30
0.0
 40
0.04
 41
0.04
  0
VERTEX
  5
2CA0
  8
6
 10
0.255422
 20
-0.315859
 30
0.0
 42
0.414214
  0
VERTEX
  5
2CA1
  8
6
 10
0.306922
 20
-0.367359
 30
0.0
 42
1.0
  0
SEQEND
  5
2CA2
  8
6
  0
TRACE
  5
2B2F
  8
6
 10
1.455922
 20
-0.092059
 30
0.0
 11
1.455922
 21
-0.132059
 31
0.0
 12
1.329922
 22
-0.092059
 32
0.0
 13
1.329922
 23
-0.132059
 33
0.0
  0
TRACE
  5
2B30
  8
6
 10
1.258422
 20
-0.163559
 30
0.0
 11
1.298422
 21
-0.163559
 31
0.0
 12
1.258422
 22
-0.315859
 32
0.0
 13
1.298422
 23
-0.315859
 33
0.0
  0
POLYLINE
  5
2B31
  8
6
 66
     1
 10
0.0
 20
0.0
 30
0.0
 40
0.04
 41
0.04
  0
VERTEX
  5
2CA3
  8
6
 10
1.278422
 20
-0.315859
 30
0.0
 42
-0.414214
  0
VERTEX
  5
2CA4
  8
6
 10
1.226922
 20
-0.367359
 30
0.0
 42
-1.0
  0
SEQEND
  5
2CA5
  8
6
  0
POLYLINE
  5
2B32
  8
6
 66
     1
 10
0.0
 20
0.0
 30
0.0
 40
0.04
 41
0.04
  0
VERTEX
  5
2CA6
  8
6
 10
1.278422
 20
-0.163559
 30
0.0
 42
-0.414214
  0
VERTEX
  5
2CA7
  8
6
 10
1.329922
 20
-0.112059
 30
0.0
 42
-1.0
  0
SEQEND
  5
2CA8
  8
6
  0
ENDBLK
  5
2B34
  8
0
  0
BLOCK
  8
0
  2
*D3
 70
     1
 10
0.0
 20
0.0
 30
0.0
  3
*D3
  1

  0
LINE
  5
2B39
  8
0
  6
BYBLOCK
 62
     0
 10
5.609834
 20
0.655566
 30
0.0
 11
5.609834
 21
-0.671858
 31
0.0
  0
LINE
  5
2B3A
  8
0
  6
BYBLOCK
 62
     0
 10
3.282651
 20
0.655566
 30
0.0
 11
3.282651
 21
-0.671858
 31
0.0
  0
LINE
  5
2B3B
  8
0
  6
BYBLOCK
 62
     0
 10
5.429834
 20
-0.491858
 30
0.0
 11
4.871957
 21
-0.491858
 31
0.0
  0
LINE
  5
2B3C
  8
0
  6
BYBLOCK
 62
     0
 10
3.462651
 20
-0.491858
 30
0.0
 11
4.020528
 21
-0.491858
 31
0.0
  0
SOLID
  5
2B3D
  8
0
  6
BYBLOCK
 62
     0
 10
5.429834
 20
-0.461858
 30
0.0
 11
5.429834
 21
-0.521858
 31
0.0
 12
5.609834
 22
-0.491858
 32
0.0
 13
5.609834
 23
-0.491858
 33
0.0
  0
SOLID
  5
2B3E
  8
0
  6
BYBLOCK
 62
     0
 10
3.462651
 20
-0.461858
 30
0.0
 11
3.462651
 21
-0.521858
 31
0.0
 12
3.282651
 22
-0.491858
 32
0.0
 13
3.282651
 23
-0.491858
 33
0.0
  0
TEXT
  8
0
  40
0.1
  5
2CAC
  62
0
  72
0
  71
0
 10
4.24624
 20
-0.668858
 30
0.000000
  1
2.3(58.5)
  7
ROMANS
  0
POINT
  5
2B40
  8
DEFPOINTS
  6
BYBLOCK
 62
     0
 10
5.609834
 20
0.718066
 30
0.0
  0
POINT
  5
2B41
  8
DEFPOINTS
  6
BYBLOCK
 62
     0
 10
3.282651
 20
0.718066
 30
0.0
  0
POINT
  5
2B42
  8
DEFPOINTS
  6
BYBLOCK
 62
     0
 10
3.282651
 20
-0.491858
 30
0.0
  0
ENDBLK
  5
2B43
  8
0
  0
ENDSEC
  0
SECTION
  2
ENTITIES
  0
POLYLINE
  5
4E
  8
ASSEMBLY
 66
     1
 10
0.0
 20
0.0
 30
0.0
 70
     1
  0
VERTEX
  5
2B64
  8
ASSEMBLY
 10
0.4769
 20
2.25
 30
0.0
 42
0.414214
  0
VERTEX
  5
2B65
  8
ASSEMBLY
 10
0.4469
 20
2.22
 30
0.0
  0
VERTEX
  5
2B66
  8
ASSEMBLY
 10
0.4469
 20
1.78
 30
0.0
 42
0.414214
  0
VERTEX
  5
2B67
  8
ASSEMBLY
 10
0.4769
 20
1.75
 30
0.0
  0
VERTEX
  5
2B68
  8
ASSEMBLY
 10
1.6309
 20
1.75
 30
0.0
 42
0.414214
  0
VERTEX
  5
2B69
  8
ASSEMBLY
 10
1.6609
 20
1.78
 30
0.0
  0
VERTEX
  5
2B6A
  8
ASSEMBLY
 10
1.6609
 20
2.22
 30
0.0
 42
0.414214
  0
VERTEX
  5
2B6B
  8
ASSEMBLY
 10
1.6309
 20
2.25
 30
0.0
  0
SEQEND
  5
2B6C
  8
ASSEMBLY
  0
CIRCLE
  5
24E
  8
ASSEMBLY
 10
1.2259
 20
1.922
 30
0.0
 40
0.0175
  0
CIRCLE
  5
250
  8
ASSEMBLY
 10
1.2259
 20
2.078
 30
0.0
 40
0.0175
  0
CIRCLE
  5
253
  8
ASSEMBLY
 10
1.1809
 20
2.0
 30
0.0
 40
0.0175
  0
CIRCLE
  5
255
  8
ASSEMBLY
 10
1.1359
 20
2.078
 30
0.0
 40
0.0175
  0
CIRCLE
  5
258
  8
ASSEMBLY
 10
1.1359
 20
1.922
 30
0.0
 40
0.0175
  0
CIRCLE
  5
259
  8
ASSEMBLY
 10
1.0909
 20
2.0
 30
0.0
 40
0.0175
  0
CIRCLE
  5
25B
  8
ASSEMBLY
 10
1.0459
 20
2.078
 30
0.0
 40
0.0175
  0
CIRCLE
  5
25E
  8
ASSEMBLY
 10
1.0459
 20
1.922
 30
0.0
 40
0.0175
  0
CIRCLE
  5
25F
  8
ASSEMBLY
 10
1.0009
 20
2.0
 30
0.0
 40
0.0175
  0
CIRCLE
  5
261
  8
ASSEMBLY
 10
0.9559
 20
2.078
 30
0.0
 40
0.0175
  0
CIRCLE
  5
264
  8
ASSEMBLY
 10
0.9559
 20
1.922
 30
0.0
 40
0.0175
  0
CIRCLE
  5
265
  8
ASSEMBLY
 10
0.9109
 20
2.0
 30
0.0
 40
0.0175
  0
CIRCLE
  5
267
  8
ASSEMBLY
 10
0.8659
 20
2.078
 30
0.0
 40
0.0175
  0
CIRCLE
  5
26A
  8
ASSEMBLY
 10
0.8659
 20
1.922
 30
0.0
 40
0.0175
  0
CIRCLE
  5
277
  8
ASSEMBLY
 10
1.5464
 20
2.0
 30
0.0
 40
0.0625
  0
POLYLINE
  5
279
  8
ASSEMBLY
 66
     1
 10
0.0
 20
0.0
 30
0.0
 70
     1
  0
VERTEX
  5
2B6D
  8
ASSEMBLY
 10
1.4914
 20
2.095
 30
0.0
  0
VERTEX
  5
2B6E
  8
ASSEMBLY
 10
1.44065
 20
2.0
 30
0.0
  0
VERTEX
  5
2B6F
  8
ASSEMBLY
 10
1.4914
 20
1.905
 30
0.0
  0
VERTEX
  5
2B70
  8
ASSEMBLY
 10
1.6014
 20
1.905
 30
0.0
  0
VERTEX
  5
2B71
  8
ASSEMBLY
 10
1.65215
 20
2.0
 30
0.0
  0
VERTEX
  5
2B72
  8
ASSEMBLY
 10
1.6014
 20
2.095
 30
0.0
  0
SEQEND
  5
2B73
  8
ASSEMBLY
  0
POLYLINE
  5
281
  8
ASSEMBLY
 66
     1
 10
0.0
 20
0.0
 30
0.0
 70
     1
  0
VERTEX
  5
2B74
  8
ASSEMBLY
 10
1.386087
 20
1.835
 30
0.0
  0
VERTEX
  5
2B75
  8
ASSEMBLY
 10
0.714713
 20
1.835
 30
0.0
 42
-0.473267
  0
VERTEX
  5
2B76
  8
ASSEMBLY
 10
0.685295
 20
1.870882
 30
0.0
  0
VERTEX
  5
2B77
  8
ASSEMBLY
 10
0.76647
 20
2.140882
 30
0.0
 42
-0.357528
  0
VERTEX
  5
2B78
  8
ASSEMBLY
 10
0.795888
 20
2.165
 30
0.0
  0
VERTEX
  5
2B79
  8
ASSEMBLY
 10
1.304912
 20
2.165
 30
0.0
 42
-0.357528
  0
VERTEX
  5
2B7A
  8
ASSEMBLY
 10
1.33433
 20
2.140882
 30
0.0
  0
VERTEX
  5
2B7B
  8
ASSEMBLY
 10
1.415505
 20
1.870882
 30
0.0
 42
-0.473267
  0
SEQEND
  5
2B7C
  8
ASSEMBLY
  0
LINE
  5
28E
  8
ASSEMBLY
 10
4.043927
 20
2.134997
 30
0.0
 11
4.043927
 21
2.177472
 31
0.0
  0
ARC
  5
28F
  8
ASSEMBLY
 10
4.213566
 20
1.957755
 30
0.0
 40
0.01
 50
270.0
 51
0.0
  0
ARC
  5
290
  8
ASSEMBLY
 10
4.213566
 20
2.125206
 30
0.0
 40
0.01
 50
0.0
 51
90.0
  0
ARC
  5
291
  8
ASSEMBLY
 10
4.108779
 20
2.088344
 30
0.0
 40
0.114806
 50
335.908754
 51
24.091246
  0
ARC
  5
292
  8
ASSEMBLY
 10
4.108744
 20
1.994618
 30
0.0
 40
0.114806
 50
335.908754
 51
24.091246
  0
ARC
  5
293
  8
ASSEMBLY
 10
4.045964
 20
2.125206
 30
0.0
 40
0.01
 50
90.0
 51
180.0
  0
ARC
  5
294
  8
ASSEMBLY
 10
4.045964
 20
1.957755
 30
0.0
 40
0.01
 50
180.0
 51
270.0
  0
ARC
  5
295
  8
ASSEMBLY
 10
4.15077
 20
2.088344
 30
0.0
 40
0.114806
 50
155.908754
 51
204.091246
  0
ARC
  5
296
  8
ASSEMBLY
 10
4.15077
 20
1.994618
 30
0.0
 40
0.114806
 50
155.908754
 51
204.091246
  0
LINE
  5
297
  8
ASSEMBLY
 10
4.035964
 20
2.041481
 30
0.0
 11
4.035964
 21
2.125206
 31
0.0
  0
LINE
  5
298
  8
ASSEMBLY
 10
4.506956
 20
2.017472
 30
0.0
 11
4.471927
 21
2.017472
 31
0.0
  0
LINE
  5
299
  8
ASSEMBLY
 10
4.506956
 20
2.067472
 30
0.0
 11
4.471927
 21
2.067472
 31
0.0
  0
LINE
  5
29A
  8
ASSEMBLY
 10
4.250977
 20
1.936645
 30
0.0
 11
4.250977
 21
2.146506
 31
0.0
  0
ARC
  5
29B
  8
ASSEMBLY
 10
4.471927
 20
1.927472
 30
0.0
 40
0.02
 50
270.0
 51
0.0
  0
ARC
  5
29C
  8
ASSEMBLY
 10
4.471927
 20
2.157472
 30
0.0
 40
0.02
 50
0.0
 51
90.0
  0
LINE
  5
29D
  8
ASSEMBLY
 10
4.471927
 20
1.907472
 30
0.0
 11
4.441927
 21
1.907472
 31
0.0
  0
LINE
  5
29E
  8
ASSEMBLY
 10
4.471927
 20
2.177472
 30
0.0
 11
4.441927
 21
2.177472
 31
0.0
  0
LINE
  5
29F
  8
ASSEMBLY
 10
4.491927
 20
1.948972
 30
0.0
 11
4.491927
 21
1.927472
 31
0.0
  0
LINE
  5
2A0
  8
ASSEMBLY
 10
4.491927
 20
2.157472
 30
0.0
 11
4.491927
 21
2.135972
 31
0.0
  0
ARC
  5
2A1
  8
ASSEMBLY
 10
4.063927
 20
1.907472
 30
0.0
 40
0.02
 50
180.0
 51
270.0
  0
ARC
  5
2A2
  8
ASSEMBLY
 10
4.063927
 20
2.177472
 30
0.0
 40
0.02
 50
90.0
 51
180.0
  0
ARC
  5
2A3
  8
ASSEMBLY
 10
4.241927
 20
2.217472
 30
0.0
 40
0.02
 50
270.0
 51
0.0
  0
ARC
  5
2A4
  8
ASSEMBLY
 10
4.241927
 20
1.867472
 30
0.0
 40
0.02
 50
0.0
 51
90.0
  0
ARC
  5
2A5
  8
ASSEMBLY
 10
4.421927
 20
1.847472
 30
0.0
 40
0.02
 50
270.0
 51
0.0
  0
ARC
  5
2A6
  8
ASSEMBLY
 10
4.421927
 20
2.237472
 30
0.0
 40
0.02
 50
360.0
 51
90.0
  0
LINE
  5
2A7
  8
ASSEMBLY
 10
4.301927
 20
1.987472
 30
0.0
 11
4.506956
 21
1.987472
 31
0.0
  0
LINE
  5
2A8
  8
ASSEMBLY
 10
4.301927
 20
2.097472
 30
0.0
 11
4.506956
 21
2.097472
 31
0.0
  0
LINE
  5
2A9
  8
ASSEMBLY
 10
4.471927
 20
2.067472
 30
0.0
 11
4.471927
 21
2.017472
 31
0.0
  0
LINE
  5
2AA
  8
ASSEMBLY
 10
4.251927
 20
1.952472
 30
0.0
 11
4.261927
 21
1.952472
 31
0.0
  0
LINE
  5
2AB
  8
ASSEMBLY
 10
4.251927
 20
2.132472
 30
0.0
 11
4.261927
 21
2.132472
 31
0.0
  0
LINE
  5
2AC
  8
ASSEMBLY
 10
4.251927
 20
2.132472
 30
0.0
 11
4.251927
 21
1.952472
 31
0.0
  0
LINE
  5
2AD
  8
ASSEMBLY
 10
4.441927
 20
1.948972
 30
0.0
 11
4.441927
 21
1.847472
 31
0.0
  0
LINE
  5
2AE
  8
ASSEMBLY
 10
4.301927
 20
1.948972
 30
0.0
 11
4.506956
 21
1.948972
 31
0.0
  0
LINE
  5
2AF
  8
ASSEMBLY
 10
4.301927
 20
2.135972
 30
0.0
 11
4.506956
 21
2.135972
 31
0.0
  0
LINE
  5
2B0
  8
ASSEMBLY
 10
4.441927
 20
2.237472
 30
0.0
 11
4.441927
 21
2.135972
 31
0.0
  0
LINE
  5
2B1
  8
ASSEMBLY
 10
4.421927
 20
1.827472
 30
0.0
 11
4.301927
 21
1.827472
 31
0.0
  0
LINE
  5
2B2
  8
ASSEMBLY
 10
4.301927
 20
2.257472
 30
0.0
 11
4.421927
 21
2.257472
 31
0.0
  0
LINE
  5
2B3
  8
ASSEMBLY
 10
4.301927
 20
1.792472
 30
0.0
 11
4.261927
 21
1.792472
 31
0.0
  0
LINE
  5
2B4
  8
ASSEMBLY
 10
4.261927
 20
2.292472
 30
0.0
 11
4.301927
 21
2.292472
 31
0.0
  0
LINE
  5
2B5
  8
ASSEMBLY
 10
4.301927
 20
2.292472
 30
0.0
 11
4.301927
 21
1.792472
 31
0.0
  0
LINE
  5
2B6
  8
ASSEMBLY
 10
4.241927
 20
1.887472
 30
0.0
 11
4.063927
 21
1.887472
 31
0.0
  0
LINE
  5
2B7
  8
ASSEMBLY
 10
4.261927
 20
2.292472
 30
0.0
 11
4.261927
 21
1.792472
 31
0.0
  0
LINE
  5
2B8
  8
ASSEMBLY
 10
4.063927
 20
2.197472
 30
0.0
 11
4.241927
 21
2.197472
 31
0.0
  0
LINE
  5
2B9
  8
ASSEMBLY
 10
4.043927
 20
1.907472
 30
0.0
 11
4.043927
 21
1.947965
 31
0.0
  0
LINE
  5
2BA
  8
ASSEMBLY
 10
4.223566
 20
1.957755
 30
0.0
 11
4.223566
 21
2.125206
 31
0.0
  0
LINE
  5
2BB
  8
ASSEMBLY
 10
4.224477
 20
2.146506
 30
0.0
 11
4.250977
 21
2.146506
 31
0.0
  0
LINE
  5
2BC
  8
ASSEMBLY
 10
4.250977
 20
1.936645
 30
0.0
 11
4.224477
 21
1.936645
 31
0.0
  0
LINE
  5
2BD
  8
ASSEMBLY
 10
4.224477
 20
1.936645
 30
0.0
 11
4.224477
 21
2.146506
 31
0.0
  0
LINE
  5
2BE
  8
ASSEMBLY
 10
4.213566
 20
1.947755
 30
0.0
 11
4.045964
 21
1.947755
 31
0.0
  0
LINE
  5
2BF
  8
ASSEMBLY
 10
4.035964
 20
1.957755
 30
0.0
 11
4.035964
 21
2.041481
 31
0.0
  0
LINE
  5
2C0
  8
ASSEMBLY
 10
4.045964
 20
2.135206
 30
0.0
 11
4.213566
 21
2.135206
 31
0.0
  0
LINE
  5
2C1
  8
ASSEMBLY
 10
4.035964
 20
2.041481
 30
0.0
 11
4.223996
 21
2.041481
 31
0.0
  0
POLYLINE
  5
325
  8
ASSEMBLY
 66
     1
 10
0.0
 20
0.0
 30
0.0
  0
VERTEX
  5
2B7D
  8
ASSEMBLY
 10
4.513795
 20
0.561243
 30
0.0
  0
VERTEX
  5
2B7E
  8
ASSEMBLY
 10
4.474263
 20
0.571391
 30
0.0
  0
VERTEX
  5
2B7F
  8
ASSEMBLY
 10
4.037795
 20
0.571391
 30
0.0
  0
VERTEX
  5
2B80
  8
ASSEMBLY
 10
4.037795
 20
0.591391
 30
0.0
  0
VERTEX
  5
2B81
  8
ASSEMBLY
 10
4.474263
 20
0.591391
 30
0.0
  0
VERTEX
  5
2B82
  8
ASSEMBLY
 10
4.513795
 20
0.600955
 30
0.0
  0
SEQEND
  5
2B83
  8
ASSEMBLY
  0
POLYLINE
  5
32D
  8
ASSEMBLY
 66
     1
 10
0.0
 20
0.0
 30
0.0
  0
VERTEX
  5
2B84
  8
ASSEMBLY
 10
4.513795
 20
0.127943
 30
0.0
  0
VERTEX
  5
2B85
  8
ASSEMBLY
 10
4.474263
 20
0.138092
 30
0.0
  0
VERTEX
  5
2B86
  8
ASSEMBLY
 10
4.037795
 20
0.138092
 30
0.0
  0
VERTEX
  5
2B87
  8
ASSEMBLY
 10
4.037795
 20
0.158092
 30
0.0
  0
VERTEX
  5
2B88
  8
ASSEMBLY
 10
4.474263
 20
0.158092
 30
0.0
  0
VERTEX
  5
2B89
  8
ASSEMBLY
 10
4.513795
 20
0.167655
 30
0.0
  0
SEQEND
  5
2B8A
  8
ASSEMBLY
  0
LINE
  5
335
  8
ASSEMBLY
 10
4.513795
 20
0.511417
 30
0.0
 11
3.860848
 21
0.511417
 31
0.0
  0
POLYLINE
  5
336
  8
ASSEMBLY
 66
     1
 10
0.0
 20
0.0
 30
0.0
 70
     1
  0
VERTEX
  5
2B8B
  8
ASSEMBLY
 10
3.860848
 20
0.204701
 30
0.0
  0
VERTEX
  5
2B8C
  8
ASSEMBLY
 10
4.051919
 20
0.086549
 30
0.0
  0
VERTEX
  5
2B8D
  8
ASSEMBLY
 10
4.051919
 20
0.075893
 30
0.0
  0
VERTEX
  5
2B8E
  8
ASSEMBLY
 10
4.513795
 20
0.075893
 30
0.0
  0
VERTEX
  5
2B8F
  8
ASSEMBLY
 10
4.513795
 20
0.961701
 30
0.0
  0
VERTEX
  5
2B90
  8
ASSEMBLY
 10
3.593672
 20
0.961701
 30
0.0
  0
VERTEX
  5
2B91
  8
ASSEMBLY
 10
3.593672
 20
0.877701
 30
0.0
  0
VERTEX
  5
2B92
  8
ASSEMBLY
 10
3.273672
 20
0.877701
 30
0.0
  0
VERTEX
  5
2B93
  8
ASSEMBLY
 10
3.273672
 20
0.650701
 30
0.0
  0
VERTEX
  5
2B94
  8
ASSEMBLY
 10
3.321672
 20
0.650701
 30
0.0
  0
VERTEX
  5
2B95
  8
ASSEMBLY
 10
3.521333
 20
0.559218
 30
0.0
  0
VERTEX
  5
2B96
  8
ASSEMBLY
 10
3.521333
 20
0.548701
 30
0.0
  0
VERTEX
  5
2B97
  8
ASSEMBLY
 10
3.860848
 20
0.548701
 30
0.0
  0
VERTEX
  5
2B98
  8
ASSEMBLY
 10
3.860848
 20
0.440701
 30
0.0
  0
VERTEX
  5
2B99
  8
ASSEMBLY
 10
3.804258
 20
0.440701
 30
0.0
  0
VERTEX
  5
2B9A
  8
ASSEMBLY
 10
3.804258
 20
0.204701
 30
0.0
  0
SEQEND
  5
2B9B
  8
ASSEMBLY
  0
LINE
  5
361
  8
ASSEMBLY
 10
0.575
 20
0.519024
 30
0.0
 11
0.575
 21
0.969307
 31
0.0
  0
LINE
  5
362
  8
ASSEMBLY
 10
0.175
 20
0.519024
 30
0.0
 11
0.175
 21
0.969307
 31
0.0
  0
POLYLINE
  5
363
  8
ASSEMBLY
 66
     1
 10
0.0
 20
0.0
 30
0.0
  0
VERTEX
  5
2B9C
  8
ASSEMBLY
 10
0.528741
 20
-2.313029
 30
0.0
  0
VERTEX
  5
2B9D
  8
ASSEMBLY
 10
0.528741
 20
-2.372616
 30
0.0
  0
VERTEX
  5
2B9E
  8
ASSEMBLY
 10
0.622243
 20
-2.372616
 30
0.0
  0
VERTEX
  5
2B9F
  8
ASSEMBLY
 10
0.622243
 20
-2.313029
 30
0.0
  0
SEQEND
  5
2BA0
  8
ASSEMBLY
  0
POLYLINE
  5
369
  8
ASSEMBLY
 66
     1
 10
0.0
 20
0.0
 30
0.0
 70
     1
  0
VERTEX
  5
2BA1
  8
ASSEMBLY
 10
0.49823
 20
-2.313029
 30
0.0
  0
VERTEX
  5
2BA2
  8
ASSEMBLY
 10
0.65177
 20
-2.313029
 30
0.0
  0
VERTEX
  5
2BA3
  8
ASSEMBLY
 10
0.65177
 20
-2.527738
 30
0.0
  0
VERTEX
  5
2BA4
  8
ASSEMBLY
 10
0.49823
 20
-2.527738
 30
0.0
  0
SEQEND
  5
2BA5
  8
ASSEMBLY
  0
POLYLINE
  5
36F
  8
ASSEMBLY
 66
     1
 10
0.0
 20
0.0
 30
0.0
  0
VERTEX
  5
2BA6
  8
ASSEMBLY
 10
0.39823
 20
-1.953132
 30
0.0
  0
VERTEX
  5
2BA7
  8
ASSEMBLY
 10
0.39823
 20
-1.779546
 30
0.0
  0
VERTEX
  5
2BA8
  8
ASSEMBLY
 10
0.55177
 20
-1.779546
 30
0.0
  0
VERTEX
  5
2BA9
  8
ASSEMBLY
 10
0.55177
 20
-1.953132
 30
0.0
  0
SEQEND
  5
2BAA
  8
ASSEMBLY
  0
POLYLINE
  5
375
  8
ASSEMBLY
 66
     1
 10
0.0
 20
0.0
 30
0.0
  0
VERTEX
  5
2BAB
  8
ASSEMBLY
 10
0.495
 20
0.448307
 30
0.0
  0
VERTEX
  5
2BAC
  8
ASSEMBLY
 10
0.495
 20
0.502307
 30
0.0
  0
VERTEX
  5
2BAD
  8
ASSEMBLY
 10
0.655
 20
0.502307
 30
0.0
  0
VERTEX
  5
2BAE
  8
ASSEMBLY
 10
0.655
 20
0.448307
 30
0.0
  0
SEQEND
  5
2BAF
  8
ASSEMBLY
  0
LINE
  5
37B
  8
ASSEMBLY
 10
1.775
 20
-1.470546
 30
0.0
 11
0.175
 21
-1.470546
 31
0.0
  0
LINE
  5
37C
  8
ASSEMBLY
 10
1.875
 20
-2.009722
 30
0.0
 11
0.275
 21
-2.009722
 31
0.0
  0
LINE
  5
37D
  8
ASSEMBLY
 10
1.875
 20
-2.200792
 30
0.0
 11
0.275
 21
-2.200792
 31
0.0
  0
LINE
  5
37E
  8
ASSEMBLY
 10
1.875
 20
-1.953132
 30
0.0
 11
0.275
 21
-1.953132
 31
0.0
  0
LINE
  5
37F
  8
ASSEMBLY
 10
1.775
 20
-1.670207
 30
0.0
 11
0.175
 21
-1.670207
 31
0.0
  0
LINE
  5
380
  8
ASSEMBLY
 10
1.775
 20
-1.422546
 30
0.0
 11
0.175
 21
-1.422546
 31
0.0
  0
LINE
  5
381
  8
ASSEMBLY
 10
0.519672
 20
0.277193
 30
0.0
 11
0.609115
 21
0.366635
 31
0.0
  0
CIRCLE
  5
382
  8
ASSEMBLY
 10
0.575
 20
0.311307
 30
0.0
 40
0.065
  0
CIRCLE
  5
383
  8
ASSEMBLY
 10
0.575
 20
0.311307
 30
0.0
 40
0.076
  0
LINE
  5
384
  8
ASSEMBLY
 10
1.875
 20
0.094155
 30
0.0
 11
0.275
 21
0.094155
 31
0.0
  0
LINE
  5
385
  8
ASSEMBLY
 10
1.775
 20
0.566825
 30
0.0
 11
0.175
 21
0.566825
 31
0.0
  0
LINE
  5
386
  8
ASSEMBLY
 10
0.275
 20
0.448307
 30
0.0
 11
1.875
 21
0.448307
 31
0.0
  0
LINE
  5
387
  8
ASSEMBLY
 10
0.175
 20
0.556307
 30
0.0
 11
1.775
 21
0.556307
 31
0.0
  0
LINE
  5
388
  8
ASSEMBLY
 10
0.275
 20
0.212307
 30
0.0
 11
1.875
 21
0.212307
 31
0.0
  0
LINE
  5
389
  8
ASSEMBLY
 10
0.275
 20
0.0835
 30
0.0
 11
1.875
 21
0.0835
 31
0.0
  0
LINE
  5
38A
  8
ASSEMBLY
 10
0.147
 20
-2.662669
 30
0.0
 11
1.875
 21
-2.662669
 31
0.0
  0
LINE
  5
38B
  8
ASSEMBLY
 10
0.52382
 20
-2.313029
 30
0.0
 11
0.52382
 21
-2.527245
 31
0.0
  0
POLYLINE
  5
38C
  8
ASSEMBLY
 66
     1
 10
0.0
 20
0.0
 30
0.0
 70
     1
  0
VERTEX
  5
2BB0
  8
ASSEMBLY
 10
0.29823
 20
-2.313029
 30
0.0
  0
VERTEX
  5
2BB1
  8
ASSEMBLY
 10
0.45177
 20
-2.313029
 30
0.0
  0
VERTEX
  5
2BB2
  8
ASSEMBLY
 10
0.45177
 20
-2.527738
 30
0.0
  0
VERTEX
  5
2BB3
  8
ASSEMBLY
 10
0.29823
 20
-2.527738
 30
0.0
  0
SEQEND
  5
2BB4
  8
ASSEMBLY
  0
LINE
  5
392
  8
ASSEMBLY
 10
0.32382
 20
-2.313029
 30
0.0
 11
0.32382
 21
-2.527245
 31
0.0
  0
LINE
  5
393
  8
ASSEMBLY
 10
0.427164
 20
-2.313029
 30
0.0
 11
0.427164
 21
-2.527245
 31
0.0
  0
LINE
  5
394
  8
ASSEMBLY
 10
0.147
 20
-2.662669
 30
0.0
 11
0.147
 21
-2.186669
 31
0.0
  0
LINE
  5
395
  8
ASSEMBLY
 10
0.247
 20
-2.662669
 30
0.0
 11
0.247
 21
-2.186669
 31
0.0
  0
LINE
  5
396
  8
ASSEMBLY
 10
0.175
 20
-2.662669
 30
0.0
 11
0.175
 21
-1.422546
 31
0.0
  0
LINE
  5
397
  8
ASSEMBLY
 10
0.275
 20
-2.662669
 30
0.0
 11
0.275
 21
-1.953132
 31
0.0
  0
LINE
  5
3B3
  8
ASSEMBLY
 10
0.147
 20
-2.186669
 30
0.0
 11
0.175
 21
-2.186669
 31
0.0
  0
LINE
  5
3B4
  8
ASSEMBLY
 10
0.247
 20
-2.186669
 30
0.0
 11
0.275
 21
-2.186669
 31
0.0
  0
POLYLINE
  5
3B5
  8
ASSEMBLY
 66
     1
 10
0.0
 20
0.0
 30
0.0
  0
VERTEX
  5
2BB5
  8
ASSEMBLY
 10
0.328741
 20
-2.313029
 30
0.0
  0
VERTEX
  5
2BB6
  8
ASSEMBLY
 10
0.328741
 20
-2.372616
 30
0.0
  0
VERTEX
  5
2BB7
  8
ASSEMBLY
 10
0.422243
 20
-2.372616
 30
0.0
  0
VERTEX
  5
2BB8
  8
ASSEMBLY
 10
0.422243
 20
-2.313029
 30
0.0
  0
SEQEND
  5
2BB9
  8
ASSEMBLY
  0
LINE
  5
3BB
  8
ASSEMBLY
 10
0.347448
 20
-2.200792
 30
0.0
 11
0.344175
 21
-2.200792
 31
0.0
  0
POLYLINE
  5
3BC
  8
ASSEMBLY
 66
     1
 10
0.0
 20
0.0
 30
0.0
  0
VERTEX
  5
2BBA
  8
ASSEMBLY
 10
0.228741
 20
-1.779546
 30
0.0
  0
VERTEX
  5
2BBB
  8
ASSEMBLY
 10
0.228741
 20
-1.839132
 30
0.0
  0
VERTEX
  5
2BBC
  8
ASSEMBLY
 10
0.322243
 20
-1.839132
 30
0.0
  0
VERTEX
  5
2BBD
  8
ASSEMBLY
 10
0.322243
 20
-1.779546
 30
0.0
  0
SEQEND
  5
2BBE
  8
ASSEMBLY
  0
LINE
  5
3C2
  8
ASSEMBLY
 10
0.19823
 20
-1.779546
 30
0.0
 11
0.35177
 21
-1.779546
 31
0.0
  0
LINE
  5
3C3
  8
ASSEMBLY
 10
0.19823
 20
-1.984112
 30
0.0
 11
0.19823
 21
-1.779546
 31
0.0
  0
LINE
  5
3C4
  8
ASSEMBLY
 10
0.22382
 20
-1.779546
 30
0.0
 11
0.22382
 21
-1.98362
 31
0.0
  0
LINE
  5
3C5
  8
ASSEMBLY
 10
0.275
 20
-1.984112
 30
0.0
 11
0.19823
 21
-1.984112
 31
0.0
  0
LINE
  5
3C6
  8
ASSEMBLY
 10
0.527164
 20
-1.779546
 30
0.0
 11
0.527164
 21
-1.953132
 31
0.0
  0
LINE
  5
3C7
  8
ASSEMBLY
 10
0.42382
 20
-1.779546
 30
0.0
 11
0.42382
 21
-1.953132
 31
0.0
  0
LINE
  5
3C8
  8
ASSEMBLY
 10
0.35177
 20
-1.953132
 30
0.0
 11
0.35177
 21
-1.779546
 31
0.0
  0
LINE
  5
3C9
  8
ASSEMBLY
 10
0.327164
 20
-1.779546
 30
0.0
 11
0.327164
 21
-1.953132
 31
0.0
  0
POLYLINE
  5
3CA
  8
ASSEMBLY
 66
     1
 10
0.0
 20
0.0
 30
0.0
  0
VERTEX
  5
2BBF
  8
ASSEMBLY
 10
0.428741
 20
-1.779546
 30
0.0
  0
VERTEX
  5
2BC0
  8
ASSEMBLY
 10
0.428741
 20
-1.839132
 30
0.0
  0
VERTEX
  5
2BC1
  8
ASSEMBLY
 10
0.522243
 20
-1.839132
 30
0.0
  0
VERTEX
  5
2BC2
  8
ASSEMBLY
 10
0.522243
 20
-1.779546
 30
0.0
  0
SEQEND
  5
2BC3
  8
ASSEMBLY
  0
LINE
  5
3D0
  8
ASSEMBLY
 10
0.275
 20
0.0835
 30
0.0
 11
0.275
 21
0.519024
 31
0.0
  0
LINE
  5
3D1
  8
ASSEMBLY
 10
0.275
 20
0.519024
 30
0.0
 11
0.175
 21
0.519024
 31
0.0
  0
LINE
  5
3D2
  8
ASSEMBLY
 10
0.340885
 20
0.255979
 30
0.0
 11
0.430328
 21
0.345422
 31
0.0
  0
CIRCLE
  5
3D3
  8
ASSEMBLY
 10
0.375
 20
0.311307
 30
0.0
 40
0.065
  0
CIRCLE
  5
3D4
  8
ASSEMBLY
 10
0.375
 20
0.311307
 30
0.0
 40
0.076
  0
LINE
  5
3D6
  8
ASSEMBLY
 10
0.319672
 20
0.277193
 30
0.0
 11
0.409115
 21
0.366635
 31
0.0
  0
POLYLINE
  5
3D7
  8
ASSEMBLY
 66
     1
 10
0.0
 20
0.0
 30
0.0
  0
VERTEX
  5
2BC4
  8
ASSEMBLY
 10
0.295
 20
0.448307
 30
0.0
  0
VERTEX
  5
2BC5
  8
ASSEMBLY
 10
0.295
 20
0.502307
 30
0.0
  0
VERTEX
  5
2BC6
  8
ASSEMBLY
 10
0.455
 20
0.502307
 30
0.0
  0
VERTEX
  5
2BC7
  8
ASSEMBLY
 10
0.455
 20
0.448307
 30
0.0
  0
SEQEND
  5
2BC8
  8
ASSEMBLY
  0
LINE
  5
3DD
  8
ASSEMBLY
 10
0.72382
 20
-2.313029
 30
0.0
 11
0.72382
 21
-2.527245
 31
0.0
  0
LINE
  5
3DE
  8
ASSEMBLY
 10
0.827164
 20
-2.313029
 30
0.0
 11
0.827164
 21
-2.527245
 31
0.0
  0
POLYLINE
  5
3DF
  8
ASSEMBLY
 66
     1
 10
0.0
 20
0.0
 30
0.0
 70
     1
  0
VERTEX
  5
2BC9
  8
ASSEMBLY
 10
0.69823
 20
-2.313029
 30
0.0
  0
VERTEX
  5
2BCA
  8
ASSEMBLY
 10
0.85177
 20
-2.313029
 30
0.0
  0
VERTEX
  5
2BCB
  8
ASSEMBLY
 10
0.85177
 20
-2.527738
 30
0.0
  0
VERTEX
  5
2BCC
  8
ASSEMBLY
 10
0.69823
 20
-2.527738
 30
0.0
  0
SEQEND
  5
2BCD
  8
ASSEMBLY
  0
LINE
  5
3E5
  8
ASSEMBLY
 10
0.627164
 20
-2.313029
 30
0.0
 11
0.627164
 21
-2.527245
 31
0.0
  0
LINE
  5
3F6
  8
ASSEMBLY
 10
0.675
 20
-2.662669
 30
0.0
 11
0.675
 21
-1.953132
 31
0.0
  0
LINE
  5
41A
  8
ASSEMBLY
 10
0.575
 20
-1.953132
 30
0.0
 11
0.575
 21
-1.422546
 31
0.0
  0
POLYLINE
  5
41B
  8
ASSEMBLY
 66
     1
 10
0.0
 20
0.0
 30
0.0
  0
VERTEX
  5
2BCE
  8
ASSEMBLY
 10
0.728741
 20
-2.313029
 30
0.0
  0
VERTEX
  5
2BCF
  8
ASSEMBLY
 10
0.728741
 20
-2.372616
 30
0.0
  0
VERTEX
  5
2BD0
  8
ASSEMBLY
 10
0.822243
 20
-2.372616
 30
0.0
  0
VERTEX
  5
2BD1
  8
ASSEMBLY
 10
0.822243
 20
-2.313029
 30
0.0
  0
SEQEND
  5
2BD2
  8
ASSEMBLY
  0
LINE
  5
421
  8
ASSEMBLY
 10
0.62382
 20
-1.779546
 30
0.0
 11
0.62382
 21
-1.953132
 31
0.0
  0
LINE
  5
422
  8
ASSEMBLY
 10
0.727164
 20
-1.779546
 30
0.0
 11
0.727164
 21
-1.953132
 31
0.0
  0
POLYLINE
  5
423
  8
ASSEMBLY
 66
     1
 10
0.0
 20
0.0
 30
0.0
  0
VERTEX
  5
2BD3
  8
ASSEMBLY
 10
0.59823
 20
-1.953132
 30
0.0
  0
VERTEX
  5
2BD4
  8
ASSEMBLY
 10
0.59823
 20
-1.779546
 30
0.0
  0
VERTEX
  5
2BD5
  8
ASSEMBLY
 10
0.75177
 20
-1.779546
 30
0.0
  0
VERTEX
  5
2BD6
  8
ASSEMBLY
 10
0.75177
 20
-1.953132
 30
0.0
  0
SEQEND
  5
2BD7
  8
ASSEMBLY
  0
POLYLINE
  5
429
  8
ASSEMBLY
 66
     1
 10
0.0
 20
0.0
 30
0.0
  0
VERTEX
  5
2BD8
  8
ASSEMBLY
 10
0.628741
 20
-1.779546
 30
0.0
  0
VERTEX
  5
2BD9
  8
ASSEMBLY
 10
0.628741
 20
-1.839132
 30
0.0
  0
VERTEX
  5
2BDA
  8
ASSEMBLY
 10
0.722243
 20
-1.839132
 30
0.0
  0
VERTEX
  5
2BDB
  8
ASSEMBLY
 10
0.722243
 20
-1.779546
 30
0.0
  0
SEQEND
  5
2BDC
  8
ASSEMBLY
  0
LINE
  5
42F
  8
ASSEMBLY
 10
0.675
 20
0.0835
 30
0.0
 11
0.675
 21
0.519024
 31
0.0
  0
POLYLINE
  5
431
  8
ASSEMBLY
 66
     1
 10
0.0
 20
0.0
 30
0.0
  0
VERTEX
  5
2BDD
  8
ASSEMBLY
 10
0.695
 20
0.448307
 30
0.0
  0
VERTEX
  5
2BDE
  8
ASSEMBLY
 10
0.695
 20
0.502307
 30
0.0
  0
VERTEX
  5
2BDF
  8
ASSEMBLY
 10
0.855
 20
0.502307
 30
0.0
  0
VERTEX
  5
2BE0
  8
ASSEMBLY
 10
0.855
 20
0.448307
 30
0.0
  0
SEQEND
  5
2BE1
  8
ASSEMBLY
  0
CIRCLE
  5
437
  8
ASSEMBLY
 10
0.775
 20
0.311307
 30
0.0
 40
0.076
  0
CIRCLE
  5
438
  8
ASSEMBLY
 10
0.775
 20
0.311307
 30
0.0
 40
0.065
  0
LINE
  5
439
  8
ASSEMBLY
 10
0.719672
 20
0.277193
 30
0.0
 11
0.809115
 21
0.366635
 31
0.0
  0
LINE
  5
43A
  8
ASSEMBLY
 10
0.740885
 20
0.255979
 30
0.0
 11
0.830328
 21
0.345422
 31
0.0
  0
LINE
  5
43C
  8
ASSEMBLY
 10
0.540885
 20
0.255979
 30
0.0
 11
0.630328
 21
0.345422
 31
0.0
  0
LINE
  5
43D
  8
ASSEMBLY
 10
0.675
 20
0.519024
 30
0.0
 11
0.575
 21
0.519024
 31
0.0
  0
LINE
  5
43F
  8
ASSEMBLY
 10
4.051919
 20
0.079167
 30
0.0
 11
4.051919
 21
0.075893
 31
0.0
  0
POLYLINE
  5
440
  8
ASSEMBLY
 66
     1
 10
0.0
 20
0.0
 30
0.0
  0
VERTEX
  5
2BE2
  8
ASSEMBLY
 10
0.53
 20
0.969307
 30
0.0
  0
VERTEX
  5
2BE3
  8
ASSEMBLY
 10
0.53
 20
0.927307
 30
0.0
  0
VERTEX
  5
2BE4
  8
ASSEMBLY
 10
0.42
 20
0.927307
 30
0.0
  0
VERTEX
  5
2BE5
  8
ASSEMBLY
 10
0.42
 20
0.969307
 30
0.0
  0
SEQEND
  5
2BE6
  8
ASSEMBLY
  0
CIRCLE
  5
446
  8
ASSEMBLY
 10
0.475
 20
0.748307
 30
0.0
 40
0.076
  0
CIRCLE
  5
447
  8
ASSEMBLY
 10
0.475
 20
0.748307
 30
0.0
 40
0.065
  0
LINE
  5
448
  8
ASSEMBLY
 10
0.440885
 20
0.692979
 30
0.0
 11
0.530328
 21
0.782422
 31
0.0
  0
LINE
  5
449
  8
ASSEMBLY
 10
0.175
 20
0.885307
 30
0.0
 11
1.775
 21
0.885307
 31
0.0
  0
LINE
  5
44A
  8
ASSEMBLY
 10
0.175
 20
0.658307
 30
0.0
 11
1.775
 21
0.658307
 31
0.0
  0
POLYLINE
  5
44B
  8
ASSEMBLY
 66
     1
 10
0.0
 20
0.0
 30
0.0
  0
VERTEX
  5
2BE7
  8
ASSEMBLY
 10
0.33
 20
0.969307
 30
0.0
  0
VERTEX
  5
2BE8
  8
ASSEMBLY
 10
0.33
 20
0.927307
 30
0.0
  0
VERTEX
  5
2BE9
  8
ASSEMBLY
 10
0.22
 20
0.927307
 30
0.0
  0
VERTEX
  5
2BEA
  8
ASSEMBLY
 10
0.22
 20
0.969307
 30
0.0
  0
SEQEND
  5
2BEB
  8
ASSEMBLY
  0
CIRCLE
  5
452
  8
ASSEMBLY
 10
0.275
 20
0.748307
 30
0.0
 40
0.076
  0
CIRCLE
  5
453
  8
ASSEMBLY
 10
0.275
 20
0.748307
 30
0.0
 40
0.065
  0
LINE
  5
454
  8
ASSEMBLY
 10
0.219672
 20
0.714193
 30
0.0
 11
0.309115
 21
0.803635
 31
0.0
  0
LINE
  5
455
  8
ASSEMBLY
 10
0.240885
 20
0.692979
 30
0.0
 11
0.330328
 21
0.782422
 31
0.0
  0
LINE
  5
457
  8
ASSEMBLY
 10
0.419672
 20
0.714193
 30
0.0
 11
0.509115
 21
0.803635
 31
0.0
  0
LINE
  5
459
  8
ASSEMBLY
 10
0.640885
 20
0.692979
 30
0.0
 11
0.730328
 21
0.782422
 31
0.0
  0
LINE
  5
45A
  8
ASSEMBLY
 10
0.619672
 20
0.714193
 30
0.0
 11
0.709115
 21
0.803635
 31
0.0
  0
CIRCLE
  5
45B
  8
ASSEMBLY
 10
0.675
 20
0.748307
 30
0.0
 40
0.065
  0
CIRCLE
  5
45C
  8
ASSEMBLY
 10
0.675
 20
0.748307
 30
0.0
 40
0.076
  0
POLYLINE
  5
45D
  8
ASSEMBLY
 66
     1
 10
0.0
 20
0.0
 30
0.0
  0
VERTEX
  5
2BEC
  8
ASSEMBLY
 10
0.73
 20
0.969307
 30
0.0
  0
VERTEX
  5
2BED
  8
ASSEMBLY
 10
0.73
 20
0.927307
 30
0.0
  0
VERTEX
  5
2BEE
  8
ASSEMBLY
 10
0.62
 20
0.927307
 30
0.0
  0
VERTEX
  5
2BEF
  8
ASSEMBLY
 10
0.62
 20
0.969307
 30
0.0
  0
SEQEND
  5
2BF0
  8
ASSEMBLY
  0
LINE
  5
471
  8
ASSEMBLY
 10
0.175
 20
0.969307
 30
0.0
 11
1.775
 21
0.969307
 31
0.0
  0
POLYLINE
  5
488
  8
ASSEMBLY
 66
     1
 10
0.0
 20
0.0
 30
0.0
  0
VERTEX
  5
2BF1
  8
ASSEMBLY
 10
0.93
 20
0.969307
 30
0.0
  0
VERTEX
  5
2BF2
  8
ASSEMBLY
 10
0.93
 20
0.927307
 30
0.0
  0
VERTEX
  5
2BF3
  8
ASSEMBLY
 10
0.82
 20
0.927307
 30
0.0
  0
VERTEX
  5
2BF4
  8
ASSEMBLY
 10
0.82
 20
0.969307
 30
0.0
  0
SEQEND
  5
2BF5
  8
ASSEMBLY
  0
LINE
  5
48E
  8
ASSEMBLY
 10
0.840885
 20
0.692979
 30
0.0
 11
0.930328
 21
0.782422
 31
0.0
  0
LINE
  5
48F
  8
ASSEMBLY
 10
0.819672
 20
0.714193
 30
0.0
 11
0.909115
 21
0.803635
 31
0.0
  0
CIRCLE
  5
490
  8
ASSEMBLY
 10
0.875
 20
0.748307
 30
0.0
 40
0.065
  0
CIRCLE
  5
491
  8
ASSEMBLY
 10
0.875
 20
0.748307
 30
0.0
 40
0.076
  0
CIRCLE
  5
493
  8
ASSEMBLY
 10
0.975
 20
0.311307
 30
0.0
 40
0.076
  0
CIRCLE
  5
494
  8
ASSEMBLY
 10
0.975
 20
0.311307
 30
0.0
 40
0.065
  0
LINE
  5
495
  8
ASSEMBLY
 10
0.919672
 20
0.277193
 30
0.0
 11
1.009115
 21
0.366635
 31
0.0
  0
LINE
  5
496
  8
ASSEMBLY
 10
0.940885
 20
0.255979
 30
0.0
 11
1.030328
 21
0.345422
 31
0.0
  0
POLYLINE
  5
498
  8
ASSEMBLY
 66
     1
 10
0.0
 20
0.0
 30
0.0
  0
VERTEX
  5
2BF6
  8
ASSEMBLY
 10
0.895
 20
0.448307
 30
0.0
  0
VERTEX
  5
2BF7
  8
ASSEMBLY
 10
0.895
 20
0.502307
 30
0.0
  0
VERTEX
  5
2BF8
  8
ASSEMBLY
 10
1.055
 20
0.502307
 30
0.0
  0
VERTEX
  5
2BF9
  8
ASSEMBLY
 10
1.055
 20
0.448307
 30
0.0
  0
SEQEND
  5
2BFA
  8
ASSEMBLY
  0
POLYLINE
  5
49E
  8
ASSEMBLY
 66
     1
 10
0.0
 20
0.0
 30
0.0
  0
VERTEX
  5
2BFB
  8
ASSEMBLY
 10
1.13
 20
0.969307
 30
0.0
  0
VERTEX
  5
2BFC
  8
ASSEMBLY
 10
1.13
 20
0.927307
 30
0.0
  0
VERTEX
  5
2BFD
  8
ASSEMBLY
 10
1.02
 20
0.927307
 30
0.0
  0
VERTEX
  5
2BFE
  8
ASSEMBLY
 10
1.02
 20
0.969307
 30
0.0
  0
SEQEND
  5
2BFF
  8
ASSEMBLY
  0
LINE
  5
4A4
  8
ASSEMBLY
 10
1.040885
 20
0.692979
 30
0.0
 11
1.130328
 21
0.782422
 31
0.0
  0
LINE
  5
4A5
  8
ASSEMBLY
 10
1.019672
 20
0.714193
 30
0.0
 11
1.109115
 21
0.803635
 31
0.0
  0
CIRCLE
  5
4A6
  8
ASSEMBLY
 10
1.075
 20
0.748307
 30
0.0
 40
0.065
  0
CIRCLE
  5
4A7
  8
ASSEMBLY
 10
1.075
 20
0.748307
 30
0.0
 40
0.076
  0
CIRCLE
  5
4A9
  8
ASSEMBLY
 10
1.175
 20
0.311307
 30
0.0
 40
0.076
  0
CIRCLE
  5
4AA
  8
ASSEMBLY
 10
1.175
 20
0.311307
 30
0.0
 40
0.065
  0
LINE
  5
4AB
  8
ASSEMBLY
 10
1.119672
 20
0.277193
 30
0.0
 11
1.209115
 21
0.366635
 31
0.0
  0
LINE
  5
4AC
  8
ASSEMBLY
 10
1.140885
 20
0.255979
 30
0.0
 11
1.230328
 21
0.345422
 31
0.0
  0
POLYLINE
  5
4AE
  8
ASSEMBLY
 66
     1
 10
0.0
 20
0.0
 30
0.0
  0
VERTEX
  5
2C00
  8
ASSEMBLY
 10
1.095
 20
0.448307
 30
0.0
  0
VERTEX
  5
2C01
  8
ASSEMBLY
 10
1.095
 20
0.502307
 30
0.0
  0
VERTEX
  5
2C02
  8
ASSEMBLY
 10
1.255
 20
0.502307
 30
0.0
  0
VERTEX
  5
2C03
  8
ASSEMBLY
 10
1.255
 20
0.448307
 30
0.0
  0
SEQEND
  5
2C04
  8
ASSEMBLY
  0
POLYLINE
  5
4B4
  8
ASSEMBLY
 66
     1
 10
0.0
 20
0.0
 30
0.0
  0
VERTEX
  5
2C05
  8
ASSEMBLY
 10
1.33
 20
0.969307
 30
0.0
  0
VERTEX
  5
2C06
  8
ASSEMBLY
 10
1.33
 20
0.927307
 30
0.0
  0
VERTEX
  5
2C07
  8
ASSEMBLY
 10
1.22
 20
0.927307
 30
0.0
  0
VERTEX
  5
2C08
  8
ASSEMBLY
 10
1.22
 20
0.969307
 30
0.0
  0
SEQEND
  5
2C09
  8
ASSEMBLY
  0
LINE
  5
4BA
  8
ASSEMBLY
 10
1.240885
 20
0.692979
 30
0.0
 11
1.330328
 21
0.782422
 31
0.0
  0
LINE
  5
4BB
  8
ASSEMBLY
 10
1.219672
 20
0.714193
 30
0.0
 11
1.309115
 21
0.803635
 31
0.0
  0
CIRCLE
  5
4BC
  8
ASSEMBLY
 10
1.275
 20
0.748307
 30
0.0
 40
0.065
  0
CIRCLE
  5
4BD
  8
ASSEMBLY
 10
1.275
 20
0.748307
 30
0.0
 40
0.076
  0
CIRCLE
  5
4BF
  8
ASSEMBLY
 10
1.375
 20
0.311307
 30
0.0
 40
0.076
  0
CIRCLE
  5
4C0
  8
ASSEMBLY
 10
1.375
 20
0.311307
 30
0.0
 40
0.065
  0
LINE
  5
4C1
  8
ASSEMBLY
 10
1.319672
 20
0.277193
 30
0.0
 11
1.409115
 21
0.366635
 31
0.0
  0
LINE
  5
4C2
  8
ASSEMBLY
 10
1.340885
 20
0.255979
 30
0.0
 11
1.430328
 21
0.345422
 31
0.0
  0
POLYLINE
  5
4C4
  8
ASSEMBLY
 66
     1
 10
0.0
 20
0.0
 30
0.0
  0
VERTEX
  5
2C0A
  8
ASSEMBLY
 10
1.295
 20
0.448307
 30
0.0
  0
VERTEX
  5
2C0B
  8
ASSEMBLY
 10
1.295
 20
0.502307
 30
0.0
  0
VERTEX
  5
2C0C
  8
ASSEMBLY
 10
1.455
 20
0.502307
 30
0.0
  0
VERTEX
  5
2C0D
  8
ASSEMBLY
 10
1.455
 20
0.448307
 30
0.0
  0
SEQEND
  5
2C0E
  8
ASSEMBLY
  0
POLYLINE
  5
4CA
  8
ASSEMBLY
 66
     1
 10
0.0
 20
0.0
 30
0.0
  0
VERTEX
  5
2C0F
  8
ASSEMBLY
 10
1.53
 20
0.969307
 30
0.0
  0
VERTEX
  5
2C10
  8
ASSEMBLY
 10
1.53
 20
0.927307
 30
0.0
  0
VERTEX
  5
2C11
  8
ASSEMBLY
 10
1.42
 20
0.927307
 30
0.0
  0
VERTEX
  5
2C12
  8
ASSEMBLY
 10
1.42
 20
0.969307
 30
0.0
  0
SEQEND
  5
2C13
  8
ASSEMBLY
  0
LINE
  5
4D0
  8
ASSEMBLY
 10
1.440885
 20
0.692979
 30
0.0
 11
1.530328
 21
0.782422
 31
0.0
  0
LINE
  5
4D1
  8
ASSEMBLY
 10
1.419672
 20
0.714193
 30
0.0
 11
1.509115
 21
0.803635
 31
0.0
  0
CIRCLE
  5
4D2
  8
ASSEMBLY
 10
1.475
 20
0.748307
 30
0.0
 40
0.065
  0
CIRCLE
  5
4D3
  8
ASSEMBLY
 10
1.475
 20
0.748307
 30
0.0
 40
0.076
  0
CIRCLE
  5
4D5
  8
ASSEMBLY
 10
1.575
 20
0.311307
 30
0.0
 40
0.076
  0
CIRCLE
  5
4D6
  8
ASSEMBLY
 10
1.575
 20
0.311307
 30
0.0
 40
0.065
  0
LINE
  5
4D7
  8
ASSEMBLY
 10
1.519672
 20
0.277193
 30
0.0
 11
1.609115
 21
0.366635
 31
0.0
  0
LINE
  5
4D8
  8
ASSEMBLY
 10
1.540885
 20
0.255979
 30
0.0
 11
1.630328
 21
0.345422
 31
0.0
  0
POLYLINE
  5
4DA
  8
ASSEMBLY
 66
     1
 10
0.0
 20
0.0
 30
0.0
  0
VERTEX
  5
2C14
  8
ASSEMBLY
 10
1.495
 20
0.448307
 30
0.0
  0
VERTEX
  5
2C15
  8
ASSEMBLY
 10
1.495
 20
0.502307
 30
0.0
  0
VERTEX
  5
2C16
  8
ASSEMBLY
 10
1.655
 20
0.502307
 30
0.0
  0
VERTEX
  5
2C17
  8
ASSEMBLY
 10
1.655
 20
0.448307
 30
0.0
  0
SEQEND
  5
2C18
  8
ASSEMBLY
  0
POLYLINE
  5
4E0
  8
ASSEMBLY
 66
     1
 10
0.0
 20
0.0
 30
0.0
  0
VERTEX
  5
2C19
  8
ASSEMBLY
 10
1.73
 20
0.969307
 30
0.0
  0
VERTEX
  5
2C1A
  8
ASSEMBLY
 10
1.73
 20
0.927307
 30
0.0
  0
VERTEX
  5
2C1B
  8
ASSEMBLY
 10
1.62
 20
0.927307
 30
0.0
  0
VERTEX
  5
2C1C
  8
ASSEMBLY
 10
1.62
 20
0.969307
 30
0.0
  0
SEQEND
  5
2C1D
  8
ASSEMBLY
  0
LINE
  5
4E6
  8
ASSEMBLY
 10
1.640885
 20
0.692979
 30
0.0
 11
1.730328
 21
0.782422
 31
0.0
  0
LINE
  5
4E7
  8
ASSEMBLY
 10
1.619672
 20
0.714193
 30
0.0
 11
1.709115
 21
0.803635
 31
0.0
  0
CIRCLE
  5
4E8
  8
ASSEMBLY
 10
1.675
 20
0.748307
 30
0.0
 40
0.065
  0
CIRCLE
  5
4E9
  8
ASSEMBLY
 10
1.675
 20
0.748307
 30
0.0
 40
0.076
  0
CIRCLE
  5
4EB
  8
ASSEMBLY
 10
1.775
 20
0.311307
 30
0.0
 40
0.076
  0
CIRCLE
  5
4EC
  8
ASSEMBLY
 10
1.775
 20
0.311307
 30
0.0
 40
0.065
  0
LINE
  5
4ED
  8
ASSEMBLY
 10
1.719672
 20
0.277193
 30
0.0
 11
1.809115
 21
0.366635
 31
0.0
  0
LINE
  5
4EE
  8
ASSEMBLY
 10
1.740885
 20
0.255979
 30
0.0
 11
1.830328
 21
0.345422
 31
0.0
  0
POLYLINE
  5
4F0
  8
ASSEMBLY
 66
     1
 10
0.0
 20
0.0
 30
0.0
  0
VERTEX
  5
2C1E
  8
ASSEMBLY
 10
1.695
 20
0.448307
 30
0.0
  0
VERTEX
  5
2C1F
  8
ASSEMBLY
 10
1.695
 20
0.502307
 30
0.0
  0
VERTEX
  5
2C20
  8
ASSEMBLY
 10
1.855
 20
0.502307
 30
0.0
  0
VERTEX
  5
2C21
  8
ASSEMBLY
 10
1.855
 20
0.448307
 30
0.0
  0
SEQEND
  5
2C22
  8
ASSEMBLY
  0
LINE
  5
564
  8
ASSEMBLY
 10
1.275
 20
0.0835
 30
0.0
 11
1.275
 21
0.519024
 31
0.0
  0
LINE
  5
565
  8
ASSEMBLY
 10
1.175
 20
0.519024
 30
0.0
 11
1.175
 21
0.969307
 31
0.0
  0
LINE
  5
566
  8
ASSEMBLY
 10
1.275
 20
0.519024
 30
0.0
 11
1.175
 21
0.519024
 31
0.0
  0
LINE
  5
62B
  8
ASSEMBLY
 10
4.511347
 20
2.818743
 30
0.0
 11
4.511347
 21
2.796145
 31
0.0
  0
LINE
  5
62C
  8
ASSEMBLY
 10
5.385969
 20
1.860975
 30
0.0
 11
5.42452
 21
1.860975
 31
0.0
  0
LINE
  5
62D
  8
ASSEMBLY
 10
5.345625
 20
1.355831
 30
0.0
 11
5.206212
 21
1.355831
 31
0.0
  0
ARC
  5
62E
  8
ASSEMBLY
 10
5.5021
 20
0.292716
 30
0.0
 40
0.027142
 50
208.28458
 51
70.333897
  0
ARC
  5
62F
  8
ASSEMBLY
 10
5.291898
 20
0.279855
 30
0.0
 40
0.022063
 50
0.0
 51
180.0
  0
ARC
  5
630
  8
ASSEMBLY
 10
5.516832
 20
0.705976
 30
0.0
 40
0.019817
 50
252.823789
 51
41.413557
  0
LINE
  5
631
  8
ASSEMBLY
 10
5.205008
 20
0.786308
 30
0.0
 11
5.271156
 21
0.786308
 31
0.0
  0
LINE
  5
632
  8
ASSEMBLY
 10
5.271301
 20
0.78562
 30
0.0
 11
5.271301
 21
0.78562
 31
0.0
  0
LINE
  5
633
  8
ASSEMBLY
 10
5.336048
 20
0.821608
 30
0.0
 11
5.271181
 21
0.786273
 31
0.0
  0
LINE
  5
634
  8
ASSEMBLY
 10
5.336112
 20
0.797496
 30
0.0
 11
5.336112
 21
0.821557
 31
0.0
  0
LINE
  5
635
  8
ASSEMBLY
 10
5.380498
 20
0.821258
 30
0.0
 11
5.380498
 21
0.805417
 31
0.0
  0
LINE
  5
636
  8
ASSEMBLY
 10
5.425798
 20
0.806471
 30
0.0
 11
5.380498
 21
0.821258
 31
0.0
  0
LINE
  5
637
  8
ASSEMBLY
 10
5.336112
 20
0.757364
 30
0.0
 11
5.336112
 21
0.797496
 31
0.0
  0
LINE
  5
638
  8
ASSEMBLY
 10
5.380498
 20
0.757364
 30
0.0
 11
5.336112
 21
0.757364
 31
0.0
  0
LINE
  5
639
  8
ASSEMBLY
 10
5.380498
 20
0.805417
 30
0.0
 11
5.380498
 21
0.757364
 31
0.0
  0
LINE
  5
63A
  8
ASSEMBLY
 10
5.425798
 20
0.806471
 30
0.0
 11
5.537159
 21
0.767672
 31
0.0
  0
LINE
  5
63B
  8
ASSEMBLY
 10
5.257486
 20
1.73528
 30
0.0
 11
5.257486
 21
1.680911
 31
0.0
  0
LINE
  5
63C
  8
ASSEMBLY
 10
5.185371
 20
1.73528
 30
0.0
 11
5.257486
 21
1.73528
 31
0.0
  0
LINE
  5
63D
  8
ASSEMBLY
 10
5.185371
 20
1.686384
 30
0.0
 11
5.185371
 21
1.73528
 31
0.0
  0
ARC
  5
63E
  8
ASSEMBLY
 10
5.474012
 20
1.275399
 30
0.0
 40
0.02
 50
337.084669
 51
72.605914
  0
ARC
  5
63F
  8
ASSEMBLY
 10
5.409528
 20
1.302658
 30
0.0
 40
0.090008
 50
311.966387
 51
337.084669
  0
ARC
  5
640
  8
ASSEMBLY
 10
5.432494
 20
1.298884
 30
0.0
 40
0.01
 50
72.605914
 51
170.531391
  0
ARC
  5
641
  8
ASSEMBLY
 10
5.236991
 20
1.27402
 30
0.0
 40
0.01
 50
180.0
 51
270.0
  0
ARC
  5
642
  8
ASSEMBLY
 10
5.299197
 20
1.25402
 30
0.0
 40
0.01
 50
7.919888
 51
90.0
  0
ARC
  5
643
  8
ASSEMBLY
 10
5.206321
 20
1.299876
 30
0.0
 40
0.020775
 50
0.0
 51
180.0
  0
ARC
  5
644
  8
ASSEMBLY
 10
5.345969
 20
1.315832
 30
0.0
 40
0.04
 50
0.0
 51
90.492999
  0
ARC
  5
645
  8
ASSEMBLY
 10
5.205503
 20
1.375482
 30
0.0
 40
0.02
 50
180.0
 51
270.492999
  0
ARC
  5
646
  8
ASSEMBLY
 10
5.205503
 20
1.402728
 30
0.0
 40
0.02
 50
90.0
 51
180.0
  0
ARC
  5
647
  8
ASSEMBLY
 10
5.290503
 20
1.442728
 30
0.0
 40
0.02
 50
270.0
 51
360.0
  0
ARC
  5
648
  8
ASSEMBLY
 10
5.22183
 20
1.52518
 30
0.0
 40
0.036364
 50
182.52178
 51
357.408464
  0
ARC
  5
649
  8
ASSEMBLY
 10
5.314911
 20
2.047364
 30
0.0
 40
0.02
 50
282.679357
 51
0.0
  0
ARC
  5
64A
  8
ASSEMBLY
 10
5.357421
 20
1.864492
 30
0.0
 40
0.167733
 50
103.112255
 51
178.028849
  0
LINE
  5
64B
  8
ASSEMBLY
 10
5.213346
 20
1.870261
 30
0.0
 11
5.189787
 21
1.870261
 31
0.0
  0
ARC
  5
64C
  8
ASSEMBLY
 10
5.405724
 20
2.192137
 30
0.0
 40
0.04
 50
270.0
 51
360.0
  0
ARC
  5
64D
  8
ASSEMBLY
 10
5.383724
 20
2.260717
 30
0.0
 40
0.062
 50
0.0
 51
90.0
  0
ARC
  5
64E
  8
ASSEMBLY
 10
5.195503
 20
2.037811
 30
0.0
 40
0.01
 50
180.0
 51
287.601404
  0
ARC
  5
64F
  8
ASSEMBLY
 10
5.256461
 20
2.05715
 30
0.0
 40
0.01
 50
287.601404
 51
0.0
  0
ARC
  5
650
  8
ASSEMBLY
 10
5.195503
 20
2.240162
 30
0.0
 40
0.01
 50
90.0
 51
180.0
  0
ARC
  5
651
  8
ASSEMBLY
 10
5.256461
 20
2.240162
 30
0.0
 40
0.01
 50
0.0
 51
90.0
  0
ARC
  5
652
  8
ASSEMBLY
 10
5.44452
 20
1.836154
 30
0.0
 40
0.02
 50
180.0
 51
283.077007
  0
ARC
  5
653
  8
ASSEMBLY
 10
5.532596
 20
1.934053
 30
0.0
 40
0.02
 50
0.0
 51
94.597366
  0
ARC
  5
654
  8
ASSEMBLY
 10
5.330503
 20
1.767826
 30
0.0
 40
0.02
 50
111.34541
 51
180.0
  0
ARC
  5
655
  8
ASSEMBLY
 10
5.532596
 20
1.856612
 30
0.0
 40
0.02
 50
283.077007
 51
0.0
  0
ARC
  5
656
  8
ASSEMBLY
 10
5.137182
 20
2.302717
 30
0.0
 40
0.02
 50
90.0
 51
180.0
  0
LINE
  5
657
  8
ASSEMBLY
 10
5.185503
 20
2.037811
 30
0.0
 11
5.185503
 21
2.240162
 31
0.0
  0
LINE
  5
658
  8
ASSEMBLY
 10
5.259485
 20
2.047618
 30
0.0
 11
5.198527
 21
2.028279
 31
0.0
  0
LINE
  5
659
  8
ASSEMBLY
 10
5.266461
 20
2.240162
 30
0.0
 11
5.266461
 21
2.05715
 31
0.0
  0
LINE
  5
65A
  8
ASSEMBLY
 10
5.195503
 20
2.250162
 30
0.0
 11
5.256461
 21
2.250162
 31
0.0
  0
LINE
  5
65B
  8
ASSEMBLY
 10
5.3819
 20
2.152137
 30
0.0
 11
5.3819
 21
2.177606
 31
0.0
  0
LINE
  5
65C
  8
ASSEMBLY
 10
5.405724
 20
2.152137
 30
0.0
 11
5.3819
 21
2.152137
 31
0.0
  0
LINE
  5
65D
  8
ASSEMBLY
 10
5.445724
 20
2.260717
 30
0.0
 11
5.445724
 21
2.192137
 31
0.0
  0
LINE
  5
65E
  8
ASSEMBLY
 10
5.137182
 20
2.322717
 30
0.0
 11
5.383724
 21
2.322717
 31
0.0
  0
LINE
  5
65F
  8
ASSEMBLY
 10
5.185503
 20
1.689895
 30
0.0
 11
5.185503
 21
1.524215
 31
0.0
  0
LINE
  5
660
  8
ASSEMBLY
 10
5.258108
 20
1.689895
 30
0.0
 11
5.258108
 21
1.523418
 31
0.0
  0
LINE
  5
661
  8
ASSEMBLY
 10
5.530993
 20
1.953988
 30
0.0
 11
5.501194
 21
1.951592
 31
0.0
  0
LINE
  5
662
  8
ASSEMBLY
 10
5.552596
 20
1.856612
 30
0.0
 11
5.552596
 21
1.934053
 31
0.0
  0
LINE
  5
663
  8
ASSEMBLY
 10
5.449046
 20
1.816672
 30
0.0
 11
5.537121
 21
1.837131
 31
0.0
  0
LINE
  5
664
  8
ASSEMBLY
 10
5.42452
 20
1.861076
 30
0.0
 11
5.42452
 21
1.836154
 31
0.0
  0
LINE
  5
665
  8
ASSEMBLY
 10
5.385969
 20
1.810975
 30
0.0
 11
5.385969
 21
1.860975
 31
0.0
  0
LINE
  5
666
  8
ASSEMBLY
 10
5.323223
 20
1.786454
 30
0.0
 11
5.385969
 21
1.810975
 31
0.0
  0
LINE
  5
667
  8
ASSEMBLY
 10
5.310503
 20
1.442728
 30
0.0
 11
5.310503
 21
1.767826
 31
0.0
  0
LINE
  5
668
  8
ASSEMBLY
 10
5.205503
 20
1.422728
 30
0.0
 11
5.290503
 21
1.422728
 31
0.0
  0
LINE
  5
669
  8
ASSEMBLY
 10
5.185503
 20
1.375482
 30
0.0
 11
5.185503
 21
1.402728
 31
0.0
  0
LINE
  5
66A
  8
ASSEMBLY
 10
5.385969
 20
1.286178
 30
0.0
 11
5.385969
 21
1.315832
 31
0.0
  0
LINE
  5
66B
  8
ASSEMBLY
 10
5.420237
 20
1.286178
 30
0.0
 11
5.385969
 21
1.286178
 31
0.0
  0
LINE
  5
66C
  8
ASSEMBLY
 10
5.422631
 20
1.300529
 30
0.0
 11
5.420237
 21
1.286178
 31
0.0
  0
LINE
  5
66D
  8
ASSEMBLY
 10
5.479991
 20
1.294484
 30
0.0
 11
5.435484
 21
1.308427
 31
0.0
  0
LINE
  5
66E
  8
ASSEMBLY
 10
5.236991
 20
1.26402
 30
0.0
 11
5.299197
 21
1.26402
 31
0.0
  0
LINE
  5
66F
  8
ASSEMBLY
 10
5.226991
 20
1.299728
 30
0.0
 11
5.226991
 21
1.27402
 31
0.0
  0
LINE
  5
670
  8
ASSEMBLY
 10
5.185503
 20
1.200995
 30
0.0
 11
5.185503
 21
1.299882
 31
0.0
  0
LINE
  5
671
  8
ASSEMBLY
 10
5.249541
 20
1.171031
 30
0.0
 11
5.185503
 21
1.200995
 31
0.0
  0
LINE
  5
672
  8
ASSEMBLY
 10
5.249541
 20
0.9707
 30
0.0
 11
5.249541
 21
1.171031
 31
0.0
  0
LINE
  5
673
  8
ASSEMBLY
 10
5.185503
 20
0.932175
 30
0.0
 11
5.249541
 21
0.9707
 31
0.0
  0
LINE
  5
674
  8
ASSEMBLY
 10
5.117182
 20
1.153328
 30
0.0
 11
5.117182
 21
2.302717
 31
0.0
  0
LINE
  5
675
  8
ASSEMBLY
 10
5.177804
 20
1.118328
 30
0.0
 11
5.117182
 21
1.153328
 31
0.0
  0
LINE
  5
676
  8
ASSEMBLY
 10
5.177804
 20
1.018328
 30
0.0
 11
5.177804
 21
1.118328
 31
0.0
  0
LINE
  5
677
  8
ASSEMBLY
 10
5.117182
 20
0.983328
 30
0.0
 11
5.177804
 21
1.018328
 31
0.0
  0
ARC
  5
678
  8
ASSEMBLY
 10
5.533475
 20
-0.03906
 30
0.0
 40
0.02
 50
270.0
 51
0.0
  0
ARC
  5
679
  8
ASSEMBLY
 10
5.391949
 20
0.015344
 30
0.0
 40
0.02
 50
78.84248
 51
180.0
  0
ARC
  5
67A
  8
ASSEMBLY
 10
5.391949
 20
-0.03906
 30
0.0
 40
0.02
 50
180.0
 51
270.0
  0
ARC
  5
67B
  8
ASSEMBLY
 10
5.204779
 20
0.805646
 30
0.0
 40
0.019376
 50
178.971666
 51
270.489853
  0
LINE
  5
67C
  8
ASSEMBLY
 10
5.185406
 20
0.805993
 30
0.0
 11
5.185406
 21
0.931798
 31
0.0
  0
ARC
  5
67D
  8
ASSEMBLY
 10
5.533475
 20
0.748014
 30
0.0
 40
0.02
 50
0.0
 51
79.386356
  0
ARC
  5
67E
  8
ASSEMBLY
 10
5.489238
 20
0.213921
 30
0.0
 40
0.02
 50
0.0
 51
90.0
  0
ARC
  5
67F
  8
ASSEMBLY
 10
5.136772
 20
0.253921
 30
0.0
 40
0.02
 50
180.0
 51
270.0
  0
LINE
  5
680
  8
ASSEMBLY
 10
5.510618
 20
0.687112
 30
0.0
 11
5.510618
 21
0.318968
 31
0.0
  0
ARC
  5
681
  8
ASSEMBLY
 10
5.195595
 20
0.292716
 30
0.0
 40
0.027142
 50
109.666103
 51
331.71542
  0
LINE
  5
682
  8
ASSEMBLY
 10
5.219497
 20
0.279855
 30
0.0
 11
5.26925
 21
0.279855
 31
0.0
  0
LINE
  5
683
  8
ASSEMBLY
 10
5.186402
 20
0.698767
 30
0.0
 11
5.186402
 21
0.318439
 31
0.0
  0
ARC
  5
684
  8
ASSEMBLY
 10
5.195595
 20
0.724489
 30
0.0
 40
0.027316
 50
17.091838
 51
250.333897
  0
LINE
  5
685
  8
ASSEMBLY
 10
5.479497
 20
0.731839
 30
0.0
 11
5.531663
 21
0.719075
 31
0.0
  0
LINE
  5
686
  8
ASSEMBLY
 10
5.221932
 20
0.731839
 30
0.0
 11
5.479497
 21
0.731839
 31
0.0
  0
ARC
  5
687
  8
ASSEMBLY
 10
5.401627
 20
0.279855
 30
0.0
 40
0.022063
 50
0.0
 51
180.0
  0
LINE
  5
688
  8
ASSEMBLY
 10
5.315214
 20
0.279855
 30
0.0
 11
5.379565
 21
0.279855
 31
0.0
  0
LINE
  5
689
  8
ASSEMBLY
 10
5.477337
 20
0.279855
 30
0.0
 11
5.424388
 21
0.279855
 31
0.0
  0
LINE
  5
68A
  8
ASSEMBLY
 10
5.137093
 20
0.233921
 30
0.0
 11
5.489238
 21
0.233921
 31
0.0
  0
LINE
  5
68B
  8
ASSEMBLY
 10
5.116828
 20
0.253921
 30
0.0
 11
5.116828
 21
0.983921
 31
0.0
  0
LINE
  5
68C
  8
ASSEMBLY
 10
5.509238
 20
0.012596
 30
0.0
 11
5.395819
 21
0.034966
 31
0.0
  0
LINE
  5
68D
  8
ASSEMBLY
 10
5.509238
 20
0.213921
 30
0.0
 11
5.509238
 21
0.01349
 31
0.0
  0
LINE
  5
68E
  8
ASSEMBLY
 10
5.391949
 20
-0.05906
 30
0.0
 11
5.533475
 21
-0.05906
 31
0.0
  0
LINE
  5
68F
  8
ASSEMBLY
 10
5.553475
 20
-0.03906
 30
0.0
 11
5.553475
 21
0.748014
 31
0.0
  0
LINE
  5
690
  8
ASSEMBLY
 10
5.371949
 20
0.015344
 30
0.0
 11
5.371949
 21
-0.03906
 31
0.0
  0
ARC
  5
691
  8
ASSEMBLY
 10
5.369054
 20
1.281529
 30
0.0
 40
0.066398
 50
204.25992
 51
271.014665
  0
LINE
  5
692
  8
ASSEMBLY
 10
5.501331
 20
1.951634
 30
0.0
 11
5.501331
 21
1.872322
 31
0.0
  0
LINE
  5
693
  8
ASSEMBLY
 10
5.501315
 20
1.872075
 30
0.0
 11
5.447228
 21
1.872075
 31
0.0
  0
LINE
  5
694
  8
ASSEMBLY
 10
5.447228
 20
1.872075
 30
0.0
 11
5.447228
 21
1.93317
 31
0.0
  0
LINE
  5
695
  8
ASSEMBLY
 10
5.36729
 20
1.216317
 30
0.0
 11
5.469599
 21
1.23564
 31
0.0
  0
LINE
  5
696
  8
ASSEMBLY
 10
5.257353
 20
1.869616
 30
0.0
 11
5.447228
 21
1.933298
 31
0.0
  0
LINE
  5
697
  8
ASSEMBLY
 10
5.210322
 20
1.869616
 30
0.0
 11
5.257353
 21
1.869616
 31
0.0
  0
LINE
  5
698
  8
ASSEMBLY
 10
5.334956
 20
2.177637
 30
0.0
 11
5.334956
 21
2.047514
 31
0.0
  0
LINE
  5
699
  8
ASSEMBLY
 10
5.334956
 20
2.177637
 30
0.0
 11
5.381884
 21
2.177637
 31
0.0
  0
LINE
  5
69A
  8
ASSEMBLY
 10
2.162349
 20
-2.662669
 30
0.0
 11
-0.052636
 21
-2.662669
 31
0.0
  0
LINE
  5
69B
  8
ASSEMBLY
 10
2.157757
 20
-2.827376
 30
0.0
 11
2.152673
 21
-2.827376
 31
0.0
  0
LINE
  5
69C
  8
ASSEMBLY
 10
2.157757
 20
-3.058935
 30
0.0
 11
2.150612
 21
-3.058935
 31
0.0
  0
LINE
  5
69D
  8
ASSEMBLY
 10
2.162244
 20
2.815679
 30
0.0
 11
-0.052636
 21
2.815679
 31
0.0
  0
LINE
  5
69E
  8
ASSEMBLY
 10
2.162349
 20
2.932215
 30
0.0
 11
-0.052636
 21
2.932215
 31
0.0
  0
LINE
  5
69F
  8
ASSEMBLY
 10
2.116349
 20
0.05238
 30
0.0
 11
-0.006636
 21
0.05238
 31
0.0
  0
LINE
  5
6A0
  8
ASSEMBLY
 10
4.888284
 20
2.657824
 30
0.0
 11
4.589916
 21
2.657824
 31
0.0
  0
LINE
  5
6A1
  8
ASSEMBLY
 10
4.589916
 20
0.185768
 30
0.0
 11
4.889916
 21
0.185768
 31
0.0
  0
LINE
  5
6A2
  8
ASSEMBLY
 10
4.589916
 20
1.435768
 30
0.0
 11
4.589916
 21
0.185768
 31
0.0
  0
LINE
  5
6A3
  8
ASSEMBLY
 10
4.589916
 20
1.435768
 30
0.0
 11
4.589916
 21
2.657332
 31
0.0
  0
ARC
  5
6A4
  8
ASSEMBLY
 10
4.891443
 20
2.912108
 30
0.0
 40
0.02
 50
38.334991
 51
90.0
  0
ARC
  5
6A5
  8
ASSEMBLY
 10
4.711481
 20
2.912108
 30
0.0
 40
0.02
 50
90.0
 51
164.73504
  0
ARC
  5
6A6
  8
ASSEMBLY
 10
4.531347
 20
2.830475
 30
0.0
 40
0.02
 50
109.641551
 51
180.0
  0
CIRCLE
  5
6A7
  8
ASSEMBLY
 10
4.754828
 20
-0.010374
 30
0.0
 40
0.058
  0
CIRCLE
  5
6A8
  8
ASSEMBLY
 10
5.002412
 20
0.297943
 30
0.0
 40
0.058
  0
CIRCLE
  5
6A9
  8
ASSEMBLY
 10
5.002412
 20
1.048754
 30
0.0
 40
0.058
  0
LINE
  5
6AA
  8
ASSEMBLY
 10
4.511347
 20
2.830475
 30
0.0
 11
4.511347
 21
2.829753
 31
0.0
  0
LINE
  5
6AB
  8
ASSEMBLY
 10
4.689689
 20
2.908223
 30
0.0
 11
4.524624
 21
2.849311
 31
0.0
  0
LINE
  5
6AC
  8
ASSEMBLY
 10
4.692186
 20
2.917374
 30
0.0
 11
4.689689
 21
2.908223
 31
0.0
  0
LINE
  5
6AD
  8
ASSEMBLY
 10
4.891443
 20
2.932108
 30
0.0
 11
4.711481
 21
2.932108
 31
0.0
  0
LINE
  5
6AE
  8
ASSEMBLY
 10
4.907131
 20
2.924513
 30
0.0
 11
5.095948
 21
2.685729
 31
0.0
  0
LINE
  5
6AF
  8
ASSEMBLY
 10
5.108909
 20
0.163265
 30
0.0
 11
5.108909
 21
2.648513
 31
0.0
  0
ARC
  5
6B0
  8
ASSEMBLY
 10
5.048909
 20
2.648513
 30
0.0
 40
0.06
 50
0.0
 51
38.334991
  0
LINE
  5
6B1
  8
ASSEMBLY
 10
4.889821
 20
2.657905
 30
0.0
 11
4.889821
 21
0.18569
 31
0.0
  0
LINE
  5
6B2
  8
ASSEMBLY
 10
4.891443
 20
-0.098244
 30
0.0
 11
4.711481
 21
-0.098244
 31
0.0
  0
LINE
  5
6B3
  8
ASSEMBLY
 10
4.692186
 20
-0.08371
 30
0.0
 11
4.689689
 21
-0.074559
 31
0.0
  0
LINE
  5
6B4
  8
ASSEMBLY
 10
4.689689
 20
-0.074359
 30
0.0
 11
4.524624
 21
-0.015447
 31
0.0
  0
ARC
  5
6B5
  8
ASSEMBLY
 10
4.531347
 20
0.003389
 30
0.0
 40
0.02
 50
180.0
 51
250.358449
  0
ARC
  5
6B6
  8
ASSEMBLY
 10
4.711481
 20
-0.078244
 30
0.0
 40
0.02
 50
195.26496
 51
270.0
  0
ARC
  5
6B7
  8
ASSEMBLY
 10
4.891443
 20
-0.078244
 30
0.0
 40
0.02
 50
270.0
 51
321.665009
  0
LINE
  5
6B8
  8
ASSEMBLY
 10
4.907131
 20
-0.090649
 30
0.0
 11
5.108909
 21
0.163265
 31
0.0
  0
LINE
  5
6B9
  8
ASSEMBLY
 10
4.511347
 20
0.003389
 30
0.0
 11
4.511347
 21
2.829953
 31
0.0
  0
LINE
  5
6BA
  8
ASSEMBLY
 10
2.162349
 20
2.932215
 30
0.0
 11
2.162349
 21
-0.099298
 31
0.0
  0
LINE
  5
6BB
  8
ASSEMBLY
 10
2.162349
 20
-2.662669
 30
0.0
 11
2.162349
 21
-3.241131
 31
0.0
  0
LINE
  5
6BC
  8
ASSEMBLY
 10
1.326947
 20
-3.242595
 30
0.0
 11
1.326947
 21
-3.669996
 31
0.0
  0
LINE
  5
6BD
  8
ASSEMBLY
 10
1.326947
 20
-3.669996
 30
0.0
 11
2.113946
 21
-3.669996
 31
0.0
  0
LINE
  5
6BE
  8
ASSEMBLY
 10
2.113946
 20
-3.669996
 30
0.0
 11
2.113946
 21
-3.242595
 31
0.0
  0
LINE
  5
6BF
  8
ASSEMBLY
 10
1.326947
 20
-3.489512
 30
0.0
 11
2.113946
 21
-3.489512
 31
0.0
  0
LINE
  5
6C0
  8
ASSEMBLY
 10
-0.052636
 20
2.932215
 30
0.0
 11
-0.052636
 21
-0.099298
 31
0.0
  0
LINE
  5
6C1
  8
ASSEMBLY
 10
-0.052636
 20
-0.067367
 30
0.0
 11
2.162349
 21
-0.067367
 31
0.0
  0
LINE
  5
6C2
  8
ASSEMBLY
 10
-0.006636
 20
2.786416
 30
0.0
 11
2.116349
 21
2.786416
 31
0.0
  0
LINE
  5
6C3
  8
ASSEMBLY
 10
-0.052636
 20
-0.099298
 30
0.0
 11
2.162349
 21
-0.099298
 31
0.0
  0
TEXT
  5
6C4
  8
ASSEMBLY
 10
4.714751
 20
0.547914
 30
0.0
 40
0.06
  1
PHOENIX
 50
90.0
  7
ROMANS
  0
TEXT
  5
6C5
  8
ASSEMBLY
 10
4.827832
 20
0.547914
 30
0.0
 40
0.06
  1
CONTACT
 50
90.0
  7
ROMANS
  0
TEXT
  5
6C6
  8
ASSEMBLY
 10
4.760459
 20
1.469471
 30
0.0
 40
0.06
  1
Type UMK-SE 11.25-1
 50
90.0
  7
ROMANS
  0
LINE
  5
6C7
  8
ASSEMBLY
 10
-0.052516
 20
2.815679
 30
0.0
 11
-0.052516
 21
2.81543
 31
0.0
  0
LINE
  5
6C8
  8
ASSEMBLY
 10
-0.052516
 20
2.815679
 30
0.0
 11
-0.052516
 21
2.814803
 31
0.0
  0
LINE
  5
6C9
  8
ASSEMBLY
 10
-0.052636
 20
0.023702
 30
0.0
 11
2.162349
 21
0.023702
 31
0.0
  0
LINE
  5
6CA
  8
ASSEMBLY
 10
-0.052516
 20
2.815679
 30
0.0
 11
-0.052516
 21
2.814803
 31
0.0
  0
LINE
  5
6CB
  8
ASSEMBLY
 10
1.719449
 20
2.932215
 30
0.0
 11
1.719449
 21
2.786416
 31
0.0
  0
LINE
  5
6CC
  8
ASSEMBLY
 10
0.390264
 20
2.932215
 30
0.0
 11
0.390264
 21
2.786416
 31
0.0
  0
LINE
  5
6CD
  8
ASSEMBLY
 10
1.719449
 20
0.05238
 30
0.0
 11
1.719449
 21
-0.099298
 31
0.0
  0
LINE
  5
6CE
  8
ASSEMBLY
 10
0.390264
 20
0.05238
 30
0.0
 11
0.390264
 21
-0.099298
 31
0.0
  0
LINE
  5
6CF
  8
ASSEMBLY
 10
2.162349
 20
2.815679
 30
0.0
 11
0.038848
 21
2.815679
 31
0.0
  0
LINE
  5
6D0
  8
ASSEMBLY
 10
2.116349
 20
2.786416
 30
0.0
 11
2.116349
 21
2.282959
 31
0.0
  0
LINE
  5
6D1
  8
ASSEMBLY
 10
2.116349
 20
0.05238
 30
0.0
 11
2.116349
 21
0.549959
 31
0.0
  0
LINE
  5
6D2
  8
ASSEMBLY
 10
-0.006636
 20
2.786416
 30
0.0
 11
-0.006636
 21
2.282959
 31
0.0
  0
LINE
  5
6D3
  8
ASSEMBLY
 10
0.047364
 20
2.282959
 30
0.0
 11
0.047364
 21
0.549959
 31
0.0
  0
LINE
  5
6D4
  8
ASSEMBLY
 10
-0.006636
 20
0.05238
 30
0.0
 11
-0.006636
 21
0.549959
 31
0.0
  0
LINE
  5
6D5
  8
ASSEMBLY
 10
0.047364
 20
0.549959
 30
0.0
 11
-0.006636
 21
0.549959
 31
0.0
  0
LINE
  5
6D6
  8
ASSEMBLY
 10
-0.006636
 20
2.282959
 30
0.0
 11
0.047364
 21
2.282959
 31
0.0
  0
LINE
  5
6D7
  8
ASSEMBLY
 10
0.390264
 20
-2.662669
 30
0.0
 11
0.390264
 21
-3.241131
 31
0.0
  0
LINE
  5
6D8
  8
ASSEMBLY
 10
1.719449
 20
-2.662669
 30
0.0
 11
1.719449
 21
-3.241131
 31
0.0
  0
LINE
  5
6D9
  8
ASSEMBLY
 10
-0.0031
 20
-3.489512
 30
0.0
 11
0.783899
 21
-3.489512
 31
0.0
  0
LINE
  5
6DA
  8
ASSEMBLY
 10
-0.0031
 20
-3.669996
 30
0.0
 11
0.783899
 21
-3.669996
 31
0.0
  0
LINE
  5
6DB
  8
ASSEMBLY
 10
-0.0031
 20
-3.242595
 30
0.0
 11
-0.0031
 21
-3.669996
 31
0.0
  0
LINE
  5
6DC
  8
ASSEMBLY
 10
0.783899
 20
-3.669996
 30
0.0
 11
0.783899
 21
-3.242595
 31
0.0
  0
LINE
  5
71B
  8
ASSEMBLY
 10
2.062349
 20
2.282959
 30
0.0
 11
2.062349
 21
0.549959
 31
0.0
  0
LINE
  5
71C
  8
ASSEMBLY
 10
2.062349
 20
0.549959
 30
0.0
 11
2.116349
 21
0.549959
 31
0.0
  0
LINE
  5
71D
  8
ASSEMBLY
 10
2.116349
 20
2.282959
 30
0.0
 11
2.062349
 21
2.282959
 31
0.0
  0
LINE
  5
71E
  8
ASSEMBLY
 10
-0.052636
 20
2.898692
 30
0.0
 11
2.162349
 21
2.898692
 31
0.0
  0
LINE
  5
71F
  8
ASSEMBLY
 10
-0.052636
 20
-3.241131
 30
0.0
 11
2.162349
 21
-3.241131
 31
0.0
  0
LINE
  5
720
  8
ASSEMBLY
 10
2.162349
 20
-3.058935
 30
0.0
 11
-0.052636
 21
-3.058935
 31
0.0
  0
LINE
  5
721
  8
ASSEMBLY
 10
2.162349
 20
-2.827376
 30
0.0
 11
-0.052636
 21
-2.827376
 31
0.0
  0
LINE
  5
722
  8
ASSEMBLY
 10
-0.052636
 20
-2.662669
 30
0.0
 11
-0.052636
 21
-3.241131
 31
0.0
  0
LINE
  5
724
  8
ASSEMBLY
 10
1.276064
 20
-2.662669
 30
0.0
 11
1.276064
 21
-3.241131
 31
0.0
  0
LINE
  5
725
  8
ASSEMBLY
 10
1.276064
 20
0.05238
 30
0.0
 11
1.276064
 21
-0.099298
 31
0.0
  0
LINE
  5
726
  8
ASSEMBLY
 10
1.276064
 20
2.932215
 30
0.0
 11
1.276064
 21
2.786416
 31
0.0
  0
TEXT
  5
729
  8
ASSEMBLY
 10
0.244643
 20
-1.616546
 30
0.0
 40
0.1
  1
1
 41
0.75
  7
ROMAND
 72
     1
 11
0.275
 21
-1.566546
 31
0.0
 73
     2
  0
TEXT
  5
737
  8
ASSEMBLY
 10
0.341071
 20
-2.15003
 30
0.0
 40
0.1
  1
9
 41
0.75
  7
ROMAND
 72
     1
 11
0.375
 21
-2.10003
 31
0.0
 73
     2
  0
TEXT
  5
743
  8
ASSEMBLY
 10
0.498214
 20
-2.15003
 30
0.0
 40
0.1
  1
10
 41
0.75
  7
ROMAND
 72
     1
 11
0.575
 21
-2.10003
 31
0.0
 73
     2
  0
TEXT
  5
744
  8
ASSEMBLY
 10
0.439286
 20
-1.616546
 30
0.0
 40
0.1
  1
2
 41
0.75
  7
ROMAND
 72
     1
 11
0.475
 21
-1.566546
 31
0.0
 73
     2
  0
TEXT
  5
745
  8
ASSEMBLY
 10
0.708929
 20
-2.15003
 30
0.0
 40
0.1
  1
11
 41
0.75
  7
ROMAND
 72
     1
 11
0.775
 21
-2.10003
 31
0.0
 73
     2
  0
TEXT
  5
746
  8
ASSEMBLY
 10
0.639286
 20
-1.616546
 30
0.0
 40
0.1
  1
3
 41
0.75
  7
ROMAND
 72
     1
 11
0.675
 21
-1.566546
 31
0.0
 73
     2
  0
TEXT
  5
747
  8
ASSEMBLY
 10
0.898214
 20
-2.15003
 30
0.0
 40
0.1
  1
12
 41
0.75
  7
ROMAND
 72
     1
 11
0.975
 21
-2.10003
 31
0.0
 73
     2
  0
TEXT
  5
748
  8
ASSEMBLY
 10
0.8375
 20
-1.616546
 30
0.0
 40
0.1
  1
4
 41
0.75
  7
ROMAND
 72
     1
 11
0.875
 21
-1.566546
 31
0.0
 73
     2
  0
TEXT
  5
749
  8
ASSEMBLY
 10
1.098214
 20
-2.15003
 30
0.0
 40
0.1
  1
13
 41
0.75
  7
ROMAND
 72
     1
 11
1.175
 21
-2.10003
 31
0.0
 73
     2
  0
TEXT
  5
74A
  8
ASSEMBLY
 10
1.039286
 20
-1.616546
 30
0.0
 40
0.1
  1
5
 41
0.75
  7
ROMAND
 72
     1
 11
1.075
 21
-1.566546
 31
0.0
 73
     2
  0
TEXT
  5
74B
  8
ASSEMBLY
 10
1.296429
 20
-2.15003
 30
0.0
 40
0.1
  1
14
 41
0.75
  7
ROMAND
 72
     1
 11
1.375
 21
-2.10003
 31
0.0
 73
     2
  0
TEXT
  5
74C
  8
ASSEMBLY
 10
1.2375
 20
-1.616546
 30
0.0
 40
0.1
  1
6
 41
0.75
  7
ROMAND
 72
     1
 11
1.275
 21
-1.566546
 31
0.0
 73
     2
  0
TEXT
  5
74D
  8
ASSEMBLY
 10
1.498214
 20
-2.15003
 30
0.0
 40
0.1
  1
15
 41
0.75
  7
ROMAND
 72
     1
 11
1.575
 21
-2.10003
 31
0.0
 73
     2
  0
TEXT
  5
74E
  8
ASSEMBLY
 10
1.439286
 20
-1.616546
 30
0.0
 40
0.1
  1
7
 41
0.75
  7
ROMAND
 72
     1
 11
1.475
 21
-1.566546
 31
0.0
 73
     2
  0
TEXT
  5
750
  8
ASSEMBLY
 10
1.639286
 20
-1.616546
 30
0.0
 40
0.1
  1
8
 41
0.75
  7
ROMAND
 72
     1
 11
1.675
 21
-1.566546
 31
0.0
 73
     2
  0
POLYLINE
  5
773
  8
ASSEMBLY
 66
     1
 10
0.0
 20
0.0
 30
0.0
 70
     1
  0
VERTEX
  5
2C23
  8
ASSEMBLY
 10
0.5074
 20
2.095
 30
0.0
  0
VERTEX
  5
2C24
  8
ASSEMBLY
 10
0.45665
 20
2.0
 30
0.0
  0
VERTEX
  5
2C25
  8
ASSEMBLY
 10
0.5074
 20
1.905
 30
0.0
  0
VERTEX
  5
2C26
  8
ASSEMBLY
 10
0.6174
 20
1.905
 30
0.0
  0
VERTEX
  5
2C27
  8
ASSEMBLY
 10
0.66815
 20
2.0
 30
0.0
  0
VERTEX
  5
2C28
  8
ASSEMBLY
 10
0.6174
 20
2.095
 30
0.0
  0
SEQEND
  5
2C29
  8
ASSEMBLY
  0
CIRCLE
  5
77C
  8
ASSEMBLY
 10
0.5624
 20
2.0
 30
0.0
 40
0.0625
  0
LINE
  5
786
  8
ASSEMBLY
 10
1.775
 20
0.519024
 30
0.0
 11
1.775
 21
0.969307
 31
0.0
  0
LINE
  5
787
  8
ASSEMBLY
 10
1.875
 20
0.519024
 30
0.0
 11
1.775
 21
0.519024
 31
0.0
  0
LINE
  5
788
  8
ASSEMBLY
 10
1.875
 20
0.0835
 30
0.0
 11
1.875
 21
0.519024
 31
0.0
  0
POLYLINE
  5
794
  8
ASSEMBLY
 66
     1
 10
0.0
 20
0.0
 30
0.0
  0
VERTEX
  5
2C2A
  8
ASSEMBLY
 10
0.79823
 20
-1.953132
 30
0.0
  0
VERTEX
  5
2C2B
  8
ASSEMBLY
 10
0.79823
 20
-1.779546
 30
0.0
  0
VERTEX
  5
2C2C
  8
ASSEMBLY
 10
0.95177
 20
-1.779546
 30
0.0
  0
VERTEX
  5
2C2D
  8
ASSEMBLY
 10
0.95177
 20
-1.953132
 30
0.0
  0
SEQEND
  5
2C2E
  8
ASSEMBLY
  0
LINE
  5
79A
  8
ASSEMBLY
 10
0.927164
 20
-1.779546
 30
0.0
 11
0.927164
 21
-1.953132
 31
0.0
  0
LINE
  5
79B
  8
ASSEMBLY
 10
0.82382
 20
-1.779546
 30
0.0
 11
0.82382
 21
-1.953132
 31
0.0
  0
POLYLINE
  5
79C
  8
ASSEMBLY
 66
     1
 10
0.0
 20
0.0
 30
0.0
  0
VERTEX
  5
2C2F
  8
ASSEMBLY
 10
0.828741
 20
-1.779546
 30
0.0
  0
VERTEX
  5
2C30
  8
ASSEMBLY
 10
0.828741
 20
-1.839132
 30
0.0
  0
VERTEX
  5
2C31
  8
ASSEMBLY
 10
0.922243
 20
-1.839132
 30
0.0
  0
VERTEX
  5
2C32
  8
ASSEMBLY
 10
0.922243
 20
-1.779546
 30
0.0
  0
SEQEND
  5
2C33
  8
ASSEMBLY
  0
POLYLINE
  5
7A2
  8
ASSEMBLY
 66
     1
 10
0.0
 20
0.0
 30
0.0
  0
VERTEX
  5
2C34
  8
ASSEMBLY
 10
0.928741
 20
-2.313029
 30
0.0
  0
VERTEX
  5
2C35
  8
ASSEMBLY
 10
0.928741
 20
-2.372616
 30
0.0
  0
VERTEX
  5
2C36
  8
ASSEMBLY
 10
1.022243
 20
-2.372616
 30
0.0
  0
VERTEX
  5
2C37
  8
ASSEMBLY
 10
1.022243
 20
-2.313029
 30
0.0
  0
SEQEND
  5
2C38
  8
ASSEMBLY
  0
POLYLINE
  5
7A8
  8
ASSEMBLY
 66
     1
 10
0.0
 20
0.0
 30
0.0
 70
     1
  0
VERTEX
  5
2C39
  8
ASSEMBLY
 10
0.89823
 20
-2.313029
 30
0.0
  0
VERTEX
  5
2C3A
  8
ASSEMBLY
 10
1.05177
 20
-2.313029
 30
0.0
  0
VERTEX
  5
2C3B
  8
ASSEMBLY
 10
1.05177
 20
-2.527738
 30
0.0
  0
VERTEX
  5
2C3C
  8
ASSEMBLY
 10
0.89823
 20
-2.527738
 30
0.0
  0
SEQEND
  5
2C3D
  8
ASSEMBLY
  0
LINE
  5
7AE
  8
ASSEMBLY
 10
0.92382
 20
-2.313029
 30
0.0
 11
0.92382
 21
-2.527245
 31
0.0
  0
LINE
  5
7AF
  8
ASSEMBLY
 10
1.027164
 20
-2.313029
 30
0.0
 11
1.027164
 21
-2.527245
 31
0.0
  0
POLYLINE
  5
7B0
  8
ASSEMBLY
 66
     1
 10
0.0
 20
0.0
 30
0.0
  0
VERTEX
  5
2C3E
  8
ASSEMBLY
 10
0.99823
 20
-1.953132
 30
0.0
  0
VERTEX
  5
2C3F
  8
ASSEMBLY
 10
0.99823
 20
-1.779546
 30
0.0
  0
VERTEX
  5
2C40
  8
ASSEMBLY
 10
1.15177
 20
-1.779546
 30
0.0
  0
VERTEX
  5
2C41
  8
ASSEMBLY
 10
1.15177
 20
-1.953132
 30
0.0
  0
SEQEND
  5
2C42
  8
ASSEMBLY
  0
LINE
  5
7B6
  8
ASSEMBLY
 10
1.127164
 20
-1.779546
 30
0.0
 11
1.127164
 21
-1.953132
 31
0.0
  0
LINE
  5
7B7
  8
ASSEMBLY
 10
1.02382
 20
-1.779546
 30
0.0
 11
1.02382
 21
-1.953132
 31
0.0
  0
POLYLINE
  5
7B8
  8
ASSEMBLY
 66
     1
 10
0.0
 20
0.0
 30
0.0
  0
VERTEX
  5
2C43
  8
ASSEMBLY
 10
1.028741
 20
-1.779546
 30
0.0
  0
VERTEX
  5
2C44
  8
ASSEMBLY
 10
1.028741
 20
-1.839132
 30
0.0
  0
VERTEX
  5
2C45
  8
ASSEMBLY
 10
1.122243
 20
-1.839132
 30
0.0
  0
VERTEX
  5
2C46
  8
ASSEMBLY
 10
1.122243
 20
-1.779546
 30
0.0
  0
SEQEND
  5
2C47
  8
ASSEMBLY
  0
POLYLINE
  5
7BE
  8
ASSEMBLY
 66
     1
 10
0.0
 20
0.0
 30
0.0
  0
VERTEX
  5
2C48
  8
ASSEMBLY
 10
1.128741
 20
-2.313029
 30
0.0
  0
VERTEX
  5
2C49
  8
ASSEMBLY
 10
1.128741
 20
-2.372616
 30
0.0
  0
VERTEX
  5
2C4A
  8
ASSEMBLY
 10
1.222243
 20
-2.372616
 30
0.0
  0
VERTEX
  5
2C4B
  8
ASSEMBLY
 10
1.222243
 20
-2.313029
 30
0.0
  0
SEQEND
  5
2C4C
  8
ASSEMBLY
  0
POLYLINE
  5
7C4
  8
ASSEMBLY
 66
     1
 10
0.0
 20
0.0
 30
0.0
 70
     1
  0
VERTEX
  5
2C4D
  8
ASSEMBLY
 10
1.09823
 20
-2.313029
 30
0.0
  0
VERTEX
  5
2C4E
  8
ASSEMBLY
 10
1.25177
 20
-2.313029
 30
0.0
  0
VERTEX
  5
2C4F
  8
ASSEMBLY
 10
1.25177
 20
-2.527738
 30
0.0
  0
VERTEX
  5
2C50
  8
ASSEMBLY
 10
1.09823
 20
-2.527738
 30
0.0
  0
SEQEND
  5
2C51
  8
ASSEMBLY
  0
LINE
  5
7CA
  8
ASSEMBLY
 10
1.12382
 20
-2.313029
 30
0.0
 11
1.12382
 21
-2.527245
 31
0.0
  0
LINE
  5
7CB
  8
ASSEMBLY
 10
1.227164
 20
-2.313029
 30
0.0
 11
1.227164
 21
-2.527245
 31
0.0
  0
POLYLINE
  5
7CC
  8
ASSEMBLY
 66
     1
 10
0.0
 20
0.0
 30
0.0
  0
VERTEX
  5
2C52
  8
ASSEMBLY
 10
1.19823
 20
-1.953132
 30
0.0
  0
VERTEX
  5
2C53
  8
ASSEMBLY
 10
1.19823
 20
-1.779546
 30
0.0
  0
VERTEX
  5
2C54
  8
ASSEMBLY
 10
1.35177
 20
-1.779546
 30
0.0
  0
VERTEX
  5
2C55
  8
ASSEMBLY
 10
1.35177
 20
-1.953132
 30
0.0
  0
SEQEND
  5
2C56
  8
ASSEMBLY
  0
LINE
  5
7D2
  8
ASSEMBLY
 10
1.327164
 20
-1.779546
 30
0.0
 11
1.327164
 21
-1.953132
 31
0.0
  0
LINE
  5
7D3
  8
ASSEMBLY
 10
1.22382
 20
-1.779546
 30
0.0
 11
1.22382
 21
-1.953132
 31
0.0
  0
POLYLINE
  5
7D4
  8
ASSEMBLY
 66
     1
 10
0.0
 20
0.0
 30
0.0
  0
VERTEX
  5
2C57
  8
ASSEMBLY
 10
1.228741
 20
-1.779546
 30
0.0
  0
VERTEX
  5
2C58
  8
ASSEMBLY
 10
1.228741
 20
-1.839132
 30
0.0
  0
VERTEX
  5
2C59
  8
ASSEMBLY
 10
1.322243
 20
-1.839132
 30
0.0
  0
VERTEX
  5
2C5A
  8
ASSEMBLY
 10
1.322243
 20
-1.779546
 30
0.0
  0
SEQEND
  5
2C5B
  8
ASSEMBLY
  0
POLYLINE
  5
7DA
  8
ASSEMBLY
 66
     1
 10
0.0
 20
0.0
 30
0.0
  0
VERTEX
  5
2C5C
  8
ASSEMBLY
 10
1.328741
 20
-2.313029
 30
0.0
  0
VERTEX
  5
2C5D
  8
ASSEMBLY
 10
1.328741
 20
-2.372616
 30
0.0
  0
VERTEX
  5
2C5E
  8
ASSEMBLY
 10
1.422243
 20
-2.372616
 30
0.0
  0
VERTEX
  5
2C5F
  8
ASSEMBLY
 10
1.422243
 20
-2.313029
 30
0.0
  0
SEQEND
  5
2C60
  8
ASSEMBLY
  0
POLYLINE
  5
7E0
  8
ASSEMBLY
 66
     1
 10
0.0
 20
0.0
 30
0.0
 70
     1
  0
VERTEX
  5
2C61
  8
ASSEMBLY
 10
1.29823
 20
-2.313029
 30
0.0
  0
VERTEX
  5
2C62
  8
ASSEMBLY
 10
1.45177
 20
-2.313029
 30
0.0
  0
VERTEX
  5
2C63
  8
ASSEMBLY
 10
1.45177
 20
-2.527738
 30
0.0
  0
VERTEX
  5
2C64
  8
ASSEMBLY
 10
1.29823
 20
-2.527738
 30
0.0
  0
SEQEND
  5
2C65
  8
ASSEMBLY
  0
LINE
  5
7E6
  8
ASSEMBLY
 10
1.32382
 20
-2.313029
 30
0.0
 11
1.32382
 21
-2.527245
 31
0.0
  0
LINE
  5
7E7
  8
ASSEMBLY
 10
1.427164
 20
-2.313029
 30
0.0
 11
1.427164
 21
-2.527245
 31
0.0
  0
POLYLINE
  5
7E8
  8
ASSEMBLY
 66
     1
 10
0.0
 20
0.0
 30
0.0
  0
VERTEX
  5
2C66
  8
ASSEMBLY
 10
1.39823
 20
-1.953132
 30
0.0
  0
VERTEX
  5
2C67
  8
ASSEMBLY
 10
1.39823
 20
-1.779546
 30
0.0
  0
VERTEX
  5
2C68
  8
ASSEMBLY
 10
1.55177
 20
-1.779546
 30
0.0
  0
VERTEX
  5
2C69
  8
ASSEMBLY
 10
1.55177
 20
-1.953132
 30
0.0
  0
SEQEND
  5
2C6A
  8
ASSEMBLY
  0
LINE
  5
7EE
  8
ASSEMBLY
 10
1.527164
 20
-1.779546
 30
0.0
 11
1.527164
 21
-1.953132
 31
0.0
  0
LINE
  5
7EF
  8
ASSEMBLY
 10
1.42382
 20
-1.779546
 30
0.0
 11
1.42382
 21
-1.953132
 31
0.0
  0
POLYLINE
  5
7F0
  8
ASSEMBLY
 66
     1
 10
0.0
 20
0.0
 30
0.0
  0
VERTEX
  5
2C6B
  8
ASSEMBLY
 10
1.428741
 20
-1.779546
 30
0.0
  0
VERTEX
  5
2C6C
  8
ASSEMBLY
 10
1.428741
 20
-1.839132
 30
0.0
  0
VERTEX
  5
2C6D
  8
ASSEMBLY
 10
1.522243
 20
-1.839132
 30
0.0
  0
VERTEX
  5
2C6E
  8
ASSEMBLY
 10
1.522243
 20
-1.779546
 30
0.0
  0
SEQEND
  5
2C6F
  8
ASSEMBLY
  0
POLYLINE
  5
7F6
  8
ASSEMBLY
 66
     1
 10
0.0
 20
0.0
 30
0.0
  0
VERTEX
  5
2C70
  8
ASSEMBLY
 10
1.528741
 20
-2.313029
 30
0.0
  0
VERTEX
  5
2C71
  8
ASSEMBLY
 10
1.528741
 20
-2.372616
 30
0.0
  0
VERTEX
  5
2C72
  8
ASSEMBLY
 10
1.622243
 20
-2.372616
 30
0.0
  0
VERTEX
  5
2C73
  8
ASSEMBLY
 10
1.622243
 20
-2.313029
 30
0.0
  0
SEQEND
  5
2C74
  8
ASSEMBLY
  0
POLYLINE
  5
7FC
  8
ASSEMBLY
 66
     1
 10
0.0
 20
0.0
 30
0.0
 70
     1
  0
VERTEX
  5
2C75
  8
ASSEMBLY
 10
1.49823
 20
-2.313029
 30
0.0
  0
VERTEX
  5
2C76
  8
ASSEMBLY
 10
1.65177
 20
-2.313029
 30
0.0
  0
VERTEX
  5
2C77
  8
ASSEMBLY
 10
1.65177
 20
-2.527738
 30
0.0
  0
VERTEX
  5
2C78
  8
ASSEMBLY
 10
1.49823
 20
-2.527738
 30
0.0
  0
SEQEND
  5
2C79
  8
ASSEMBLY
  0
LINE
  5
802
  8
ASSEMBLY
 10
1.52382
 20
-2.313029
 30
0.0
 11
1.52382
 21
-2.527245
 31
0.0
  0
LINE
  5
803
  8
ASSEMBLY
 10
1.627164
 20
-2.313029
 30
0.0
 11
1.627164
 21
-2.527245
 31
0.0
  0
LINE
  5
804
  8
ASSEMBLY
 10
1.62382
 20
-1.779546
 30
0.0
 11
1.62382
 21
-1.953132
 31
0.0
  0
LINE
  5
805
  8
ASSEMBLY
 10
1.727164
 20
-1.779546
 30
0.0
 11
1.727164
 21
-1.953132
 31
0.0
  0
POLYLINE
  5
806
  8
ASSEMBLY
 66
     1
 10
0.0
 20
0.0
 30
0.0
  0
VERTEX
  5
2C7A
  8
ASSEMBLY
 10
1.59823
 20
-1.953132
 30
0.0
  0
VERTEX
  5
2C7B
  8
ASSEMBLY
 10
1.59823
 20
-1.779546
 30
0.0
  0
VERTEX
  5
2C7C
  8
ASSEMBLY
 10
1.75177
 20
-1.779546
 30
0.0
  0
VERTEX
  5
2C7D
  8
ASSEMBLY
 10
1.75177
 20
-1.953132
 30
0.0
  0
SEQEND
  5
2C7E
  8
ASSEMBLY
  0
POLYLINE
  5
80C
  8
ASSEMBLY
 66
     1
 10
0.0
 20
0.0
 30
0.0
  0
VERTEX
  5
2C7F
  8
ASSEMBLY
 10
1.628741
 20
-1.779546
 30
0.0
  0
VERTEX
  5
2C80
  8
ASSEMBLY
 10
1.628741
 20
-1.839132
 30
0.0
  0
VERTEX
  5
2C81
  8
ASSEMBLY
 10
1.722243
 20
-1.839132
 30
0.0
  0
VERTEX
  5
2C82
  8
ASSEMBLY
 10
1.722243
 20
-1.779546
 30
0.0
  0
SEQEND
  5
2C83
  8
ASSEMBLY
  0
LINE
  5
812
  8
ASSEMBLY
 10
1.827164
 20
-2.313029
 30
0.0
 11
1.827164
 21
-2.527245
 31
0.0
  0
LINE
  5
813
  8
ASSEMBLY
 10
1.72382
 20
-2.313029
 30
0.0
 11
1.72382
 21
-2.527245
 31
0.0
  0
POLYLINE
  5
814
  8
ASSEMBLY
 66
     1
 10
0.0
 20
0.0
 30
0.0
 70
     1
  0
VERTEX
  5
2C84
  8
ASSEMBLY
 10
1.69823
 20
-2.313029
 30
0.0
  0
VERTEX
  5
2C85
  8
ASSEMBLY
 10
1.85177
 20
-2.313029
 30
0.0
  0
VERTEX
  5
2C86
  8
ASSEMBLY
 10
1.85177
 20
-2.527738
 30
0.0
  0
VERTEX
  5
2C87
  8
ASSEMBLY
 10
1.69823
 20
-2.527738
 30
0.0
  0
SEQEND
  5
2C88
  8
ASSEMBLY
  0
POLYLINE
  5
81A
  8
ASSEMBLY
 66
     1
 10
0.0
 20
0.0
 30
0.0
  0
VERTEX
  5
2C89
  8
ASSEMBLY
 10
1.728741
 20
-2.313029
 30
0.0
  0
VERTEX
  5
2C8A
  8
ASSEMBLY
 10
1.728741
 20
-2.372616
 30
0.0
  0
VERTEX
  5
2C8B
  8
ASSEMBLY
 10
1.822243
 20
-2.372616
 30
0.0
  0
VERTEX
  5
2C8C
  8
ASSEMBLY
 10
1.822243
 20
-2.313029
 30
0.0
  0
SEQEND
  5
2C8D
  8
ASSEMBLY
  0
LINE
  5
820
  8
ASSEMBLY
 10
1.175
 20
-1.953132
 30
0.0
 11
1.175
 21
-1.422546
 31
0.0
  0
LINE
  5
821
  8
ASSEMBLY
 10
1.275
 20
-2.662669
 30
0.0
 11
1.275
 21
-1.953132
 31
0.0
  0
LINE
  5
822
  8
ASSEMBLY
 10
1.775
 20
-1.953132
 30
0.0
 11
1.775
 21
-1.422546
 31
0.0
  0
LINE
  5
823
  8
ASSEMBLY
 10
1.875
 20
-2.662669
 30
0.0
 11
1.875
 21
-1.953132
 31
0.0
  0
TEXT
  5
DF1
  8
0
 10
1.521597
 20
-4.430348
 30
0.0
 40
0.1
  1
DIMENSIONS ARE IN INCHES
  7
ROMANS
  0
TEXT
  5
F7B
  8
ASSEMBLY
 10
2.981637
 20
-3.800344
 30
0.0
 40
0.1
  1
FLKM HDSUB
  7
ROMANS
 72
     4
 11
3.476875
 21
-3.750344
 31
0.0
  0
TEXT
  5
F7C
  8
ASSEMBLY
 10
3.217351
 20
-3.98099
 30
0.0
 40
0.1
  1
-15/F
  7
ROMANS
 72
     4
 11
3.476875
 21
-3.938133
 31
0.0
  0
TEXT
  5
F7D
  8
ASSEMBLY
 10
2.471707
 20
-4.174177
 30
0.0
 40
0.1
  1
5528367
  7
ROMANS
 72
     4
 11
2.805041
 21
-4.124177
 31
0.0
  0
POLYLINE
  5
101D
  8
ASSEMBLY
 66
     1
 10
0.0
 20
0.0
 30
0.0
 40
0.015
 41
0.015
  0
VERTEX
  5
2C8E
  8
ASSEMBLY
 10
1.705825
 20
-2.093383
 30
0.0
  0
VERTEX
  5
2C8F
  8
ASSEMBLY
 10
1.852929
 20
-2.093383
 30
0.0
  0
SEQEND
  5
2C90
  8
ASSEMBLY
  0
POLYLINE
  5
1025
  8
ASSEMBLY
 66
     1
 10
0.0
 20
0.0
 30
0.0
 40
0.015
 41
0.015
  0
VERTEX
  5
2C91
  8
ASSEMBLY
 10
1.749062
 20
-2.155988
 30
0.0
  0
VERTEX
  5
2C92
  8
ASSEMBLY
 10
1.807704
 20
-2.155988
 30
0.0
  0
SEQEND
  5
2C93
  8
ASSEMBLY
  0
POLYLINE
  5
1029
  8
ASSEMBLY
 66
     1
 10
0.0
 20
0.0
 30
0.0
 40
0.015
 41
0.015
  0
VERTEX
  5
2C94
  8
ASSEMBLY
 10
1.778383
 20
-2.041709
 30
0.0
  0
VERTEX
  5
2C95
  8
ASSEMBLY
 10
1.778383
 20
-2.093383
 30
0.0
  0
SEQEND
  5
2C96
  8
ASSEMBLY
  0
POLYLINE
  5
1039
  8
ASSEMBLY
 66
     1
 10
0.0
 20
0.0
 30
0.0
 40
0.015
 41
0.015
  0
VERTEX
  5
2C97
  8
ASSEMBLY
 10
1.732165
 20
-2.124189
 30
0.0
  0
VERTEX
  5
2C98
  8
ASSEMBLY
 10
1.824601
 20
-2.124189
 30
0.0
  0
SEQEND
  5
2C99
  8
ASSEMBLY
  0
POLYLINE
  5
1C94
  8
ASSEMBLY
 66
     1
 10
0.0
 20
0.0
 30
0.0
 40
0.4
 41
0.4
  0
VERTEX
  5
2C9A
  8
ASSEMBLY
 10
0.219895
 20
1.245472
 30
0.0
  0
VERTEX
  5
2C9B
  8
ASSEMBLY
 10
1.219895
 20
1.245472
 30
0.0
  0
SEQEND
  5
2C9C
  8
ASSEMBLY
  0
CIRCLE
  5
1CB8
  8
ASSEMBLY
 10
0.8209
 20
2.0
 30
0.0
 40
0.0175
  0
TEXT
  5
2B0A
  8
0
 10
1.521597
 20
-4.600494
 30
0.0
 40
0.1
  1
MILLIMETERS IN PARENTHESES
  7
ROMANS
  0
DIMENSION
  5
2B19
  8
0
  2
*D0
 10
2.16636
 20
-0.397333
 30
0.0
 11
1.059528
 21
-0.397333
 31
0.0
 70
     0
  1
2.22(56.3)
 13
-0.047303
 23
-0.264997
 33
0.0
 14
2.16636
 24
-0.264997
 34
0.0
  0
DIMENSION
  5
2B27
  8
0
  2
*D1
 10
2.771806
 20
2.929959
 30
0.0
 11
2.771806
 21
1.417553
 31
0.0
 70
     0
  1
3.0(77)
 13
4.22866
 23
-0.094852
 33
0.0
 14
4.22866
 24
2.929959
 34
0.0
 50
90.0
  0
INSERT
  5
2B36
  8
0
  2
RAIL
 10
5.23007
 20
0.693963
 30
0.0
 50
90.0
  0
DIMENSION
  5
2B44
  8
0
  2
*D3
 10
3.282651
 20
-0.491858
 30
0.0
 11
4.446243
 21
-0.491858
 31
0.0
 70
     0
  1
2.3(58.5)
 13
5.609834
 23
0.718066
 33
0.0
 14
3.282651
 24
0.718066
 34
0.0
  0
ENDSEC
  0
EOF
